osu file format v14

[General]
AudioFilename: coming.mp3
AudioLeadIn: 0
PreviewTime: 46523
Countdown: 0
SampleSet: Soft
StackLeniency: 0.5
Mode: 0
LetterboxInBreaks: 0
WidescreenStoryboard: 1

[Editor]
Bookmarks: 21497,31523,46681,78234,78339,98471,105497,106760,107076,158944,179313,195023
DistanceSpacing: 1
BeatDivisor: 4
GridSize: 32
TimelineZoom: 1.2

[Metadata]
Title:Coming Down Is Calming Down
TitleUnicode:Coming Down Is Calming Down
Artist:Underoath
ArtistUnicode:Underoath
Creator:pishifat
Version:Easy
Source:
Tags:metal punk emo lost in the sound of separation
BeatmapID:1099467
BeatmapSetID:487559

[Difficulty]
HPDrainRate:2
CircleSize:3
OverallDifficulty:2
ApproachRate:3
SliderMultiplier:0.999999999999999
SliderTickRate:1

[Events]
//Background and Video events
0,0,"1cheyenne-5-12-069w1.jpg",0,0
//Break Periods
2,139013,157583
//Storyboard Layer 0 (Background)
//Storyboard Layer 1 (Fail)
//Storyboard Layer 2 (Pass)
//Storyboard Layer 3 (Foreground)
//Storyboard Sound Samples

[TimingPoints]
-135,315.789473684211,4,2,1,60,1,0
575,-117.647058823529,4,2,1,60,0,0
1129,315.789473684211,4,2,1,80,1,0
1129,-117.647058823529,4,2,1,80,0,0
1602,-117.647058823529,4,2,1,80,0,0
2076,-117.647058823529,4,2,1,80,0,0
3181,-117.647058823529,4,2,1,80,0,0
3655,-117.647058823529,4,2,1,80,0,0
4760,-117.647058823529,4,2,1,80,0,0
5234,-117.647058823529,4,2,1,80,0,0
6655,-117.647058823529,4,2,1,80,0,0
7129,-117.647058823529,4,2,1,80,0,0
8234,-117.647058823529,4,2,1,80,0,0
8550,-117.647058823529,4,2,1,80,0,0
9813,-117.647058823529,4,2,1,80,0,0
10129,-117.647058823529,4,2,1,80,0,0
11629,-117.647058823529,4,2,1,80,0,0
12023,-117.647058823529,4,2,1,80,0,0
12181,-117.647058823529,4,2,1,55,0,0
12497,-117.647058823529,4,2,1,65,0,0
12813,-117.647058823529,4,2,1,75,0,0
13129,-117.647058823529,4,2,1,85,0,0
13286,-117.647058823529,4,2,1,80,0,0
13760,-117.647058823529,4,2,1,80,0,0
14865,-117.647058823529,4,2,1,80,0,0
15339,-117.647058823529,4,2,1,80,0,0
16760,-117.647058823529,4,2,1,80,0,0
17234,-117.647058823529,4,2,1,60,0,0
17550,-117.647058823529,4,2,1,60,0,0
17865,-117.647058823529,4,2,1,50,0,0
18181,-117.647058823529,4,2,1,55,0,0
18813,-117.647058823529,4,2,1,60,0,0
19444,-117.647058823529,4,2,1,65,0,0
20076,-117.647058823529,4,2,1,70,0,0
20707,-117.647058823529,4,2,1,75,0,0
21813,-117.647058823529,4,2,1,74,0,0
26392,-117.647058823529,4,2,1,74,0,0
30339,-117.647058823529,4,2,1,65,0,0
31129,-117.647058823529,4,2,1,65,0,0
31444,-117.647058823529,4,2,1,80,0,0
31918,-117.647058823529,4,2,1,80,0,0
32392,-117.647058823529,4,2,1,65,0,0
36497,-117.647058823529,4,2,1,80,0,0
36971,-117.647058823529,4,2,1,80,0,0
37444,-117.647058823529,4,2,1,70,0,0
40918,-117.647058823529,4,2,1,80,0,0
42023,-117.647058823529,4,2,1,80,0,0
42339,-117.647058823529,4,2,1,65,0,0
46286,-117.647058823529,4,2,1,65,0,0
46602,-117.647058823529,4,2,1,65,0,0
54181,-117.647058823529,4,2,1,72,0,0
56076,-117.647058823529,4,2,1,80,0,0
56392,-117.647058823529,4,2,1,80,0,0
56707,-117.647058823529,4,2,1,75,0,1
61760,-117.647058823529,4,2,1,75,0,1
63181,-117.647058823529,4,2,1,75,0,1
69339,-117.647058823529,4,2,1,75,0,1
74392,-117.647058823529,4,2,1,71,0,0
76129,-117.647058823529,4,2,1,71,0,0
76760,-117.647058823529,4,2,1,71,0,0
76813,-117.647058823529,4,2,1,40,0,0
76918,-117.647058823529,4,2,1,60,0,0
77023,-117.647058823529,4,2,1,71,0,0
77865,-117.647058823529,4,2,1,71,0,0
78181,-117.647058823529,4,2,1,65,0,0
88286,-117.647058823529,4,2,1,65,0,0
95865,-117.647058823529,4,2,1,50,0,0
96497,-117.647058823529,4,2,1,60,0,0
97129,-117.647058823529,4,2,1,70,0,0
97760,-117.647058823529,4,2,1,80,0,0
98392,-117.647058823529,4,2,1,80,0,0
98865,-117.647058823529,4,2,1,80,0,0
99339,-117.647058823529,4,2,2,80,0,0
100444,-117.647058823529,4,2,1,80,0,0
100918,-117.647058823529,4,2,2,80,0,0
101707,-117.647058823529,4,2,1,80,0,0
102497,-117.647058823529,4,2,2,80,0,0
103444,-117.647058823529,4,2,1,80,0,0
103760,-117.647058823529,4,2,1,80,0,0
104392,-117.647058823529,4,2,3,80,0,0
105497,-117.647058823529,4,2,1,80,0,0
105971,-117.647058823529,4,2,3,80,0,0
106760,-117.647058823529,4,2,1,80,0,0
107865,-117.647058823529,4,2,1,80,0,0
108971,-117.647058823529,4,2,1,80,0,0
109286,-117.647058823529,4,2,1,80,0,0
110550,-117.647058823529,4,2,1,80,0,0
111023,-117.647058823529,4,2,1,80,0,0
112129,-117.647058823529,4,2,1,80,0,0
112918,-117.647058823529,4,2,1,80,0,0
113944,-117.647058823529,4,2,1,50,0,0
114023,-117.647058823529,4,2,1,80,0,0
114339,-117.647058823529,4,2,1,80,0,0
115602,-117.647058823529,4,2,1,80,0,0
115918,-117.647058823529,4,2,1,80,0,0
117181,-117.647058823529,4,2,1,80,0,0
117655,-117.647058823529,4,2,1,80,0,0
118602,-117.647058823529,4,2,1,65,0,0
118918,-117.647058823529,4,2,1,65,0,0
119550,-117.647058823529,4,2,1,65,0,0
119865,-117.647058823529,4,2,1,65,0,0
121129,-117.647058823529,4,2,1,71,0,1
126181,-117.647058823529,4,2,1,71,0,1
128392,-117.647058823529,4,2,1,71,0,1
128707,-117.647058823529,4,2,1,71,0,1
133760,-117.647058823529,4,2,1,71,0,1
138813,-117.647058823529,4,2,1,62,0,0
179234,329.67032967033,3,2,1,80,1,0
179234,-117.647058823529,3,2,1,80,0,0
187146,337.078651685393,3,2,1,80,1,0
187146,-117.647058823529,3,2,1,80,0,0

[Colours]
Combo1 : 255,200,145
Combo2 : 255,157,228
Combo3 : 135,225,233
Combo4 : 189,247,138

[HitObjects]
168,235,1129,6,0,P|232:266|294:241,2,127.500002431869,4|4|8,0:1|0:1|0:0,0:0:0:0:
232,179,2392,1,2,0:0:0:0:
166,125,2707,2,0,L|31:113,2,127.500002431869,8|12|2,0:0|0:1|0:0,0:0:0:0:
246,96,3971,6,0,L|381:84,1,127.500002431869,8|12,0:0|0:1,0:0:0:0:
456,99,4760,2,0,P|496:155|487:220,1,127.500002431869,12|8,0:1|0:0,0:0:0:0:
414,248,5550,2,0,L|325:244,1,85.0000016212463,8|8,0:0|0:0,0:0:0:0:
247,268,6181,6,0,P|213:352|225:388,2,127.500002431869,8|4|8,0:0|0:1|0:0,0:0:0:0:
329,244,7444,1,2,0:0:0:0:
267,184,7760,2,0,L|134:172,2,127.500002431869,8|12|2,0:0|0:1|0:0,0:0:0:0:
349,161,9023,6,0,P|381:114|372:43,1,127.500002431869,8|12,0:0|0:1,0:0:0:0:
290,26,9813,2,0,L|147:16,1,127.500002431869,12|8,0:1|0:0,0:0:0:0:
81,42,10602,2,0,P|66:102|74:134,1,85.0000016212463,8|8,0:0|0:0,0:0:0:0:
114,196,11234,6,0,P|65:163|-15:174,2,127.500002431869,8|4|8,0:0|0:1|0:0,0:0:0:0:
169,260,12497,1,8,0:0:0:0:
244,223,12813,2,0,B|298:218|298:218|321:229|321:229|387:223,2,127.500002431869,8|4|2,0:0|0:1|0:0,0:0:0:0:
169,260,14076,6,0,P|138:331|156:380,1,127.500002431869,8|12,0:0|0:1,0:0:0:0:
223,327,14865,2,0,L|359:333,1,127.500002431869,12|8,0:1|0:0,0:0:0:0:
430,361,15655,2,0,P|478:337|506:303,1,85.0000016212463,8|8,0:0|0:0,0:0:0:0:
484,230,16286,6,0,L|471:98,2,127.500002431869,8|4|2,0:0|0:1|0:0,0:0:0:0:
499,315,17550,1,2,0:0:0:0:
383,186,18181,1,2,0:0:0:0:
325,346,18813,1,2,0:0:0:0:
217,214,19444,1,2,0:0:0:0:
151,370,20076,1,2,0:0:0:0:
45,236,20707,2,0,L|33:141,1,85.0000016212463,2|8,0:0|0:0,0:0:0:0:
64,71,21339,6,0,L|201:58,1,127.500002431869,12|12,0:0|0:0,0:0:0:0:
287,142,22286,2,0,L|413:129,2,127.500002431869,6|6|8,0:0|0:0|0:0,0:0:0:0:
207,173,23550,1,2,0:0:0:0:
141,227,23865,6,0,L|131:372,1,127.500002431869,12|12,0:0|0:0,0:0:0:0:
259,362,24813,2,0,L|267:234,2,127.500002431869,6|8|8,0:0|0:0|0:0,0:0:0:0:
342,379,26076,1,8,0:0:0:0:
425,362,26392,6,0,P|473:280|466:242,1,127.500002431869,4|12,0:0|0:0,0:0:0:0:
377,163,27339,2,0,P|380:100|421:53,2,127.500002431869,12|12|12,0:0|0:0|0:0,0:0:0:0:
433,227,28602,1,8,0:0:0:0:
359,269,28918,6,0,P|316:281|241:251,1,127.500002431869,12|12,0:0|0:0,0:0:0:0:
163,150,29865,2,0,P|120:138|45:168,1,127.500002431869,12|12,0:0|0:0,0:0:0:0:
3,288,30813,2,0,L|13:372,1,85.0000016212463,8|8,0:0|0:0,0:0:0:0:
97,368,31444,6,0,L|79:234,2,127.500002431869,4|4|8,0:0|0:0|0:0,0:0:0:0:
181,355,32707,2,0,B|253:312|253:312|338:324,1,170.000003242493,8|8,0:0|0:0,0:0:0:0:
354,240,33655,2,0,B|268:226|268:226|215:163|215:163|118:152,1,255.000004863739,8|8,0:0|0:0,0:0:0:0:
66,210,34918,1,8,0:0:0:0:
10,145,35234,2,0,L|17:56,1,85.0000016212463,8|8,0:0|0:0,0:0:0:0:
90,18,35865,2,0,L|179:24,1,85.0000016212463,8|8,0:0|0:0,0:0:0:0:
233,85,36497,6,0,P|318:76|359:39,2,127.500002431869,4|4|8,0:0|0:0|0:0,0:0:0:0:
174,23,37760,2,0,B|144:79|144:79|149:136|149:136|125:179,1,170.000003242493,8|8,0:0|0:0,0:0:0:0:
266,273,39023,2,0,B|260:224|260:224|287:173|287:173|281:110,1,170.000003242493,8|8,0:0|0:0,0:0:0:0:
124,179,40286,1,8,0:0:0:0:
71,340,40918,6,0,P|119:356|167:349,1,85.0000016212463,8|8,0:0|0:0,0:0:0:0:
205,286,41550,2,0,P|262:242|324:249,2,127.500002431869,8|4|8,0:0|0:0|0:0,0:0:0:0:
282,325,42813,2,0,L|377:332,1,85.0000016212463,8|8,0:0|0:0,0:0:0:0:
442,293,43444,2,0,B|487:220|487:220|469:119,1,170.000003242493,8|8,0:0|0:0,0:0:0:0:
416,72,44392,1,8,0:0:0:0:
345,119,44707,2,0,L|243:112,1,85.0000016212463,8|8,0:0|0:0,0:0:0:0:
185,71,45339,2,0,B|104:50|104:50|9:97,1,170.000003242493,8|8,0:0|0:0,0:0:0:0:
12,172,46286,1,8,0:0:0:0:
0,256,46602,6,0,P|60:311|140:293,1,170.000003242493,4|8,0:3|0:3,0:0:0:0:
206,240,47550,1,8,0:0:0:0:
290,250,47865,2,0,P|380:232|409:164,1,170.000003242493,4|8,0:3|0:0,0:0:0:0:
306,30,49129,6,0,P|233:44|210:99,2,127.500002431869,8|4|8,0:0|0:3|0:0,0:0:0:0:
362,93,50392,2,0,P|318:161|236:167,1,170.000003242493,4|8,0:3|0:0,0:0:0:0:
113,47,51655,6,0,P|36:103|30:180,1,170.000003242493,8|8,0:0|0:3,0:0:0:0:
7,254,52602,1,8,0:0:0:0:
90,267,52918,2,0,P|158:251|243:317,1,170.000003242493,4|8,0:3|0:0,0:0:0:0:
404,330,54181,6,0,L|417:195,1,127.500002431869,12|8,0:0|0:0,0:0:0:0:
424,118,54971,1,8,0:0:0:0:
430,33,55286,2,0,L|298:23,1,127.500002431869,8|8,0:0|0:0,0:0:0:0:
217,18,56076,2,0,P|187:62|185:103,1,85.0000016212463,2|8,0:3|0:0,0:0:0:0:
235,160,56707,6,0,P|189:135|63:151,1,170.000003242493,4|2,0:0|0:0,0:0:0:0:
66,228,57655,2,0,P|112:253|238:237,1,170.000003242493,2|8,0:0|0:0,0:0:0:0:
303,209,58602,2,0,L|399:220,1,85.0000016212463,2|8,0:0|0:0,0:0:0:0:
455,167,59234,6,0,P|431:225|440:287,1,127.500002431869,4|2,0:0|0:0,0:0:0:0:
340,367,60181,2,0,L|152:354,1,170.000003242493,2|8,0:0|0:0,0:0:0:0:
89,329,61129,2,0,P|68:262|73:232,1,85.0000016212463,2|8,0:0|0:0,0:0:0:0:
96,168,61760,5,4,0:0:0:0:
173,203,62076,1,8,0:0:0:0:
257,194,62392,2,0,L|396:179,1,127.500002431869,2|2,0:0|0:0,0:0:0:0:
467,167,63181,2,0,P|497:98|480:34,1,127.500002431869,8|8,0:0|0:0,0:0:0:0:
412,7,63971,1,2,0:0:0:0:
354,69,64286,6,0,P|268:86|192:56,1,170.000003242493,4|2,0:0|0:0,0:0:0:0:
113,26,65234,2,0,P|169:88|182:171,1,170.000003242493,2|8,0:0|0:0,0:0:0:0:
135,241,66181,2,0,P|120:303|126:335,1,85.0000016212463,2|8,0:0|0:0,0:0:0:0:
193,370,66813,6,0,L|334:358,1,127.500002431869,4|2,0:0|0:0,0:0:0:0:
409,268,67760,2,0,L|228:282,2,170.000003242493,2|8|8,0:0|0:0|0:0,0:0:0:0:
472,211,69339,5,4,0:0:0:0:
453,128,69655,2,0,P|418:107|325:112,1,127.500002431869,8|8,0:0|0:0,0:0:0:0:
261,154,70444,2,0,P|198:161|141:134,1,127.500002431869,2|8,0:0|0:0,0:0:0:0:
81,73,71234,2,0,P|56:151|60:168,1,85.0000016212463,2|8,0:0|0:0,0:0:0:0:
112,215,71865,5,4,0:0:0:0:
187,253,72181,2,0,L|315:243,2,127.500002431869,8|8|2,0:0|0:0|0:0,0:0:0:0:
115,298,73444,1,8,0:0:0:0:
190,337,73760,2,0,L|290:330,1,85.0000016212463,2|8,0:0|0:0,0:0:0:0:
356,359,74392,5,4,0:0:0:0:
447,215,75023,2,0,P|444:168|422:122,1,85.0000016212463,8|8,0:0|0:0,0:0:0:0:
307,96,75813,2,8,P|274:122|234:137,2,85.0000016212463
307,96,77865,1,8,0:0:0:0:
384,130,78181,6,8,L|397:229,1,85.0000016212463
273,253,78971,2,8,L|262:168,2,85.0000016212463
194,284,79918,2,8,L|176:144,1,127.500002431869
154,75,80707,6,8,L|65:59,1,85.0000016212463
9,172,81497,2,8,L|92:187,2,85.0000016212463
10,257,82444,2,8,L|139:279,1,127.500002431869
196,338,83234,6,8,L|295:325,1,85.0000016212463
366,232,84023,2,8,L|465:219,2,85.0000016212463
368,146,84971,2,8,L|505:129,1,127.500002431869
512,47,85760,6,8,P|461:19|423:19,1,85.0000016212463
353,42,86392,1,4,0:3:0:0:
273,13,86707,2,0,P|223:25|162:132,1,170.000003242493,8|4,0:0|0:3,0:0:0:0:
103,182,87655,2,0,B|145:178|145:178|188:213,1,85.0000016212463,12|8,0:0|0:0,0:0:0:0:
245,256,88286,6,8,L|257:356,1,85.0000016212463
374,293,89076,2,8,L|363:208,2,85.0000016212463
455,268,90023,2,8,L|439:137,1,127.500002431869
431,56,90813,6,8,L|346:45,1,85.0000016212463
258,138,91602,2,8,L|173:127,2,85.0000016212463
261,223,92550,2,8,L|134:207,1,127.500002431869
89,135,93339,6,8,L|4:145,1,85.0000016212463
20,18,94129,2,8,L|104:7,1,85.0000016212463
167,65,94760,1,8,0:0:0:0:
233,11,95076,2,0,B|317:1|317:1|365:28,1,127.500002431869,0|2,0:0|0:0,0:0:0:0:
300,87,95865,6,0,P|285:125|285:173,1,85.0000016212463,2|2,0:0|0:0,0:0:0:0:
334,237,96497,2,0,P|372:252|420:252,1,85.0000016212463,2|2,0:0|0:0,0:0:0:0:
483,201,97129,2,0,P|498:163|498:115,1,85.0000016212463,2|2,0:0|0:0,0:0:0:0:
450,49,97760,2,0,P|412:34|364:34,1,85.0000016212463,2|8,0:0|0:0,0:0:0:0:
300,87,98392,6,0,L|167:76,1,127.500002431869,4|4,0:1|0:1,0:0:0:0:
84,168,99339,2,2,B|124:161|124:161|397:188,1,297.500005674362,8|12,0:0|0:1,0:0:0:0:
332,311,100918,2,2,B|294:296|294:296|105:280,1,212.500004053116,8|12,0:0|0:1,0:0:0:0:
47,242,102023,1,12,0:1:0:0:
150,165,102497,2,2,B|190:157|190:157|336:172,1,170.000003242493,8|8,0:0|0:0,0:0:0:0:
359,245,103444,6,0,L|372:372,1,127.500002431869,4|4,0:0|0:1,0:0:0:0:
501,364,104392,2,2,B|511:325|511:325|484:64,1,297.500005674362,8|12,0:0|0:1,0:0:0:0:
356,70,105971,2,2,B|370:110|370:110|385:288,1,212.500004053116,8|12,0:0|0:1,0:0:0:0:
333,349,107076,1,12,0:1:0:0:
264,240,107550,1,8,0:0:0:0:
210,305,107865,2,0,P|170:314|120:312,1,85.0000016212463,8|8,0:0|0:0,0:0:0:0:
58,262,108497,6,0,P|60:162|81:130,2,127.500002431869,8|4|8,0:0|0:1|0:0,0:0:0:0:
126,313,109760,1,2,0:0:0:0:
207,287,110076,2,0,P|229:228|221:165,2,127.500002431869,8|12|2,0:0|0:1|0:0,0:0:0:0:
126,313,111339,6,0,L|-6:303,1,127.500002431869,8|12,0:0|0:1,0:0:0:0:
3,218,112129,2,0,L|136:230,1,127.500002431869,12|8,0:1|0:0,0:0:0:0:
170,154,112918,2,0,P|210:140|258:140,1,85.0000016212463,8|8,0:0|0:0,0:0:0:0:
314,197,113550,6,0,L|303:338,2,127.500002431869,8|4|8,0:0|0:1|0:0,0:0:0:0:
346,118,114813,1,2,0:0:0:0:
398,184,115129,2,0,P|460:216|522:199,2,127.500002431869,8|12|2,0:0|0:1|0:0,0:0:0:0:
346,118,116392,6,0,P|281:113|231:155,1,127.500002431869,8|12,0:0|0:1,0:0:0:0:
206,230,117181,2,0,L|219:365,1,127.500002431869,12|0,0:1|0:0,0:0:0:0:
134,371,117971,2,0,L|126:287,1,85.0000016212463,8|8,0:0|0:0,0:0:0:0:
66,226,118602,6,0,P|53:156|76:101,1,127.500002431869,8|4,0:0|0:3,0:0:0:0:
169,20,119550,2,0,P|230:6|289:26,1,127.500002431869,8|4,0:3|0:3,0:0:0:0:
366,125,120497,2,0,P|324:128|284:142,1,85.0000016212463,8|8,0:0|0:0,0:0:0:0:
275,226,121129,6,0,P|321:251|447:235,1,170.000003242493,4|2,0:0|0:0,0:0:0:0:
444,158,122077,2,0,P|398:133|272:149,1,170.000003242493,2|8,0:0|0:0,0:0:0:0:
207,177,123024,2,0,L|111:166,1,85.0000016212463,2|8,0:0|0:0,0:0:0:0:
55,219,123656,6,0,P|79:161|70:99,1,127.500002431869,4|2,0:0|0:0,0:0:0:0:
170,19,124603,2,0,L|358:32,1,170.000003242493,2|8,0:0|0:0,0:0:0:0:
421,57,125551,2,0,P|442:124|437:154,1,85.0000016212463,2|8,0:0|0:0,0:0:0:0:
414,218,126182,5,4,0:0:0:0:
337,183,126498,1,8,0:0:0:0:
253,192,126814,2,0,L|114:207,1,127.500002431869,2|2,0:0|0:0,0:0:0:0:
43,219,127603,2,0,P|13:288|30:352,1,127.500002431869,8|8,0:0|0:0,0:0:0:0:
98,379,128393,1,8,0:0:0:0:
156,317,128708,6,0,P|242:300|318:330,1,170.000003242493,4|2,0:0|0:0,0:0:0:0:
397,360,129656,2,0,P|341:298|328:215,1,170.000003242493,2|8,0:0|0:0,0:0:0:0:
375,145,130603,2,0,P|390:83|384:51,1,85.0000016212463,2|8,0:0|0:0,0:0:0:0:
317,16,131235,6,0,L|176:28,1,127.500002431869,4|2,0:0|0:0,0:0:0:0:
101,118,132182,2,0,L|282:104,2,170.000003242493,2|8|8,0:0|0:0|0:0,0:0:0:0:
38,175,133761,5,4,0:0:0:0:
57,258,134077,2,0,P|92:279|185:274,1,127.500002431869,8|8,0:0|0:0,0:0:0:0:
249,232,134866,2,0,P|312:225|369:252,1,127.500002431869,2|8,0:0|0:0,0:0:0:0:
429,313,135656,2,0,P|454:235|450:218,1,85.0000016212463,2|8,0:0|0:0,0:0:0:0:
398,171,136287,5,4,0:0:0:0:
323,133,136603,2,0,L|195:143,2,127.500002431869,8|8|2,0:0|0:0|0:0,0:0:0:0:
395,88,137866,1,8,0:0:0:0:
320,49,138182,2,0,L|220:56,1,85.0000016212463,2|8,0:0|0:0,0:0:0:0:
156,22,138813,5,8,0:0:0:0:
104,41,159023,5,8,0:0:0:0:
47,104,159339,2,0,L|69:325,1,212.500004053116,8|8,0:0|0:0,0:0:0:0:
189,276,160602,2,0,L|173:106,1,170.000003242493,8|2,0:0|0:0,0:0:0:0:
212,30,161550,5,2,0:0:0:0:
288,66,161865,2,0,L|507:41,1,212.500004053116,8|8,0:0|0:0,0:0:0:0:
496,169,163129,2,0,L|322:189,1,170.000003242493,8|2,0:0|0:0,0:0:0:0:
254,232,164076,5,2,0:0:0:0:
217,308,164392,2,0,P|153:339|1:320,1,212.500004053116,8|8,0:0|0:0,0:0:0:0:
25,200,165655,2,0,P|124:171|195:183,1,170.000003242493,8|2,0:0|0:0,0:0:0:0:
254,232,166602,6,0,B|315:254|315:254|393:243,3,127.500002431869,8|8|8|8,0:0|0:0|0:0|0:0,0:0:0:0:
476,164,168497,2,0,P|467:89|451:66,1,85.0000016212463,8|8,0:0|0:0,0:0:0:0:
388,41,169129,5,2,0:0:0:0:
337,109,169445,2,0,L|116:131,1,212.500004053116,8|8,0:0|0:0,0:0:0:0:
157,253,170707,2,0,L|327:237,1,170.000003242493,8|2,0:0|0:0,0:0:0:0:
411,236,171655,6,0,P|436:292|438:330,1,85.0000016212463,2|2,0:0|0:0,0:0:0:0:
367,361,172286,2,0,L|151:379,1,212.500004053116,8|8,0:0|0:0,0:0:0:0:
43,317,173550,2,0,P|54:254|67:229,1,85.0000016212463,8|2,0:0|0:0,0:0:0:0:
144,209,174182,5,2,0:0:0:0:
212,259,174498,2,0,P|315:276|413:239,1,212.500004053116,8|8,0:0|0:0,0:0:0:0:
381,116,175761,2,0,P|297:107|217:135,1,170.000003242493,8|8,0:0|0:0,0:0:0:0:
157,194,176707,6,0,B|91:203|91:203|24:172,3,127.500002431869,12|12|12|12,0:0|0:0|0:0|0:0,0:0:0:0:
72,55,178602,2,0,B|117:53|117:53|162:71,1,85.0000016212463,8|8,0:0|0:3,0:0:0:0:
213,123,179234,6,0,L|357:108,2,127.500002431869,4|8|4,0:0|0:0|0:0,0:0:0:0:
167,286,180882,1,8,0:0:0:0:
237,333,181212,2,0,L|363:319,2,127.500002431869,4|8|4,0:0|0:0|0:0,0:0:0:0:
189,169,182860,1,8,0:0:0:0:
126,111,183190,6,0,L|-8:101,2,127.500002431869,4|8|4,0:0|0:0|0:0,0:0:0:0:
184,274,184838,1,8,0:0:0:0:
108,313,185168,2,0,L|-26:306,2,127.500002431869,4|8|4,0:0|0:0|0:0,0:0:0:0:
260,238,186816,1,8,0:0:0:0:
182,207,187146,6,0,B|147:41|147:41,1,170.000003242493,4|8,0:0|0:0,0:0:0:0:
224,6,188157,1,2,0:0:0:0:
475,49,189168,2,0,B|510:215|510:215,1,170.000003242493,4|8,0:0|0:0,0:0:0:0:
433,253,190179,1,2,0:0:0:0:
263,237,190853,1,2,0:0:0:0:
222,311,191190,6,0,P|295:317|348:240,1,170.000003242493,4|8,0:0|0:0,0:0:0:0:
263,237,192202,1,2,0:0:0:0:
118,26,193213,2,0,P|199:23|245:93,1,170.000003242493,4|8,0:0|0:0,0:0:0:0:
160,103,194224,1,2,0:0:0:0:
12,193,194898,1,4,0:1:0:0:
