osu file format v14

[General]
AudioFilename: audio.mp3
AudioLeadIn: 0
PreviewTime: 38851
Countdown: 0
SampleSet: Normal
StackLeniency: 0.7
Mode: 0
LetterboxInBreaks: 0
WidescreenStoryboard: 1

[Editor]
Bookmarks: 12222,17615,23009,33795,39188,49975
DistanceSpacing: 1
BeatDivisor: 4
GridSize: 4
TimelineZoom: 1.4

[Metadata]
Title:Undead Enemy
TitleUnicode:アンデッドエネミー
Artist:Underbar
ArtistUnicode:アンダーバー
Creator:rickyrox3
Version:Insane
Source:ニコニコ動画
Tags:
BeatmapID:1024684
BeatmapSetID:479408

[Difficulty]
HPDrainRate:6
CircleSize:4
OverallDifficulty:6
ApproachRate:9
SliderMultiplier:1.6
SliderTickRate:1

[Events]
//Background and Video events
0,0,"___.png",0,0
//Break Periods
//Storyboard Layer 0 (Background)
//Storyboard Layer 1 (Fail)
//Storyboard Layer 2 (Pass)
//Storyboard Layer 3 (Foreground)
//Storyboard Sound Samples

[TimingPoints]
1436,337.078651685393,4,1,0,100,1,0
1436,-100,4,3,0,60,0,0
6492,-133.333333333333,4,1,0,60,0,0
6829,-100,4,1,1,100,0,0
33795,-133.333333333333,4,2,0,100,0,0
38851,-133.333333333333,4,1,1,100,0,0
39188,-80,4,1,1,100,0,1
44497,-80,4,1,0,100,0,0
44582,-80,4,1,1,100,0,1
49891,-80,4,1,0,100,0,0
49975,-80,4,1,1,100,0,1
53937,-80,4,1,0,100,0,0
54020,-80,4,1,1,100,0,1
54273,-80,4,1,0,100,0,0
54357,-80,4,1,1,100,0,1
54610,-80,4,1,0,100,0,0
54694,-80,4,1,1,100,0,1
54947,-80,4,1,0,100,0,0
55031,-80,4,1,1,100,0,1
55284,-80,4,1,0,100,0,0
55368,-80,4,1,1,100,0,1
57980,-80,4,1,0,100,0,0
58065,-100,4,1,1,100,0,0
60761,-100,4,1,1,100,0,0

[Colours]
Combo1 : 118,80,188
Combo2 : 51,51,255
Combo3 : 176,40,255
Combo4 : 157,157,157
Combo5 : 235,18,111
Combo6 : 239,232,21
Combo7 : 105,105,105

[HitObjects]
256,192,1436,12,0,6155,0:0:0:0:
72,232,6492,6,0,P|88:172|128:136,1,90.0000034332277
120,72,6829,6,0,P|132:152|172:228,1,160,0|8,0:0|0:0,0:0:0:0:
268,344,7334,1,0,0:0:0:0:
308,188,7503,1,0,0:0:0:0:
284,344,7671,1,0,0:0:0:0:
388,220,7840,1,8,0:0:0:0:
296,352,8009,2,0,L|360:328,1,40
444,292,8177,1,0,0:0:0:0:
460,132,8346,6,0,P|408:148|360:136,1,80,0|8,0:0|0:0,0:0:0:0:
344,132,8598,1,0,0:0:0:0:
308,116,8683,2,0,L|232:88,1,80
156,60,9020,2,0,P|160:124|188:156,2,80,0|8|0,0:0|0:0|0:0,0:0:0:0:
216,208,9525,5,0,0:0:0:0:
224,368,9694,1,0,0:0:0:0:
252,340,9778,1,0,0:0:0:0:
284,320,9862,1,8,0:0:0:0:
324,312,9947,1,0,0:0:0:0:
364,316,10031,1,0,0:0:0:0:
512,380,10200,6,0,L|472:288,1,80
464,268,10452,1,0,0:0:0:0:
448,232,10537,2,0,B|420:164|420:164|392:168,1,80,8|0,0:0|0:0,0:0:0:0:
256,188,10874,1,0,0:0:0:0:
280,112,11042,2,0,P|336:168|336:196,2,80,0|8|0,0:0|0:0|0:0,0:0:0:0:
120,108,11548,6,0,L|152:68,1,40
40,200,11716,2,0,L|72:160,1,40,8|0,0:0|0:0,0:0:0:0:
184,276,11885,2,0,L|216:236,1,40,8|0,0:0|0:0,0:0:0:0:
108,368,12053,2,0,L|140:328,1,40,8|0,0:0|0:0,0:0:0:0:
212,356,12222,6,0,B|248:328|276:316|276:316|352:248,1,160
400,204,12728,2,0,P|372:140|384:88,1,120
396,56,13065,1,0,0:0:0:0:
240,96,13233,1,0,0:0:0:0:
192,32,13402,6,0,P|164:72|160:104,1,80
192,260,13739,1,0,0:0:0:0:
184,220,13823,1,0,0:0:0:0:
176,180,13907,1,0,0:0:0:0:
159,102,14076,5,0,0:0:0:0:
364,116,14244,1,0,0:0:0:0:
312,56,14413,1,0,0:0:0:0:
344,256,14582,2,0,P|364:216|408:192,2,80,2|0|0,0:0|0:0|0:0,0:0:0:0:
340,336,15087,1,0,0:0:0:0:
340,336,15171,1,0,0:0:0:0:
340,336,15256,2,0,P|272:324|240:336,1,80
188,352,15593,5,0,0:0:0:0:
180,312,15677,1,0,0:0:0:0:
172,272,15761,1,0,0:0:0:0:
164,232,15846,1,0,0:0:0:0:
156,192,15930,1,0,0:0:0:0:
124,36,16098,1,0,0:0:0:0:
260,120,16267,5,0,0:0:0:0:
340,104,16435,1,0,0:0:0:0:
420,88,16604,1,0,0:0:0:0:
500,72,16773,1,0,0:0:0:0:
452,264,16941,1,0,0:0:0:0:
344,180,17110,2,0,L|380:208,1,40
260,120,17278,1,0,0:0:0:0:
272,360,17447,1,0,0:0:0:0:
440,188,17615,6,0,P|380:236|408:328,1,160
452,264,18121,2,0,B|384:308|384:308|316:288,1,120
308,284,18458,1,0,0:0:0:0:
156,236,18627,2,0,B|172:192|136:156,1,80
64,148,18964,2,0,P|88:104|136:88,1,80
152,84,19216,1,0,0:0:0:0:
192,80,19301,1,0,0:0:0:0:
284,212,19469,1,0,0:0:0:0:
436,268,19638,5,0,0:0:0:0:
464,368,19806,1,0,0:0:0:0:
312,312,19975,2,0,P|264:288|212:284,1,80,2|0,0:0|0:0,0:0:0:0:
160,292,20311,1,0,0:0:0:0:
168,252,20396,1,0,0:0:0:0:
176,212,20480,1,0,0:0:0:0:
184,172,20564,1,0,0:0:0:0:
192,132,20649,2,0,P|146:108|118:104,1,80
260,180,20986,5,0,0:0:0:0:
412,132,21155,2,0,L|404:92,1,40
356,204,21323,2,0,L|364:244,1,40
388,320,21492,1,0,0:0:0:0:
236,268,21660,5,0,0:0:0:0:
248,108,21829,1,0,0:0:0:0:
156,236,21997,2,0,P|196:192|232:184,1,80
292,160,22334,6,0,L|332:200,1,40
416,292,22587,2,0,L|352:304,1,40
240,324,22840,2,0,L|256:276,1,40
268,248,23009,6,0,P|160:252|132:280,1,120
124,280,23346,2,0,P|132:220|104:160,1,120
92,132,23683,1,0,0:0:0:0:
288,100,23851,1,0,0:0:0:0:
96,44,24020,1,0,0:0:0:0:
224,200,24188,1,0,0:0:0:0:
172,136,24357,6,0,P|240:120|276:136,1,80
288,132,24610,2,0,L|344:152,1,40
468,192,24862,1,0,0:0:0:0:
356,256,25031,1,0,0:0:0:0:
448,168,25200,1,0,0:0:0:0:
380,276,25368,1,2,0:0:0:0:
420,156,25537,1,0,0:0:0:0:
408,284,25705,6,0,P|384:336|316:336,1,120
300,372,26042,2,0,L|272:232,1,120
268,216,26379,1,0,0:0:0:0:
268,96,26548,1,0,0:0:0:0:
184,320,26716,1,0,0:0:0:0:
80,220,26885,1,0,0:0:0:0:
84,140,27053,6,0,P|152:188|160:208,1,80
160,220,27306,1,0,0:0:0:0:
168,260,27391,1,0,0:0:0:0:
192,336,27559,2,0,P|240:292|248:256,1,80
268,204,27896,1,0,0:0:0:0:
316,44,28065,1,2,0:0:0:0:
384,84,28233,1,0,0:0:0:0:
452,128,28402,6,0,P|448:224|416:260,1,120
420,276,28739,1,0,0:0:0:0:
340,260,28908,1,0,0:0:0:0:
260,244,29076,2,0,P|236:188|248:152,1,80
248,132,29329,1,0,0:0:0:0:
256,92,29414,1,0,0:0:0:0:
96,96,29582,6,0,L|76:144,1,40
64,168,29750,1,0,0:0:0:0:
56,328,29918,2,0,L|76:284,1,40
88,256,30087,1,0,0:0:0:0:
240,348,30256,1,0,0:0:0:0:
188,196,30424,1,0,0:0:0:0:
356,304,30593,1,0,0:0:0:0:
304,152,30761,5,2,0:0:0:0:
304,152,30930,2,0,B|256:152|256:152|240:124|184:92|132:136,1,160
80,144,31435,1,0,0:0:0:0:
88,224,31604,1,0,0:0:0:0:
96,304,31773,2,0,L|136:260,1,40
208,180,31941,1,0,0:0:0:0:
28,272,32110,1,0,0:0:0:0:
80,144,32278,22,0,P|72:108|116:84,1,80
140,76,32531,1,0,0:0:0:0:
180,72,32615,1,0,0:0:0:0:
340,52,32784,1,0,0:0:0:0:
356,140,32952,1,0,0:0:0:0:
432,92,33121,1,0,0:0:0:0:
284,188,33289,1,0,0:0:0:0:
444,260,33458,1,0,0:0:0:0:
204,236,33627,1,0,0:0:0:0:
204,236,33795,22,0,P|204:148|184:112,1,120.000004577637
80,76,34469,1,0,0:0:0:0:
80,76,34553,1,0,0:0:0:0:
80,76,34638,2,0,P|64:120|88:144,1,60.0000022888184
190,121,35143,2,0,P|206:169|204:216,1,90.0000034332277
204,240,35480,1,0,0:0:0:0:
200,320,35649,1,0,0:0:0:0:
268,284,35818,54,0,P|304:256|336:256,1,60.0000022888184
380,299,36155,2,0,B|360:328|328:332,1,60.0000022888184
256,360,36492,2,0,P|224:348|188:272,1,120.000004577637
176,156,37166,1,0,0:0:0:0:
176,156,37250,1,0,0:0:0:0:
176,156,37334,2,0,P|196:112|216:108,1,60.0000022888184
324,88,37840,37,0,0:0:0:0:
324,88,38009,2,0,P|352:164|352:180,2,90.0000034332277
360,252,38851,5,8,0:0:0:0:
344,272,38935,1,8,0:0:0:0:
328,292,39020,1,8,0:0:0:0:
312,312,39104,1,8,0:0:0:0:
300,332,39188,2,0,B|260:304|192:300|192:300|156:284,1,150
84,252,39525,2,0,B|116:216|120:200|120:200|156:184,1,100,8|0,0:0|0:0,0:0:0:0:
304,128,39862,2,0,P|304:92|232:92,1,100
204,96,40115,1,0,0:0:0:0:
160,116,40200,1,8,0:0:0:0:
16,188,40368,5,0,0:0:0:0:
132,376,40537,1,0,0:0:0:0:
320,348,40705,1,0,0:0:0:0:
204,160,40874,1,8,0:0:0:0:
248,376,41042,2,0,P|252:312|284:280,1,100
416,208,41379,1,0,0:0:0:0:
366,64,41548,6,0,L|307:87,1,50,8|0,0:0|0:0,0:0:0:0:
164,52,41716,2,0,L|212:32,1,50
240,108,41885,6,0,P|148:144|96:120,1,150
32,96,42222,2,0,P|56:180|52:228,1,100,8|0,0:0|0:0,0:0:0:0:
76,352,42559,1,0,0:0:0:0:
104,312,42643,1,0,0:0:0:0:
136,272,42728,2,0,L|199:195,1,100,0|8,0:0|0:0,0:0:0:0:
304,76,43065,5,0,0:0:0:0:
400,204,43233,1,0,0:0:0:0:
504,32,43402,1,0,0:0:0:0:
312,172,43570,1,8,0:0:0:0:
328,260,43739,1,0,0:0:0:0:
348,356,43907,6,0,L|300:340,1,50
224,368,44076,2,0,L|176:352,1,50,8|0,0:0|0:0,0:0:0:0:
224,288,44244,2,0,L|176:272,1,50,8|0,0:0|0:0,0:0:0:0:
224,208,44413,2,0,L|176:192,1,50,8|0,0:0|0:0,0:0:0:0:
224,128,44582,6,0,B|112:92|112:92|64:68,1,150
8,44,44919,1,8,0:0:0:0:
52,196,45087,1,0,0:0:0:0:
68,244,45171,1,0,0:0:0:0:
84,292,45256,2,0,P|152:232|264:268,1,200,0|8,0:0|0:0,0:0:0:0:
180,328,45761,5,0,0:0:0:0:
236,156,45930,1,0,0:0:0:0:
312,208,46098,1,0,0:0:0:0:
160,108,46267,1,8,0:0:0:0:
180,328,46435,2,0,B|180:332|179:323|164:244,1,50
144,140,46604,1,0,0:0:0:0:
304,124,46773,2,0,P|376:152|396:192,2,100,0|8|0,0:0|0:0|0:0,0:0:0:0:
144,140,47278,6,0,P|96:236|108:284,1,150
132,348,47615,2,0,P|156:300|196:276,1,100,8|0,0:0|0:0,0:0:0:0:
352,240,47952,2,0,B|344:224|344:224|336:72,1,150
300,20,48289,2,0,P|372:20|404:48,2,100,8|0|0,0:0|0:0|0:0,0:0:0:0:
152,80,48795,1,0,0:0:0:0:
220,224,48964,1,8,0:0:0:0:
76,152,49132,1,0,0:0:0:0:
236,132,49301,1,8,0:0:0:0:
120,240,49469,1,0,0:0:0:0:
260,316,49638,6,0,L|292:256,1,50,8|0,0:0|0:0,0:0:0:0:
320,200,49806,2,0,L|352:140,1,50,8|0,0:0|0:0,0:0:0:0:
380,84,49975,6,0,P|300:84|228:40,1,150
412,175,50312,6,0,P|348:128|315:50,1,150,8|0,0:0|0:0,0:0:0:0:
385,268,50649,6,0,P|360:192|380:110,1,150
308,327,50986,6,0,P|333:251|397:196,1,150,8|0,0:0|0:0,0:0:0:0:
212,330,51323,6,0,P|276:283|360:276,1,150
132,276,51660,6,0,P|212:276|284:320,1,150,8|0,0:0|0:0,0:0:0:0:
332,364,51997,6,0,P|304:296|312:268,1,100
356,120,52334,1,8,0:0:0:0:
356,120,52419,1,0,0:0:0:0:
356,120,52503,2,0,P|406:140|451:212,1,100
323,274,52840,5,0,0:0:0:0:
323,274,52924,1,0,0:0:0:0:
323,274,53009,2,0,P|287:314|203:330,1,100,8|0,0:0|0:0,0:0:0:0:
192,173,53346,5,0,0:0:0:0:
192,173,53430,1,0,0:0:0:0:
192,173,53514,2,0,P|176:122|204:41,1,100,0|8,0:0|0:0,0:0:0:0:
336,128,53851,1,0,0:0:0:0:
340,134,54020,21,8,0:0:0:0:
244,330,54357,1,8,0:0:0:0:
148,134,54694,1,8,0:0:0:0:
244,330,55031,1,8,0:0:0:0:
340,134,55368,2,0,P|272:182|200:178,1,150
184,102,55705,2,0,P|136:134|124:186,1,100,8|0,0:0|0:0,0:0:0:0:
104,330,56042,5,0,0:0:0:0:
104,330,56127,1,0,0:0:0:0:
104,330,56211,2,0,P|88:258|64:238,1,100,0|8,0:0|0:0,0:0:0:0:
76,144,56548,1,0,0:0:0:0:
164,196,56716,6,0,P|172:108|128:56,1,150
220,36,57053,2,0,L|316:100,1,100,8|0,0:0|0:0,0:0:0:0:
344,120,57306,1,0,0:0:0:0:
388,148,57391,2,0,P|292:188|284:228,1,150
284,272,57728,5,8,0:0:0:0:
284,272,58065,6,0,P|204:292|116:260,1,160,0|8,0:0|0:0,0:0:0:0:
60,232,58570,2,0,B|96:116|96:116|116:68,1,160
188,104,59076,1,8,0:0:0:0:
224,32,59244,2,0,P|268:92|260:142,1,120
252,174,59582,2,0,L|228:258,2,80,0|8|0,0:0|0:0|0:0,0:0:0:0:
276,98,60087,5,8,0:0:0:0:
236,90,60171,1,0,0:0:0:0:
196,86,60256,1,8,0:0:0:0:
156,78,60340,1,0,0:0:0:0:
116,74,60424,1,8,0:0:0:0:
76,66,60509,1,0,0:0:0:0:
36,102,60593,6,0,L|60:158,2,40,8|0|4,0:0|0:0|0:0,0:0:0:0:
