osu file format v14

[General]
AudioFilename: audio.mp3
AudioLeadIn: 0
PreviewTime: 38851
Countdown: 0
SampleSet: Normal
StackLeniency: 0.7
Mode: 0
LetterboxInBreaks: 0
WidescreenStoryboard: 0

[Editor]
Bookmarks: 12222,17615,23009,33795,39188,49975
DistanceSpacing: 1.2
BeatDivisor: 4
GridSize: 4
TimelineZoom: 1.4

[Metadata]
Title:Undead Enemy
TitleUnicode:アンデッドエネミー
Artist:Underbar
ArtistUnicode:アンダーバー
Creator:rickyrox3
Version:Extra
Source:ニコニコ動画
Tags:
BeatmapID:1023717
BeatmapSetID:479408

[Difficulty]
HPDrainRate:9
CircleSize:4
OverallDifficulty:8
ApproachRate:9.6
SliderMultiplier:2
SliderTickRate:1

[Events]
//Background and Video events
0,0,"___.png",0,0
//Break Periods
//Storyboard Layer 0 (Background)
//Storyboard Layer 1 (Fail)
//Storyboard Layer 2 (Pass)
//Storyboard Layer 3 (Foreground)
//Storyboard Sound Samples

[TimingPoints]
1436,337.078651685393,4,1,0,100,1,0
1436,-100,4,1,1,60,0,0
6492,-133.333333333333,4,1,0,60,0,0
6829,-100,4,1,1,100,0,0
33795,-133.333333333333,4,2,0,100,0,0
38851,-133.333333333333,4,1,1,100,0,0
39188,-80,4,1,1,100,0,1
44497,-80,4,1,0,100,0,0
44582,-80,4,1,1,100,0,1
49891,-80,4,1,0,100,0,0
49975,-80,4,1,1,100,0,1
53937,-80,4,1,0,100,0,0
54020,-80,4,1,1,100,0,1
54273,-80,4,1,0,100,0,0
54357,-80,4,1,1,100,0,1
54610,-80,4,1,0,100,0,0
54694,-80,4,1,1,100,0,1
54947,-80,4,1,0,100,0,0
55031,-80,4,1,1,100,0,1
55284,-80,4,1,0,100,0,0
55368,-80,4,1,1,100,0,1
57980,-80,4,1,0,100,0,0
58065,-100,4,1,1,100,0,0
60761,-100,4,1,1,100,0,0

[Colours]
Combo1 : 118,80,188
Combo2 : 51,51,255
Combo3 : 176,40,255
Combo4 : 157,157,157
Combo5 : 235,18,111
Combo6 : 239,232,21
Combo7 : 105,105,105

[HitObjects]
256,192,1436,12,0,3795,3:3:0:0:
256,192,4132,12,0,6155,3:3:0:0:
116,136,6492,6,0,P|160:96|212:80,1,112.500004291535
256,8,6829,6,0,B|208:80|208:80|236:196,1,200,0|8,0:0|0:0,0:0:0:0:
284,352,7334,1,0,0:0:0:0:
408,236,7503,2,0,P|408:136|364:96,1,150
444,48,7840,2,0,P|364:16|316:36,1,100,8|0,0:0|0:0,0:0:0:0:
184,48,8177,1,0,0:0:0:0:
200,288,8346,1,0,0:0:0:0:
68,184,8514,1,8,0:0:0:0:
68,184,8598,1,0,0:0:0:0:
68,184,8683,1,0,0:0:0:0:
136,340,8851,6,0,P|124:260|148:208,1,100
152,200,9103,1,0,0:0:0:0:
176,156,9188,1,8,0:0:0:0:
280,20,9357,2,0,L|312:64,1,50
309,60,9525,1,0,0:0:0:0:
392,208,9694,5,0,0:0:0:0:
392,208,9778,1,0,0:0:0:0:
392,208,9862,1,8,0:0:0:0:
392,208,9947,1,0,0:0:0:0:
392,208,10031,1,0,0:0:0:0:
256,104,10200,1,0,0:0:0:0:
248,340,10368,2,0,L|252:268,1,50
256,104,10537,1,8,0:0:0:0:
116,200,10705,6,0,P|120:144|112:88,1,100
284,84,11042,2,0,P|228:112|260:208,1,150
288,268,11379,5,0,0:0:0:0:
480,272,11548,1,8,0:0:0:0:
232,352,11716,1,8,0:0:0:0:
492,376,11885,5,8,0:0:0:0:
488,360,11969,1,0,0:0:0:0:
484,344,12053,1,8,0:0:0:0:
480,328,12138,1,0,0:0:0:0:
476,312,12222,2,0,B|452:212|452:212|428:164,1,150
508,132,12559,2,0,P|476:96|384:96,1,100
256,100,12896,1,0,0:0:0:0:
252,272,13065,2,0,L|288:312,2,50
124,120,13401,5,0,0:0:0:0:
124,120,13486,1,0,0:0:0:0:
124,120,13570,2,0,P|160:68|224:68,1,100
244,60,13823,1,0,0:0:0:0:
292,64,13907,1,0,0:0:0:0:
492,86,14076,1,0,0:0:0:0:
492,86,14244,6,0,L|448:144,1,50
444,276,14413,2,0,L|478:230,1,50
372,104,14582,2,0,L|328:162,1,50,2|0,0:0|0:0,0:0:0:0:
256,268,14750,2,0,L|290:222,1,50
248,288,14919,6,0,P|180:284|152:248,1,100
136,220,15171,1,0,0:0:0:0:
112,176,15256,2,0,L|60:84,1,100
164,76,15593,5,0,0:0:0:0:
164,76,15677,1,0,0:0:0:0:
308,168,15846,1,0,0:0:0:0:
308,168,15930,1,0,0:0:0:0:
452,76,16098,1,0,0:0:0:0:
308,308,16267,1,0,0:0:0:0:
375,152,16435,6,0,L|396:92,2,50
436,264,16773,5,0,0:0:0:0:
436,264,16857,1,0,0:0:0:0:
436,264,16941,2,0,P|424:176|360:152,1,150
368,228,17278,2,0,P|296:232|260:308,1,150
336,296,17615,6,0,P|308:356|196:340,1,150
152,352,17952,2,0,L|132:248,1,100
100,92,18289,1,0,0:0:0:0:
204,228,18458,1,0,0:0:0:0:
280,160,18627,1,0,0:0:0:0:
316,128,18711,1,0,0:0:0:0:
352,96,18795,1,0,0:0:0:0:
204,228,18964,6,0,P|276:292|304:292,1,100
356,304,19216,1,0,0:0:0:0:
352,312,19301,1,0,0:0:0:0:
400,224,19469,2,0,P|320:180|312:160,1,100
316,128,19722,6,0,L|312:64,2,50
324,280,19975,1,2,0:0:0:0:
236,232,20143,1,0,0:0:0:0:
144,188,20312,1,0,0:0:0:0:
136,208,20396,1,0,0:0:0:0:
136,228,20480,1,0,0:0:0:0:
144,244,20565,1,0,0:0:0:0:
156,252,20649,1,0,0:0:0:0:
316,312,20818,5,0,0:0:0:0:
408,80,20986,1,0,0:0:0:0:
408,80,21155,5,0,0:0:0:0:
364,116,21239,1,0,0:0:0:0:
312,136,21323,1,0,0:0:0:0:
256,136,21407,1,0,0:0:0:0:
204,120,21492,1,0,0:0:0:0:
48,52,21660,5,0,0:0:0:0:
24,220,21829,1,0,0:0:0:0:
48,52,21997,1,0,0:0:0:0:
120,240,22166,2,0,L|92:176,1,50
48,52,22334,6,0,P|123:150|156:144,1,150
124,72,22671,2,0,L|156:296,1,200
208,108,23177,5,0,0:0:0:0:
276,264,23346,1,0,0:0:0:0:
276,264,23430,1,0,0:0:0:0:
276,264,23514,1,0,0:0:0:0:
332,180,23683,1,0,0:0:0:0:
388,96,23851,2,0,P|360:164|380:208,1,100
396,268,24104,1,0,0:0:0:0:
400,280,24188,1,0,0:0:0:0:
332,60,24357,5,0,0:0:0:0:
304,156,24525,2,0,L|256:100,1,50
271,118,24694,1,0,0:0:0:0:
208,40,24862,1,0,0:0:0:0:
116,80,25031,2,0,B|40:112|40:112|48:176,1,100
56,176,25284,1,0,0:0:0:0:
72,224,25368,2,0,L|108:328,1,100,2|0,0:0|0:0,0:0:0:0:
116,80,25705,5,0,0:0:0:0:
156,172,25874,2,0,P|224:220|268:228,1,100
288,236,26127,1,0,0:0:0:0:
336,244,26211,1,0,0:0:0:0:
264,92,26379,1,0,0:0:0:0:
420,160,26548,2,0,L|356:132,1,50
264,92,26716,1,0,0:0:0:0:
228,76,26801,1,0,0:0:0:0:
188,60,26885,1,0,0:0:0:0:
92,280,27053,5,0,0:0:0:0:
84,180,27222,2,0,L|80:128,2,50
72,32,27559,1,0,0:0:0:0:
160,80,27728,2,0,L|212:108,1,50
268,260,27896,2,0,L|215:232,1,50
280,144,28065,5,0,0:0:0:0:
276,128,28149,1,0,0:0:0:0:
272,116,28233,1,0,0:0:0:0:
268,104,28318,1,0,0:0:0:0:
264,92,28402,2,0,P|164:168|116:240,1,200
56,384,28907,1,0,0:0:0:0:
148,344,29076,2,0,L|248:296,1,100
284,280,29329,1,0,0:0:0:0:
332,260,29413,1,0,0:0:0:0:
316,160,29582,6,0,P|328:108|324:92,1,50
284,140,29750,2,0,P|208:92|140:100,1,150
68,120,30087,1,0,0:0:0:0:
68,120,30256,1,0,0:0:0:0:
184,340,30424,2,0,P|148:276|84:272,1,100
188,208,30677,1,0,0:0:0:0:
196,200,30761,1,2,0:0:0:0:
324,88,30930,6,0,P|320:212|348:248,1,150
376,304,31267,2,0,P|416:252|416:212,1,100
416,120,31604,1,0,0:0:0:0:
416,20,31773,1,0,0:0:0:0:
332,72,31941,1,0,0:0:0:0:
328,96,32025,1,0,0:0:0:0:
316,116,32110,1,0,0:0:0:0:
192,232,32278,5,0,0:0:0:0:
192,332,32447,6,0,L|192:268,1,50
192,132,32615,2,0,L|192:192,1,50
192,352,32784,2,0,L|192:288,1,50
192,82,32952,2,0,L|192:142,1,50
192,232,33121,85,0,0:0:0:0:
204,184,33205,1,0,0:0:0:0:
240,148,33289,1,0,0:0:0:0:
288,136,33374,1,0,0:0:0:0:
336,148,33458,5,0,0:0:0:0:
372,180,33542,1,0,0:0:0:0:
388,228,33627,1,0,0:0:0:0:
380,276,33711,1,0,0:0:0:0:
372,324,33795,22,0,P|296:320|220:324,1,150.000005722046,0|0,2:2|2:2,2:2:0:0:
84,328,34469,2,0,L|100:276,1,37.5000014305115,0|0,2:2|2:2,2:2:0:0:
120,220,34638,1,0,2:2:0:0:
172,80,34806,1,0,2:2:0:0:
172,80,35143,38,0,P|253:76|316:80,1,112.500004291535,0|0,2:2|2:2,2:2:0:0:
360,84,35480,2,0,L|380:168,1,75.0000028610231,0|0,2:2|2:2,2:2:0:0:
412,304,35818,53,0,2:2:0:0:
377,156,35986,1,0,2:2:0:0:
316,292,36155,1,0,2:2:0:0:
300,220,36323,1,0,2:2:0:0:
284,148,36492,38,0,P|208:144|132:148,1,150.000005722046,0|0,2:2|2:2,2:2:0:0:
108,296,37166,2,0,L|152:288,1,37.5000014305115,0|0,2:2|2:2,2:2:0:0:
220,276,37334,1,0,2:2:0:0:
368,248,37503,1,0,2:2:0:0:
268,136,38009,2,0,P|192:112|152:128,1,112.500004291535,0|0,2:2|2:2,2:2:0:0:
132,52,38346,2,0,L|164:124,1,75.0000028610231
180,140,38851,5,8,0:0:0:0:
180,140,38935,1,8,0:0:0:0:
180,140,39020,1,8,0:0:0:0:
180,140,39104,1,8,0:0:0:0:
180,140,39188,2,0,P|104:216|144:300,1,187.5
184,340,39525,2,0,P|200:248|164:208,1,125,8|0,0:0|0:0,0:0:0:0:
112,80,39862,6,0,P|168:136|268:136,1,125
292,148,40115,2,0,L|348:112,1,62.5,0|8,0:0|0:0,0:0:0:0:
416,72,40284,1,0,0:0:0:0:
416,72,40368,2,0,P|440:176|424:216,1,125
404,348,40705,5,0,0:0:0:0:
368,312,40789,1,0,0:0:0:0:
332,276,40874,1,8,0:0:0:0:
252,332,41042,1,0,0:0:0:0:
216,296,41126,1,0,0:0:0:0:
180,260,41211,1,0,0:0:0:0:
93,314,41379,5,0,0:0:0:0:
108,100,41548,1,8,0:0:0:0:
168,368,41716,1,0,0:0:0:0:
120,96,41885,1,0,0:0:0:0:
212,244,42053,2,0,L|228:176,1,62.5
248,96,42222,1,8,0:0:0:0:
424,84,42391,5,0,0:0:0:0:
424,96,42475,1,0,0:0:0:0:
424,104,42559,2,0,P|348:152|332:212,1,125
328,356,42896,1,8,0:0:0:0:
204,40,43065,1,0,0:0:0:0:
232,200,43233,5,0,0:0:0:0:
72,164,43402,2,0,L|164:184,1,62.5
232,200,43570,2,0,P|244:108|284:72,1,125,8|0,0:0|0:0,0:0:0:0:
416,28,43907,6,0,L|340:52,1,62.5,4|0,0:0|0:0,0:0:0:0:
352,128,44076,2,0,L|415:109,1,62.5,8|0,0:0|0:0,0:0:0:0:
408,192,44244,2,0,L|332:216,1,62.5,8|0,0:0|0:0,0:0:0:0:
348,292,44413,2,0,L|411:273,1,62.5,8|0,0:0|0:0,0:0:0:0:
412,356,44582,6,0,L|264:212,1,187.5
240,296,44919,2,0,P|196:216|228:160,1,125,8|0,0:0|0:0,0:0:0:0:
260,36,45256,6,0,L|136:92,1,125
64,124,45509,2,0,L|0:152,1,62.5,0|8,0:0|0:0,0:0:0:0:
32,228,45677,1,0,0:0:0:0:
32,228,45761,2,0,P|56:308|136:332,1,125
120,244,46098,1,0,0:0:0:0:
256,144,46267,1,8,0:0:0:0:
164,156,46435,5,0,0:0:0:0:
188,112,46520,1,0,0:0:0:0:
212,68,46604,1,0,0:0:0:0:
208,232,46773,1,0,0:0:0:0:
232,188,46858,1,0,0:0:0:0:
256,144,46942,1,8,0:0:0:0:
252,304,47110,5,0,0:0:0:0:
368,144,47278,2,0,L|384:216,1,62.5
412,340,47447,1,0,0:0:0:0:
344,48,47615,1,8,0:0:0:0:
508,300,47784,5,0,0:0:0:0:
244,92,47952,2,0,L|176:124,1,62.5
48,176,48121,1,0,0:0:0:0:
344,48,48289,1,8,0:0:0:0:
48,176,48458,2,0,P|116:284|180:296,1,187.5
244,304,48795,1,0,0:0:0:0:
260,156,48964,1,8,0:0:0:0:
384,240,49132,1,0,0:0:0:0:
260,156,49301,2,0,L|184:56,1,125,8|0,0:0|0:0,0:0:0:0:
140,44,49553,5,0,0:0:0:0:
116,48,49638,1,8,0:0:0:0:
96,52,49722,1,0,0:0:0:0:
76,56,49806,1,8,0:0:0:0:
56,60,49891,1,0,0:0:0:0:
56,136,49975,2,0,L|180:156,1,125
460,96,50228,5,0,0:0:0:0:
460,172,50312,2,0,L|336:192,1,125,8|0,0:0|0:0,0:0:0:0:
56,136,50565,5,0,0:0:0:0:
56,212,50649,2,0,L|180:232,1,125
460,172,50902,5,0,0:0:0:0:
460,248,50986,2,0,L|336:268,1,125,8|0,0:0|0:0,0:0:0:0:
56,212,51239,5,0,0:0:0:0:
56,288,51323,2,0,L|180:308,1,125
460,248,51576,5,0,0:0:0:0:
460,324,51660,2,0,L|336:344,1,125,8|0,0:0|0:0,0:0:0:0:
179,307,51997,5,0,0:0:0:0:
192,144,52166,1,0,0:0:0:0:
192,144,52250,1,0,0:0:0:0:
192,144,52334,1,8,0:0:0:0:
260,292,52503,2,0,B|240:244|240:244|260:168,1,125
296,52,52840,2,0,L|276:120,2,62.5,0|0|8,0:0|0:0|0:0,0:0:0:0:
344,160,53177,6,0,P|400:252|408:292,1,125
420,348,53430,1,0,0:0:0:0:
408,340,53514,1,0,0:0:0:0:
272,248,53683,2,0,L|212:208,1,62.5,8|0,0:0|0:0,0:0:0:0:
152,172,53851,1,0,0:0:0:0:
152,172,54020,5,8,0:0:0:0:
476,200,54357,1,8,0:0:0:0:
188,352,54694,1,8,0:0:0:0:
316,64,55031,1,8,0:0:0:0:
376,384,55368,2,0,P|400:264|388:244,1,125
376,192,55621,2,0,L|356:128,1,62.5,0|8,0:0|0:0,0:0:0:0:
332,56,55874,1,0,0:0:0:0:
284,212,56042,5,0,0:0:0:0:
168,96,56211,1,0,0:0:0:0:
332,56,56379,1,8,0:0:0:0:
284,212,56548,2,0,L|300:276,1,62.5
320,344,56716,6,0,P|384:364|444:256,1,187.5
460,200,57053,6,0,B|472:64|472:64|456:88|396:96,1,187.5,8|0,0:0|0:0,0:0:0:0:
352,120,57391,6,0,B|320:160|268:128|284:104|308:120|276:168|164:152,1,187.5
160,76,57728,6,0,B|196:212|196:212|220:276,1,187.5,8|0,0:0|0:0,0:0:0:0:
252,332,58065,6,0,P|280:264|364:216,1,150
424,204,58402,1,8,0:0:0:0:
280,112,58570,2,0,P|212:92|164:104,1,100
100,112,58823,1,0,0:0:0:0:
100,128,58907,1,0,0:0:0:0:
116,296,59076,2,0,L|164:280,1,50,8|0,0:0|0:0,0:0:0:0:
163,280,59245,5,0,0:0:0:0:
375,128,59413,1,0,0:0:0:0:
335,304,59582,1,0,0:0:0:0:
295,24,59751,1,8,0:0:0:0:
335,304,59920,1,0,0:0:0:0:
375,128,60087,6,0,L|320:136,1,50,8|0,0:0|0:0,0:0:0:0:
336,276,60256,2,0,L|390:268,1,50,8|0,0:0|0:0,0:0:0:0:
232,68,60424,2,0,L|177:76,1,50,8|0,0:0|0:0,0:0:0:0:
196,336,60593,2,0,L|250:328,1,50,8|0,0:0|0:0,0:0:0:0:
188,200,60761,5,4,0:0:0:0:
