osu file format v14

[General]
AudioFilename: audio.mp3
AudioLeadIn: 0
PreviewTime: 46290
Countdown: 0
SampleSet: Soft
StackLeniency: 0.4
Mode: 0
LetterboxInBreaks: 0
WidescreenStoryboard: 1

[Editor]
DistanceSpacing: 0.8
BeatDivisor: 4
GridSize: 8
TimelineZoom: 1.9

[Metadata]
Title:karakurenawi
TitleUnicode:karakurenawi
Artist:Undead Corporation
ArtistUnicode:Undead Corporation
Creator:Wanko
Version:Quarterslashed
Source:Touhou
Tags:
BeatmapID:1892494
BeatmapSetID:906923

[Difficulty]
HPDrainRate:5
CircleSize:4
OverallDifficulty:8
ApproachRate:9.4
SliderMultiplier:1.4
SliderTickRate:1

[Events]
//Background and Video events
0,0,"Konachan.com - 183118 sample.jpg",0,0
//Break Periods
2,129122,130500
//Storyboard Layer 0 (Background)
//Storyboard Layer 1 (Fail)
//Storyboard Layer 2 (Pass)
//Storyboard Layer 3 (Foreground)
//Storyboard Sound Samples

[TimingPoints]
11746,352.941176470588,4,2,1,50,1,0
24451,-83.3333333333333,4,2,1,60,0,0
32922,-83.3333333333333,4,2,1,22,0,0
33098,-83.3333333333333,4,2,1,28,0,0
33275,-83.3333333333333,4,2,1,34,0,0
33451,-83.3333333333333,4,2,1,40,0,0
33628,-83.3333333333333,4,2,1,46,0,0
33804,-83.3333333333333,4,2,1,52,0,0
33981,-83.3333333333333,4,2,1,58,0,0
34157,-83.3333333333333,4,2,1,64,0,0
34334,-62.5,4,2,1,70,0,0
35393,-166.666666666667,4,2,1,70,0,0
35745,-71.4285714285714,4,2,1,70,0,0
41393,-62.5,4,2,1,70,0,0
46334,-166.666666666667,4,2,1,70,0,0
47040,-55.5555555555556,4,2,1,80,0,1
57981,-83.3333333333333,4,2,1,80,0,1
58157,-66.6666666666667,4,2,1,80,0,1
58334,-55.5555555555556,4,2,1,80,0,1
71040,-83.3333333333333,4,2,1,70,0,0
76687,-76.9230769230769,4,2,1,70,0,0
82334,-83.3333333333333,4,2,1,60,0,0
92216,-111.111111111111,4,2,1,70,0,0
93628,-71.4285714285714,4,2,1,70,0,0
99275,-62.5,4,2,1,70,0,0
104922,-55.5555555555556,4,2,1,80,0,1
128922,-83.3333333333333,4,2,1,70,0,0
139863,-142.857142857143,4,2,1,70,0,0
140216,-71.4285714285714,4,2,1,60,0,0
151510,-111.111111111111,4,2,1,50,0,0
162804,-55.5555555555555,4,2,1,80,0,1
187863,-55.5555555555555,4,2,1,70,0,0

[Colours]
Combo1 : 191,138,13
Combo2 : 254,103,65
Combo3 : 244,227,17
Combo4 : 167,84,84

[HitObjects]
200,271,12981,5,0,0:0:0:0:
200,271,13069,1,0,0:0:0:0:
200,271,13157,2,0,P|248:271|288:279,1,70,8|0,0:0|0:0,0:0:0:0:
0,350,13510,2,0,P|35:345|70:347,1,70,0|0,0:0|0:0,0:0:0:0:
200,271,13863,2,0,P|248:271|312:287,1,105,10|0,0:0|0:0,0:0:0:0:
317,258,14216,2,0,L|325:346,1,70,0|0,0:0|0:0,0:0:0:0:
400,192,14569,6,0,P|361:161|341:126,2,70,8|0|0,0:0|0:0|0:0,0:0:0:0:
416,64,15098,1,0,0:0:0:0:
298,221,15275,2,0,P|366:231|432:208,1,140,10|0,0:0|0:0,0:0:0:0:
264,120,15804,1,0,0:0:0:0:
200,256,15981,6,0,P|201:290|196:329,1,70,8|0,0:0|0:0,0:0:0:0:
151,93,16334,2,0,P|152:127|147:162,1,70,0|0,0:0|0:0,0:0:0:0:
200,256,16687,2,0,P|200:304|184:368,1,105,10|0,0:0|0:0,0:0:0:0:
207,378,17040,2,0,L|119:386,1,70,0|0,0:0|0:0,0:0:0:0:
282,282,17393,2,0,P|300:251|328:230,2,70,8|0|0,0:0|0:0|0:0,0:0:0:0:
414,300,17922,1,0,0:0:0:0:
241,201,18098,2,0,P|237:270|269:331,1,140,10|0,0:0|0:0,0:0:0:0:
328,120,18628,1,0,0:0:0:0:
144,200,18804,6,0,P|208:192|240:200,1,70,8|0,0:0|0:0,0:0:0:0:
0,277,19157,2,0,P|35:276|69:285,1,70,0|0,0:0|0:0,0:0:0:0:
144,200,19510,2,0,P|208:192|248:200,1,105,10|0,0:0|0:0,0:0:0:0:
279,187,19863,2,0,L|272:256,1,70,0|0,0:0|0:0,0:0:0:0:
400,104,20216,6,0,P|412:148|408:184,2,70,8|0|0,0:0|0:0|0:0,0:0:0:0:
360,240,20746,1,0,0:0:0:0:
488,128,20922,2,0,P|435:81|359:63,1,140,10|0,0:0|0:0,0:0:0:0:
240,104,21451,1,0,0:0:0:0:
32,208,21628,6,0,P|24:152|24:112,1,70,8|0,0:0|0:0,0:0:0:0:
120,344,21981,2,0,P|112:288|112:248,1,70,0|0,0:0|0:0,0:0:0:0:
32,208,22334,2,0,P|24:152|24:80,1,105,10|0,0:0|0:0,0:0:0:0:
0,72,22687,2,0,L|96:64,1,70,0|0,0:0|0:0,0:0:0:0:
200,16,23040,5,0,3:0:0:0:
211,16,23128,1,0,3:0:0:0:
222,18,23216,1,0,3:0:0:0:
231,23,23304,1,0,3:0:0:0:
240,32,23393,2,0,L|312:24,1,70,8|0,0:0|0:0,0:0:0:0:
384,248,23746,1,10,1:2:0:0:
248,136,23922,1,0,0:0:0:0:
272,121,24010,1,0,0:0:0:0:
300,121,24098,1,8,1:2:0:0:
192,288,24275,1,0,0:0:0:0:
87,104,24451,5,12,0:0:0:0:
176,192,24628,2,0,P|176:240|152:296,1,83.9999974365235,0|8,0:0|1:2,0:0:0:0:
464,112,24981,1,0,0:0:0:0:
353,143,25157,2,0,P|314:160|284:188,1,83.9999974365235,10|0,0:0|1:0,0:0:0:0:
456,312,25510,2,0,P|470:269|472:224,1,83.9999974365235,8|0,1:2|0:0,0:0:0:0:
184,256,25863,5,0,0:0:0:0:
224,344,26040,1,8,0:0:0:0:
63,280,26216,1,0,1:2:0:0:
104,192,26393,1,0,0:0:0:0:
284,189,26569,2,0,P|243:236|184:255,1,125.999996154785,10|0,1:2|0:0,0:0:0:0:
104,192,26922,1,0,1:0:0:0:
320,304,27098,1,0,0:0:0:0:
104,192,27275,5,8,0:0:0:0:
152,352,27451,2,0,L|248:376,1,83.9999974365235,0|8,0:0|1:2,0:0:0:0:
384,304,27804,1,0,0:0:0:0:
272,216,27981,2,0,P|251:179|242:138,2,83.9999974365235,10|8|8,0:0|1:2|1:2,0:0:0:0:
496,128,28510,1,0,0:0:0:0:
309,57,28687,5,0,3:0:0:0:
297,57,28776,1,0,3:0:0:0:
285,60,28864,1,0,3:0:0:0:
274,65,28952,1,0,3:0:0:0:
264,72,29040,1,8,3:2:0:0:
195,226,29216,1,0,0:0:0:0:
339,331,29393,2,0,P|355:270|336:208,1,125.999996154785,10|0,0:0|0:0,0:0:0:0:
320,176,29745,1,0,1:0:0:0:
176,312,29922,1,0,0:0:0:0:
456,304,30098,5,8,0:0:0:0:
280,328,30275,2,0,L|176:336,1,83.9999974365235,0|8,0:0|1:2,0:0:0:0:
80,144,30628,1,0,0:0:0:0:
0,280,30804,2,0,P|56:296|104:296,1,83.9999974365235,10|0,0:2|1:0,0:0:0:0:
297,198,31157,2,0,P|241:214|193:214,1,83.9999974365235,8|0,1:2|0:0,0:0:0:0:
368,80,31510,5,8,0:0:0:0:
408,200,31687,1,0,0:0:0:0:
264,288,31863,1,0,1:0:0:0:
304,168,32040,1,0,0:0:0:0:
412,364,32216,2,0,P|375:346|334:347,1,83.9999974365235,10|0,0:0|0:0,0:0:0:0:
432,144,32569,2,0,P|442:184|467:217,1,83.9999974365235,0|0,1:0|0:0,0:0:0:0:
200,256,32922,5,8,3:2:0:0:
207,252,33010,1,0,3:2:0:0:
212,245,33098,1,0,3:2:0:0:
213,236,33187,1,0,3:2:0:0:
208,224,33275,5,8,3:2:0:0:
191,220,33363,1,0,3:2:0:0:
174,232,33451,1,0,3:2:0:0:
159,253,33540,1,0,3:2:0:0:
131,261,33628,1,10,3:2:0:0:
98,254,33716,1,0,3:2:0:0:
75,229,33804,1,0,3:2:0:0:
68,191,33893,1,0,3:2:0:0:
84,148,33981,5,8,3:2:0:0:
141,105,34069,1,0,3:2:0:0:
210,91,34157,1,0,3:2:0:0:
276,115,34245,1,0,3:2:0:0:
321,172,34334,6,0,P|320:208|311:259,2,56,8|0|0,1:2|0:0|0:0,0:0:0:0:
426,256,34598,1,0,0:0:0:0:
402,270,34687,2,0,P|404:306|413:345,1,56,0|0,1:0|0:0,0:0:0:0:
510,140,34863,1,0,1:0:0:0:
512,184,34951,1,0,0:0:0:0:
496,224,35040,1,0,0:0:0:0:
384,16,35216,1,0,1:0:0:0:
376,64,35304,1,0,0:0:0:0:
384,104,35393,2,0,P|342:87|310:95,1,62.9999980773926,0|0,1:0|0:0,0:0:0:0:
296,112,35745,5,12,2:0:0:0:
96,16,35922,2,0,P|144:40|176:80,1,97.9999970092774,0|0,0:0|1:0,0:0:0:0:
312,200,36275,1,0,0:0:0:0:
208,184,36451,2,0,P|192:104|224:16,1,146.999995513916,6|0,0:0|0:0,0:0:0:0:
240,16,36804,1,8,1:2:0:0:
72,128,36981,1,0,0:0:0:0:
312,200,37157,5,8,1:2:0:0:
280,360,37334,1,0,0:0:0:0:
240,352,37422,1,0,0:0:0:0:
216,320,37510,1,4,1:2:0:0:
424,176,37687,1,0,1:0:0:0:
448,304,37863,2,0,P|377:287|322:238,1,146.999995513916,2|0,0:0|0:0,0:0:0:0:
312,200,38216,1,12,1:2:0:0:
352,384,38393,1,0,0:0:0:0:
320,96,38569,5,8,1:2:0:0:
496,168,38745,2,0,P|447:171|399:161,1,97.9999970092774,0|0,0:0|1:0,0:0:0:0:
224,64,39098,1,0,0:0:0:0:
354,160,39275,2,0,P|406:211|432:280,1,146.999995513916,6|0,1:2|0:0,0:0:0:0:
424,312,39628,1,8,0:0:0:0:
456,80,39804,1,0,0:0:0:0:
224,64,39981,6,0,P|216:112|224:184,1,97.9999970092774,12|0,0:2|0:0,0:0:0:0:
176,232,40245,1,0,0:0:0:0:
192,264,40334,1,0,1:0:0:0:
354,160,40510,1,0,0:0:0:0:
400,376,40687,1,2,1:2:0:0:
272,248,40863,1,0,0:0:0:0:
456,120,41040,1,0,1:0:0:0:
384,264,41216,1,0,0:0:0:0:
340,16,41393,5,12,1:2:0:0:
372,32,41481,2,0,L|354:121,2,56,0|0|0,0:0|0:0|0:0,0:0:0:0:
197,96,41745,1,0,1:0:0:0:
218,135,41834,1,0,1:0:0:0:
256,155,41922,1,0,1:0:0:0:
100,20,42098,5,14,1:2:0:0:
70,0,42186,2,0,L|0:62,2,56,0|0|0,0:0|0:0|0:0,0:0:0:0:
98,172,42450,1,0,1:0:0:0:
53,173,42539,1,0,1:0:0:0:
17,150,42627,1,0,1:0:0:0:
256,155,42804,6,0,P|281:188|271:274,1,112,12|0,1:2|0:0,0:0:0:0:
82,302,43069,1,0,0:0:0:0:
82,302,43157,2,0,P|98:263|177:229,1,112,12|0,1:2|0:0,0:0:0:0:
289,370,43422,1,0,0:0:0:0:
289,370,43510,2,0,P|247:375|178:323,1,112,14|0,1:2|0:0,0:0:0:0:
389,248,43775,1,0,0:0:0:0:
389,248,43863,1,12,1:2:0:0:
115,376,44040,1,0,0:0:0:0:
336,120,44216,6,0,L|264:232,1,112,12|8,1:2|0:0,0:0:0:0:
144,224,44569,1,4,1:2:0:0:
80,112,44745,5,0,0:0:0:0:
66,161,44834,1,0,0:0:0:0:
53,208,44922,1,14,0:0:0:0:
167,26,45098,5,0,0:0:0:0:
181,75,45187,1,0,0:0:0:0:
194,122,45275,1,12,1:2:0:0:
287,0,45451,5,0,0:0:0:0:
316,245,45628,1,12,1:2:0:0:
512,0,45804,5,0,1:0:0:0:
469,74,45893,1,0,1:0:0:0:
421,143,45981,1,12,1:2:0:0:
225,102,46157,5,0,1:0:0:0:
268,176,46246,1,0,1:0:0:0:
316,245,46334,1,14,1:2:0:0:
347,277,47040,6,0,P|239:253|181:276,1,125.999996154785,6|0,1:2|0:0,0:0:0:0:
137,225,47304,1,0,0:0:0:0:
298,229,47393,2,0,P|188:245|142:287,1,125.999996154785,8|0,0:0|0:0,0:0:0:0:
142,344,47657,1,0,0:0:0:0:
199,219,47745,2,0,P|183:191|161:168,1,62.9999980773926,2|0,1:2|0:0,0:0:0:0:
44,130,47922,1,0,0:0:0:0:
87,199,48010,1,0,0:0:0:0:
170,86,48098,2,0,P|161:116|145:144,1,62.9999980773926,12|0,0:0|0:0,0:0:0:0:
53,0,48275,2,0,P|61:30|77:57,1,62.9999980773926,2|0,0:0|0:0,0:0:0:0:
262,61,48451,6,0,P|339:56|409:96,1,125.999996154785,6|0,1:2|0:0,0:0:0:0:
398,191,48716,1,0,0:0:0:0:
446,107,48804,2,0,P|387:86|325:93,1,125.999996154785,14|0,1:2|0:0,0:0:0:0:
292,254,49069,1,0,0:0:0:0:
378,235,49157,2,0,P|383:205|372:162,2,62.9999980773926,6|0|0,1:2|0:0|0:0,0:0:0:0:
151,285,49510,5,10,0:0:0:0:
380,358,49687,1,4,0:0:0:0:
76,370,49863,6,0,P|46:269|58:216,1,125.999996154785,6|0,1:2|0:0,0:0:0:0:
105,172,50128,1,0,0:0:0:0:
79,301,50216,2,0,P|103:279|123:240,1,62.9999980773926,8|0,0:0|0:0,0:0:0:0:
13,121,50393,2,0,P|13:152|23:181,1,62.9999980773926,0|0,0:0|0:0,0:0:0:0:
190,188,50569,2,0,P|256:174|351:197,1,125.999996154785,2|0,1:2|0:0,0:0:0:0:
406,297,50834,1,0,0:0:0:0:
337,203,50922,2,0,P|337:163|357:131,1,62.9999980773926,12|0,0:0|0:0,0:0:0:0:
197,94,51098,2,0,P|211:122|236:142,1,62.9999980773926,2|0,0:0|0:0,0:0:0:0:
350,44,51275,5,6,3:2:0:0:
311,37,51363,1,0,3:0:0:0:
267,28,51451,1,0,3:0:0:0:
378,217,51628,1,14,1:2:0:0:
227,18,51804,1,0,1:0:0:0:
152,218,51981,1,14,3:2:0:0:
196,209,52069,1,0,3:0:0:0:
235,202,52157,1,0,3:0:0:0:
54,56,52334,2,0,P|31:89|21:136,1,62.9999980773926,10|0,0:0|0:0,0:0:0:0:
146,173,52510,2,0,P|134:143|115:118,1,62.9999980773926,4|0,0:0|0:0,0:0:0:0:
17,288,52687,6,0,P|96:311|168:288,1,125.999996154785,6|0,1:2|0:0,0:0:0:0:
232,348,52951,1,0,0:0:0:0:
78,287,53040,2,0,P|157:264|229:287,1,125.999996154785,8|0,0:0|0:0,0:0:0:0:
287,296,53304,1,0,0:0:0:0:
150,211,53393,2,0,P|175:231|205:241,1,62.9999980773926,2|0,1:2|0:0,0:0:0:0:
311,148,53569,2,0,P|286:168|257:178,1,62.9999980773926,12|0,0:0|0:0,0:0:0:0:
190,32,53745,2,0,L|264:44,1,62.9999980773926,0|0,0:0|0:0,0:0:0:0:
279,209,53922,2,0,L|355:197,1,62.9999980773926,2|0,0:0|0:0,0:0:0:0:
426,33,54098,6,0,P|403:120|455:171,1,125.999996154785,6|0,1:2|0:0,0:0:0:0:
505,209,54363,1,0,0:0:0:0:
418,146,54451,2,0,P|395:233|447:284,1,125.999996154785,14|0,1:2|0:0,0:0:0:0:
497,322,54716,1,0,0:0:0:0:
402,372,54804,2,0,P|382:314|410:259,1,125.999996154785,6|0,1:2|0:0,0:0:0:0:
497,322,55069,1,0,0:0:0:0:
354,312,55157,2,0,P|325:295|291:250,1,62.9999980773926,10|0,0:0|0:0,0:0:0:0:
187,380,55334,2,0,P|214:364|236:342,1,62.9999980773926,4|0,0:0|0:0,0:0:0:0:
215,173,55510,6,0,P|159:254|168:302,1,125.999996154785,6|0,1:2|0:0,0:0:0:0:
132,368,55775,1,0,0:0:0:0:
92,212,55863,2,0,P|148:293|139:341,1,125.999996154785,8|0,0:0|0:0,0:0:0:0:
41,352,56128,1,0,0:0:0:0:
38,254,56216,2,0,P|48:221|83:191,1,62.9999980773926,2|0,1:2|0:0,0:0:0:0:
215,173,56393,2,0,P|186:160|155:161,1,62.9999980773926,0|0,0:0|0:0,0:0:0:0:
178,272,56569,1,12,0:0:0:0:
71,48,56745,1,2,0:0:0:0:
298,112,56922,5,6,3:2:0:0:
264,83,57010,1,0,3:0:0:0:
220,76,57098,1,0,3:0:0:0:
285,241,57275,1,14,1:2:0:0:
361,47,57451,1,0,1:0:0:0:
364,221,57628,5,6,3:2:0:0:
398,192,57716,1,0,3:0:0:0:
435,189,57804,1,0,3:0:0:0:
463,202,57893,1,0,3:0:0:0:
462,235,57981,1,10,3:2:0:0:
457,210,58069,1,0,3:0:0:0:
448,174,58157,1,4,3:2:0:0:
459,133,58245,1,0,3:0:0:0:
488,97,58334,6,0,P|386:95|340:70,1,125.999996154785,6|0,1:2|0:0,0:0:0:0:
300,17,58598,1,0,0:0:0:0:
428,62,58687,2,0,P|348:73|299:112,1,125.999996154785,8|0,0:0|0:0,0:0:0:0:
281,187,58951,1,0,0:0:0:0:
260,34,59040,2,0,P|276:61|281:92,1,62.9999980773926,2|0,1:2|0:0,0:0:0:0:
209,204,59216,1,0,0:0:0:0:
144,145,59304,1,0,0:0:0:0:
134,228,59393,2,0,P|154:204|182:190,1,62.9999980773926,12|0,0:0|0:0,0:0:0:0:
259,338,59569,2,0,P|230:324|210:300,1,62.9999980773926,2|0,0:0|0:0,0:0:0:0:
339,224,59745,6,0,P|428:236|462:266,1,125.999996154785,6|0,1:2|0:0,0:0:0:0:
386,340,60010,1,0,0:0:0:0:
379,179,60098,2,0,P|331:219|312:279,1,125.999996154785,14|0,1:2|0:0,0:0:0:0:
420,296,60363,1,0,0:0:0:0:
318,172,60451,2,0,L|318:99,2,62.9999980773926,6|0|0,1:2|0:0|0:0,0:0:0:0:
165,340,60804,5,10,0:0:0:0:
241,99,60981,1,4,0:0:0:0:
7,123,61157,6,0,P|86:173|131:175,1,125.999996154785,6|0,1:2|0:0,0:0:0:0:
204,137,61422,1,0,0:0:0:0:
76,147,61510,2,0,P|96:117|130:93,1,62.9999980773926,8|0,0:0|0:0,0:0:0:0:
0,6,61687,2,0,P|23:26|40:53,1,62.9999980773926,0|0,0:0|0:0,0:0:0:0:
159,7,61863,2,0,P|238:13|298:40,1,125.999996154785,2|0,1:2|0:0,0:0:0:0:
334,115,62128,1,0,0:0:0:0:
429,66,62216,2,0,P|410:37|384:21,1,62.9999980773926,12|0,0:0|0:0,0:0:0:0:
267,150,62393,2,0,P|298:153|327:143,1,62.9999980773926,2|0,0:0|0:0,0:0:0:0:
501,149,62569,5,6,3:2:0:0:
494,192,62657,1,0,3:0:0:0:
487,235,62745,1,0,3:0:0:0:
277,320,62922,1,14,1:2:0:0:
480,280,63098,1,2,0:0:0:0:
265,190,63275,1,6,3:2:0:0:
270,234,63363,1,0,3:0:0:0:
275,278,63451,1,0,3:0:0:0:
432,360,63628,5,10,0:0:0:0:
318,113,63804,1,4,0:0:0:0:
173,347,63981,6,0,P|172:269|125:206,1,125.999996154785,6|0,1:2|0:0,0:0:0:0:
84,158,64245,1,0,0:0:0:0:
108,291,64334,2,0,P|119:250|153:214,1,62.9999980773926,8|0,0:0|0:0,0:0:0:0:
275,278,64510,2,0,P|236:295|187:293,1,62.9999980773926,0|0,0:0|0:0,0:0:0:0:
180,140,64687,2,0,L|174:57,1,62.9999980773926,2|0,1:2|0:0,0:0:0:0:
278,244,64863,2,0,L|281:162,1,62.9999980773926,0|0,0:0|0:0,0:0:0:0:
176,78,65040,2,0,L|171:15,2,62.9999980773926,12|0|0,0:0|0:0|0:0,0:0:0:0:
504,88,65393,6,0,P|438:54|369:71,1,125.999996154785,6|0,1:2|0:0,0:0:0:0:
345,141,65657,1,0,0:0:0:0:
503,87,65745,2,0,P|476:143|422:173,1,125.999996154785,14|0,1:2|0:0,0:0:0:0:
324,178,66010,1,0,0:0:0:0:
387,60,66098,2,0,P|387:122|423:174,1,125.999996154785,6|0,1:2|0:0,0:0:0:0:
226,350,66451,5,10,0:0:0:0:
128,111,66628,1,4,0:0:0:0:
349,238,66804,6,0,P|252:227|197:256,1,125.999996154785,6|0,1:2|0:0,0:0:0:0:
141,276,67069,1,0,0:0:0:0:
246,200,67157,2,0,P|202:172|172:135,1,62.9999980773926,8|0,0:0|0:0,0:0:0:0:
249,28,67334,2,0,P|255:60|252:103,1,62.9999980773926,0|0,0:0|0:0,0:0:0:0:
43,77,67510,2,0,P|102:59|163:72,1,125.999996154785,2|0,1:2|0:0,0:0:0:0:
234,141,67775,1,0,0:0:0:0:
283,224,67863,2,0,P|286:257|276:299,1,62.9999980773926,12|0,0:0|0:0,0:0:0:0:
122,233,68040,2,0,P|146:212|174:199,1,62.9999980773926,2|0,0:0|0:0,0:0:0:0:
201,365,68216,5,6,3:2:0:0:
206,321,68304,1,0,3:0:0:0:
211,276,68393,1,0,3:0:0:0:
446,219,68569,1,14,1:2:0:0:
215,229,68745,1,0,0:0:0:0:
444,348,68922,1,6,3:2:0:0:
444,305,69010,1,0,3:0:0:0:
445,262,69098,1,0,3:0:0:0:
213,192,69275,1,10,0:0:0:0:
315,381,69451,1,4,0:0:0:0:
60,276,69628,5,6,3:2:0:0:
97,252,69716,1,0,3:0:0:0:
139,241,69804,1,0,3:0:0:0:
183,246,69893,1,0,3:0:0:0:
221,266,69981,1,2,3:2:0:0:
262,279,70069,1,0,3:0:0:0:
305,273,70157,1,0,3:0:0:0:
345,256,70245,1,0,3:0:0:0:
389,257,70334,5,4,1:2:0:0:
119,368,70510,1,4,1:2:0:0:
285,117,70687,1,4,1:2:0:0:
385,343,70863,1,4,1:2:0:0:
352,48,71040,5,8,0:0:0:0:
326,141,71216,1,0,0:0:0:0:
416,184,71393,2,0,P|428:224|428:265,2,83.9999974365235,8|0|12,0:0|0:0|1:2,0:0:0:0:
312,360,71922,1,8,0:0:0:0:
512,328,72098,1,8,0:0:0:0:
352,264,72275,2,0,P|386:286|409:324,1,83.9999974365235,8|0,0:0|0:0,0:0:0:0:
248,208,72628,5,8,0:0:0:0:
248,208,72716,1,0,0:0:0:0:
248,208,72804,1,8,0:0:0:0:
352,264,72981,1,0,0:0:0:0:
416,96,73157,1,12,1:2:0:0:
440,192,73334,1,0,0:0:0:0:
283,130,73510,1,8,0:0:0:0:
285,101,73598,1,8,0:0:0:0:
288,72,73686,1,8,0:0:0:0:
100,256,73863,5,8,0:0:0:0:
168,176,74040,1,0,0:0:0:0:
120,88,74216,2,0,P|123:46|137:6,2,83.9999974365235,8|0|12,0:0|0:0|1:2,0:0:0:0:
15,39,74745,1,0,0:0:0:0:
236,58,74922,1,8,0:0:0:0:
97,149,75098,2,0,P|127:120|165:103,1,83.9999974365235,8|0,0:0|0:0,0:0:0:0:
386,68,75451,5,8,0:0:0:0:
386,68,75540,1,0,0:0:0:0:
386,68,75628,1,8,0:0:0:0:
295,2,75804,1,8,0:0:0:0:
421,220,75981,1,12,1:2:0:0:
477,114,76157,1,0,0:0:0:0:
320,246,76334,1,8,0:0:0:0:
305,272,76422,2,0,P|255:253|224:254,1,83.9999974365235,0|0,0:0|0:0,0:0:0:0:
203,187,76687,6,0,P|180:232|114:281,1,90.9999958343508,12|0,0:0|0:0,0:0:0:0:
28,130,76951,1,0,0:0:0:0:
28,130,77040,2,0,P|50:175|116:224,1,90.9999958343508,0|0,1:2|0:0,0:0:0:0:
232,92,77304,1,0,0:0:0:0:
232,92,77393,2,0,P|209:140|148:190,1,90.9999958343508,12|0,1:2|0:0,0:0:0:0:
107,20,77745,2,0,L|123:92,1,45.4999979171754,0|0,1:0|0:0,0:0:0:0:
203,187,77922,2,0,L|187:307,1,90.9999958343508,8|0,1:2|0:0,0:0:0:0:
360,56,78275,5,8,0:0:0:0:
360,56,78363,1,0,0:0:0:0:
360,56,78451,2,0,L|376:152,1,90.9999958343508,12|0,1:2|0:0,0:0:0:0:
152,48,78804,1,12,1:2:0:0:
264,0,78981,1,0,0:0:0:0:
200,152,79157,2,0,L|257:171,1,45.4999979171754,8|0,1:2|0:0,0:0:0:0:
233,327,79334,2,0,L|214:285,1,45.4999979171754,8|0,1:2|0:0,0:0:0:0:
311,141,79510,6,0,P|281:181|272:256,1,90.9999958343508,8|6,0:0|0:0,0:0:0:0:
456,258,79774,1,0,0:0:0:0:
456,258,79863,2,0,P|415:228|341:219,1,90.9999958343508,8|0,0:0|0:0,0:0:0:0:
207,308,80216,1,8,3:2:0:0:
233,327,80304,1,0,3:2:0:0:
264,336,80393,1,8,3:2:0:0:
296,334,80481,1,0,3:2:0:0:
326,322,80569,1,4,0:0:0:0:
201,154,80745,1,0,0:0:0:0:
334,37,80922,6,0,L|326:141,1,90.9999958343508,8|0,0:0|1:0,0:0:0:0:
201,154,81187,1,0,3:0:0:0:
271,199,81275,2,0,L|279:279,1,45.4999979171754,8|0,0:0|0:0,0:0:0:0:
416,176,81451,1,8,0:0:0:0:
192,320,81628,1,12,1:2:0:0:
320,248,81804,1,0,1:0:0:0:
88,272,81981,2,0,L|80:384,1,90.9999958343508,12|0,0:0|0:0,0:0:0:0:
224,335,82334,6,0,P|256:287|303:267,2,83.9999974365235,8|0|0,0:0|0:0|0:0,0:0:0:0:
322,365,82863,1,0,0:0:0:0:
320,248,83040,2,0,P|280:234|238:233,1,83.9999974365235,10|0,0:0|0:0,0:0:0:0:
470,151,83393,2,0,P|428:151|388:165,1,83.9999974365235,0|0,0:0|0:0,0:0:0:0:
249,40,83745,5,8,0:0:0:0:
192,165,83922,2,0,P|204:205|234:239,1,83.9999974365235,0|0,0:0|0:0,0:0:0:0:
305,112,84274,1,0,0:0:0:0:
77,178,84451,1,10,0:0:0:0:
176,240,84628,1,0,0:0:0:0:
45,154,84804,2,0,P|37:198|53:250,1,83.9999974365235,0|0,0:0|0:0,0:0:0:0:
168,320,85157,6,0,P|232:352|255:376,2,83.9999974365235,8|0|0,0:0|0:0|0:0,0:0:0:0:
282,263,85687,1,0,0:0:0:0:
366,371,85863,2,0,P|324:373|283:364,1,83.9999974365235,10|0,0:0|0:0,0:0:0:0:
400,240,86216,2,0,P|432:266|456:300,1,83.9999974365235,0|0,0:0|0:0,0:0:0:0:
328,168,86569,6,0,L|376:152,3,41.9999987182618,8|0|0|0,0:0|0:0|0:0|0:0,0:0:0:0:
400,144,86922,1,0,0:0:0:0:
211,107,87098,1,0,0:0:0:0:
312,248,87275,1,10,3:2:0:0:
318,259,87363,1,0,3:2:0:0:
327,269,87451,1,0,3:2:0:0:
338,276,87540,1,0,3:2:0:0:
351,279,87628,2,0,L|400:272,1,41.9999987182618,0|0,0:0|0:0,0:0:0:0:
384,120,87804,2,0,L|425:127,1,41.9999987182618,0|0,0:0|0:0,0:0:0:0:
221,41,87981,6,0,P|164:98|151:139,2,83.9999974365235,8|0|0,0:0|0:0|0:0,0:0:0:0:
72,114,88510,1,0,0:0:0:0:
259,133,88687,1,10,0:0:0:0:
202,240,88863,1,0,0:0:0:0:
106,98,89040,2,0,P|142:120|169:153,1,83.9999974365235,0|0,0:0|0:0,0:0:0:0:
314,223,89393,5,8,0:0:0:0:
465,212,89569,1,0,0:0:0:0:
335,161,89745,2,0,P|346:201|365:238,1,83.9999974365235,0|0,0:0|0:0,0:0:0:0:
380,79,90098,1,10,0:0:0:0:
240,216,90275,1,0,0:0:0:0:
425,277,90451,2,0,P|360:264|301:284,1,125.999996154785,0|0,0:0|0:0,0:0:0:0:
254,251,90804,6,0,L|270:355,1,83.9999974365235,8|0,0:0|0:0,0:0:0:0:
108,197,91157,2,0,L|92:301,1,83.9999974365235,0|0,0:0|0:0,0:0:0:0:
318,88,91510,2,0,L|334:192,1,83.9999974365235,10|0,0:0|0:0,0:0:0:0:
133,117,91863,1,0,0:0:0:0:
213,6,92040,1,0,0:0:0:0:
58,34,92216,6,0,L|29:23,3,31.4999990386963,0|0|0|0,3:0|3:0|3:0|3:0,3:3:0:0:
132,116,92569,2,0,P|75:143|33:189,1,125.999996154785,8|2,0:0|1:2,0:0:0:0:
429,71,93275,1,0,1:0:0:0:
432,192,93628,5,12,2:0:0:0:
260,118,93804,2,0,P|309:116|353:138,1,97.9999970092774,0|0,0:0|1:0,0:0:0:0:
384,27,94157,1,0,0:0:0:0:
143,96,94334,2,0,P|215:96|276:57,1,146.999995513916,6|0,0:0|0:0,0:0:0:0:
288,16,94687,1,8,1:2:0:0:
181,206,94863,1,0,0:0:0:0:
71,22,95040,5,8,1:2:0:0:
89,247,95216,1,0,3:2:0:0:
126,250,95304,1,0,3:2:0:0:
161,231,95393,1,4,3:2:0:0:
17,94,95569,1,0,1:0:0:0:
252,214,95745,2,0,P|191:253|159:318,1,146.999995513916,2|0,0:0|0:0,0:0:0:0:
266,372,96098,2,0,L|256:323,2,48.9999985046387,12|0|0,1:2|0:0|0:0,0:0:0:0:
256,48,96451,5,8,1:2:0:0:
320,160,96628,2,0,P|408:192|448:184,1,97.9999970092774,0|0,0:0|1:0,0:0:0:0:
496,104,96981,1,0,0:0:0:0:
296,128,97157,2,0,P|281:199|293:271,1,146.999995513916,6|0,1:2|0:0,0:0:0:0:
312,296,97510,1,8,0:0:0:0:
480,208,97687,1,0,0:0:0:0:
144,272,97863,5,12,0:2:0:0:
256,48,98040,1,0,3:2:0:0:
264,88,98128,1,0,3:2:0:0:
248,128,98216,1,0,3:2:0:0:
408,256,98393,1,0,3:2:0:0:
385,219,98481,1,0,3:2:0:0:
384,179,98569,2,0,P|418:134|466:115,1,97.9999970092774,2|0,1:2|0:0,0:0:0:0:
272,16,98922,2,0,L|264:88,1,48.9999985046387,0|0,1:0|0:0,0:0:0:0:
96,80,99098,2,0,L|104:144,1,48.9999985046387,0|0,0:0|0:0,0:0:0:0:
112,320,99274,5,12,1:2:0:0:
70,299,99363,2,0,L|136:232,2,56,0|0|0,0:0|0:0|0:0,0:0:0:0:
258,261,99628,1,0,3:2:0:0:
276,226,99716,1,0,3:2:0:0:
266,188,99804,1,0,3:2:0:0:
43,93,99981,5,14,1:2:0:0:
1,114,100070,2,0,L|67:181,2,56,0|0|0,0:0|0:0|0:0,0:0:0:0:
188,16,100335,1,0,3:0:0:0:
206,51,100423,1,0,3:0:0:0:
196,89,100511,1,0,3:0:0:0:
129,223,100687,6,0,P|184:209|264:241,1,112,12|0,1:2|0:0,0:0:0:0:
275,379,100951,1,0,0:0:0:0:
275,379,101040,2,0,P|220:363|167:295,1,112,12|0,1:2|0:0,0:0:0:0:
296,127,101304,1,0,0:0:0:0:
296,127,101393,2,0,P|335:167|347:252,1,112,14|0,1:2|0:0,0:0:0:0:
181,326,101657,1,0,0:0:0:0:
181,326,101745,2,0,L|193:235,1,56,12|0,1:2|0:0,0:0:0:0:
264,168,101922,2,0,L|256:112,1,56,0|0,0:0|0:0,0:0:0:0:
96,80,102098,5,12,1:2:0:0:
392,32,102275,1,8,0:0:0:0:
224,184,102451,1,4,1:2:0:0:
288,48,102628,1,0,0:0:0:0:
352,272,102804,1,14,0:0:0:0:
432,8,102981,1,0,0:0:0:0:
208,128,103157,1,12,1:2:0:0:
392,152,103334,1,0,0:0:0:0:
168,0,103510,5,12,1:2:0:0:
125,26,103598,1,0,3:2:0:0:
95,67,103687,1,0,3:2:0:0:
78,114,103775,1,0,3:2:0:0:
76,164,103863,1,4,3:2:0:0:
272,264,104040,5,0,1:0:0:0:
246,220,104128,1,0,1:0:0:0:
196,214,104216,1,6,1:2:0:0:
309,47,104922,6,0,P|312:114|346:195,1,125.999996154785,6|0,1:2|0:0,0:0:0:0:
324,266,105187,1,0,0:0:0:0:
368,131,105275,2,0,P|364:198|330:279,1,125.999996154785,8|0,0:0|0:0,0:0:0:0:
377,342,105540,1,0,0:0:0:0:
393,212,105628,2,0,P|414:172|460:138,1,62.9999980773926,2|0,1:2|0:0,0:0:0:0:
512,300,105804,1,0,0:0:0:0:
473,224,105893,1,0,0:0:0:0:
419,295,105981,2,0,P|409:324|407:356,1,62.9999980773926,12|0,0:0|0:0,0:0:0:0:
323,265,106157,2,0,P|304:240|293:211,1,62.9999980773926,2|0,0:0|0:0,0:0:0:0:
248,379,106334,6,0,P|164:356|108:381,1,125.999996154785,6|0,1:2|0:0,0:0:0:0:
82,250,106598,1,0,0:0:0:0:
105,358,106687,2,0,P|178:285|188:230,1,125.999996154785,14|0,1:2|0:0,0:0:0:0:
137,154,106951,1,0,0:0:0:0:
82,250,107040,2,0,L|20:248,2,62.9999980773926,6|0|0,1:2|0:0|0:0,0:0:0:0:
273,68,107393,5,10,0:0:0:0:
48,132,107569,1,4,0:0:0:0:
283,172,107745,6,0,P|370:163|426:132,1,125.999996154785,6|0,1:2|0:0,0:0:0:0:
496,201,108010,1,0,0:0:0:0:
336,209,108098,2,0,P|371:228|394:260,1,62.9999980773926,8|0,0:0|0:0,0:0:0:0:
512,364,108275,2,0,P|509:332|496:304,1,62.9999980773926,0|0,0:0|0:0,0:0:0:0:
280,337,108451,2,0,P|386:353|439:333,1,125.999996154785,2|0,1:2|0:0,0:0:0:0:
336,209,108716,1,0,0:0:0:0:
247,257,108804,2,0,P|211:268|175:265,1,62.9999980773926,12|0,0:0|0:0,0:0:0:0:
142,119,108981,2,0,P|176:133|202:159,1,62.9999980773926,2|0,0:0|0:0,0:0:0:0:
55,274,109157,5,6,3:2:0:0:
46,230,109245,1,0,3:0:0:0:
38,186,109334,1,0,3:0:0:0:
198,288,109510,1,14,1:2:0:0:
35,145,109687,1,0,1:0:0:0:
213,161,109863,1,14,3:2:0:0:
222,117,109951,1,0,3:0:0:0:
230,73,110040,1,0,3:0:0:0:
44,20,110216,5,10,0:0:0:0:
205,192,110393,1,4,0:0:0:0:
402,78,110569,6,0,P|348:119|302:193,1,125.999996154785,6|0,1:2|0:0,0:0:0:0:
231,215,110834,1,0,0:0:0:0:
326,105,110922,2,0,P|290:162|271:248,1,125.999996154785,8|0,0:0|0:0,0:0:0:0:
337,301,111187,1,0,0:0:0:0:
168,329,111275,2,0,P|200:308|250:302,1,62.9999980773926,2|0,1:2|0:0,0:0:0:0:
450,244,111451,2,0,P|417:223|367:217,1,62.9999980773926,12|0,0:0|0:0,0:0:0:0:
231,215,111628,2,0,L|224:134,1,62.9999980773926,0|0,0:0|0:0,0:0:0:0:
394,217,111804,2,0,L|405:129,1,62.9999980773926,2|0,0:0|0:0,0:0:0:0:
221,41,111981,6,0,B|274:72|357:67,1,125.999996154785,6|0,1:2|0:0,0:0:0:0:
498,31,112245,1,0,0:0:0:0:
408,93,112334,2,0,P|307:109|250:136,1,125.999996154785,14|0,1:2|0:0,0:0:0:0:
156,195,112598,1,0,0:0:0:0:
257,146,112687,2,0,L|245:44,1,62.9999980773926,6|0,1:2|0:0,0:0:0:0:
245,256,112863,1,0,0:0:0:0:
84,33,113040,5,10,0:0:0:0:
287,166,113216,1,4,0:0:0:0:
26,314,113393,6,0,P|117:279|191:284,1,125.999996154785,6|0,1:2|0:0,0:0:0:0:
251,346,113657,1,0,0:0:0:0:
108,376,113745,2,0,P|199:372|242:353,1,125.999996154785,8|0,0:0|0:0,0:0:0:0:
306,235,114010,1,0,0:0:0:0:
226,190,114098,2,0,P|216:225|216:261,1,62.9999980773926,2|0,1:2|0:0,0:0:0:0:
352,349,114275,2,0,P|386:367|441:375,1,62.9999980773926,0|0,0:0|0:0,0:0:0:0:
512,253,114451,1,12,0:0:0:0:
306,235,114628,2,0,P|332:217|361:206,1,62.9999980773926,2|0,0:0|0:0,0:0:0:0:
468,104,114804,5,6,3:2:0:0:
433,88,114893,1,0,3:0:0:0:
399,90,114981,1,0,3:0:0:0:
176,183,115157,1,14,1:2:0:0:
368,108,115334,1,0,1:0:0:0:
91,106,115510,1,6,3:2:0:0:
142,85,115598,1,0,3:0:0:0:
191,66,115687,1,0,3:0:0:0:
0,212,115863,1,10,3:2:0:0:
46,240,115951,1,0,3:0:0:0:
92,264,116040,1,4,3:2:0:0:
0,381,116216,6,0,P|96:343|131:341,1,125.999996154785,6|0,1:2|0:0,0:0:0:0:
212,292,116481,1,0,0:0:0:0:
63,289,116569,2,0,P|159:327|194:329,1,125.999996154785,8|0,0:0|0:0,0:0:0:0:
338,356,116834,1,0,0:0:0:0:
235,254,116922,2,0,P|264:263|291:280,1,62.9999980773926,2|0,1:2|0:0,0:0:0:0:
469,381,117098,2,0,P|447:358|432:330,1,62.9999980773926,0|0,0:0|0:0,0:0:0:0:
379,135,117275,2,0,P|389:196|377:258,1,125.999996154785,12|2,0:0|0:0,0:0:0:0:
205,259,117540,1,0,0:0:0:0:
156,175,117628,6,0,P|205:106|266:84,1,125.999996154785,6|0,1:2|0:0,0:0:0:0:
375,100,117893,1,0,0:0:0:0:
283,86,117981,2,0,P|192:84|132:60,1,125.999996154785,14|0,1:2|0:0,0:0:0:0:
50,64,118245,1,0,0:0:0:0:
132,107,118334,2,0,P|131:138|123:169,2,62.9999980773926,6|0|0,1:2|0:0|0:0,0:0:0:0:
162,314,118687,5,10,0:0:0:0:
0,145,118863,1,4,0:0:0:0:
339,142,119040,6,0,P|296:188|241:218,1,125.999996154785,6|0,1:2|0:0,0:0:0:0:
136,326,119304,1,0,0:0:0:0:
274,322,119393,2,0,P|239:307|195:302,1,62.9999980773926,8|0,0:0|0:0,0:0:0:0:
0,334,119569,2,0,P|27:319|58:310,1,62.9999980773926,0|0,0:0|0:0,0:0:0:0:
243,309,119745,2,0,P|186:275|150:190,1,125.999996154785,2|0,1:2|0:0,0:0:0:0:
113,349,120010,1,0,0:0:0:0:
125,241,120098,2,0,P|137:209|164:179,1,62.9999980773926,12|0,0:0|0:0,0:0:0:0:
339,142,120275,2,0,P|306:153|266:151,1,62.9999980773926,2|0,0:0|0:0,0:0:0:0:
85,33,120451,5,6,3:2:0:0:
129,34,120539,1,0,3:0:0:0:
171,51,120628,1,0,3:0:0:0:
177,308,120804,1,14,1:2:0:0:
221,116,120981,1,2,0:0:0:0:
290,268,121157,1,6,3:2:0:0:
245,270,121246,1,0,3:0:0:0:
205,286,121334,1,0,3:0:0:0:
467,333,121510,5,10,0:0:0:0:
152,226,121687,1,4,0:0:0:0:
361,362,121863,6,0,P|386:272|374:193,1,125.999996154785,6|0,1:2|0:0,0:0:0:0:
433,143,122128,1,0,0:0:0:0:
442,312,122216,2,0,P|417:222|429:143,1,125.999996154785,8|0,0:0|0:0,0:0:0:0:
370,93,122481,1,0,0:0:0:0:
257,192,122569,2,0,P|294:184|336:165,1,62.9999980773926,2|0,1:2|0:0,0:0:0:0:
512,366,122745,2,0,P|478:348|433:335,1,62.9999980773926,0|0,0:0|0:0,0:0:0:0:
230,226,122922,2,0,L|238:301,1,62.9999980773926,12|0,0:0|0:0,0:0:0:0:
286,24,123098,2,0,L|278:99,1,62.9999980773926,0|0,0:0|0:0,0:0:0:0:
62,87,123275,6,0,P|138:98|196:142,1,125.999996154785,6|0,1:2|0:0,0:0:0:0:
209,259,123540,1,0,0:0:0:0:
163,57,123628,2,0,P|206:101|228:160,1,125.999996154785,14|0,1:2|0:0,0:0:0:0:
165,283,123893,1,0,0:0:0:0:
259,98,123981,2,0,P|263:160|243:219,1,125.999996154785,6|0,1:2|0:0,0:0:0:0:
132,174,124245,1,0,0:0:0:0:
130,192,124334,1,10,0:0:0:0:
346,225,124510,1,4,0:0:0:0:
208,374,124687,6,0,P|185:299|200:227,1,125.999996154785,6|0,1:2|0:0,0:0:0:0:
271,137,124951,1,0,0:0:0:0:
337,251,125040,2,0,P|309:239|268:235,1,62.9999980773926,8|0,0:0|0:0,0:0:0:0:
106,317,125216,2,0,P|132:300|163:291,1,62.9999980773926,0|0,0:0|0:0,0:0:0:0:
354,354,125393,2,0,P|341:288|391:203,1,125.999996154785,2|0,1:2|0:0,0:0:0:0:
460,190,125657,1,0,0:0:0:0:
403,259,125745,2,0,P|383:232|374:194,1,62.9999980773926,12|0,0:0|0:0,0:0:0:0:
446,69,125922,2,0,P|413:76|382:100,1,62.9999980773926,2|0,0:0|0:0,0:0:0:0:
271,137,126098,5,6,3:2:0:0:
248,136,126187,1,0,3:0:0:0:
226,135,126275,1,0,3:0:0:0:
285,334,126451,1,14,1:2:0:0:
86,248,126628,1,0,0:0:0:0:
320,253,126804,5,6,3:2:0:0:
343,252,126893,1,0,3:0:0:0:
365,251,126981,1,0,3:0:0:0:
191,140,127157,1,10,0:0:0:0:
318,355,127334,1,4,0:0:0:0:
432,193,127510,5,6,3:2:0:0:
412,146,127598,1,0,3:0:0:0:
373,112,127687,1,0,3:0:0:0:
322,109,127775,1,0,3:0:0:0:
286,144,127863,5,2,3:2:0:0:
403,348,128040,1,0,3:0:0:0:
118,228,128216,1,4,1:2:0:0:
364,217,128393,1,4,1:2:0:0:
357,245,128481,1,0,0:0:0:0:
351,278,128569,2,0,L|364:348,1,62.9999980773926,4|0,1:2|0:0,0:0:0:0:
495,132,128745,1,4,1:2:0:0:
488,176,128833,1,0,0:0:0:0:
481,217,128922,5,4,1:0:0:0:
376,128,131040,5,0,3:0:0:0:
379,144,131128,1,0,3:0:0:0:
382,160,131216,1,0,3:0:0:0:
385,176,131304,1,0,3:0:0:0:
388,192,131393,2,0,P|387:224|369:260,1,41.9999987182618,0|0,1:0|0:0,0:0:0:0:
503,110,131569,2,0,P|486:96|468:87,1,41.9999987182618,0|0,1:0|0:0,0:0:0:0:
352,40,131745,6,0,P|296:32|232:48,1,83.9999974365235,4|0,0:0|0:0,0:0:0:0:
176,112,132098,1,0,0:0:0:0:
176,112,132275,1,0,0:0:0:0:
0,184,132451,6,0,P|56:176|120:192,1,83.9999974365235,4|0,0:0|0:0,0:0:0:0:
176,256,132804,1,0,0:0:0:0:
176,256,132981,1,0,0:0:0:0:
352,312,133157,6,0,P|296:304|232:320,1,83.9999974365235,4|0,0:0|0:0,0:0:0:0:
56,384,133510,1,0,1:2:0:0:
176,384,133687,1,0,3:0:0:0:
269,307,133863,1,0,3:0:0:0:
272,184,134040,1,0,3:0:0:0:
192,96,134216,1,0,3:0:0:0:
72,96,134393,1,0,3:0:0:0:
272,184,134569,6,0,P|320:192|368:192,1,83.9999974365235,4|0,0:0|0:0,0:0:0:0:
456,64,134922,1,0,0:0:0:0:
352,88,135098,1,0,0:0:0:0:
424,288,135275,2,0,P|386:238|288:208,1,167.999994873047,6|0,0:0|0:0,0:0:0:0:
272,352,135804,1,0,3:2:0:0:
240,368,135893,1,0,3:2:0:0:
208,376,135981,1,4,3:2:0:0:
64,216,136157,6,0,P|105:211|216:280,1,167.999994873047,0|0,0:0|0:0,0:0:0:0:
120,72,136687,2,0,P|80:40|64:0,1,83.9999974365235,6|0,0:0|0:0,0:0:0:0:
272,80,137040,1,0,0:0:0:0:
312,224,137216,1,0,0:0:0:0:
328,184,137304,1,0,0:0:0:0:
360,160,137393,6,0,P|416:144|472:144,1,83.9999974365235,4|0,0:0|0:0,0:0:0:0:
272,352,137745,2,0,P|239:325|223:287,1,83.9999974365235,0|0,0:0|0:0,0:0:0:0:
480,280,138098,2,0,P|436:254|309:276,1,167.999994873047,6|0,0:0|0:0,0:0:0:0:
232,336,138628,1,0,0:0:0:0:
152,120,138804,5,4,0:0:0:0:
48,232,138981,1,0,3:2:0:0:
32,272,139069,2,0,L|48:336,2,41.9999987182618,0|0|0,3:2|0:2|0:2,3:3:0:0:
144,200,139334,2,0,L|136:264,1,41.9999987182618,0|0,3:2|0:0,0:0:0:0:
152,384,139510,1,6,0:0:0:0:
238,218,139687,1,0,0:0:0:0:
56,56,139863,6,0,P|71:89|70:125,1,73.4999977569581,4|0,0:0|0:0,0:0:0:0:
48,144,140216,5,6,3:2:0:0:
160,80,140393,1,0,3:2:0:0:
238,218,140569,2,8,P|192:201|143:199,1,97.9999970092774,0|0,3:2|3:2,3:3:0:0:
200,344,140922,1,6,3:2:0:0:
328,343,141099,1,0,3:2:0:0:
327,184,141275,2,0,P|295:221|254:247,2,97.9999970092774,0|0|6,3:2|3:2|0:2,3:3:0:0:
232,24,141804,5,0,3:2:0:0:
232,24,141893,1,0,3:2:0:0:
232,24,141981,1,0,3:2:0:0:
296,120,142157,2,0,P|368:152|400:152,1,97.9999970092774,0|6,3:2|3:2,3:3:0:0:
240,224,142510,1,0,3:2:0:0:
400,46,142687,1,0,3:2:0:0:
372,40,142775,1,0,3:2:0:0:
345,35,142863,1,0,3:2:0:0:
479,208,143040,6,0,P|487:160|480:112,1,97.9999970092774,6|0,3:2|0:2,3:3:0:0:
360,240,143393,2,0,P|381:284|416:319,1,97.9999970092774,0|0,3:2|0:2,3:3:0:0:
320,384,143745,1,6,3:2:0:0:
208,280,143922,1,0,3:2:0:0:
328,184,144098,2,0,P|320:240|296:288,2,97.9999970092774,0|0|6,3:2|3:2|3:2,3:3:0:0:
136,96,144628,5,0,3:2:0:0:
136,96,144716,1,0,3:2:0:0:
136,96,144804,1,0,3:2:0:0:
256,16,144981,1,0,3:2:0:0:
158,195,145157,1,6,3:2:0:0:
376,96,145334,2,0,P|335:68|232:72,1,146.999995513916,4|0,3:2|3:2,3:3:0:0:
162,157,145687,1,0,3:2:0:0:
160,176,145775,1,0,3:2:0:0:
158,195,145863,6,0,P|174:245|214:290,1,97.9999970092774,6|0,1:2|0:0,0:0:0:0:
336,240,146128,1,0,0:0:0:0:
338,259,146216,2,0,P|324:305|294:344,1,97.9999970092774,0|0,1:0|0:0,0:0:0:0:
264,152,146481,1,0,0:0:0:0:
279,140,146569,2,0,P|326:128|374:135,1,97.9999970092774,14|0,1:2|0:0,0:0:0:0:
120,32,146922,2,0,L|128:104,1,48.9999985046387,0|0,1:0|0:0,0:0:0:0:
40,256,147098,2,0,L|56:128,1,97.9999970092774,0|6,1:0|0:0,0:0:0:0:
256,360,147451,5,0,1:2:0:0:
256,360,147540,1,0,1:2:0:0:
256,360,147628,1,0,1:2:0:0:
104,344,147804,1,0,1:2:0:0:
272,152,147981,1,6,0:0:0:0:
320,256,148157,1,0,1:2:0:0:
168,280,148334,1,0,1:2:0:0:
224,272,148422,1,0,1:2:0:0:
280,264,148510,1,0,1:2:0:0:
112,96,148687,6,0,P|142:154|197:191,1,97.9999970092774,6|0,1:2|0:0,0:0:0:0:
328,136,149040,1,0,1:0:0:0:
192,176,149216,1,0,1:0:0:0:
280,32,149393,1,6,1:2:0:0:
313,23,149481,1,0,1:2:0:0:
347,22,149569,1,0,1:2:0:0:
379,32,149657,1,0,1:2:0:0:
408,48,149745,2,0,L|422:128,1,48.9999985046387,0|0,1:0|0:0,0:0:0:0:
320,176,149922,2,0,L|311:224,1,48.9999985046387,0|0,1:0|0:0,0:0:0:0:
480,176,150098,5,6,1:2:0:0:
296,360,150275,2,0,L|368:336,1,48.9999985046387,0|0,1:2|1:2,0:0:0:0:
112,272,150451,1,0,1:0:0:0:
256,352,150628,1,0,0:0:0:0:
192,120,150804,2,0,L|208:192,1,48.9999985046387,6|0,1:2|0:0,0:0:0:0:
144,288,150981,1,0,1:2:0:0:
312,272,151157,1,0,0:0:0:0:
41,377,151334,1,12,1:2:0:0:
264,176,151510,6,0,P|208:160|128:176,2,125.999996154785,2|0|2,0:0|0:0|0:0,0:0:0:0:
336,240,152393,1,0,0:0:0:0:
341,106,152569,2,0,P|366:126|384:152,1,62.9999980773926,0|0,0:0|0:0,0:0:0:0:
472,176,152922,2,0,P|460:209|464:256,1,62.9999980773926,0|0,0:0|0:0,0:0:0:0:
464,376,153275,1,0,0:0:0:0:
464,376,153628,2,0,P|472:333|496:304,1,62.9999980773926,2|0,0:0|0:0,0:0:0:0:
440,240,153981,1,0,0:0:0:0:
376,304,154157,1,0,0:0:0:0:
280,288,154334,6,0,P|217:287|158:309,2,125.999996154785,0|0|2,0:0|0:0|0:0,0:0:0:0:
336,216,155216,1,0,0:0:0:0:
280,136,155393,2,0,L|256:168,2,31.4999990386963,0|0|0,0:0|0:0|0:0,0:0:0:0:
176,48,155745,6,8,L|224:48,4,31.4999990386963,8|8|8|8|12,0:0|0:0|0:0|0:0|0:0,0:0:0:0:
96,120,156275,1,8,0:0:0:0:
160,192,156451,1,10,0:0:0:0:
200,288,156628,1,8,0:0:0:0:
160,192,156804,1,8,0:0:0:0:
96,264,156981,1,8,0:0:0:0:
142,356,157157,6,8,P|177:367|230:364,2,62.9999980773926,8|0|0,0:0|0:0|0:0,0:0:0:0:
280,304,157687,1,8,0:0:0:0:
352,360,157863,1,2,0:0:0:0:
432,328,158040,1,8,0:0:0:0:
363,250,158216,2,0,P|341:227|311:217,1,62.9999980773926,8|0,0:0|0:0,0:0:0:0:
352,360,158569,5,8,0:0:0:0:
440,288,158745,2,0,P|452:253|448:200,2,62.9999980773926,8|0|8,0:0|0:0|0:0,0:0:0:0:
368,144,159275,1,10,0:0:0:0:
464,64,159451,1,8,0:0:0:0:
368,144,159628,2,0,P|296:128|240:144,1,125.999996154785,8|8,0:0|0:0,0:0:0:0:
248,40,160157,5,8,0:0:0:0:
128,24,160334,2,0,P|144:72|168:96,1,62.9999980773926,0|8,0:0|0:0,0:0:0:0:
216,144,160687,1,2,0:0:0:0:
128,108,160863,1,8,0:0:0:0:
54,167,161040,1,0,0:0:0:0:
54,261,161216,1,8,0:0:0:0:
115,333,161393,1,12,0:0:0:0:
176,57,162804,6,0,P|243:60|324:94,1,125.999996154785,6|0,1:2|0:0,0:0:0:0:
395,72,163069,1,0,0:0:0:0:
260,116,163157,2,0,P|326:116|408:78,1,125.999996154785,8|0,0:0|0:0,0:0:0:0:
471,125,163422,1,0,0:0:0:0:
341,141,163510,2,0,P|306:169|282:221,1,62.9999980773926,2|0,1:2|0:0,0:0:0:0:
457,241,163686,1,0,0:0:0:0:
373,238,163775,1,0,0:0:0:0:
482,157,163863,2,0,P|451:159|421:170,1,62.9999980773926,12|0,0:0|0:0,0:0:0:0:
468,339,164039,2,0,P|438:328|414:309,1,62.9999980773926,2|0,0:0|0:0,0:0:0:0:
286,228,164216,6,0,P|166:202|123:222,1,125.999996154785,6|0,1:2|0:0,0:0:0:0:
106,307,164481,1,0,0:0:0:0:
79,165,164569,2,0,P|135:193|172:244,1,125.999996154785,14|0,1:2|0:0,0:0:0:0:
33,268,164834,1,0,0:0:0:0:
50,149,164922,2,0,L|44:86,2,62.9999980773926,6|0|0,1:2|0:0|0:0,0:0:0:0:
364,106,165275,5,10,0:0:0:0:
134,229,165451,1,4,0:0:0:0:
438,310,165628,6,0,P|351:282|305:296,1,125.999996154785,6|0,1:2|0:0,0:0:0:0:
230,326,165893,1,0,0:0:0:0:
346,223,165981,2,0,P|330:255|304:277,1,62.9999980773926,8|0,0:0|0:0,0:0:0:0:
204,158,166157,2,0,P|238:158|278:175,1,62.9999980773926,0|0,0:0|0:0,0:0:0:0:
362,118,166334,1,2,1:2:0:0:
157,40,166510,1,0,0:0:0:0:
157,63,166598,1,0,0:0:0:0:
156,86,166687,2,0,P|176:115|210:140,1,62.9999980773926,12|0,0:0|0:0,0:0:0:0:
263,0,166863,2,0,P|257:30|242:58,1,62.9999980773926,2|0,0:0|0:0,0:0:0:0:
66,111,167040,5,6,3:2:0:0:
61,154,167128,1,0,3:0:0:0:
58,197,167216,1,0,3:0:0:0:
266,277,167393,1,14,1:2:0:0:
53,240,167569,1,0,1:0:0:0:
253,148,167745,1,14,3:2:0:0:
258,191,167833,1,0,3:0:0:0:
261,234,167921,1,0,3:0:0:0:
109,354,168098,5,10,0:0:0:0:
353,223,168275,1,4,0:0:0:0:
78,77,168451,6,0,P|115:154|157:186,1,125.999996154785,6|0,1:2|0:0,0:0:0:0:
240,177,168716,1,0,0:0:0:0:
120,116,168804,2,0,P|204:121|252:146,1,125.999996154785,8|0,0:0|0:0,0:0:0:0:
329,174,169069,1,0,0:0:0:0:
262,57,169157,2,0,P|267:88|284:124,1,62.9999980773926,2|0,1:2|0:0,0:0:0:0:
455,118,169334,2,0,P|431:97|395:80,1,62.9999980773926,12|0,0:0|0:0,0:0:0:0:
240,177,169510,2,0,L|237:262,1,62.9999980773926,0|0,0:0|0:0,0:0:0:0:
433,145,169687,2,0,L|442:214,1,62.9999980773926,2|0,0:0|0:0,0:0:0:0:
262,277,169863,5,6,3:2:0:0:
305,284,169951,1,0,3:2:0:0:
343,305,170040,1,0,3:2:0:0:
156,279,170216,5,14,3:2:0:0:
189,306,170304,1,0,3:2:0:0:
212,343,170393,1,0,3:2:0:0:
65,213,170569,5,6,3:2:0:0:
80,252,170657,1,0,3:2:0:0:
81,296,170746,1,0,3:2:0:0:
119,83,170922,5,10,0:0:0:0:
358,232,171098,1,4,0:0:0:0:
80,252,171275,6,0,P|150:210|212:205,1,125.999996154785,6|0,1:2|0:0,0:0:0:0:
279,244,171540,1,0,0:0:0:0:
137,172,171628,2,0,P|214:186|267:228,1,125.999996154785,8|0,0:0|0:0,0:0:0:0:
238,308,171893,1,0,0:0:0:0:
254,172,171981,2,0,P|270:147|302:125,1,62.9999980773926,2|0,1:2|0:0,0:0:0:0:
441,124,172157,1,0,0:0:0:0:
367,85,172245,1,0,0:0:0:0:
440,200,172334,2,0,P|434:170|420:141,1,62.9999980773926,12|0,0:0|0:0,0:0:0:0:
508,0,172510,2,0,P|495:28|489:59,1,62.9999980773926,2|0,0:0|0:0,0:0:0:0:
474,221,172687,5,6,3:2:0:0:
430,222,172775,1,0,3:0:0:0:
390,241,172863,1,0,3:0:0:0:
203,367,173040,1,14,1:2:0:0:
350,255,173216,1,0,1:0:0:0:
105,219,173393,5,6,3:2:0:0:
136,224,173481,1,0,3:0:0:0:
166,231,173569,1,0,3:0:0:0:
196,237,173657,1,0,3:0:0:0:
229,253,173745,2,0,L|240:170,1,62.9999980773926,10|0,3:2|3:0,0:0:0:0:
26,318,173922,2,0,L|20:232,1,62.9999980773926,4|0,3:2|3:0,0:0:0:0:
47,59,174098,6,0,P|96:116|159:135,1,125.999996154785,6|0,1:2|0:0,0:0:0:0:
228,87,174363,1,0,0:0:0:0:
131,66,174451,2,0,P|158:137|149:200,1,125.999996154785,8|0,0:0|0:0,0:0:0:0:
80,251,174716,1,0,0:0:0:0:
187,165,174804,2,0,P|213:159|267:170,1,62.9999980773926,2|0,1:2|0:0,0:0:0:0:
330,220,174981,1,0,0:0:0:0:
328,136,175069,1,0,0:0:0:0:
413,252,175157,2,0,P|386:234|367:210,1,62.9999980773926,12|0,0:0|0:0,0:0:0:0:
469,74,175334,2,0,P|460:104|442:130,1,62.9999980773926,2|0,0:0|0:0,0:0:0:0:
314,59,175510,6,0,P|246:36|170:41,1,125.999996154785,6|0,1:2|0:0,0:0:0:0:
151,124,175775,1,0,0:0:0:0:
244,73,175863,2,0,P|181:74|123:96,1,125.999996154785,14|0,1:2|0:0,0:0:0:0:
150,222,176128,1,0,0:0:0:0:
243,184,176216,2,0,L|252:246,2,62.9999980773926,6|0|0,1:2|0:0|0:0,0:0:0:0:
34,146,176569,5,10,0:0:0:0:
305,310,176745,1,4,0:0:0:0:
36,362,176922,6,0,P|112:308|186:306,1,125.999996154785,6|0,1:2|0:0,0:0:0:0:
229,342,177187,1,0,0:0:0:0:
112,264,177275,2,0,P|149:280|185:284,1,62.9999980773926,8|0,0:0|0:0,0:0:0:0:
305,310,177451,2,0,P|274:316|245:329,1,62.9999980773926,0|0,0:0|0:0,0:0:0:0:
140,384,177628,1,2,1:2:0:0:
414,363,177804,1,0,0:0:0:0:
411,340,177893,1,0,0:0:0:0:
408,310,177981,1,12,0:0:0:0:
192,155,178157,2,0,P|212:184|250:210,1,62.9999980773926,2|0,0:0|0:0,0:0:0:0:
391,87,178334,5,6,3:2:0:0:
347,79,178422,1,0,3:0:0:0:
303,71,178510,1,0,3:0:0:0:
294,225,178687,1,14,1:2:0:0:
166,72,178863,1,2,0:0:0:0:
164,249,179040,1,6,3:2:0:0:
208,241,179128,1,0,3:0:0:0:
252,233,179216,1,0,3:0:0:0:
14,132,179393,5,10,0:0:0:0:
141,368,179569,1,4,0:0:0:0:
306,137,179745,6,0,P|218:106|156:118,1,125.999996154785,6|0,1:2|0:0,0:0:0:0:
106,159,180010,1,0,0:0:0:0:
219,65,180098,2,0,P|182:72|153:96,1,62.9999980773926,8|0,0:0|0:0,0:0:0:0:
226,232,180275,2,0,P|189:225|160:201,1,62.9999980773926,0|0,0:0|0:0,0:0:0:0:
27,118,180451,2,0,L|37:201,1,62.9999980773926,2|0,1:2|0:0,0:0:0:0:
150,3,180628,2,0,L|140:86,1,62.9999980773926,0|0,0:0|0:0,0:0:0:0:
34,180,180804,2,0,L|44:263,2,62.9999980773926,12|0|0,0:0|0:0|0:0,0:0:0:0:
298,278,181157,6,0,P|261:203|282:143,1,125.999996154785,6|0,1:2|0:0,0:0:0:0:
396,127,181422,1,0,0:0:0:0:
426,220,181510,2,0,P|448:163|430:104,1,125.999996154785,14|0,1:2|0:0,0:0:0:0:
311,83,181775,1,0,0:0:0:0:
268,164,181863,2,0,P|263:102|298:51,1,125.999996154785,6|0,1:2|0:0,0:0:0:0:
376,295,182216,5,10,0:0:0:0:
85,211,182393,1,4,0:0:0:0:
276,372,182569,6,0,P|266:302|213:240,1,125.999996154785,6|0,1:2|0:0,0:0:0:0:
156,206,182834,1,0,0:0:0:0:
216,331,182922,2,0,P|228:265|278:204,1,125.999996154785,8|0,0:0|0:0,0:0:0:0:
353,201,183187,1,0,0:0:0:0:
224,144,183275,2,0,P|251:176|289:191,1,62.9999980773926,2|0,1:2|0:0,0:0:0:0:
377,95,183451,1,0,0:0:0:0:
297,104,183540,1,0,0:0:0:0:
398,60,183628,2,0,P|398:91|387:120,1,62.9999980773926,12|0,0:0|0:0,0:0:0:0:
236,38,183804,2,0,P|262:21|293:14,1,62.9999980773926,2|0,0:0|0:0,0:0:0:0:
225,170,183981,5,6,3:2:0:0:
181,177,184069,1,0,3:0:0:0:
138,184,184157,1,0,3:0:0:0:
346,314,184334,1,14,1:2:0:0:
94,190,184510,1,0,0:0:0:0:
215,334,184687,1,6,3:2:0:0:
259,327,184775,1,0,3:2:0:0:
302,320,184863,1,0,3:2:0:0:
297,198,185040,1,10,3:2:0:0:
340,204,185128,1,0,3:2:0:0:
383,211,185216,1,4,3:2:0:0:
144,80,185393,5,6,1:2:0:0:
384,120,185569,1,0,1:0:0:0:
16,208,185745,1,2,1:2:0:0:
296,128,185922,1,0,3:2:0:0:
296,128,186010,1,0,3:2:0:0:
296,128,186098,2,0,L|288:216,1,62.9999980773926,4|0,3:2|3:2,3:2:0:0:
448,264,186275,1,4,1:2:0:0:
144,320,186451,1,4,1:2:0:0:
352,368,186628,1,4,1:2:0:0:
80,192,186804,5,0,0:0:0:0:
127,160,186893,1,0,0:0:0:0:
182,158,186981,1,8,1:2:0:0:
336,320,187157,1,0,0:0:0:0:
286,293,187245,1,0,0:0:0:0:
228,291,187334,1,8,1:2:0:0:
176,312,187422,1,0,0:0:0:0:
140,356,187510,1,8,1:2:0:0:
432,288,187687,1,8,0:0:0:0:
48,336,187863,1,6,0:0:0:0:
