osu file format v14

[General]
AudioFilename: audio.mp3
AudioLeadIn: 0
PreviewTime: 46290
Countdown: 0
SampleSet: None
StackLeniency: 0.4
Mode: 0
LetterboxInBreaks: 0
WidescreenStoryboard: 1

[Editor]
DistanceSpacing: 0.9
BeatDivisor: 4
GridSize: 8
TimelineZoom: 1.9

[Metadata]
Title:karakurenawi
TitleUnicode:karakurenawi
Artist:Undead Corporation
ArtistUnicode:Undead Corporation
Creator:Wanko
Version:Normal
Source:Touhou
Tags:
BeatmapID:1977988
BeatmapSetID:906923

[Difficulty]
HPDrainRate:2
CircleSize:2.8
OverallDifficulty:4
ApproachRate:6
SliderMultiplier:1
SliderTickRate:1

[Events]
//Background and Video events
0,0,"Konachan.com - 183118 sample.jpg",0,0
//Break Periods
2,129122,130695
2,151356,156107
//Storyboard Layer 0 (Background)
//Storyboard Layer 1 (Fail)
//Storyboard Layer 2 (Pass)
//Storyboard Layer 3 (Foreground)
//Storyboard Sound Samples

[TimingPoints]
11746,352.941176470588,4,2,1,50,1,0
24451,-83.3333333333333,4,2,1,60,0,0
32922,-83.3333333333333,4,2,1,22,0,0
33098,-83.3333333333333,4,2,1,28,0,0
33275,-83.3333333333333,4,2,1,34,0,0
33451,-83.3333333333333,4,2,1,40,0,0
33628,-83.3333333333333,4,2,1,46,0,0
33804,-83.3333333333333,4,2,1,52,0,0
33981,-83.3333333333333,4,2,1,58,0,0
34157,-83.3333333333333,4,2,1,64,0,0
34334,-71.4285714285714,4,2,1,70,0,0
42804,-83.3333333333333,4,2,1,64,0,0
47040,-71.4285714285714,4,2,1,80,0,1
71040,-83.3333333333333,4,2,1,70,0,0
82334,-83.3333333333333,4,2,1,60,0,0
92216,-111.111111111111,4,2,1,70,0,0
93628,-83.3333333333333,4,2,1,60,0,0
104922,-71.4285714285714,4,2,1,80,0,1
128922,-83.3333333333333,4,2,1,70,0,0
131745,-100,4,2,1,70,0,0
134569,-83.3333333333333,4,2,1,70,0,0
140216,-71.4285714285714,4,2,1,60,0,0
151510,-100,4,2,1,50,0,0
162804,-71.4285714285714,4,2,1,80,0,1
187863,-83.3333333333333,4,2,1,70,0,0

[Colours]
Combo1 : 191,138,13
Combo2 : 254,103,65
Combo3 : 244,227,17
Combo4 : 167,84,84

[HitObjects]
460,291,13157,6,0,P|406:283|348:298,1,100,8|0,0:0|0:0,0:0:0:0:
247,295,13863,2,0,P|188:282|136:288,1,100,10|0,0:0|0:0,0:0:0:0:
18,305,14569,6,0,P|48:253|63:195,1,100,8|0,0:0|0:0,0:0:0:0:
16,112,15275,1,10,0:0:0:0:
16,112,15628,1,0,0:0:0:0:
94,162,15981,6,0,P|152:174|211:166,1,100,8|0,0:0|0:0,0:0:0:0:
307,167,16687,2,0,P|366:174|424:162,1,100,10|0,0:0|0:0,0:0:0:0:
501,223,17393,6,0,P|476:239|461:265,1,50,8|0,0:0|0:0,0:0:0:0:
471,314,17746,2,0,P|421:328|403:325,1,50,0|0,0:0|0:0,0:0:0:0:
368,301,18098,2,0,P|316:295|257:306,1,100,10|0,0:0|0:0,0:0:0:0:
135,345,18804,6,0,P|154:298|159:237,1,100,8|0,0:0|0:0,0:0:0:0:
79,178,19510,2,0,P|59:131|53:67,1,100,10|0,0:0|0:0,0:0:0:0:
157,57,20216,6,0,P|207:72|275:69,1,100,8|0,0:0|0:0,0:0:0:0:
365,12,20922,1,10,0:0:0:0:
365,12,21275,1,0,0:0:0:0:
421,99,21628,6,0,P|395:144|393:210,1,100,8|0,0:0|0:0,0:0:0:0:
474,261,22334,2,0,P|500:306|504:365,1,100,10|0,0:0|0:0,0:0:0:0:
401,376,23040,6,0,P|371:356|338:351,2,50,0|0|8,3:0|3:0|0:0,0:0:0:0:
332,259,23745,2,0,P|298:268|271:292,1,50,10|0,1:2|0:0,0:0:0:0:
256,325,24098,2,0,P|222:316|195:292,1,50,8|0,1:2|0:0,0:0:0:0:
163,308,24451,6,0,P|122:238|70:210,1,119.999996337891,12|8,0:0|1:2,0:0:0:0:
65,74,25157,2,0,P|107:68|144:48,1,59.9999981689454,10|0,0:0|1:0,0:0:0:0:
151,96,25510,6,0,L|284:90,1,119.999996337891,8|0,1:2|0:0,0:0:0:0:
393,185,26216,1,0,1:2:0:0:
291,247,26569,1,10,1:2:0:0:
293,122,26922,1,0,1:0:0:0:
406,176,27275,6,0,P|393:274|408:299,1,119.999996337891,8|8,0:0|1:2,0:0:0:0:
511,355,27981,1,10,0:0:0:0:
382,330,28334,2,0,P|349:311|310:310,1,59.9999981689454,8|0,1:2|0:0,0:0:0:0:
289,319,28687,5,0,3:0:0:0:
182,264,29040,1,8,3:2:0:0:
298,201,29393,1,10,0:0:0:0:
187,136,29745,1,0,1:0:0:0:
292,73,30098,6,0,P|358:63|417:87,1,119.999996337891,8|8,0:0|1:2,0:0:0:0:
463,191,30804,2,0,P|462:250|469:268,1,59.9999981689454,10|0,0:2|1:0,0:0:0:0:
485,290,31157,2,0,P|428:272|369:282,1,119.999996337891,8|8,1:2|0:0,0:0:0:0:
223,302,31863,1,0,1:0:0:0:
307,200,32216,1,10,0:0:0:0:
265,80,32569,1,0,1:0:0:0:
158,125,32922,6,0,L|166:203,2,59.9999981689454,8|0|8,3:2|3:2|3:2,0:0:0:0:
40,95,33628,2,0,L|52:25,2,59.9999981689454,10|0|8,3:2|3:2|3:2,0:0:0:0:
73,220,34334,5,8,1:2:0:0:
142,310,34687,1,0,1:0:0:0:
231,235,35040,1,0,0:0:0:0:
327,310,35393,1,0,1:0:0:0:
403,209,35745,6,0,P|389:159|360:116,2,104.999996795654,12|0|0,2:0|0:0|0:0,0:0:0:0:
440,247,36451,2,0,B|432:205|494:153|460:95,1,139.999995727539,6|8,0:0|1:2,0:0:0:0:
369,15,37157,6,0,P|335:17|295:40,2,69.9999978637696,8|0|4,1:2|0:0|1:2,0:0:0:0:
463,99,37863,1,2,0:0:0:0:
401,189,38216,1,12,1:2:0:0:
389,298,38569,6,0,P|340:348|289:366,2,104.999996795654,8|0|0,1:2|0:0|0:0,0:0:0:0:
399,251,39275,2,0,B|344:271|314:224|256:261,1,139.999995727539,6|8,1:2|0:0,0:0:0:0:
154,357,39981,2,0,P|123:324|110:285,1,69.9999978637696,12|0,0:2|0:0,0:0:0:0:
117,263,40334,1,0,1:0:0:0:
29,184,40687,1,2,1:2:0:0:
111,115,41040,1,0,1:0:0:0:
30,43,41393,6,0,P|117:16|189:36,1,139.999995727539,12|0,1:2|1:0,0:0:0:0:
288,65,42098,2,0,P|218:109|193:162,1,139.999995727539,14|0,1:2|1:0,0:0:0:0:
243,261,42804,5,12,1:2:0:0:
350,233,43157,2,0,L|324:167,1,59.9999981689454,12|0,1:2|0:0,0:0:0:0:
312,136,43510,1,14,1:2:0:0:
187,187,43863,2,0,L|121:187,1,59.9999981689454,12|0,1:2|0:0,0:0:0:0:
84,218,44216,6,0,P|56:188|36:94,1,119.999996337891,12|4,1:2|1:2,0:0:0:0:
112,9,44922,2,0,P|103:79|74:125,1,119.999996337891,14|12,0:0|1:2,0:0:0:0:
17,238,45628,5,12,1:2:0:0:
34,270,45804,2,0,P|50:298|48:333,1,59.9999981689454,0|12,1:0|1:2,0:0:0:0:
98,329,46157,2,0,P|82:357|84:392,1,59.9999981689454,0|14,1:0|1:2,0:0:0:0:
365,211,47040,6,0,P|430:262|453:316,2,139.999995727539,6|8|2,1:2|0:0|1:2,0:0:0:0:
253,279,48098,2,0,P|210:273|167:289,1,69.9999978637696,12|2,0:0|0:0,0:0:0:0:
155,302,48451,2,0,P|139:247|78:186,1,139.999995727539,6|14,1:2|1:2,0:0:0:0:
5,86,49157,1,6,1:2:0:0:
112,29,49510,2,0,P|121:63|140:92,1,69.9999978637696,10|4,0:0|0:0,0:0:0:0:
176,104,49863,5,6,1:2:0:0:
267,38,50216,1,8,0:0:0:0:
345,116,50569,2,0,P|380:171|385:248,1,139.999995727539,2|12,1:2|0:0,0:0:0:0:
408,366,51275,2,0,P|460:337|518:264,2,139.999995727539,6|14|14,3:2|1:2|3:2,0:0:0:0:
244,351,52334,2,0,P|220:325|212:291,1,69.9999978637696,10|4,0:0|0:0,0:0:0:0:
226,255,52687,6,0,P|148:286|106:333,1,139.999995727539,6|8,1:2|0:0,0:0:0:0:
2,370,53393,1,2,1:2:0:0:
33,264,53745,2,0,P|44:223|44:191,1,69.9999978637696,0|2,0:0|0:0,0:0:0:0:
6,169,54098,2,0,P|15:122|92:46,2,139.999995727539,6|14|6,1:2|1:2|1:2,0:0:0:0:
147,191,55157,2,0,P|166:152|167:120,1,69.9999978637696,10|4,0:0|0:0,0:0:0:0:
153,73,55510,6,0,P|184:113|282:157,1,139.999995727539,6|8,1:2|0:0,0:0:0:0:
360,81,56216,2,0,P|394:48|427:36,1,69.9999978637696,2|0,1:2|0:0,0:0:0:0:
459,45,56569,2,0,P|486:67|507:96,1,69.9999978637696,12|2,0:0|0:0,0:0:0:0:
493,131,56922,2,0,P|473:183|501:286,1,139.999995727539,6|14,3:2|1:2,0:0:0:0:
366,252,57628,2,0,P|298:233|229:242,1,139.999995727539,6|10,3:2|3:2,0:0:0:0:
106,314,58334,6,0,P|57:290|-5:209,2,139.999995727539,6|8|2,1:2|0:0|1:2,0:0:0:0:
222,248,59393,1,12,0:0:0:0:
105,188,59745,2,0,P|69:157|56:65,1,139.999995727539,6|14,1:2|1:2,0:0:0:0:
172,4,60451,1,6,1:2:0:0:
261,100,60804,2,0,P|296:121|346:125,1,69.9999978637696,10|4,0:0|0:0,0:0:0:0:
394,139,61157,6,0,P|317:154|270:210,1,139.999995727539,6|8,1:2|0:0,0:0:0:0:
285,331,61863,2,0,P|238:292|216:290,1,69.9999978637696,2|0,1:2|0:0,0:0:0:0:
191,284,62216,2,0,P|159:298|138:325,1,69.9999978637696,12|2,0:0|0:0,0:0:0:0:
124,362,62569,1,6,3:2:0:0:
26,266,62922,1,14,1:2:0:0:
122,179,63275,1,6,3:2:0:0:
250,222,63628,2,0,P|286:194|299:151,1,69.9999978637696,10|4,0:0|0:0,0:0:0:0:
297,116,63981,6,0,P|319:167|400:219,1,139.999995727539,6|8,1:2|0:0,0:0:0:0:
475,106,64687,2,0,P|477:67|501:28,2,69.9999978637696,2|0|12,1:2|0:0|0:0,0:0:0:0:
489,231,65393,1,6,1:2:0:0:
383,283,65745,1,14,1:2:0:0:
271,254,66098,1,6,1:2:0:0:
156,213,66451,2,0,P|116:213|85:227,1,69.9999978637696,10|4,0:0|0:0,0:0:0:0:
52,274,66804,6,0,P|66:218|32:128,2,139.999995727539,6|8|2,1:2|0:0|1:2,0:0:0:0:
175,322,67863,2,0,P|209:327|243:352,1,69.9999978637696,12|2,0:0|0:0,0:0:0:0:
248,384,68216,2,0,P|272:344|374:290,1,139.999995727539,6|14,3:2|1:2,0:0:0:0:
472,251,68922,1,6,3:2:0:0:
366,195,69275,2,0,L|346:109,1,69.9999978637696,10|4,0:0|0:0,0:0:0:0:
345,93,69628,5,6,3:2:0:0:
251,7,69981,1,2,3:2:0:0:
238,142,70334,2,0,L|226:210,1,69.9999978637696,4|4,1:2|1:2,0:0:0:0:
188,230,70687,2,0,L|199:298,1,69.9999978637696,4|4,1:2|1:2,0:0:0:0:
237,338,71040,6,0,L|97:315,2,119.999996337891,8|8|12,0:0|0:0|1:2,0:0:0:0:
362,314,72098,2,0,L|440:301,1,59.9999981689454,8|8,0:0|0:0,0:0:0:0:
497,187,72628,2,0,L|419:174,1,59.9999981689454,8|8,0:0|0:0,0:0:0:0:
417,141,72981,2,0,L|332:154,1,59.9999981689454,0|12,0:0|1:2,0:0:0:0:
208,187,73510,2,0,L|130:170,1,59.9999981689454,8|8,0:0|0:0,0:0:0:0:
112,149,73863,6,0,L|243:126,2,119.999996337891,8|8|12,0:0|0:0|1:2,0:0:0:0:
6,72,74922,2,0,L|75:54,1,59.9999981689454,8|8,0:0|0:0,0:0:0:0:
231,82,75451,2,0,L|312:102,1,59.9999981689454,8|8,0:0|0:0,0:0:0:0:
323,90,75804,2,0,L|381:75,1,59.9999981689454,8|12,0:0|1:2,0:0:0:0:
508,128,76334,1,8,0:0:0:0:
398,259,76687,6,0,B|352:249|352:249|278:273,1,119.999996337891,12|0,0:0|1:2,0:0:0:0:
135,273,77393,2,0,P|113:253|84:248,2,59.9999981689454,12|0|0,1:2|0:0|1:0,0:0:0:0:
149,317,77922,2,0,P|185:269|200:200,1,119.999996337891,8|8,1:2|0:0,0:0:0:0:
191,175,78451,1,12,1:2:0:0:
94,68,78804,2,0,P|59:95|28:175,1,119.999996337891,12|8,1:2|1:2,0:0:0:0:
208,137,79510,6,0,B|254:147|254:147|328:123,1,119.999996337891,8|8,0:0|0:0,0:0:0:0:
440,37,80216,2,0,P|483:31|521:39,2,59.9999981689454,8|8|4,3:2|3:2|0:0,0:0:0:0:
437,140,80922,6,0,P|442:178|434:207,1,59.9999981689454,8|0,0:0|1:0,0:0:0:0:
466,219,81275,2,0,P|451:254|429:275,1,59.9999981689454,8|8,0:0|0:0,0:0:0:0:
450,305,81628,2,0,L|310:303,1,119.999996337891,12|12,1:2|0:0,0:0:0:0:
242,221,82334,6,0,P|195:209|114:228,1,119.999996337891,8|0,0:0|0:0,0:0:0:0:
0,118,83040,2,0,P|47:106|128:125,1,119.999996337891,10|0,0:0|0:0,0:0:0:0:
253,112,83745,1,8,0:0:0:0:
351,44,84098,1,0,0:0:0:0:
428,136,84451,1,10,0:0:0:0:
333,210,84804,1,0,0:0:0:0:
226,119,85157,6,0,P|165:106|99:122,1,119.999996337891,8|0,0:0|0:0,0:0:0:0:
296,42,85863,2,0,P|357:29|423:45,1,119.999996337891,10|0,0:0|0:0,0:0:0:0:
485,145,86569,2,0,P|483:178|496:214,2,59.9999981689454,8|0|0,0:0|0:0|0:0,0:0:0:0:
369,226,87275,1,10,3:2:0:0:
436,333,87628,1,0,0:0:0:0:
310,356,87981,6,0,P|256:339|186:349,1,119.999996337891,8|0,0:0|0:0,0:0:0:0:
44,267,88687,2,0,P|98:250|168:260,1,119.999996337891,10|0,0:0|0:0,0:0:0:0:
296,240,89393,1,8,0:0:0:0:
211,143,89745,1,0,0:0:0:0:
316,57,90098,1,10,0:0:0:0:
404,163,90451,1,0,0:0:0:0:
314,260,90804,6,0,P|328:300|329:345,2,59.9999981689454,8|0|0,0:0|0:0|0:0,0:0:0:0:
181,203,91510,2,0,P|167:243|166:288,2,59.9999981689454,10|0|0,0:0|0:0|0:0,0:0:0:0:
304,131,92216,1,0,3:0:0:0:
183,107,92569,2,0,L|201:16,2,89.9999972534181,8|2|0,0:0|1:2|1:0,0:0:0:0:
68,242,93628,6,0,P|113:231|162:195,2,89.9999972534181,12|0|0,2:0|0:0|0:0,0:0:0:0:
22,279,94334,2,0,P|76:276|153:308,1,119.999996337891,6|8,0:0|1:2,0:0:0:0:
261,327,95040,1,8,1:2:0:0:
287,347,95217,2,0,P|316:351|345:344,1,59.9999981689454,0|4,3:2|3:2,0:0:0:0:
457,262,95745,2,0,L|440:132,1,119.999996337891,2|12,0:0|1:2,0:0:0:0:
354,61,96451,6,0,P|311:73|282:106,2,89.9999972534181,8|0|0,1:2|0:0|0:0,0:0:0:0:
377,25,97157,2,0,P|334:17|239:27,1,119.999996337891,6|8,1:2|0:0,0:0:0:0:
119,92,97863,1,12,0:2:0:0:
94,121,98040,2,0,P|62:140|20:140,1,59.9999981689454,0|0,3:2|3:2,0:0:0:0:
7,12,98569,1,2,1:2:0:0:
147,45,98922,1,0,1:0:0:0:
204,183,99275,6,0,P|240:214|330:214,1,119.999996337891,12|0,1:2|3:2,0:0:0:0:
417,139,99981,2,0,P|357:141|310:177,1,119.999996337891,14|0,1:2|3:0,0:0:0:0:
309,309,100687,1,12,1:2:0:0:
451,327,101040,2,0,L|437:256,1,59.9999981689454,12|0,1:2|0:0,0:0:0:0:
436,227,101393,1,14,1:2:0:0:
298,274,101745,2,0,L|223:276,1,59.9999981689454,12|0,1:2|0:0,0:0:0:0:
199,293,102098,6,0,P|175:264|76:233,1,119.999996337891,12|4,1:2|1:2,0:0:0:0:
0,137,102804,2,0,P|56:119|98:77,1,119.999996337891,14|12,0:0|1:2,0:0:0:0:
224,8,103510,5,12,1:2:0:0:
334,71,103863,2,0,L|398:78,2,59.9999981689454,4|0|6,3:2|1:0|1:2,0:0:0:0:
111,266,104922,6,0,P|69:216|61:135,2,139.999995727539,6|8|2,1:2|0:0|1:2,0:0:0:0:
245,185,105981,2,0,P|289:177|329:185,1,69.9999978637696,12|2,0:0|0:0,0:0:0:0:
372,209,106334,2,0,P|339:152|345:56,1,139.999995727539,6|14,1:2|1:2,0:0:0:0:
467,34,107040,1,6,1:2:0:0:
492,167,107393,2,0,P|471:223|451:243,1,69.9999978637696,10|4,0:0|0:0,0:0:0:0:
465,288,107745,6,0,P|406:258|320:264,1,139.999995727539,6|8,1:2|0:0,0:0:0:0:
195,292,108451,2,0,L|124:309,2,69.9999978637696,2|0|12,1:2|0:0|0:0,0:0:0:0:
252,168,109157,1,6,3:2:0:0:
131,105,109510,1,14,1:2:0:0:
30,194,109863,1,14,3:2:0:0:
142,285,110216,2,0,P|194:308|214:334,1,69.9999978637696,10|4,0:0|0:0,0:0:0:0:
231,356,110569,6,0,P|240:294|296:223,2,139.999995727539,6|8|2,1:2|0:0|1:2,0:0:0:0:
376,357,111628,2,0,P|404:332|444:317,1,69.9999978637696,0|2,0:0|0:0,0:0:0:0:
466,326,111981,1,6,1:2:0:0:
379,220,112334,2,0,P|350:178|336:139,2,69.9999978637696,14|0|6,1:2|0:0|1:2,0:0:0:0:
495,136,113040,2,0,P|460:104|420:94,1,69.9999978637696,10|4,0:0|0:0,0:0:0:0:
438,56,113393,6,0,P|374:81|280:60,1,139.999995727539,6|8,1:2|0:0,0:0:0:0:
172,23,114098,1,2,1:2:0:0:
94,128,114451,2,0,P|139:149|172:147,1,69.9999978637696,12|2,0:0|0:0,0:0:0:0:
203,177,114804,2,0,P|133:178|53:231,1,139.999995727539,6|14,3:2|1:2,0:0:0:0:
34,331,115510,1,6,3:2:0:0:
34,331,115863,1,10,3:2:0:0:
164,291,116216,6,0,P|224:314|271:394,2,139.999995727539,6|8|2,1:2|0:0|1:2,0:0:0:0:
113,157,117275,2,0,P|166:169|198:164,1,69.9999978637696,12|2,0:0|0:0,0:0:0:0:
248,189,117628,2,0,P|213:143|216:42,1,139.999995727539,6|14,1:2|1:2,0:0:0:0:
318,8,118334,1,6,1:2:0:0:
422,72,118687,2,0,P|409:105|375:136,1,69.9999978637696,10|4,0:0|0:0,0:0:0:0:
326,153,119040,6,0,P|377:158|457:228,1,139.999995727539,6|8,1:2|0:0,0:0:0:0:
428,336,119745,1,2,1:2:0:0:
309,280,120098,2,0,P|275:275|227:298,1,69.9999978637696,12|2,0:0|0:0,0:0:0:0:
208,305,120451,1,6,3:2:0:0:
108,216,120804,1,14,1:2:0:0:
174,100,121157,1,6,3:2:0:0:
75,23,121510,2,0,P|39:33|10:62,1,69.9999978637696,10|4,0:0|0:0,0:0:0:0:
0,95,121863,6,0,P|49:84|145:110,1,139.999995727539,6|8,1:2|0:0,0:0:0:0:
264,177,122569,2,0,P|314:171|344:157,2,69.9999978637696,2|0|12,1:2|0:0|0:0,0:0:0:0:
124,230,123275,1,6,1:2:0:0:
251,301,123628,2,0,P|306:313|376:358,1,139.999995727539,14|6,1:2|1:2,0:0:0:0:
469,210,124334,2,0,P|432:235|393:238,1,69.9999978637696,10|4,0:0|0:0,0:0:0:0:
363,238,124687,6,0,P|389:204|395:90,1,139.999995727539,6|8,1:2|0:0,0:0:0:0:
247,36,125393,2,0,P|256:81|317:158,1,139.999995727539,2|12,1:2|0:0,0:0:0:0:
460,109,126098,1,6,3:2:0:0:
460,109,126451,1,14,1:2:0:0:
333,81,126804,2,0,P|298:76|191:114,1,139.999995727539,6|10,3:2|0:0,0:0:0:0:
156,223,127510,6,0,P|166:275|152:316,2,69.9999978637696,6|0|2,3:2|3:0|3:2,0:0:0:0:
66,165,128216,2,0,P|61:127|74:99,1,69.9999978637696,4|4,1:2|1:2,0:0:0:0:
118,89,128569,2,0,P|123:51|110:23,1,69.9999978637696,4|4,1:2|1:2,0:0:0:0:
68,3,128922,5,4,1:0:0:0:
82,117,131745,6,0,L|184:134,1,100,4|0,0:0|0:0,0:0:0:0:
181,242,132451,2,0,L|283:259,1,100,4|0,0:0|0:0,0:0:0:0:
271,366,133157,1,4,0:0:0:0:
369,298,133510,2,0,P|400:269|419:258,1,50,0|0,1:2|3:0,0:0:0:0:
438,253,133863,1,0,3:0:0:0:
350,162,134216,1,0,3:0:0:0:
448,89,134569,6,0,P|409:65|324:49,1,119.999996337891,4|0,0:0|0:0,0:0:0:0:
220,120,135275,1,6,0:0:0:0:
220,120,135628,2,0,P|179:129|147:145,1,59.9999981689454,0|0,0:0|3:2,0:0:0:0:
139,187,135981,2,0,P|105:156|19:136,2,119.999996337891,4|0|6,3:2|0:0|0:0,0:0:0:0:
258,293,137040,2,0,P|232:309|204:318,1,59.9999981689454,0|0,0:0|0:0,0:0:0:0:
183,342,137393,6,0,P|264:341|311:364,1,119.999996337891,4|0,0:0|0:0,0:0:0:0:
419,303,138098,1,6,0:0:0:0:
419,303,138451,2,0,P|413:254|430:222,1,59.9999981689454,0|0,0:0|0:0,0:0:0:0:
428,209,138804,2,0,P|388:178|306:177,1,119.999996337891,4|0,0:0|0:2,0:0:0:0:
242,65,139510,2,0,P|184:80|140:137,1,119.999996337891,6|4,0:0|0:0,0:0:0:0:
144,249,140216,6,8,P|162:312|148:387,2,139.999995727539,6|0|6,3:2|3:2|3:2,3:3:0:0:
27,196,141275,2,0,P|39:147|60:115,1,69.9999978637696,0|0,3:2|3:2,3:3:0:0:
220,85,141804,2,0,P|203:52|170:30,2,69.9999978637696,0|0|0,3:2|3:2|3:2,3:3:0:0:
240,117,142334,2,0,P|296:90|387:105,1,139.999995727539,6|0,3:2|3:2,0:0:0:0:
450,218,143040,6,0,P|479:264|486:364,2,139.999995727539,6|0|6,3:2|3:2|3:2,3:3:0:0:
323,246,144098,2,0,P|293:227|270:202,1,69.9999978637696,0|0,3:2|3:2,3:3:0:0:
153,119,144628,2,0,P|85:122|64:138,2,69.9999978637696,0|0|0,3:2|3:2|3:2,0:0:0:0:
189,112,145157,1,6,3:2:0:0:
152,229,145510,1,0,0:0:0:0:
246,308,145863,5,6,1:2:0:0:
246,308,146216,1,0,1:0:0:0:
331,232,146569,2,0,P|370:198|402:190,1,69.9999978637696,14|0,1:2|0:0,0:0:0:0:
422,227,146922,2,0,P|446:195|451:152,1,69.9999978637696,0|0,1:0|1:0,0:0:0:0:
384,46,147451,2,0,P|343:35|308:38,2,69.9999978637696,0|0|0,1:2|1:2|1:2,0:0:0:0:
408,90,147981,2,0,P|353:82|266:122,1,139.999995727539,6|0,0:0|1:2,0:0:0:0:
211,213,148687,5,6,1:2:0:0:
211,213,149040,1,0,1:0:0:0:
67,186,149393,2,0,P|73:142|90:104,1,69.9999978637696,6|0,1:2|1:2,0:0:0:0:
130,112,149745,2,0,P|124:68|107:30,1,69.9999978637696,0|0,1:0|1:0,0:0:0:0:
55,14,150098,6,0,P|119:27|217:18,1,139.999995727539,6|0,1:2|1:0,0:0:0:0:
313,30,150804,2,0,P|349:59|380:104,2,69.9999978637696,6|0|0,1:2|1:2|0:0,0:0:0:0:
266,106,157157,6,8,P|311:115|327:122,2,50,8|0|0,0:0|0:0|0:0,0:0:0:0:
146,63,157863,1,2,0:0:0:0:
73,162,158216,2,0,P|34:169|7:163,2,50,8|0|8,0:0|0:0|0:0,0:0:0:0:
199,206,158922,2,0,P|234:216|265:236,2,50,0|8|10,0:0|0:0|0:0,0:0:0:0:
81,289,159628,2,0,P|47:300|31:318,1,50,8|0,0:0|0:0,0:0:0:0:
24,348,159981,6,0,P|89:347|133:369,1,100,8|0,0:0|0:0,0:0:0:0:
246,356,160687,1,2,0:0:0:0:
351,302,161040,1,0,0:0:0:0:
458,359,161393,1,12,0:0:0:0:
359,158,162804,6,0,P|410:89|462:62,2,139.999995727539,6|8|2,1:2|0:0|1:2,0:0:0:0:
340,294,163863,2,0,P|309:269|277:257,1,69.9999978637696,12|2,0:0|0:0,0:0:0:0:
238,238,164216,2,0,P|259:280|248:391,1,139.999995727539,6|14,1:2|1:2,0:0:0:0:
109,384,164922,1,6,1:2:0:0:
1,258,165275,2,0,P|48:245|90:248,1,69.9999978637696,10|4,0:0|0:0,0:0:0:0:
120,258,165628,6,0,P|66:197|56:117,1,139.999995727539,6|8,1:2|0:0,0:0:0:0:
162,37,166334,2,0,P|192:54|211:82,2,69.9999978637696,2|0|12,1:2|0:0|0:0,0:0:0:0:
145,178,167040,1,6,3:2:0:0:
267,169,167393,1,14,1:2:0:0:
324,72,167745,1,14,3:2:0:0:
436,75,168098,2,0,P|451:106|482:134,1,69.9999978637696,10|4,0:0|0:0,0:0:0:0:
512,178,168451,6,0,P|477:162|363:176,1,139.999995727539,6|8,1:2|0:0,0:0:0:0:
260,230,169157,1,2,1:2:0:0:
156,154,169510,2,0,P|123:140|89:139,1,69.9999978637696,0|2,0:0|0:0,0:0:0:0:
27,160,169863,2,0,P|83:185|126:268,2,139.999995727539,6|14|6,3:2|3:2|3:2,0:0:0:0:
8,30,170922,2,0,P|69:26|91:13,1,69.9999978637696,10|4,0:0|0:0,0:0:0:0:
108,16,171275,6,0,P|169:50|265:51,1,139.999995727539,6|8,1:2|0:0,0:0:0:0:
385,32,171981,2,0,P|357:57|344:92,1,69.9999978637696,2|0,1:2|0:0,0:0:0:0:
373,111,172334,2,0,P|401:136|414:171,1,69.9999978637696,12|2,0:0|0:0,0:0:0:0:
383,199,172687,1,6,3:2:0:0:
451,309,173040,1,14,1:2:0:0:
327,323,173393,2,0,L|178:316,1,139.999995727539,6|10,3:2|3:2,0:0:0:0:
79,220,174098,6,0,P|51:156|0:110,2,139.999995727539,6|8|2,1:2|0:0|1:2,0:0:0:0:
202,282,175157,2,0,P|217:240|251:205,1,69.9999978637696,12|2,0:0|0:0,0:0:0:0:
270,207,175510,1,6,1:2:0:0:
196,100,175863,1,14,1:2:0:0:
276,10,176216,1,6,1:2:0:0:
358,108,176569,2,0,P|381:134|421:154,1,69.9999978637696,10|4,0:0|0:0,0:0:0:0:
471,195,176922,6,0,P|422:187|331:221,1,139.999995727539,6|8,1:2|0:0,0:0:0:0:
250,314,177628,2,0,P|197:307|168:295,2,69.9999978637696,2|0|12,1:2|0:0|0:0,0:0:0:0:
388,313,178334,1,6,3:2:0:0:
333,210,178687,1,14,1:2:0:0:
217,177,179040,1,6,3:2:0:0:
89,173,179393,2,0,P|51:200|31:233,1,69.9999978637696,10|4,0:0|0:0,0:0:0:0:
36,268,179745,6,0,P|83:251|173:264,1,139.999995727539,6|8,1:2|0:0,0:0:0:0:
278,349,180451,2,0,P|328:356|379:345,2,69.9999978637696,2|0|12,1:2|0:0|0:0,0:0:0:0:
282,229,181157,1,6,1:2:0:0:
398,197,181510,2,0,P|419:227|433:274,2,69.9999978637696,14|0|6,1:2|0:0|1:2,0:0:0:0:
302,95,182216,2,0,P|269:108|235:115,1,69.9999978637696,10|4,0:0|0:0,0:0:0:0:
214,78,182569,6,0,P|165:60|64:70,2,139.999995727539,6|8|2,1:2|0:0|1:2,0:0:0:0:
169,186,183628,2,0,P|126:206|85:207,1,69.9999978637696,12|2,0:0|0:0,0:0:0:0:
58,230,183981,2,0,P|130:249|193:303,1,139.999995727539,6|14,3:2|1:2,0:0:0:0:
295,352,184687,2,0,P|336:353|419:295,1,139.999995727539,6|10,3:2|3:2,0:0:0:0:
380,164,185393,6,0,P|381:113|395:73,2,69.9999978637696,6|0|2,1:2|1:0|1:2,0:0:0:0:
486,269,186098,2,0,P|454:298|415:316,1,69.9999978637696,4|4,3:2|1:2,3:3:0:0:
392,288,186451,2,0,P|352:270|309:267,1,69.9999978637696,4|4,1:2|1:2,0:0:0:0:
291,281,186804,5,0,0:0:0:0:
190,209,187157,1,0,0:0:0:0:
79,271,187510,2,0,L|79:340,2,69.9999978637696,8|8|6,1:2|0:0|0:0,0:0:0:0:
