osu file format v14

[General]
AudioFilename: audio.mp3
AudioLeadIn: 0
PreviewTime: 46290
Countdown: 0
SampleSet: Soft
StackLeniency: 0.4
Mode: 0
LetterboxInBreaks: 0
WidescreenStoryboard: 1

[Editor]
DistanceSpacing: 0.8
BeatDivisor: 4
GridSize: 8
TimelineZoom: 1.9

[Metadata]
Title:karakurenawi
TitleUnicode:karakurenawi
Artist:Undead Corporation
ArtistUnicode:Undead Corporation
Creator:Wanko
Version:Insane
Source:Touhou
Tags:
BeatmapID:1977987
BeatmapSetID:906923

[Difficulty]
HPDrainRate:4
CircleSize:4
OverallDifficulty:7.6
ApproachRate:9
SliderMultiplier:1.3
SliderTickRate:1

[Events]
//Background and Video events
0,0,"Konachan.com - 183118 sample.jpg",0,0
//Break Periods
//Storyboard Layer 0 (Background)
//Storyboard Layer 1 (Fail)
//Storyboard Layer 2 (Pass)
//Storyboard Layer 3 (Foreground)
//Storyboard Sound Samples

[TimingPoints]
11746,352.941176470588,4,2,1,50,1,0
24451,-83.3333333333333,4,2,1,60,0,0
32922,-83.3333333333333,4,2,1,22,0,0
33098,-83.3333333333333,4,2,1,28,0,0
33275,-83.3333333333333,4,2,1,34,0,0
33451,-83.3333333333333,4,2,1,40,0,0
33628,-83.3333333333333,4,2,1,46,0,0
33804,-83.3333333333333,4,2,1,52,0,0
33981,-83.3333333333333,4,2,1,58,0,0
34157,-83.3333333333333,4,2,1,64,0,0
34334,-62.5,4,2,1,70,0,0
35393,-166.666666666667,4,2,1,70,0,0
35745,-83.3333333333333,4,2,1,70,0,0
41393,-76.9230769230769,4,2,1,70,0,0
46334,-166.666666666667,4,2,1,70,0,0
47040,-66.6666666666667,4,2,1,80,0,1
57628,-100,4,2,1,80,0,1
57981,-83.3333333333333,4,2,1,80,0,1
58157,-66.6666666666667,4,2,1,80,0,1
58334,-66.6666666666667,4,2,1,80,0,1
71040,-83.3333333333333,4,2,1,70,0,0
76687,-76.9230769230769,4,2,1,70,0,0
82334,-83.3333333333333,4,2,1,60,0,0
92216,-111.111111111111,4,2,1,70,0,0
93628,-71.4285714285714,4,2,1,70,0,0
99275,-62.5,4,2,1,70,0,0
104922,-55.5555555555556,4,2,1,80,0,1
128922,-83.3333333333333,4,2,1,70,0,0
139863,-142.857142857143,4,2,1,70,0,0
140216,-71.4285714285714,4,2,1,60,0,0
151510,-111.111111111111,4,2,1,50,0,0
162804,-55.5555555555555,4,2,1,80,0,1
187863,-55.5555555555555,4,2,1,70,0,0

[Colours]
Combo1 : 191,138,13
Combo2 : 254,103,65
Combo3 : 244,227,17
Combo4 : 167,84,84

[HitObjects]
88,202,12981,6,0,P|106:221|122:252,1,32.5,0|0,0:0|0:0,0:0:0:0:
63,193,13157,6,0,P|99:181|179:190,1,97.5,8|0,0:0|0:0,0:0:0:0:
135,272,13510,2,0,P|179:253|233:253,1,97.5,0|0,0:0|0:0,0:0:0:0:
404,280,13863,2,0,P|368:268|288:277,1,97.5,10|0,0:0|0:0,0:0:0:0:
331,359,14216,2,0,P|286:340|232:340,1,97.5,0|0,0:0|0:0,0:0:0:0:
139,350,14569,6,0,P|104:353|76:366,2,65,8|0|0,0:0|0:0|0:0,0:0:0:0:
35,279,15098,1,0,0:0:0:0:
128,237,15275,2,0,L|141:98,1,130,10|0,0:0|0:0,0:0:0:0:
368,69,15981,6,0,P|319:76|260:110,1,97.5,8|0,0:0|0:0,0:0:0:0:
430,183,16334,2,0,P|386:161|338:155,1,97.5,0|0,0:0|0:0,0:0:0:0:
276,97,16687,2,0,P|325:104|384:138,1,97.5,10|0,0:0|0:0,0:0:0:0:
214,211,17040,2,0,P|257:189|305:183,1,97.5,0|0,0:0|0:0,0:0:0:0:
391,270,17393,6,0,P|371:280|350:301,3,32.5,8|0|0|0,0:0|0:0|0:0|0:0,0:0:0:0:
418,343,17746,2,0,P|382:340|342:315,1,65,0|0,0:0|0:0,0:0:0:0:
266,211,18098,2,0,L|282:343,1,130,10|0,0:0|0:0,0:0:0:0:
171,347,18628,1,0,0:0:0:0:
128,248,18804,6,0,P|80:219|26:210,1,97.5,8|0,0:0|0:0,0:0:0:0:
159,162,19157,2,0,P|111:173|71:200,1,97.5,0|0,0:0|0:0,0:0:0:0:
39,113,19510,2,0,P|86:124|127:150,1,97.5,10|0,0:0|0:0,0:0:0:0:
71,198,19863,2,0,P|111:172|159:161,1,97.5,0|0,0:0|0:0,0:0:0:0:
251,214,20216,6,0,P|286:236|322:237,2,65,8|0|0,0:0|0:0|0:0,0:0:0:0:
361,168,20745,1,0,0:0:0:0:
441,234,20922,2,0,L|460:81,1,130,10|0,0:0|0:0,0:0:0:0:
275,38,21628,6,0,P|325:59|378:65,1,97.5,8|0,0:0|0:0,0:0:0:0:
199,81,21981,2,0,P|238:117|286:141,1,97.5,0|0,0:0|0:0,0:0:0:0:
351,195,22334,2,0,P|301:216|248:222,1,97.5,10|0,0:0|0:0,0:0:0:0:
427,238,22687,2,0,P|387:274|339:298,1,97.5,0|0,0:0|0:0,0:0:0:0:
276,347,23040,6,0,L|236:339,3,32.5,0|0|0|0,3:0|3:0|3:0|3:0,0:0:0:0:
181,294,23393,2,0,P|145:291|110:297,1,65,8|0,0:0|0:0,0:0:0:0:
27,360,23745,1,10,1:2:0:0:
97,198,23922,1,0,0:0:0:0:
91,213,24010,1,0,0:0:0:0:
87,225,24098,1,8,1:2:0:0:
14,132,24275,1,0,0:0:0:0:
109,77,24451,6,0,P|152:68|196:76,1,77.999997619629,12|0,0:0|0:0,0:0:0:0:
251,159,24804,2,0,P|274:128|309:109,2,77.999997619629,8|0|10,1:2|0:0|0:0,0:0:0:0:
407,149,25334,1,0,1:0:0:0:
475,70,25510,2,0,L|459:-26,1,77.999997619629,8|0,1:2|0:0,0:0:0:0:
332,74,25863,6,0,P|367:46|355:9,1,77.999997619629,0|8,0:0|0:0,0:0:0:0:
208,48,26216,1,0,1:2:0:0:
262,127,26393,1,0,0:0:0:0:
237,26,26569,2,0,P|191:18|150:22,1,77.999997619629,10|0,1:2|0:0,0:0:0:0:
61,123,26922,2,0,P|106:134|142:154,1,77.999997619629,0|0,1:0|0:0,0:0:0:0:
83,325,27275,6,0,P|87:277|109:239,1,77.999997619629,8|0,0:0|0:0,0:0:0:0:
234,226,27628,2,0,P|195:268|166:279,2,77.999997619629,8|0|10,1:2|0:0|0:0,0:0:0:0:
157,158,28157,1,8,1:2:0:0:
208,308,28334,2,0,L|310:312,1,77.999997619629,8|0,1:2|0:0,0:0:0:0:
388,268,28687,6,0,P|405:260|434:250,3,38.9999988098145,0|0|0|0,3:0|3:0|3:0|3:0,0:0:0:0:
464,253,29040,2,0,P|486:289|456:303,1,77.999997619629,8|0,3:2|0:0,0:0:0:0:
391,168,29393,1,10,0:0:0:0:
445,86,29569,2,0,L|472:0,2,77.999997619629,0|0|0,0:0|1:0|0:0,0:0:0:0:
334,100,30098,6,0,P|280:82|257:66,1,77.999997619629,8|0,0:0|0:0,0:0:0:0:
117,49,30451,2,0,P|151:30|189:20,2,77.999997619629,8|0|10,1:2|0:0|0:2,0:0:0:0:
198,133,30981,1,0,1:0:0:0:
84,140,31157,2,0,L|94:236,1,77.999997619629,8|0,1:2|0:0,0:0:0:0:
211,303,31510,6,0,P|172:303|157:343,1,77.999997619629,8|0,0:0|0:0,0:0:0:0:
287,360,31863,2,0,P|324:361|342:328,1,77.999997619629,0|0,1:0|0:0,0:0:0:0:
270,182,32216,1,10,0:0:0:0:
319,253,32393,1,0,0:0:0:0:
378,98,32569,1,0,1:0:0:0:
408,103,32922,6,0,L|415:156,3,38.9999988098145,8|0|0|0,3:2|3:2|3:2|3:2,0:0:0:0:
487,51,33275,2,0,L|480:104,3,38.9999988098145,8|0|0|0,3:2|3:2|3:2|3:2,0:0:0:0:
394,24,33628,2,0,L|348:7,1,38.9999988098145,10|0,3:2|3:2,0:0:0:0:
289,102,33804,2,0,L|335:85,1,38.9999988098145,0|0,3:2|3:2,0:0:0:0:
225,24,33981,2,0,P|207:44|196:64,1,38.9999988098145,8|0,3:2|3:2,0:0:0:0:
236,180,34157,2,0,P|225:163|211:149,1,38.9999988098145,0|0,3:2|3:2,0:0:0:0:
97,132,34334,6,0,P|74:129|46:115,1,52,8|0,1:2|0:0,0:0:0:0:
77,2,34510,2,0,P|94:26|106:58,2,52,0|0|0,0:0|0:0|1:0,0:0:0:0:
40,228,34863,1,0,1:0:0:0:
56,236,34951,1,0,0:0:0:0:
69,242,35040,1,0,0:0:0:0:
207,286,35216,1,0,1:0:0:0:
191,292,35304,1,0,0:0:0:0:
168,300,35393,6,0,L|240:309,1,58.4999982147217,0|0,1:0|0:0,0:0:0:0:
310,358,35745,6,0,P|306:299|324:261,2,77.999997619629,12|0|0,2:0|0:0|1:0,0:0:0:0:
382,219,36275,1,0,0:0:0:0:
477,322,36451,2,0,B|515:256|445:253|491:164,1,155.999995239258,6|8,0:0|1:2,0:0:0:0:
441,83,36981,1,0,0:0:0:0:
352,122,37157,6,0,P|301:111|278:89,1,77.999997619629,8|0,1:2|0:0,0:0:0:0:
275,76,37422,1,0,0:0:0:0:
275,76,37510,1,4,1:2:0:0:
313,213,37687,1,0,1:0:0:0:
135,175,37863,2,0,P|188:190|224:232,1,77.999997619629,2|0,0:0|0:0,0:0:0:0:
155,321,38216,2,0,P|148:306|146:264,2,38.9999988098145,12|0|0,1:2|0:0|0:0,0:0:0:0:
276,338,38569,6,0,P|330:346|380:370,2,77.999997619629,8|0|0,1:2|0:0|1:0,0:0:0:0:
380,259,39098,1,0,0:0:0:0:
233,221,39275,2,0,B|328:211|288:159|384:156,1,155.999995239258,6|8,1:2|0:0,0:0:0:0:
455,209,39804,1,0,0:0:0:0:
389,134,39981,6,0,B|376:98|394:45,1,77.999997619629,12|0,0:2|0:0,0:0:0:0:
397,45,40245,1,0,0:0:0:0:
399,44,40334,1,0,1:0:0:0:
487,134,40510,1,0,0:0:0:0:
385,212,40687,2,0,P|338:217|300:208,1,77.999997619629,2|0,1:2|0:0,0:0:0:0:
221,141,41040,2,0,P|177:170|171:246,1,116.999996429443,0|0,1:0|0:0,0:0:0:0:
166,253,41393,6,0,L|135:162,1,84.4999961318971,12|0,1:2|0:0,0:0:0:0:
216,14,41745,1,0,1:0:0:0:
156,87,41922,1,0,1:0:0:0:
14,29,42098,2,0,L|103:19,1,84.4999961318971,14|0,1:2|0:0,0:0:0:0:
239,96,42451,2,0,L|150:86,1,84.4999961318971,0|0,1:0|1:0,0:0:0:0:
296,17,42804,6,0,P|335:63|344:114,1,84.4999961318971,12|0,1:2|0:0,0:0:0:0:
344,108,43069,1,0,0:0:0:0:
344,108,43157,1,12,1:2:0:0:
264,212,43334,1,0,0:0:0:0:
383,264,43510,2,0,P|372:217|342:179,1,84.4999961318971,14|0,1:2|0:0,0:0:0:0:
289,322,43863,2,0,P|327:351|374:360,1,84.4999961318971,12|0,1:2|0:0,0:0:0:0:
478,307,44216,5,12,1:2:0:0:
459,196,44393,2,0,L|450:103,2,84.4999961318971,8|4|0,0:0|1:2|0:0,0:0:0:0:
507,39,44922,2,0,P|446:22|409:27,1,84.4999961318971,14|0,0:0|0:0,0:0:0:0:
291,124,45275,1,12,1:2:0:0:
332,44,45451,1,0,0:0:0:0:
183,99,45628,5,12,1:2:0:0:
221,215,45804,2,0,L|205:265,2,42.2499980659486,0|0|12,1:0|1:0|1:2,0:0:0:0:
81,113,46157,1,0,1:0:0:0:
85,132,46245,1,0,1:0:0:0:
88,152,46334,1,14,1:2:0:0:
35,282,47040,6,0,P|117:244|146:241,1,97.50000371933,6|0,1:2|0:0,0:0:0:0:
151,245,47304,1,0,0:0:0:0:
151,245,47393,1,8,0:0:0:0:
51,108,47569,2,0,P|65:138|86:164,1,48.750001859665,0|0,0:0|0:0,0:0:0:0:
130,100,47745,2,0,P|185:95|248:117,1,97.50000371933,2|0,1:2|0:0,0:0:0:0:
338,139,48010,1,0,0:0:0:0:
322,130,48098,2,0,P|283:158|266:203,1,97.50000371933,12|2,0:0|0:0,0:0:0:0:
357,307,48451,6,0,P|291:289|254:292,1,97.50000371933,6|0,1:2|0:0,0:0:0:0:
428,254,48804,2,0,P|372:214|336:204,1,97.50000371933,14|0,1:2|0:0,0:0:0:0:
512,228,49157,2,0,P|473:171|442:150,1,97.50000371933,6|0,1:2|0:0,0:0:0:0:
282,66,49510,1,10,0:0:0:0:
348,128,49687,1,4,0:0:0:0:
423,16,49863,6,0,P|367:1|320:6,1,97.50000371933,6|0,1:2|0:0,0:0:0:0:
253,48,50128,1,0,0:0:0:0:
253,48,50216,2,0,P|190:53|141:33,1,97.50000371933,8|0,0:0|0:0,0:0:0:0:
38,65,50569,2,0,P|68:112|74:158,1,97.50000371933,2|0,1:2|0:0,0:0:0:0:
61,172,50834,1,0,0:0:0:0:
61,172,50922,1,12,0:0:0:0:
188,150,51098,1,2,0:0:0:0:
121,291,51275,6,0,P|135:262|158:230,2,48.750001859665,6|0|0,3:2|3:0|3:0,0:0:0:0:
313,331,51628,1,14,1:2:0:0:
169,365,51804,1,0,1:0:0:0:
283,227,51981,2,0,P|306:234|328:245,2,48.750001859665,14|0|0,3:2|3:0|3:0,0:0:0:0:
321,369,52334,1,10,0:0:0:0:
441,301,52510,1,4,0:0:0:0:
357,171,52687,6,0,P|395:110|442:80,1,97.50000371933,6|0,1:2|0:0,0:0:0:0:
429,88,52951,1,0,0:0:0:0:
429,89,53040,1,8,0:0:0:0:
483,218,53216,1,0,0:0:0:0:
316,142,53393,2,0,P|248:112|203:120,1,97.50000371933,2|12,1:2|0:0,0:0:0:0:
103,186,53745,2,0,P|132:183|164:166,2,48.750001859665,0|0|2,0:0|0:0|0:0,0:0:0:0:
215,344,54098,6,0,P|204:285|229:247,1,97.50000371933,6|0,1:2|0:0,0:0:0:0:
312,295,54451,2,0,P|323:236|298:198,1,97.50000371933,14|0,1:2|0:0,0:0:0:0:
238,89,54804,2,0,P|218:132|231:178,1,97.50000371933,6|0,1:2|0:0,0:0:0:0:
406,134,55157,1,10,0:0:0:0:
317,134,55334,1,4,0:0:0:0:
413,239,55510,6,0,P|437:306|426:369,1,97.50000371933,6|0,1:2|0:0,0:0:0:0:
427,353,55775,1,0,0:0:0:0:
427,353,55863,1,8,0:0:0:0:
267,284,56040,1,0,0:0:0:0:
111,338,56216,2,0,L|222:368,1,97.50000371933,2|0,1:2|0:0,0:0:0:0:
228,368,56481,1,0,0:0:0:0:
228,368,56569,1,12,0:0:0:0:
145,239,56745,1,2,0:0:0:0:
267,176,56922,5,6,3:2:0:0:
267,176,57010,1,0,3:0:0:0:
267,176,57098,1,0,3:0:0:0:
142,104,57275,2,0,L|39:130,1,97.50000371933,14|0,1:2|1:0,0:0:0:0:
233,33,57628,2,0,P|248:54|257:71,3,32.5,6|0|0|0,3:2|3:0|3:0|3:0,0:0:0:0:
271,85,57981,1,10,3:2:0:0:
295,93,58069,1,0,3:0:0:0:
316,91,58157,1,4,3:2:0:0:
336,84,58245,1,0,3:0:0:0:
348,73,58334,6,0,P|412:45|454:50,1,97.50000371933,6|0,1:2|0:0,0:0:0:0:
458,55,58598,1,0,0:0:0:0:
458,55,58687,1,8,0:0:0:0:
364,169,58863,1,0,0:0:0:0:
480,221,59040,2,0,P|503:263|512:311,1,97.50000371933,2|0,1:2|0:0,0:0:0:0:
425,340,59304,1,0,0:0:0:0:
425,340,59393,2,0,P|370:299|333:291,1,97.50000371933,12|2,0:0|0:0,0:0:0:0:
216,367,59745,6,0,L|265:257,1,97.50000371933,6|0,1:2|0:0,0:0:0:0:
142,326,60098,2,0,L|142:212,1,97.50000371933,14|0,1:2|0:0,0:0:0:0:
23,275,60451,2,0,L|63:365,1,97.50000371933,6|0,1:2|0:0,0:0:0:0:
216,367,60804,1,10,0:0:0:0:
142,228,60981,1,4,0:0:0:0:
257,273,61157,6,0,P|305:237|326:184,1,97.50000371933,6|0,1:2|0:0,0:0:0:0:
323,184,61422,1,0,0:0:0:0:
323,184,61510,1,8,0:0:0:0:
232,43,61687,2,0,P|245:68|275:87,1,48.750001859665,0|0,0:0|0:0,0:0:0:0:
318,76,61863,2,0,P|263:67|203:81,1,97.50000371933,2|0,1:2|0:0,0:0:0:0:
164,132,62128,1,0,0:0:0:0:
164,132,62216,2,0,P|121:98|101:47,1,97.50000371933,12|2,0:0|0:0,0:0:0:0:
45,200,62569,6,0,L|40:263,2,48.750001859665,6|0|0,3:2|3:0|3:0,0:0:0:0:
213,265,62922,2,0,L|111:283,1,97.50000371933,14|2,1:2|0:0,0:0:0:0:
284,348,63275,2,0,L|289:293,2,48.750001859665,6|0|0,3:2|3:0|3:0,0:0:0:0:
435,279,63628,1,10,0:0:0:0:
331,226,63804,1,4,0:0:0:0:
442,179,63981,6,0,P|391:122|347:109,1,97.50000371933,6|0,1:2|0:0,0:0:0:0:
353,111,64245,1,0,0:0:0:0:
353,111,64334,1,8,0:0:0:0:
176,206,64510,1,0,0:0:0:0:
262,67,64687,2,0,P|267:123|252:164,1,97.50000371933,2|0,1:2|0:0,0:0:0:0:
61,126,65040,2,0,P|100:85|148:72,1,97.50000371933,12|0,0:0|0:0,0:0:0:0:
186,241,65393,6,0,P|188:266|175:300,2,48.750001859665,6|0|0,1:2|0:0|0:0,0:0:0:0:
49,199,65745,1,14,1:2:0:0:
87,326,65922,1,0,0:0:0:0:
93,343,66011,1,0,0:0:0:0:
98,361,66099,1,6,1:2:0:0:
252,319,66275,2,0,P|308:294|352:299,2,97.50000371933,0|10|4,0:0|0:0|0:0,0:0:0:0:
426,377,66804,6,0,P|451:327|444:266,1,97.50000371933,6|0,1:2|0:0,0:0:0:0:
441,267,67069,1,0,0:0:0:0:
441,267,67157,1,8,0:0:0:0:
391,146,67334,2,0,P|421:142|450:151,1,48.750001859665,0|0,0:0|0:0,0:0:0:0:
444,166,67510,2,0,P|417:103|425:50,1,97.50000371933,2|0,1:2|0:0,0:0:0:0:
491,7,67775,1,0,0:0:0:0:
491,7,67863,2,0,P|424:32|390:82,1,97.50000371933,12|2,0:0|0:0,0:0:0:0:
316,89,68216,6,0,L|256:91,2,48.750001859665,6|0|0,3:2|3:0|3:0,0:0:0:0:
200,0,68569,2,0,P|159:28|126:82,1,97.50000371933,14|0,1:2|0:0,0:0:0:0:
212,216,68922,1,6,3:2:0:0:
93,153,69098,1,0,3:0:0:0:
86,288,69275,2,0,P|117:333|158:361,1,97.50000371933,10|4,0:0|0:0,0:0:0:0:
244,289,69628,6,0,P|266:279|291:279,3,48.750001859665,6|0|0|0,3:2|3:0|3:0|3:0,0:0:0:0:
337,340,69981,2,0,P|355:323|365:290,1,48.750001859665,2|0,3:2|3:0,0:0:0:0:
413,231,70157,2,0,P|429:249|435:273,1,48.750001859665,0|0,3:0|3:0,0:0:0:0:
444,361,70334,1,4,1:2:0:0:
335,215,70510,1,4,1:2:0:0:
443,84,70687,1,4,1:2:0:0:
289,10,70863,1,4,1:2:0:0:
