osu file format v14

[General]
AudioFilename: audio.mp3
AudioLeadIn: 0
PreviewTime: 46290
Countdown: 0
SampleSet: None
StackLeniency: 0.4
Mode: 0
LetterboxInBreaks: 0
WidescreenStoryboard: 1

[Editor]
DistanceSpacing: 1.1
BeatDivisor: 4
GridSize: 8
TimelineZoom: 1.9

[Metadata]
Title:karakurenawi
TitleUnicode:karakurenawi
Artist:Undead Corporation
ArtistUnicode:Undead Corporation
Creator:Wanko
Version:Hard
Source:Touhou
Tags:
BeatmapID:1977986
BeatmapSetID:906923

[Difficulty]
HPDrainRate:3.7
CircleSize:3.6
OverallDifficulty:6
ApproachRate:8
SliderMultiplier:1.3
SliderTickRate:1

[Events]
//Background and Video events
0,0,"Konachan.com - 183118 sample.jpg",0,0
//Break Periods
2,129122,130995
//Storyboard Layer 0 (Background)
//Storyboard Layer 1 (Fail)
//Storyboard Layer 2 (Pass)
//Storyboard Layer 3 (Foreground)
//Storyboard Sound Samples

[TimingPoints]
11746,352.941176470588,4,2,1,50,1,0
24451,-83.3333333333333,4,2,1,60,0,0
32922,-83.3333333333333,4,2,1,22,0,0
33098,-83.3333333333333,4,2,1,28,0,0
33275,-83.3333333333333,4,2,1,34,0,0
33451,-83.3333333333333,4,2,1,40,0,0
33628,-83.3333333333333,4,2,1,46,0,0
33804,-83.3333333333333,4,2,1,52,0,0
33981,-83.3333333333333,4,2,1,58,0,0
34157,-83.3333333333333,4,2,1,64,0,0
34334,-71.4285714285714,4,2,1,70,0,0
35393,-166.666666666667,4,2,1,70,0,0
35745,-83.3333333333333,4,2,1,70,0,0
41393,-76.9230769230769,4,2,1,70,0,0
46334,-166.666666666667,4,2,1,70,0,0
47040,-71.4285714285714,4,2,1,80,0,1
71040,-90.9090909090909,4,2,1,70,0,0
76687,-76.9230769230769,4,2,1,70,0,0
82334,-83.3333333333333,4,2,1,60,0,0
92216,-111.111111111111,4,2,1,70,0,0
93628,-83.3333333333333,4,2,1,70,0,0
99275,-76.9230769230769,4,2,1,70,0,0
104922,-71.4285714285714,4,2,1,80,0,1
128922,-83.3333333333333,4,2,1,70,0,0
131745,-90.9090909090909,4,2,1,70,0,0
139863,-142.857142857143,4,2,1,70,0,0
140216,-83.3333333333333,4,2,1,60,0,0
151510,-111.111111111111,4,2,1,50,0,0
162804,-71.4285714285714,4,2,1,80,0,1
187863,-71.4285714285714,4,2,1,70,0,0

[Colours]
Combo1 : 191,138,13
Combo2 : 254,103,65
Combo3 : 244,227,17
Combo4 : 167,84,84

[HitObjects]
56,80,13157,6,0,P|104:67|187:79,1,130,8|0,0:0|0:0,0:0:0:0:
119,166,13863,2,0,P|167:178|232:230,1,130,10|0,0:0|0:0,0:0:0:0:
55,335,14569,6,0,P|33:284|33:249,1,65,8|0,0:0|0:0,0:0:0:0:
148,211,14922,2,0,P|140:242|124:270,1,65,0|0,0:0|0:0,0:0:0:0:
143,383,15275,2,0,P|176:363|278:348,1,130,10|0,0:0|0:0,0:0:0:0:
392,130,15981,6,0,P|338:164|301:217,1,130,8|0,0:0|0:0,0:0:0:0:
374,355,16687,2,0,P|379:290|409:233,1,130,10|0,0:0|0:0,0:0:0:0:
482,29,17393,6,0,P|492:60|512:86,1,65,8|0,0:0|0:0,0:0:0:0:
391,155,17746,2,0,P|410:128|419:98,1,65,0|0,0:0|0:0,0:0:0:0:
339,43,18098,1,10,0:0:0:0:
339,43,18451,1,0,0:0:0:0:
161,75,18804,6,0,P|103:94|37:150,1,130,8|0,0:0|0:0,0:0:0:0:
140,179,19510,2,0,P|198:198|264:254,1,130,10|0,0:0|0:0,0:0:0:0:
381,102,20216,6,0,P|346:106|315:125,1,65,8|0,0:0|0:0,0:0:0:0:
339,241,20569,2,0,P|361:217|372:187,1,65,0|0,0:0|0:0,0:0:0:0:
462,114,20922,2,0,P|478:186|461:263,1,130,10|0,0:0|0:0,0:0:0:0:
404,329,21451,1,0,0:0:0:0:
404,329,21628,6,0,P|357:293|264:269,1,130,8|0,0:0|0:0,0:0:0:0:
312,167,22334,2,0,P|250:186|198:225,1,130,10|0,0:0|0:0,0:0:0:0:
157,312,22863,1,0,0:0:0:0:
93,246,23040,6,0,P|55:223|48:222,4,32.5,0|0|0|0|8,3:0|3:0|3:0|3:0|0:0,0:0:0:0:
128,160,23569,2,0,P|147:130|177:102,1,65,0|10,0:0|1:2,0:0:0:0:
255,16,23922,1,0,0:0:0:0:
311,85,24098,2,0,P|275:105|240:107,1,65,8|0,1:2|0:0,0:0:0:0:
395,8,24451,6,0,P|420:45|426:90,1,77.999997619629,12|0,0:0|0:0,0:0:0:0:
313,173,24804,2,0,P|322:135|345:104,1,77.999997619629,8|0,1:2|0:0,0:0:0:0:
452,187,25157,1,10,0:0:0:0:
378,249,25334,2,0,L|386:332,1,77.999997619629,0|8,1:0|1:2,0:0:0:0:
56,271,25863,6,0,P|123:282|143:298,1,77.999997619629,0|8,0:0|0:0,0:0:0:0:
221,355,26216,2,0,P|154:366|134:382,1,77.999997619629,0|0,1:2|0:0,0:0:0:0:
200,247,26569,1,10,1:2:0:0:
191,147,26745,2,0,L|206:56,1,77.999997619629,0|0,0:0|1:0,0:0:0:0:
0,5,27275,6,0,P|32:41|46:86,1,77.999997619629,8|0,0:0|0:0,0:0:0:0:
75,190,27628,2,0,P|45:164|9:150,1,77.999997619629,8|0,1:2|0:0,0:0:0:0:
127,95,27981,1,10,0:0:0:0:
176,188,28157,2,0,P|187:229|180:280,2,77.999997619629,8|8|0,1:2|1:2|0:0,0:0:0:0:
247,114,28687,6,0,P|290:109|297:111,4,38.9999988098145,0|0|0|0|8,3:0|3:0|3:0|3:0|3:2,0:0:0:0:
453,37,29393,2,0,L|461:136,1,77.999997619629,10|0,0:0|0:0,0:0:0:0:
363,170,29745,2,0,L|355:269,1,77.999997619629,0|0,1:0|0:0,0:0:0:0:
390,352,30098,6,0,P|340:328|306:326,1,77.999997619629,8|0,0:0|0:0,0:0:0:0:
199,265,30451,2,0,P|237:257|270:238,1,77.999997619629,8|0,1:2|0:0,0:0:0:0:
169,163,30804,1,10,0:2:0:0:
103,241,30981,2,0,P|101:278|109:318,1,77.999997619629,0|8,1:0|1:2,0:0:0:0:
51,103,31510,6,0,P|77:63|106:40,1,77.999997619629,8|0,0:0|0:0,0:0:0:0:
224,61,31863,2,0,P|198:21|169:-2,1,77.999997619629,0|0,1:0|0:0,0:0:0:0:
149,129,32216,1,10,0:0:0:0:
380,89,32569,2,0,P|341:88|303:98,1,77.999997619629,0|0,1:0|0:0,0:0:0:0:
258,189,32922,5,8,3:2:0:0:
258,189,33098,1,0,3:2:0:0:
269,297,33275,2,0,L|165:282,1,77.999997619629,8|0,3:2|3:2,0:0:0:0:
85,233,33628,2,0,P|73:198|74:167,3,38.9999988098145,10|0|0|0,3:2|3:2|3:2|3:2,0:0:0:0:
99,170,33981,2,0,P|111:135|110:104,3,38.9999988098145,8|0|0|0,3:2|3:2|3:2|3:2,0:0:0:0:
80,98,34334,6,0,P|106:66|166:42,1,90.9999972229005,8|0,1:2|0:0,0:0:0:0:
231,111,34687,2,0,P|297:119|333:105,2,90.9999972229005,0|0|0,1:0|1:0|0:0,0:0:0:0:
288,25,35216,1,0,1:0:0:0:
361,78,35393,6,0,L|364:167,1,77.999997619629,0|12,1:0|2:0,0:0:0:0:
118,266,36098,2,0,P|153:249|192:249,1,77.999997619629,0|0,1:0|0:0,0:0:0:0:
262,347,36451,2,0,L|284:191,1,155.999995239258,6|8,0:0|1:2,0:0:0:0:
203,128,36981,1,0,0:0:0:0:
203,128,37157,6,0,P|144:142|104:132,1,77.999997619629,8|0,1:2|0:0,0:0:0:0:
74,4,37510,2,0,P|114:29|140:67,1,77.999997619629,4|0,1:2|1:0,0:0:0:0:
27,130,37863,1,2,0:0:0:0:
27,130,38216,2,0,L|26:210,1,77.999997619629,12|0,1:2|0:0,0:0:0:0:
26,311,38569,5,8,1:2:0:0:
214,236,38922,1,0,1:0:0:0:
394,351,39275,2,0,L|372:196,1,155.999995239258,6|8,1:2|0:0,0:0:0:0:
422,103,39804,1,0,0:0:0:0:
422,103,39981,6,0,P|454:124|474:157,1,77.999997619629,12|0,0:2|0:0,0:0:0:0:
310,114,40334,2,0,P|319:72|355:25,1,77.999997619629,0|0,1:0|0:0,0:0:0:0:
182,30,40687,2,0,P|205:73|208:122,1,77.999997619629,2|0,1:2|0:0,0:0:0:0:
171,191,41040,1,0,1:0:0:0:
27,84,41393,6,0,L|34:0,2,84.4999961318971,12|0|0,1:2|0:0|1:0,0:0:0:0:
94,168,41922,1,0,1:0:0:0:
94,168,42098,2,0,P|32:201|-4:199,1,84.4999961318971,14|0,1:2|0:0,0:0:0:0:
121,69,42451,2,0,P|165:109|184:154,1,84.4999961318971,0|0,1:0|1:0,0:0:0:0:
161,257,42804,6,0,P|221:224|320:225,1,168.999992263794,12|12,1:2|1:2,0:0:0:0:
394,259,43334,1,0,0:0:0:0:
394,259,43510,2,0,P|347:230|300:224,1,84.4999961318971,14|0,1:2|0:0,0:0:0:0:
238,349,43863,2,0,P|278:338|313:314,1,84.4999961318971,12|0,1:2|0:0,0:0:0:0:
322,202,44216,6,0,L|340:92,1,84.4999961318971,12|8,1:2|0:0,0:0:0:0:
258,40,44569,1,4,1:2:0:0:
172,96,44745,2,0,P|212:131|256:136,2,84.4999961318971,0|14|0,0:0|0:0|0:0,0:0:0:0:
105,28,45275,1,12,1:2:0:0:
47,108,45451,2,0,P|48:153|29:211,1,84.4999961318971,0|12,0:0|1:2,0:0:0:0:
133,231,45804,1,0,1:0:0:0:
132,238,45893,1,0,1:0:0:0:
132,245,45981,2,0,P|87:270|57:309,1,84.4999961318971,12|0,1:2|1:0,0:0:0:0:
0,384,46334,5,14,1:2:0:0:
29,350,47040,6,0,P|95:322|150:323,1,90.9999972229005,6|0,1:2|0:0,0:0:0:0:
199,264,47393,1,8,0:0:0:0:
165,184,47569,2,0,P|145:196|131:213,1,45.4999986114502,0|0,0:0|0:0,0:0:0:0:
111,229,47745,2,0,P|110:183|94:141,1,90.9999972229005,2|0,1:2|0:0,0:0:0:0:
47,56,48098,1,12,0:0:0:0:
47,56,48275,1,2,0:0:0:0:
141,65,48451,6,0,L|263:79,1,90.9999972229005,6|0,1:2|0:0,0:0:0:0:
206,175,48804,2,0,L|296:164,1,90.9999972229005,14|0,1:2|0:0,0:0:0:0:
292,269,49157,2,0,L|378:240,1,90.9999972229005,6|0,1:2|0:0,0:0:0:0:
428,146,49510,1,10,0:0:0:0:
428,146,49687,1,4,0:0:0:0:
428,37,49863,6,0,P|384:47|349:75,1,90.9999972229005,6|0,1:2|0:0,0:0:0:0:
267,134,50216,2,0,P|302:161|346:170,2,90.9999972229005,8|0|2,0:0|0:0|1:2,0:0:0:0:
184,194,50745,2,0,P|195:217|219:231,1,45.4999986114502,0|0,0:0|0:0,0:0:0:0:
251,234,50922,2,0,P|207:244|168:268,1,90.9999972229005,12|2,0:0|0:0,0:0:0:0:
82,323,51275,6,0,L|88:380,2,45.4999986114502,6|0|0,3:2|3:0|3:0,0:0:0:0:
36,240,51628,1,14,1:2:0:0:
36,240,51804,1,0,1:0:0:0:
95,165,51981,1,14,3:2:0:0:
24,12,52334,1,10,0:0:0:0:
24,12,52510,1,4,0:0:0:0:
113,57,52687,6,0,P|165:76|233:73,1,90.9999972229005,6|0,1:2|0:0,0:0:0:0:
323,31,53040,2,0,P|281:78|268:122,1,90.9999972229005,8|0,0:0|0:0,0:0:0:0:
319,198,53393,1,2,1:2:0:0:
319,198,53569,2,0,L|308:289,2,90.9999972229005,12|0|2,0:0|0:0|0:0,0:0:0:0:
401,140,54098,6,0,L|501:115,1,90.9999972229005,6|0,1:2|0:0,0:0:0:0:
512,241,54451,2,0,L|424:219,1,90.9999972229005,14|0,1:2|0:0,0:0:0:0:
400,342,54804,2,0,L|488:319,1,90.9999972229005,6|0,1:2|0:0,0:0:0:0:
316,265,55157,1,10,0:0:0:0:
316,265,55334,1,4,0:0:0:0:
218,308,55510,6,0,P|186:258|182:206,1,90.9999972229005,6|0,1:2|0:0,0:0:0:0:
225,123,55863,1,8,0:0:0:0:
132,82,56040,2,0,P|103:84|72:100,1,45.4999986114502,0|0,0:0|0:0,0:0:0:0:
40,99,56216,2,0,P|85:128|110:182,1,90.9999972229005,2|0,1:2|0:0,0:0:0:0:
34,237,56569,2,0,P|17:290|22:336,1,90.9999972229005,12|2,0:0|0:0,0:0:0:0:
127,351,56922,2,0,L|191:357,2,45.4999986114502,6|0|0,3:2|3:0|3:0,0:0:0:0:
195,272,57275,2,0,L|295:261,1,90.9999972229005,14|0,1:2|1:0,0:0:0:0:
394,312,57628,5,6,3:2:0:0:
448,204,57804,1,0,3:0:0:0:
313,152,57981,1,10,3:2:0:0:
361,232,58157,1,4,3:2:0:0:
401,125,58334,6,0,P|409:81|380:17,1,90.9999972229005,6|0,1:2|0:0,0:0:0:0:
280,15,58687,1,8,0:0:0:0:
210,80,58863,2,0,P|201:105|200:135,1,45.4999986114502,0|0,0:0|0:0,0:0:0:0:
215,173,59040,2,0,P|171:138|104:127,1,90.9999972229005,2|0,1:2|0:0,0:0:0:0:
45,258,59393,2,0,P|87:242|122:213,1,90.9999972229005,12|2,0:0|0:0,0:0:0:0:
32,136,59745,6,0,L|48:13,2,90.9999972229005,6|0|14,1:2|0:0|1:2,0:0:0:0:
105,222,60275,1,0,0:0:0:0:
105,222,60451,2,0,L|106:327,1,90.9999972229005,6|0,1:2|0:0,0:0:0:0:
15,370,60804,1,10,0:0:0:0:
15,370,60981,1,4,0:0:0:0:
115,335,61157,6,0,P|178:328|245:345,1,90.9999972229005,6|0,1:2|0:0,0:0:0:0:
290,379,61510,1,8,0:0:0:0:
290,286,61687,2,0,P|300:256|321:235,1,45.4999986114502,0|0,0:0|0:0,0:0:0:0:
349,223,61863,2,0,P|273:215|238:193,1,90.9999972229005,2|0,1:2|0:0,0:0:0:0:
194,115,62216,2,0,P|146:122|99:161,1,90.9999972229005,12|2,0:0|0:0,0:0:0:0:
68,246,62569,6,0,L|70:312,2,45.4999986114502,6|0|0,3:2|3:0|3:0,0:0:0:0:
168,226,62922,2,0,L|277:214,1,90.9999972229005,14|2,1:2|0:0,0:0:0:0:
351,176,63275,2,0,L|353:131,2,45.4999986114502,6|0|0,3:2|3:0|3:0,0:0:0:0:
434,246,63628,1,10,0:0:0:0:
434,246,63804,1,4,0:0:0:0:
385,326,63981,6,0,P|324:309|278:262,1,90.9999972229005,6|0,1:2|0:0,0:0:0:0:
309,136,64334,2,0,P|339:185|343:236,2,90.9999972229005,8|0|2,0:0|0:0|1:2,0:0:0:0:
216,103,64863,1,0,0:0:0:0:
216,103,65040,2,0,L|98:113,1,90.9999972229005,12|0,0:0|0:0,0:0:0:0:
61,204,65393,6,0,P|105:197|144:218,1,90.9999972229005,6|0,1:2|0:0,0:0:0:0:
229,233,65745,2,0,P|213:274|175:299,1,90.9999972229005,14|0,1:2|0:0,0:0:0:0:
124,358,66098,2,0,P|95:323|93:278,1,90.9999972229005,6|0,1:2|0:0,0:0:0:0:
150,192,66451,1,10,0:0:0:0:
150,192,66628,1,4,0:0:0:0:
228,117,66804,6,0,P|191:63|148:39,1,90.9999972229005,6|0,1:2|0:0,0:0:0:0:
285,16,67157,1,8,0:0:0:0:
329,93,67334,2,0,P|354:113|388:118,1,45.4999986114502,0|0,0:0|0:0,0:0:0:0:
400,118,67510,2,0,P|359:137|329:171,1,90.9999972229005,2|0,1:2|0:0,0:0:0:0:
379,255,67863,2,0,P|380:300|363:341,1,90.9999972229005,12|2,0:0|0:0,0:0:0:0:
263,311,68216,6,0,L|244:259,2,45.4999986114502,6|0|0,3:2|3:0|3:0,0:0:0:0:
159,327,68569,2,0,L|34:320,1,90.9999972229005,14|0,1:2|0:0,0:0:0:0:
25,227,68922,2,0,L|36:180,2,45.4999986114502,6|0|0,3:2|3:0|3:0,0:0:0:0:
125,179,69275,2,0,L|114:134,2,45.4999986114502,10|0|4,0:0|0:0|0:0,0:0:0:0:
38,30,69628,5,6,3:2:0:0:
42,37,69716,1,0,3:0:0:0:
48,44,69804,2,0,L|146:43,1,90.9999972229005,0|2,3:0|3:2,0:0:0:0:
231,81,70157,2,0,P|240:106|241:133,1,45.4999986114502,0|0,3:0|3:0,0:0:0:0:
226,167,70334,2,0,L|312:139,1,90.9999972229005,4|4,1:2|1:2,0:0:0:0:
436,248,70687,2,0,L|349:220,1,90.9999972229005,4|4,1:2|1:2,0:0:0:0:
475,123,71040,5,8,0:0:0:0:
475,123,71393,2,0,L|392:101,1,71.5000021820069,8|0,0:0|0:0,0:0:0:0:
286,16,71745,2,0,P|305:49|311:106,1,71.5000021820069,12|8,1:2|0:0,0:0:0:0:
264,191,72098,2,0,L|333:172,1,71.5000021820069,8|8,0:0|0:0,0:0:0:0:
512,239,72628,6,0,L|452:211,2,35.7500010910034,8|0|8,0:0|0:0|0:0,0:0:0:0:
458,314,72981,1,0,0:0:0:0:
364,280,73157,2,0,P|331:275|274:277,1,71.5000021820069,12|0,1:2|0:0,0:0:0:0:
208,343,73510,2,0,L|185:248,1,71.5000021820069,8|8,0:0|0:0,0:0:0:0:
93,252,73863,5,8,0:0:0:0:
93,252,74216,2,0,L|123:165,1,71.5000021820069,8|0,0:0|0:0,0:0:0:0:
94,59,74569,2,0,P|134:93|168:104,1,71.5000021820069,12|0,1:2|0:0,0:0:0:0:
237,60,74922,2,0,L|256:150,1,71.5000021820069,8|8,0:0|0:0,0:0:0:0:
512,24,75451,6,0,L|503:58,2,35.7500010910034,8|0|8,0:0|0:0|0:0,0:0:0:0:
406,34,75804,1,8,0:0:0:0:
424,123,75981,2,0,L|438:204,1,71.5000021820069,12|0,1:2|0:0,0:0:0:0:
341,202,76334,2,0,L|335:289,1,71.5000021820069,8|0,0:0|0:0,0:0:0:0:
281,355,76687,6,0,P|243:328|198:323,1,84.4999961318971,12|0,0:0|0:0,0:0:0:0:
83,273,77040,2,0,P|132:259|174:226,1,84.4999961318971,0|0,1:2|0:0,0:0:0:0:
243,186,77393,1,12,1:2:0:0:
79,89,77745,2,0,L|92:178,2,84.4999961318971,0|8|0,1:0|1:2|0:0,0:0:0:0:
171,29,78275,2,0,P|190:46|201:69,1,42.2499980659486,8|0,0:0|0:0,0:0:0:0:
214,90,78451,2,0,L|222:-6,1,84.4999961318971,12|0,1:2|0:0,0:0:0:0:
318,19,78804,1,12,1:2:0:0:
279,178,79157,2,0,P|296:201|316:214,2,42.2499980659486,8|0|8,1:2|0:0|1:2,0:0:0:0:
396,171,79510,6,0,P|399:225|381:263,1,84.4999961318971,8|6,0:0|0:0,0:0:0:0:
302,297,79863,2,0,P|323:346|357:372,1,84.4999961318971,8|0,0:0|0:0,0:0:0:0:
452,338,80216,1,8,3:2:0:0:
452,338,80393,2,0,L|461:247,2,84.4999961318971,8|4|0,3:2|0:0|0:0,0:0:0:0:
361,271,80922,6,0,P|305:255|261:264,1,84.4999961318971,8|0,0:0|1:0,0:0:0:0:
179,229,81275,2,0,P|212:181|252:160,1,84.4999961318971,8|8,0:0|0:0,0:0:0:0:
330,121,81628,1,12,1:2:0:0:
426,157,81804,2,0,L|455:243,2,84.4999961318971,0|12|0,1:0|0:0|0:0,0:0:0:0:
412,61,82334,6,0,P|446:36|500:27,1,77.999997619629,8|0,0:0|0:0,0:0:0:0:
320,59,82687,2,0,P|286:34|232:25,1,77.999997619629,0|0,0:0|0:0,0:0:0:0:
158,58,83040,1,10,0:0:0:0:
233,125,83216,2,0,L|242:202,1,77.999997619629,0|0,0:0|0:0,0:0:0:0:
71,306,83745,6,0,P|94:262|138:242,1,77.999997619629,8|0,0:0|0:0,0:0:0:0:
223,309,84098,2,0,P|188:324|150:321,1,77.999997619629,0|0,0:0|0:0,0:0:0:0:
227,212,84451,2,0,P|234:171|229:122,1,77.999997619629,10|0,0:0|0:0,0:0:0:0:
158,77,84804,1,0,0:0:0:0:
196,333,85157,6,0,P|265:320|286:303,1,77.999997619629,8|0,0:0|0:0,0:0:0:0:
347,239,85510,2,0,P|278:226|257:209,1,77.999997619629,0|0,0:0|0:0,0:0:0:0:
149,186,85863,2,0,P|175:214|192:249,1,77.999997619629,10|0,0:0|0:0,0:0:0:0:
27,243,86216,2,0,P|44:208|71:180,1,77.999997619629,0|0,0:0|0:0,0:0:0:0:
111,99,86569,6,0,P|118:79|118:49,4,38.9999988098145,8|0|0|0|0,0:0|0:0|0:0|0:0|0:0,0:0:0:0:
316,47,87275,2,0,L|414:44,1,77.999997619629,10|0,3:2|3:2,0:0:0:0:
475,136,87628,2,0,L|398:134,1,77.999997619629,0|0,0:0|0:0,0:0:0:0:
293,192,87981,6,0,P|326:213|348:245,1,77.999997619629,8|0,0:0|0:0,0:0:0:0:
203,186,88334,2,0,P|170:207|148:239,1,77.999997619629,0|0,0:0|0:0,0:0:0:0:
153,341,88687,1,10,0:0:0:0:
249,293,88863,2,0,L|255:370,1,77.999997619629,0|0,0:0|0:0,0:0:0:0:
37,188,89393,6,0,P|84:161|131:160,1,77.999997619629,8|0,0:0|0:0,0:0:0:0:
156,290,89745,2,0,P|123:269|101:238,1,77.999997619629,0|0,0:0|0:0,0:0:0:0:
106,137,90098,2,0,L|101:59,1,77.999997619629,10|0,0:0|0:0,0:0:0:0:
0,39,90451,1,0,0:0:0:0:
202,73,90804,6,0,P|263:83|302:107,1,77.999997619629,8|0,0:0|0:0,0:0:0:0:
352,163,91157,2,0,P|313:166|277:180,1,77.999997619629,0|0,0:0|0:0,0:0:0:0:
192,101,91510,2,0,P|253:111|292:135,1,77.999997619629,10|0,0:0|0:0,0:0:0:0:
342,191,91863,2,0,P|303:194|266:207,1,77.999997619629,0|0,0:0|0:0,0:0:0:0:
219,302,92216,6,0,L|233:170,2,116.999996429443,0|8|2,3:0|0:0|1:2,0:0:0:0:
48,327,93275,1,0,1:0:0:0:
359,249,93628,6,0,P|404:242|449:261,2,77.999997619629,12|0|0,2:0|0:0|1:0,0:0:0:0:
274,315,94157,1,0,0:0:0:0:
316,233,94334,2,0,P|393:202|480:214,1,155.999995239258,6|8,0:0|1:2,0:0:0:0:
502,120,94863,2,0,L|423:97,1,77.999997619629,0|8,0:0|1:2,0:0:0:0:
328,60,95216,2,0,L|319:9,2,38.9999988098145,0|0|4,3:2|3:2|3:2,0:0:0:0:
232,187,95745,2,0,P|154:186|74:216,1,155.999995239258,2|12,0:0|1:2,0:0:0:0:
26,295,96275,1,0,0:0:0:0:
125,291,96451,6,0,P|173:304|211:340,2,77.999997619629,8|0|0,1:2|0:0|1:0,0:0:0:0:
24,330,96981,1,0,0:0:0:0:
107,266,97157,2,0,P|178:256|271:283,1,155.999995239258,6|8,1:2|0:0,0:0:0:0:
322,349,97687,1,0,0:0:0:0:
392,287,97863,6,0,P|399:237|393:189,2,77.999997619629,12|0|0,0:2|3:2|3:2,0:0:0:0:
234,157,98569,1,2,1:2:0:0:
435,104,98922,1,0,1:0:0:0:
293,0,99275,6,0,P|272:69|250:90,1,84.4999961318971,12|0,1:2|0:0,0:0:0:0:
165,129,99628,1,0,3:2:0:0:
117,46,99805,2,0,P|153:23|195:18,1,84.4999961318971,0|14,3:2|1:2,0:0:0:0:
242,156,100157,2,0,L|231:259,2,84.4999961318971,0|0|0,0:0|3:0|3:0,0:0:0:0:
333,89,100687,6,0,L|328:22,2,42.2499980659486,12|0|0,1:2|0:0|0:0,0:0:0:0:
397,164,101040,1,12,1:2:0:0:
270,284,101393,1,14,1:2:0:0:
441,360,101745,2,0,P|401:329|343:323,1,84.4999961318971,12|0,1:2|0:0,0:0:0:0:
255,367,102098,6,0,L|167:352,1,84.4999961318971,12|8,1:2|0:0,0:0:0:0:
48,289,102451,2,0,L|136:274,1,84.4999961318971,4|0,1:2|0:0,0:0:0:0:
213,196,102804,1,14,0:0:0:0:
213,196,102981,1,0,0:0:0:0:
141,117,103157,2,0,P|93:103|46:101,1,84.4999961318971,12|0,1:2|0:0,0:0:0:0:
209,31,103510,6,0,P|270:34|308:47,2,84.4999961318971,12|0|4,1:2|3:2|3:2,0:0:0:0:
280,127,104040,1,0,1:0:0:0:
372,156,104216,1,6,1:2:0:0:
437,180,104922,6,0,P|367:195|327:221,1,90.9999972229005,6|0,1:2|0:0,0:0:0:0:
282,279,105275,1,8,0:0:0:0:
182,276,105451,2,0,P|167:254|160:230,1,45.4999986114502,0|0,0:0|0:0,0:0:0:0:
155,189,105628,2,0,P|138:238|93:282,1,90.9999972229005,2|0,1:2|0:0,0:0:0:0:
28,133,105981,2,0,P|70:114|134:117,1,90.9999972229005,12|2,0:0|0:0,0:0:0:0:
251,120,106334,6,0,L|226:3,1,90.9999972229005,6|0,1:2|0:0,0:0:0:0:
348,112,106687,2,0,L|348:21,1,90.9999972229005,14|0,1:2|0:0,0:0:0:0:
444,124,107040,2,0,L|463:35,1,90.9999972229005,6|0,1:2|0:0,0:0:0:0:
385,203,107393,1,10,0:0:0:0:
385,203,107569,1,4,0:0:0:0:
280,202,107745,6,0,P|258:268|258:303,1,90.9999972229005,6|0,1:2|0:0,0:0:0:0:
331,364,108098,2,0,P|392:356|455:383,2,90.9999972229005,8|0|2,0:0|0:0|1:2,0:0:0:0:
245,331,108628,2,0,P|217:311|183:303,1,45.4999986114502,0|0,0:0|0:0,0:0:0:0:
161,296,108804,2,0,P|207:281|258:225,1,90.9999972229005,12|2,0:0|0:0,0:0:0:0:
218,151,109157,6,0,L|234:89,2,45.4999986114502,6|0|0,3:2|3:0|3:0,0:0:0:0:
126,203,109510,1,14,1:2:0:0:
23,47,109863,2,0,L|9:-11,2,45.4999986114502,14|0|0,3:2|3:0|3:0,0:0:0:0:
125,61,110216,1,10,0:0:0:0:
125,61,110393,1,4,0:0:0:0:
223,24,110569,6,0,P|289:19|335:34,1,90.9999972229005,6|0,1:2|0:0,0:0:0:0:
365,110,110922,1,8,0:0:0:0:
311,191,111098,2,0,P|312:227|346:275,1,90.9999972229005,0|2,0:0|1:2,0:0:0:0:
437,281,111451,1,12,0:0:0:0:
347,294,111628,2,0,L|341:384,1,90.9999972229005,0|2,0:0|0:0,0:0:0:0:
233,319,111981,6,0,P|190:299|146:297,1,90.9999972229005,6|0,1:2|0:0,0:0:0:0:
71,232,112334,2,0,P|114:212|158:210,1,90.9999972229005,14|0,1:2|0:0,0:0:0:0:
233,145,112687,2,0,P|190:125|146:123,1,90.9999972229005,6|0,1:2|0:0,0:0:0:0:
46,114,113040,1,10,0:0:0:0:
46,114,113216,1,4,0:0:0:0:
146,103,113393,6,0,P|181:75|205:18,1,90.9999972229005,6|0,1:2|0:0,0:0:0:0:
301,22,113745,1,8,0:0:0:0:
369,94,113922,2,0,P|363:115|334:140,2,45.4999986114502,0|0|2,0:0|0:0|1:2,0:0:0:0:
260,148,114275,2,0,P|266:169|295:194,2,45.4999986114502,0|0|12,0:0|0:0|0:0,0:0:0:0:
366,212,114628,1,2,0:0:0:0:
286,276,114804,6,0,P|336:328|369:336,1,90.9999972229005,6|0,3:2|3:0,0:0:0:0:
445,357,115157,2,0,L|229:350,1,181.999994445801,14|6,1:2|3:2,0:0:0:0:
178,308,115687,1,0,3:0:0:0:
178,308,115863,2,0,L|156:200,1,90.9999972229005,10|4,3:2|3:2,0:0:0:0:
232,155,116216,6,0,P|168:125|130:131,1,90.9999972229005,6|0,1:2|0:0,0:0:0:0:
57,146,116569,1,8,0:0:0:0:
62,63,116745,2,0,P|48:41|16:27,1,45.4999986114502,0|0,0:0|0:0,0:0:0:0:
0,7,116922,2,0,P|69:16|131:-1,1,90.9999972229005,2|0,1:2|0:0,0:0:0:0:
209,38,117275,2,0,P|171:75|151:119,1,90.9999972229005,12|2,0:0|0:0,0:0:0:0:
185,205,117628,6,0,L|191:262,2,45.4999986114502,6|0|0,1:2|0:0|0:0,0:0:0:0:
270,144,117981,1,14,1:2:0:0:
333,324,118334,2,0,L|347:201,1,90.9999972229005,6|0,1:2|0:0,0:0:0:0:
436,183,118687,1,10,0:0:0:0:
436,183,118863,1,4,0:0:0:0:
337,124,119040,6,0,P|298:93|267:42,1,90.9999972229005,6|0,1:2|0:0,0:0:0:0:
177,24,119393,1,8,0:0:0:0:
139,117,119569,2,0,P|129:144|126:171,1,45.4999986114502,0|0,0:0|0:0,0:0:0:0:
126,193,119745,2,0,P|105:153|73:121,1,90.9999972229005,2|0,1:2|0:0,0:0:0:0:
0,226,120098,1,12,0:0:0:0:
67,285,120275,1,2,0:0:0:0:
158,297,120451,6,0,L|239:285,2,45.4999986114502,6|0|0,3:2|3:0|3:0,0:0:0:0:
207,204,120804,2,0,L|303:224,1,90.9999972229005,14|2,1:2|0:0,0:0:0:0:
361,289,121157,2,0,L|442:277,2,45.4999986114502,6|0|0,3:2|3:0|3:0,0:0:0:0:
432,196,121510,1,10,0:0:0:0:
432,196,121687,1,4,0:0:0:0:
399,103,121863,6,0,P|361:128|339:167,1,90.9999972229005,6|0,1:2|0:0,0:0:0:0:
280,263,122216,2,0,P|259:223|216:183,1,90.9999972229005,8|0,0:0|0:0,0:0:0:0:
125,189,122569,1,2,1:2:0:0:
49,262,122745,2,0,L|37:366,2,90.9999972229005,0|12|0,0:0|0:0|0:0,0:0:0:0:
23,160,123275,5,6,1:2:0:0:
191,52,123628,2,0,L|200:160,1,90.9999972229005,14|0,1:2|0:0,0:0:0:0:
285,93,123981,2,0,P|338:81|381:88,1,90.9999972229005,6|0,1:2|0:0,0:0:0:0:
457,150,124334,1,10,0:0:0:0:
457,150,124510,1,4,0:0:0:0:
369,207,124687,6,0,P|362:274|377:316,1,90.9999972229005,6|0,1:2|0:0,0:0:0:0:
278,330,125040,1,8,0:0:0:0:
206,265,125216,2,0,P|227:243|254:233,1,45.4999986114502,0|0,0:0|0:0,0:0:0:0:
281,214,125393,2,0,P|227:205|176:160,1,90.9999972229005,2|0,1:2|0:0,0:0:0:0:
212,48,125745,2,0,P|247:89|262:154,1,90.9999972229005,12|2,0:0|0:0,0:0:0:0:
134,112,126098,6,0,L|75:104,2,45.4999986114502,6|0|0,3:2|3:0|3:0,0:0:0:0:
68,191,126451,2,0,L|82:287,1,90.9999972229005,14|0,1:2|0:0,0:0:0:0:
45,361,126804,2,0,L|0:368,2,45.4999986114502,6|0|0,3:2|3:0|3:0,0:0:0:0:
154,341,127157,2,0,L|199:347,2,45.4999986114502,10|0|4,0:0|0:0|0:0,0:0:0:0:
137,235,127510,5,6,3:2:0:0:
141,230,127598,1,0,3:0:0:0:
146,224,127687,2,0,L|140:107,1,90.9999972229005,0|2,3:0|3:2,0:0:0:0:
97,52,128040,2,0,P|64:83|23:101,2,90.9999972229005,0|4|4,3:0|1:2|1:2,0:0:0:0:
191,37,128569,2,0,L|287:72,1,90.9999972229005,4|4,1:2|1:2,0:0:0:0:
364,24,128922,5,4,1:0:0:0:
131,113,131745,6,0,P|165:126|195:146,2,71.5000021820069,4|0|0,0:0|0:0|0:0,0:0:0:0:
299,80,132451,1,4,0:0:0:0:
299,80,132628,2,0,P|328:60|362:47,1,71.5000021820069,0|0,0:0|0:0,0:0:0:0:
440,102,132981,1,0,0:0:0:0:
376,180,133157,6,0,P|318:163|276:162,1,71.5000021820069,4|0,0:0|0:0,0:0:0:0:
231,196,133510,1,0,1:2:0:0:
181,261,133687,1,0,3:0:0:0:
110,310,133863,2,0,P|57:290|38:269,1,71.5000021820069,0|0,3:0|3:0,0:0:0:0:
109,152,134216,2,0,P|113:187|104:222,1,71.5000021820069,0|0,3:0|3:0,0:0:0:0:
22,114,134569,6,0,P|61:77|156:69,1,143.000004364014,4|0,0:0|0:0,0:0:0:0:
225,131,135098,1,0,0:0:0:0:
225,131,135275,2,0,P|189:105|165:-2,1,143.000004364014,6|0,0:0|0:0,0:0:0:0:
299,30,135804,2,0,P|296:52|283:72,1,35.7500010910034,0|0,3:2|3:2,0:0:0:0:
296,98,135981,2,0,P|328:80|388:79,1,71.5000021820069,4|0,3:2|0:0,0:0:0:0:
436,260,136510,1,0,0:0:0:0:
360,190,136687,2,0,P|369:150|408:105,1,71.5000021820069,6|0,0:0|0:0,0:0:0:0:
487,127,137040,2,0,P|478:87|439:42,1,71.5000021820069,0|0,0:0|0:0,0:0:0:0:
359,30,137393,6,0,L|209:59,1,143.000004364014,4|0,0:0|0:0,0:0:0:0:
129,213,138098,1,6,0:0:0:0:
32,72,138451,2,0,P|69:51|116:39,2,71.5000021820069,0|0|4,0:0|0:0|0:0,0:0:0:0:
14,162,138981,2,0,P|15:185|5:206,1,35.7500010910034,0|0,3:2|3:2,3:3:0:0:
1,222,139157,2,0,P|39:206|102:207,1,71.5000021820069,0|0,0:2|3:2,0:0:0:0:
120,290,139510,2,0,P|181:299|224:290,1,71.5000021820069,6|0,0:0|0:0,0:0:0:0:
271,245,139863,1,4,0:0:0:0:
318,75,140216,6,8,P|329:127|357:164,2,77.999997619629,6|0|0,3:2|3:2|3:2,3:3:0:0:
401,39,140745,1,0,3:2:0:0:
473,95,140922,2,0,P|465:134|445:172,1,77.999997619629,6|0,3:2|3:2,0:0:0:0:
376,229,141275,2,0,P|400:288|422:313,1,77.999997619629,0|0,3:2|3:2,3:3:0:0:
192,120,141804,6,0,P|209:130|224:143,1,38.9999988098145,0|0,3:2|3:2,0:0:0:0:
257,140,141981,2,0,P|235:192|240:235,1,77.999997619629,0|0,3:2|3:2,3:3:0:0:
219,305,142334,2,0,P|160:268|122:259,1,77.999997619629,6|0,3:2|3:2,0:0:0:0:
66,321,142687,2,0,P|76:347|92:363,2,38.9999988098145,0|0|0,3:2|3:2|3:2,0:0:0:0:
73,223,143040,6,0,P|53:156|29:121,1,77.999997619629,6|0,3:2|0:2,3:3:0:0:
145,122,143393,2,0,P|155:73|176:34,1,77.999997619629,0|0,3:2|0:2,3:3:0:0:
271,18,143745,1,6,3:2:0:0:
321,93,143922,2,0,L|415:88,2,77.999997619629,0|0|0,3:2|3:2|3:2,3:3:0:0:
302,265,144628,6,0,P|326:273|339:283,1,38.9999988098145,0|0,3:2|3:2,0:0:0:0:
369,305,144804,2,0,P|357:251|360:198,1,77.999997619629,0|0,3:2|3:2,0:0:0:0:
423,151,145157,1,6,3:2:0:0:
328,143,145334,2,0,P|245:127|178:80,1,155.999995239258,4|0,3:2|3:2,3:3:0:0:
72,59,145863,6,0,P|86:97|84:143,1,77.999997619629,6|0,1:2|0:0,0:0:0:0:
176,139,146216,2,0,P|162:177|164:223,1,77.999997619629,0|0,1:0|0:0,0:0:0:0:
75,270,146569,1,14,1:2:0:0:
161,322,146745,2,0,L|258:325,1,77.999997619629,0|0,0:0|1:0,0:0:0:0:
333,347,147098,1,0,1:0:0:0:
292,91,147451,6,0,P|275:112|268:137,2,38.9999988098145,0|0|0,1:2|1:2|1:2,0:0:0:0:
379,75,147804,1,0,1:2:0:0:
284,67,147981,2,0,P|222:58|191:64,1,77.999997619629,6|0,0:0|1:2,0:0:0:0:
107,74,148334,2,0,L|100:33,2,38.9999988098145,0|0|0,1:2|1:2|1:2,0:0:0:0:
156,166,148687,6,0,P|160:212|151:258,1,77.999997619629,6|0,1:2|0:0,0:0:0:0:
51,246,149040,2,0,P|47:292|56:338,1,77.999997619629,0|0,1:0|1:0,0:0:0:0:
147,353,149393,2,0,P|171:342|197:338,1,38.9999988098145,6|0,1:2|1:2,0:0:0:0:
222,333,149569,2,0,P|190:303|143:291,2,77.999997619629,0|0|0,1:2|1:0|1:0,0:0:0:0:
315,364,150098,6,0,P|376:366|402:352,1,77.999997619629,6|0,1:2|1:2,0:0:0:0:
410,224,150451,2,0,P|374:239|349:269,1,77.999997619629,0|0,1:0|0:0,0:0:0:0:
506,291,150804,2,0,L|524:192,1,77.999997619629,6|0,1:2|1:2,0:0:0:0:
419,197,151157,2,0,L|401:98,1,77.999997619629,0|12,0:0|1:2,0:0:0:0:
482,60,151510,5,2,0:0:0:0:
356,47,151863,1,0,0:0:0:0:
230,34,152216,1,2,0:0:0:0:
222,42,152393,2,0,L|218:93,2,29.2499991073609,0|0|0,0:0|0:0|0:0,0:0:0:0:
297,116,152745,2,0,P|316:140|325:168,2,58.4999982147217,0|0|0,0:0|0:0|0:0,0:0:0:0:
207,168,153275,2,0,P|200:212|208:237,1,58.4999982147217,0|0,0:0|0:0,0:0:0:0:
272,267,153628,2,0,P|232:304|204:313,1,58.4999982147217,2|0,0:0|0:0,0:0:0:0:
289,190,153981,2,0,P|315:202|337:221,1,58.4999982147217,0|0,0:0|0:0,0:0:0:0:
355,318,154334,5,0,0:0:0:0:
229,305,154687,1,0,0:0:0:0:
103,292,155040,1,2,0:0:0:0:
97,283,155216,2,0,L|86:228,2,29.2499991073609,0|0|0,0:0|0:0|0:0,0:0:0:0:
8,232,155569,2,0,L|15:183,1,29.2499991073609,0|0,0:0|0:0,0:0:0:0:
24,172,155745,6,8,L|18:113,2,58.4999982147217,8|8|12,0:0|0:0|0:0,0:0:0:0:
106,142,156275,2,0,L|171:134,1,58.4999982147217,8|10,0:0|0:0,0:0:0:0:
225,66,156628,1,8,0:0:0:0:
264,144,156804,2,0,L|273:215,1,58.4999982147217,8|8,0:0|0:0,0:0:0:0:
358,222,157157,6,8,P|391:201|423:194,2,58.4999982147217,8|0|0,0:0|0:0|0:0,0:0:0:0:
445,279,157687,1,8,0:0:0:0:
492,209,157863,2,0,P|490:172|472:132,2,58.4999982147217,2|8|8,0:0|0:0|0:0,0:0:0:0:
397,115,158393,1,0,0:0:0:0:
474,52,158569,6,0,P|414:28|354:33,1,116.999996429443,8|0,0:0|0:0,0:0:0:0:
300,97,159098,1,8,0:0:0:0:
222,68,159275,2,0,P|212:43|206:2,2,58.4999982147217,10|8|8,0:0|0:0|0:0,0:0:0:0:
299,117,159804,1,0,0:0:0:0:
228,172,159981,6,0,L|156:161,1,58.4999982147217,8|8,0:0|0:0,0:0:0:0:
109,88,160334,1,0,0:0:0:0:
48,158,160510,2,0,P|40:193|44:235,2,58.4999982147217,8|2|8,0:0|0:0|0:0,0:0:0:0:
129,202,161040,1,0,0:0:0:0:
155,290,161216,2,0,L|135:363,1,58.4999982147217,8|12,0:0|0:0,0:0:0:0:
273,301,162804,6,0,P|318:273|366:261,1,90.9999972229005,6|0,1:2|0:0,0:0:0:0:
446,306,163157,1,8,0:0:0:0:
416,209,163334,2,0,P|404:188|402:155,1,45.4999986114502,0|0,0:0|0:0,0:0:0:0:
423,121,163510,2,0,P|375:156|307:173,1,90.9999972229005,2|0,1:2|0:0,0:0:0:0:
279,100,163863,1,12,0:0:0:0:
279,100,164040,1,2,0:0:0:0:
179,100,164216,6,0,P|167:134|165:202,1,90.9999972229005,6|0,1:2|0:0,0:0:0:0:
58,186,164569,2,0,P|70:219|112:273,1,90.9999972229005,14|0,1:2|0:0,0:0:0:0:
20,329,164922,2,0,P|51:346|118:360,1,90.9999972229005,6|0,1:2|0:0,0:0:0:0:
195,317,165275,1,10,0:0:0:0:
195,317,165451,1,4,0:0:0:0:
256,241,165628,6,0,P|305:239|372:271,1,90.9999972229005,6|0,1:2|0:0,0:0:0:0:
432,208,165981,2,0,P|450:263|435:327,2,90.9999972229005,8|0|2,0:0|0:0|1:2,0:0:0:0:
351,127,166510,2,0,P|365:107|370:71,1,45.4999986114502,0|0,0:0|0:0,0:0:0:0:
362,51,166687,2,0,P|417:104|458:120,1,90.9999972229005,12|2,0:0|0:0,0:0:0:0:
497,204,167040,6,0,P|482:222|445:239,2,45.4999986114502,6|0|0,3:2|3:0|3:0,0:0:0:0:
374,208,167393,2,0,L|253:216,1,90.9999972229005,14|0,1:2|1:0,0:0:0:0:
176,247,167745,2,0,P|191:265|228:282,2,45.4999986114502,14|0|0,3:2|3:0|3:0,0:0:0:0:
162,139,168098,2,0,P|178:97|229:64,1,90.9999972229005,10|4,0:0|0:0,0:0:0:0:
39,19,168451,6,0,P|38:82|51:129,1,90.9999972229005,6|0,1:2|0:0,0:0:0:0:
79,199,168804,1,8,0:0:0:0:
77,297,168981,2,0,P|65:313|31:334,1,45.4999986114502,0|0,0:0|0:0,0:0:0:0:
4,353,169157,2,0,P|68:346|126:368,1,90.9999972229005,2|12,1:2|0:0,0:0:0:0:
182,312,169510,2,0,P|230:321|273:319,1,90.9999972229005,0|2,0:0|0:0,0:0:0:0:
382,256,169863,6,0,P|362:311|363:352,1,90.9999972229005,6|0,3:2|3:2,0:0:0:0:
454,187,170216,2,0,P|472:228|475:274,1,90.9999972229005,14|0,3:2|3:2,0:0:0:0:
388,127,170569,2,0,P|368:182|369:223,1,90.9999972229005,6|0,3:2|3:2,0:0:0:0:
454,62,170922,1,10,0:0:0:0:
454,62,171098,1,4,0:0:0:0:
361,24,171275,6,0,P|304:37|256:70,1,90.9999972229005,6|0,1:2|0:0,0:0:0:0:
210,129,171628,1,8,0:0:0:0:
112,127,171804,2,0,P|92:106|76:66,1,45.4999986114502,0|0,0:0|0:0,0:0:0:0:
80,51,171981,2,0,P|71:108|40:161,2,90.9999972229005,2|0|12,1:2|0:0|0:0,0:0:0:0:
0,205,172510,1,2,0:0:0:0:
91,251,172687,6,0,L|91:302,2,45.4999986114502,6|0|0,3:2|3:0|3:0,0:0:0:0:
170,211,173040,2,0,P|204:200|278:211,1,90.9999972229005,14|0,1:2|1:0,0:0:0:0:
354,160,173393,1,6,3:2:0:0:
327,283,173569,1,0,3:0:0:0:
449,309,173745,1,10,3:2:0:0:
399,231,173922,1,4,3:2:0:0:
299,313,174098,6,0,P|256:328|211:326,1,90.9999972229005,6|0,1:2|0:0,0:0:0:0:
138,258,174451,1,8,0:0:0:0:
151,158,174628,2,0,P|175:150|211:153,1,45.4999986114502,0|0,0:0|0:0,0:0:0:0:
246,142,174804,2,0,P|179:111|142:74,1,90.9999972229005,2|0,1:2|0:0,0:0:0:0:
21,62,175157,2,0,P|69:119|76:151,1,90.9999972229005,12|2,0:0|0:0,0:0:0:0:
176,78,175510,6,0,P|236:56|305:62,1,90.9999972229005,6|0,1:2|0:0,0:0:0:0:
361,102,175863,1,14,1:2:0:0:
296,288,176216,2,0,P|334:251|389:223,1,90.9999972229005,6|0,1:2|0:0,0:0:0:0:
474,239,176569,1,10,0:0:0:0:
474,239,176745,1,4,0:0:0:0:
448,336,176922,6,0,P|407:313|371:260,1,90.9999972229005,6|0,1:2|0:0,0:0:0:0:
393,167,177275,2,0,P|430:142|496:128,2,90.9999972229005,8|0|2,0:0|0:0|1:2,0:0:0:0:
297,129,177804,1,0,0:0:0:0:
197,149,177981,2,0,P|177:124|174:38,1,90.9999972229005,12|2,0:0|0:0,0:0:0:0:
79,26,178334,6,0,P|57:19|34:18,2,45.4999986114502,6|0|0,3:2|3:0|3:0,0:0:0:0:
41,104,178687,2,0,P|31:152|44:197,1,90.9999972229005,14|2,1:2|0:0,0:0:0:0:
78,265,179040,2,0,P|56:271|34:273,2,45.4999986114502,6|0|0,3:2|3:0|3:0,0:0:0:0:
173,308,179393,1,10,0:0:0:0:
173,308,179569,1,4,0:0:0:0:
256,264,179745,6,0,P|274:202|263:145,1,90.9999972229005,6|0,1:2|0:0,0:0:0:0:
209,97,180098,1,8,0:0:0:0:
296,64,180275,2,0,P|318:56|340:57,1,45.4999986114502,0|0,0:0|0:0,0:0:0:0:
379,51,180451,2,0,P|333:45|293:26,2,90.9999972229005,2|0|12,1:2|0:0|0:0,0:0:0:0:
474,35,180981,1,0,0:0:0:0:
436,118,181157,6,0,P|423:174|442:223,1,90.9999972229005,6|0,1:2|0:0,0:0:0:0:
332,205,181510,2,0,P|358:256|404:281,1,90.9999972229005,14|0,1:2|0:0,0:0:0:0:
308,338,181863,2,0,P|360:360|412:350,1,90.9999972229005,6|0,1:2|0:0,0:0:0:0:
254,256,182216,1,10,0:0:0:0:
254,256,182393,1,4,0:0:0:0:
186,324,182569,6,0,P|121:311|67:281,1,90.9999972229005,6|0,1:2|0:0,0:0:0:0:
33,224,182922,1,8,0:0:0:0:
100,154,183098,2,0,P|127:143|172:137,2,45.4999986114502,0|0|2,0:0|0:0|1:2,0:0:0:0:
67,40,183451,1,0,0:0:0:0:
88,32,183540,2,0,P|118:41|152:63,1,45.4999986114502,0|12,0:0|0:0,0:0:0:0:
224,83,183804,6,0,P|284:83|348:69,2,90.9999972229005,2|6|0,0:0|3:2|3:0,0:0:0:0:
292,174,184334,2,0,P|342:214|357:240,1,90.9999972229005,14|0,1:2|0:0,0:0:0:0:
225,336,184687,2,0,P|241:289|290:246,2,90.9999972229005,6|0|10,3:2|3:2|3:2,0:0:0:0:
130,363,185216,1,4,3:2:0:0:
65,290,185393,6,0,L|56:191,2,90.9999972229005,6|0|2,1:2|1:0|1:2,0:0:0:0:
166,223,185922,1,0,3:2:0:0:
164,206,186010,1,0,3:2:0:0:
163,192,186098,2,0,L|172:81,1,90.9999972229005,4|4,3:2|1:2,3:3:0:0:
261,11,186451,1,4,1:2:0:0:
299,90,186628,1,4,1:2:0:0:
371,155,186804,6,0,P|400:151|443:157,3,45.4999986114502,0|0|8|0,0:0|0:0|1:2|0:0,0:0:0:0:
452,181,187157,2,0,P|483:189|516:187,3,45.4999986114502,0|0|8|0,0:0|0:0|1:2|0:0,0:0:0:0:
507,225,187510,2,0,L|376:234,2,90.9999972229005,8|8|6,1:2|0:0|0:0,0:0:0:0:
