osu file format v14

[General]
AudioFilename: audio.mp3
AudioLeadIn: 0
PreviewTime: 90592
Countdown: 1
SampleSet: Soft
StackLeniency: 0.2
Mode: 0
LetterboxInBreaks: 0
WidescreenStoryboard: 0

[Editor]
DistanceSpacing: 1
BeatDivisor: 4
GridSize: 16
TimelineZoom: 1.9

[Metadata]
Title:Under The Scarlet Sky
TitleUnicode:Under The Scarlet Sky
Artist:Undead Corporation
ArtistUnicode:Undead Corporation
Creator:AlexTroIIPsy
Version:Bloody Horror
Source:ほおずきみたいに紅い魂
Tags:
BeatmapID:1374728
BeatmapSetID:648919

[Difficulty]
HPDrainRate:3
CircleSize:4.5
OverallDifficulty:10
ApproachRate:10
SliderMultiplier:1.8
SliderTickRate:1

[Events]
//Background and Video events
0,0,"Bg Scarlet Sky.jpg",0,0
//Break Periods
//Storyboard Layer 0 (Background)
//Storyboard Layer 1 (Fail)
//Storyboard Layer 2 (Pass)
//Storyboard Layer 3 (Foreground)
//Storyboard Sound Samples

[TimingPoints]
18592,230.769230769231,4,2,0,75,1,0
20438,-66.6666666666667,4,2,0,75,0,0
26322,-100,4,2,0,75,0,0
26668,-79.9999999999999,4,2,0,75,0,0
27822,-66.6666666666667,4,2,0,75,0,0
33361,-200,4,2,0,75,0,0
33822,-57.1428571428571,4,2,0,75,0,0
37053,-100,4,2,0,75,0,0
44438,-66.6666666666667,4,2,0,75,0,0
44611,-100,4,2,0,5,0,0
44668,-100,4,2,0,75,0,0
51822,-66.6666666666667,4,2,0,75,0,0
55515,-66.6666666666667,4,2,0,75,0,0
57707,-100,4,2,0,75,0,0
58053,-80,4,2,0,75,0,0
59207,-79.9999999999999,4,2,0,75,0,0
59380,-100,4,2,0,5,0,0
59438,-100,4,2,0,75,0,0
66592,-79.9999999999999,4,2,0,75,0,0
66822,-100,4,2,0,75,0,0
74149,-100,4,2,0,5,0,0
74207,-100,4,2,0,75,0,0
81534,-100,4,2,0,5,0,0
81592,-100,4,2,0,75,0,0
86784,-200,4,2,0,75,0,0
87765,-200,4,2,0,5,0,0
87822,-100,4,2,0,75,0,0
90592,-50,4,2,0,75,0,1
103515,-66.6666666666667,4,2,0,75,0,0
110899,-79.9999999999999,4,2,0,75,0,0
111130,-100,4,2,0,75,0,0

[Colours]
Combo1 : 0,128,255
Combo2 : 255,255,0
Combo3 : 128,0,128
Combo4 : 255,0,0
Combo5 : 255,0,128
Combo6 : 255,128,0

[HitObjects]
227,299,18592,5,0,0:0:0:0:
194,313,18649,1,0,0:0:0:0:
158,314,18707,1,0,0:0:0:0:
126,299,18765,1,0,0:0:0:0:
102,272,18822,1,0,0:0:0:0:
92,238,18880,1,0,0:0:0:0:
96,203,18938,1,0,0:0:0:0:
116,172,18995,1,0,0:0:0:0:
145,153,19053,1,0,0:0:0:0:
180,148,19111,1,0,0:0:0:0:
215,157,19168,1,0,0:0:0:0:
242,180,19226,1,0,0:0:0:0:
269,204,19284,5,0,0:0:0:0:
296,226,19341,1,0,0:0:0:0:
331,236,19399,1,0,0:0:0:0:
366,230,19457,1,0,0:0:0:0:
396,211,19514,1,0,0:0:0:0:
415,180,19572,1,0,0:0:0:0:
420,145,19630,1,0,0:0:0:0:
409,111,19687,1,0,0:0:0:0:
385,84,19745,1,0,0:0:0:0:
352,69,19803,1,0,0:0:0:0:
317,70,19860,1,0,0:0:0:0:
284,84,19918,1,0,0:0:0:0:
255,119,19976,5,0,0:0:0:0:
255,265,20207,5,0,0:0:0:0:
9,218,20438,5,0,0:0:0:0:
155,190,20553,1,0,0:0:0:0:
45,74,20668,1,0,0:0:0:0:
25,309,20784,6,0,L|176:328,1,135.000005149842
388,248,21015,2,0,L|237:267,1,135.000005149842
25,187,21245,6,0,L|176:206,1,135.000005149842
388,126,21476,2,0,L|237:145,1,135.000005149842
25,65,21707,6,0,L|176:84,1,135.000005149842
388,4,21938,1,0,0:0:0:0:
341,124,22053,1,0,0:0:0:0:
254,20,22168,1,0,0:0:0:0:
467,74,22284,5,0,0:0:0:0:
503,218,22399,1,0,0:0:0:0:
357,190,22514,1,0,0:0:0:0:
487,309,22630,6,0,L|336:328,1,135.000005149842
124,248,22861,2,0,L|275:267,1,135.000005149842
487,187,23091,6,0,L|336:206,1,135.000005149842
124,126,23322,2,0,L|275:145,1,135.000005149842
487,65,23553,6,0,L|336:84,1,135.000005149842
124,4,23784,1,0,0:0:0:0:
257,20,23899,1,0,0:0:0:0:
110,137,24014,1,0,0:0:0:0:
256,256,24130,5,0,0:0:0:0:
256,121,24245,1,0,0:0:0:0:
371,192,24361,1,0,0:0:0:0:
144,304,24476,6,0,L|-32:336,1,135.000005149842
368,304,24707,2,0,L|544:336,1,135.000005149842
144,192,24938,6,0,L|-32:224,1,135.000005149842
368,192,25169,2,0,L|544:224,1,135.000005149842
256,240,25399,5,0,0:0:0:0:
330,11,25515,1,0,0:0:0:0:
135,152,25630,1,0,0:0:0:0:
376,152,25745,1,0,0:0:0:0:
181,11,25861,1,0,0:0:0:0:
256,240,25976,5,0,0:0:0:0:
256,112,26092,1,0,0:0:0:0:
256,368,26207,1,0,0:0:0:0:
17,192,26322,6,0,P|49:96|129:64,1,180
116,170,26611,1,0,0:0:0:0:
116,170,26668,2,0,P|183:245|170:323,1,168.75
92,311,26899,5,0,0:0:0:0:
90,297,26957,1,0,0:0:0:0:
88,283,27015,1,0,0:0:0:0:
86,270,27072,1,0,0:0:0:0:
66,266,27130,5,0,0:0:0:0:
69,294,27188,1,0,0:0:0:0:
72,322,27246,1,0,0:0:0:0:
75,350,27303,1,0,0:0:0:0:
56,369,27361,5,0,0:0:0:0:
50,327,27418,1,0,0:0:0:0:
45,285,27476,1,0,0:0:0:0:
41,243,27534,1,0,0:0:0:0:
38,201,27592,2,0,P|72:311|121:335,1,168.75
298,352,27822,5,0,0:0:0:0:
259,220,27938,1,0,0:0:0:0:
393,253,28053,1,0,0:0:0:0:
85,270,28168,6,0,L|69:96,1,135.000005149842
198,40,28399,2,0,L|182:214,1,135.000005149842
271,354,28630,6,0,L|255:180,1,135.000005149842
384,124,28861,2,0,L|368:298,1,135.000005149842
497,354,29092,6,0,L|481:180,1,135.000005149842
391,40,29322,1,0,0:0:0:0:
477,137,29438,1,0,0:0:0:0:
328,149,29553,1,0,0:0:0:0:
185,161,29668,5,0,0:0:0:0:
146,29,29784,1,0,0:0:0:0:
280,62,29899,1,0,0:0:0:0:
112,299,30015,6,0,L|17:166,1,135.000005149842
205,263,30245,2,0,L|300:396,1,135.000005149842
150,176,30476,6,0,L|55:43,1,135.000005149842
243,140,30706,2,0,L|338:273,1,135.000005149842
359,126,30938,6,0,L|264:-7,1,135.000005149842
184,104,31168,1,0,0:0:0:0:
413,65,31284,1,0,0:0:0:0:
197,24,31399,1,0,0:0:0:0:
368,272,31515,5,0,0:0:0:0:
144,272,31630,1,0,0:0:0:0:
320,192,31745,2,0,L|384:160,1,67.5000025749208
192,192,31861,1,0,0:0:0:0:
192,192,31918,1,0,0:0:0:0:
192,192,31976,2,0,L|128:160,1,67.5000025749208
256,288,32092,5,0,0:0:0:0:
256,304,32149,1,0,0:0:0:0:
256,320,32207,2,0,L|192:352,3,67.5000025749208
320,352,32438,5,0,0:0:0:0:
336,352,32495,1,0,0:0:0:0:
352,352,32553,2,0,L|448:352,2,67.5000025749208
160,240,32784,2,0,L|64:240,1,67.5000025749208
32,192,32899,5,0,0:0:0:0:
112,80,33015,1,0,0:0:0:0:
112,160,33130,1,0,0:0:0:0:
48,128,33245,1,0,0:0:0:0:
128,64,33361,6,0,B|192:32|192:32|239:72|239:72|288:16|388:45|387:139,1,337.5
266,276,34284,5,0,0:0:0:0:
269,263,34341,1,0,0:0:0:0:
272,250,34399,1,0,0:0:0:0:
275,237,34457,1,0,0:0:0:0:
278,224,34514,1,0,0:0:0:0:
281,212,34572,1,0,0:0:0:0:
284,199,34630,1,0,0:0:0:0:
287,186,34687,1,0,0:0:0:0:
290,173,34745,1,0,0:0:0:0:
293,161,34803,1,0,0:0:0:0:
296,148,34860,1,0,0:0:0:0:
299,135,34918,1,0,0:0:0:0:
302,122,34976,1,0,0:0:0:0:
302,122,35207,5,0,0:0:0:0:
382,228,35322,1,0,0:0:0:0:
210,122,35438,5,0,0:0:0:0:
130,228,35553,1,0,0:0:0:0:
302,324,35668,5,0,0:0:0:0:
423,159,35784,1,0,0:0:0:0:
210,324,35899,5,0,0:0:0:0:
89,159,36015,1,0,0:0:0:0:
449,259,36130,5,0,0:0:0:0:
96,300,36245,1,0,0:0:0:0:
449,125,36361,5,0,0:0:0:0:
96,84,36476,1,0,0:0:0:0:
210,237,36592,6,0,L|154:293,1,78.7500007510185
210,146,36707,2,0,L|154:90,1,78.7500007510185
301,146,36822,2,0,L|356:91,1,78.7500007510185
301,237,36938,2,0,L|356:292,1,78.7500007510185
279,44,37053,6,0,P|337:5|440:56,1,180
460,177,37399,1,0,0:0:0:0:
356,90,37515,1,0,0:0:0:0:
333,224,37630,1,0,0:0:0:0:
228,137,37745,1,0,0:0:0:0:
206,271,37861,1,0,0:0:0:0:
101,184,37976,5,0,0:0:0:0:
79,318,38092,2,0,L|29:221,1,90
114,145,38322,1,0,0:0:0:0:
69,340,38438,2,0,L|21:242,1,90
129,106,38668,1,0,0:0:0:0:
62,357,38784,2,0,L|16:262,1,90
145,70,39015,1,0,0:0:0:0:
200,268,39130,5,0,0:0:0:0:
36,153,39245,1,0,0:0:0:0:
197,271,39361,1,0,0:0:0:0:
24,151,39476,1,0,0:0:0:0:
194,275,39592,1,0,0:0:0:0:
13,149,39707,1,0,0:0:0:0:
191,279,39822,1,0,0:0:0:0:
0,145,39938,6,0,L|36:35,1,90
172,182,40168,2,0,L|208:292,1,90
264,46,40399,1,0,0:0:0:0:
387,14,40515,1,0,0:0:0:0:
417,138,40630,1,0,0:0:0:0:
294,168,40745,2,0,L|331:61,1,90
417,138,40976,5,0,0:0:0:0:
326,325,41092,1,0,0:0:0:0:
417,138,41207,5,0,0:0:0:0:
465,339,41322,1,0,0:0:0:0:
417,138,41437,5,0,0:0:0:0:
394,344,41553,1,0,0:0:0:0:
417,138,41668,5,0,0:0:0:0:
267,282,41784,2,0,L|162:312,1,90
0,156,42015,2,0,L|105:186,1,90
267,30,42245,2,0,L|162:60,1,90
56,89,42476,1,0,0:0:0:0:
220,149,42592,6,0,L|273:179,3,45
185,220,42822,2,0,L|132:250,3,45
276,277,43053,1,0,0:0:0:0:
298,274,43110,1,0,0:0:0:0:
319,267,43168,1,0,0:0:0:0:
338,255,43226,1,0,0:0:0:0:
355,240,43283,1,0,0:0:0:0:
367,221,43341,1,0,0:0:0:0:
376,200,43399,1,0,0:0:0:0:
380,178,43456,1,0,0:0:0:0:
380,150,43515,6,0,L|285:95,1,90
272,281,43745,6,0,L|252:357,3,45
185,220,43976,2,0,L|165:144,3,45
168,353,44207,1,0,0:0:0:0:
383,292,44322,1,0,0:0:0:0:
253,111,44438,6,0,P|165:73|91:148,1,202.500007724762
52,207,44668,1,0,0:0:0:0:
179,160,44784,1,0,0:0:0:0:
156,294,44899,1,0,0:0:0:0:
179,160,45014,1,0,0:0:0:0:
284,247,45130,1,0,0:0:0:0:
306,113,45245,1,0,0:0:0:0:
411,200,45360,5,0,0:0:0:0:
433,66,45476,2,0,L|483:163,1,90
398,239,45706,1,0,0:0:0:0:
443,44,45822,2,0,L|491:142,1,90
383,278,46052,1,0,0:0:0:0:
450,27,46168,2,0,L|496:122,1,90
367,314,46399,1,0,0:0:0:0:
312,116,46514,5,0,0:0:0:0:
476,231,46629,1,0,0:0:0:0:
315,113,46745,1,0,0:0:0:0:
488,233,46860,1,0,0:0:0:0:
318,109,46976,1,0,0:0:0:0:
499,235,47091,1,0,0:0:0:0:
321,105,47206,1,0,0:0:0:0:
512,239,47322,6,0,L|476:349,1,90
340,202,47552,2,0,L|304:92,1,90
248,338,47783,1,0,0:0:0:0:
125,370,47899,1,0,0:0:0:0:
95,246,48014,1,0,0:0:0:0:
218,216,48129,2,0,L|181:323,1,90
95,246,48360,5,0,0:0:0:0:
186,59,48476,1,0,0:0:0:0:
95,246,48591,5,0,0:0:0:0:
47,45,48706,1,0,0:0:0:0:
95,246,48821,5,0,0:0:0:0:
118,40,48937,1,0,0:0:0:0:
95,246,49052,5,0,0:0:0:0:
245,102,49168,2,0,L|350:72,1,90
512,228,49399,2,0,L|407:198,1,90
245,354,49629,2,0,L|350:324,1,90
456,295,49860,1,0,0:0:0:0:
470,303,49918,1,0,0:0:0:0:
485,312,49976,2,0,L|361:240,1,135
291,200,50207,6,0,L|237:166,3,60
291,200,50668,2,0,L|237:166,2,60
139,102,50899,2,0,L|250:175,1,120
309,117,51130,2,0,L|238:70,2,60
163,223,51361,1,0,0:0:0:0:
175,78,51515,1,0,0:0:0:0:
257,264,51668,1,0,0:0:0:0:
503,218,51822,5,0,0:0:0:0:
467,74,51937,1,0,0:0:0:0:
357,190,52052,1,0,0:0:0:0:
487,309,52168,6,0,L|336:328,1,135.000005149842
124,248,52399,2,0,L|275:267,1,135.000005149842
487,187,52629,6,0,L|336:206,1,135.000005149842
124,126,52860,2,0,L|275:145,1,135.000005149842
487,65,53091,6,0,L|336:84,1,135.000005149842
124,4,53322,1,0,0:0:0:0:
258,20,53437,1,0,0:0:0:0:
171,124,53552,1,0,0:0:0:0:
45,74,53668,5,0,0:0:0:0:
9,218,53783,1,0,0:0:0:0:
155,190,53898,1,0,0:0:0:0:
25,309,54014,6,0,L|176:328,1,135.000005149842
388,248,54245,2,0,L|237:267,1,135.000005149842
25,187,54475,6,0,L|176:206,1,135.000005149842
388,126,54706,2,0,L|237:145,1,135.000005149842
25,65,54937,6,0,L|176:84,1,135.000005149842
388,4,55168,1,0,0:0:0:0:
255,20,55283,1,0,0:0:0:0:
402,137,55398,1,0,0:0:0:0:
256,256,55514,5,0,0:0:0:0:
256,121,55629,1,0,0:0:0:0:
141,192,55745,1,0,0:0:0:0:
368,304,55860,6,0,L|544:336,1,135.000005149842
144,304,56091,2,0,L|-32:336,1,135.000005149842
368,192,56322,6,0,L|544:224,1,135.000005149842
144,192,56553,2,0,L|-32:224,1,135.000005149842
256,240,56783,5,0,0:0:0:0:
182,11,56899,1,0,0:0:0:0:
377,152,57014,1,0,0:0:0:0:
136,152,57129,1,0,0:0:0:0:
331,11,57245,1,0,0:0:0:0:
256,240,57360,5,0,0:0:0:0:
256,112,57476,1,0,0:0:0:0:
256,368,57592,1,0,0:0:0:0:
496,192,57707,6,0,P|464:96|384:64,1,180
397,170,57996,1,0,0:0:0:0:
397,170,58053,2,0,P|330:245|341:327,1,168.75
420,311,58284,5,0,0:0:0:0:
419,297,58342,1,0,0:0:0:0:
421,283,58400,1,0,0:0:0:0:
426,270,58457,1,0,0:0:0:0:
446,266,58515,5,0,0:0:0:0:
440,294,58573,1,0,0:0:0:0:
437,322,58631,1,0,0:0:0:0:
437,350,58688,1,0,0:0:0:0:
456,369,58746,5,0,0:0:0:0:
469,327,58803,1,0,0:0:0:0:
478,285,58861,1,0,0:0:0:0:
478,243,58919,1,0,0:0:0:0:
474,201,58977,2,0,P|440:311|391:335,1,168.75
