osu file format v14

[General]
AudioFilename: audio.mp3
AudioLeadIn: 0
PreviewTime: 167907
Countdown: 0
SampleSet: Normal
StackLeniency: 0.2
Mode: 1
LetterboxInBreaks: 0
WidescreenStoryboard: 1

[Editor]
Bookmarks: 407,2407,6407,10407,16407,18407,24407,26407,32282,32407,34407,40407,42407,44407,50407,58407,64407,66407,72407,74407,75407,76407,80407,82407,88407,90407,96407,98407,100407,104407,105407,106407,114407,120407,122407,124407,130407,132407,138407,140407,158407,164407,166407,167407,168407,174407,176407,182407,183407,184407,188407,190407,193407
DistanceSpacing: 0.1
BeatDivisor: 4
GridSize: 16
TimelineZoom: 3.4

[Metadata]
Title:Everything will freeze
TitleUnicode:Everything will freeze
Artist:Undead Corporation
ArtistUnicode:Undead Corporation
Creator:kirbob
Version:hitsounds basically lol
Source:
Tags:
BeatmapID:1691444
BeatmapSetID:805821

[Difficulty]
HPDrainRate:5
CircleSize:2
OverallDifficulty:8.8
ApproachRate:9.5
SliderMultiplier:1.40399986681936
SliderTickRate:1

[Events]
//Background and Video events
0,0,"fat ice dragon.jpg",0,0
//Break Periods
//Storyboard Layer 0 (Background)
//Storyboard Layer 1 (Fail)
//Storyboard Layer 2 (Pass)
//Storyboard Layer 3 (Foreground)
//Storyboard Sound Samples

[TimingPoints]
397.409260577441,250,4,3,1,100,1,0
16397,-76.9230769230769,4,1,1,100,0,0
17397,-86.9565217391304,4,1,1,100,0,0
43897,-86.9565217391304,4,1,1,100,0,1
44397,-111.111111111111,4,1,1,100,0,0
48147,-83.3333333333333,4,1,1,100,0,0
50397,-71.4285714285714,4,1,1,100,0,1
50522,-71.4285714285714,4,1,1,100,0,0
51397,-71.4285714285714,4,1,1,100,0,1
51522,-71.4285714285714,4,1,1,100,0,0
52397,-71.4285714285714,4,1,1,100,0,1
52522,-71.4285714285714,4,1,1,100,0,0
53397,-71.4285714285714,4,1,1,100,0,1
53522,-71.4285714285714,4,1,1,100,0,0
54397,-71.4285714285714,4,1,1,100,0,1
54522,-71.4285714285714,4,1,1,100,0,0
55397,-71.4285714285714,4,1,1,100,0,1
55522,-71.4285714285714,4,1,1,100,0,0
56397,-71.4285714285714,4,1,1,100,0,1
56522,-71.4285714285714,4,1,1,100,0,0
56647,-71.4285714285714,4,1,1,100,0,1
56772,-71.4285714285714,4,1,1,100,0,0
56897,-71.4285714285714,4,1,1,100,0,1
57022,-71.4285714285714,4,1,1,100,0,0
57147,-71.4285714285714,4,1,1,100,0,1
57272,-71.4285714285714,4,1,1,100,0,0
57397,-71.4285714285714,4,1,1,100,0,1
57522,-71.4285714285714,4,1,1,100,0,0
57647,-71.4285714285714,4,1,1,100,0,1
57772,-71.4285714285714,4,1,1,100,0,0
57897,-71.4285714285714,4,1,1,100,0,1
58022,-71.4285714285714,4,1,1,100,0,0
58147,-71.4285714285714,4,1,1,100,0,1
58272,-71.4285714285714,4,1,1,100,0,0
58397,-71.4285714285714,4,1,1,100,0,1
64397,-71.4285714285714,4,1,1,100,0,0
65397,-83.3333333333333,4,1,1,100,0,1
65772,-83.3333333333333,4,1,1,100,0,0
65897,-83.3333333333333,4,1,1,100,0,1
66272,-83.3333333333333,4,1,1,100,0,0
66407,-86.9565217391304,4,1,1,100,0,0
99897,-86.9565217391304,4,1,1,100,0,1
100397,-111.111111111111,4,1,1,100,0,0
104147,-76.9230769230769,4,1,1,100,0,0
105397,-105.263157894737,4,1,1,100,0,0
106147,-68.9655172413793,4,1,1,100,0,1
106272,-68.9655172413793,4,1,1,100,0,0
106397,-68.9655172413793,4,1,1,100,0,1
106522,-68.9655172413793,4,1,1,100,0,0
107397,-68.9655172413793,4,1,1,100,0,1
107522,-68.9655172413793,4,1,1,100,0,0
108397,-68.9655172413793,4,1,1,100,0,1
108522,-68.9655172413793,4,1,1,100,0,0
109397,-68.9655172413793,4,1,1,100,0,1
109522,-68.9655172413793,4,1,1,100,0,0
110397,-68.9655172413793,4,1,1,100,0,1
110522,-68.9655172413793,4,1,1,100,0,0
111397,-68.9655172413793,4,1,1,100,0,1
111522,-68.9655172413793,4,1,1,100,0,0
112397,-68.9655172413793,4,1,1,100,0,1
112522,-68.9655172413793,4,1,1,100,0,0
112647,-68.9655172413793,4,1,1,100,0,1
112772,-68.9655172413793,4,1,1,100,0,0
112897,-68.9655172413793,4,1,1,100,0,1
113022,-68.9655172413793,4,1,1,100,0,0
113147,-68.9655172413793,4,1,1,100,0,1
113272,-68.9655172413793,4,1,1,100,0,0
113397,-68.9655172413793,4,1,1,100,0,1
113522,-68.9655172413793,4,1,1,100,0,0
113647,-68.9655172413793,4,1,1,100,0,1
113772,-68.9655172413793,4,1,1,100,0,0
113897,-68.9655172413793,4,1,1,100,0,1
114022,-68.9655172413793,4,1,1,100,0,0
114147,-68.9655172413793,4,1,1,100,0,1
114272,-68.9655172413793,4,1,1,100,0,0
114397,-68.9655172413793,4,1,1,100,0,1
120397,-76.9230769230769,4,1,1,100,0,0
121397,-76.9230769230769,4,1,1,100,0,1
121772,-76.9230769230769,4,1,1,100,0,0
121897,-76.9230769230769,4,1,1,100,0,1
122272,-76.9230769230769,4,1,1,100,0,0
122397,-76.9230769230769,4,1,1,100,0,1
122522,-76.9230769230769,4,1,1,100,0,0
122647,-76.9230769230769,4,1,1,100,0,1
122709,-76.9230769230769,4,1,1,100,0,0
122772,-76.9230769230769,4,1,1,100,0,1
122834,-76.9230769230769,4,1,1,100,0,0
122897,-76.9230769230769,4,1,1,100,0,1
122959,-76.9230769230769,4,1,1,100,0,0
123022,-76.9230769230769,4,1,1,100,0,1
123084,-76.9230769230769,4,1,1,100,0,0
123147,-76.9230769230769,4,1,1,100,0,1
123209,-76.9230769230769,4,1,1,100,0,0
123272,-76.9230769230769,4,1,1,100,0,1
123334,-76.9230769230769,4,1,1,100,0,0
123397,-76.9230769230769,4,1,1,100,0,1
123459,-76.9230769230769,4,1,1,100,0,0
123522,-76.9230769230769,4,1,1,100,0,1
123584,-76.9230769230769,4,1,1,100,0,0
123647,-76.9230769230769,4,1,1,100,0,1
123709,-76.9230769230769,4,1,1,100,0,0
123772,-76.9230769230769,4,1,1,100,0,1
123834,-76.9230769230769,4,1,1,100,0,0
123897,-76.9230769230769,4,1,1,100,0,1
123959,-76.9230769230769,4,1,1,100,0,0
124022,-76.9230769230769,4,1,1,100,0,1
124084,-76.9230769230769,4,1,1,100,0,0
124147,-76.9230769230769,4,1,1,100,0,1
124397,-100,4,1,1,100,0,0
139897,-83.3333333333333,4,1,1,100,0,0
140397,-68.9655172413793,4,1,1,100,0,1
158397,-111.111111111111,4,1,1,100,0,0
167897,-111.111111111111,4,1,1,100,0,1
168366,-111.111111111111,4,1,1,100,0,0
168397,-66.6666666666667,4,1,1,100,0,1
168647,-66.6666666666667,4,1,1,100,0,0
168897,-66.6666666666667,4,1,1,100,0,1
169147,-66.6666666666667,4,1,1,100,0,0
169397,-66.6666666666667,4,1,1,100,0,1
169647,-66.6666666666667,4,1,1,100,0,0
169897,-66.6666666666667,4,1,1,100,0,1
170147,-66.6666666666667,4,1,1,100,0,0
170397,-66.6666666666667,4,1,1,100,0,1
170647,-66.6666666666667,4,1,1,100,0,0
170897,-66.6666666666667,4,1,1,100,0,1
171147,-66.6666666666667,4,1,1,100,0,0
171397,-66.6666666666667,4,1,1,100,0,1
171647,-66.6666666666667,4,1,1,100,0,0
171897,-66.6666666666667,4,1,1,100,0,1
172147,-66.6666666666667,4,1,1,100,0,0
172397,-66.6666666666667,4,1,1,100,0,1
172647,-66.6666666666667,4,1,1,100,0,0
172897,-66.6666666666667,4,1,1,100,0,1
173147,-66.6666666666667,4,1,1,100,0,0
173397,-66.6666666666667,4,1,1,100,0,1
173647,-66.6666666666667,4,1,1,100,0,0
173897,-66.6666666666667,4,1,1,100,0,1
174147,-66.6666666666667,4,1,1,100,0,0
174397,-66.6666666666667,4,1,1,100,0,1
174522,-66.6666666666667,4,1,1,100,0,0
174647,-66.6666666666667,4,1,1,100,0,1
174772,-66.6666666666667,4,1,1,100,0,0
174897,-66.6666666666667,4,1,1,100,0,1
175022,-66.6666666666667,4,1,1,100,0,0
175147,-66.6666666666667,4,1,1,100,0,1
175272,-66.6666666666667,4,1,1,100,0,0
175397,-66.6666666666667,4,1,1,100,0,1
175459,-66.6666666666667,4,1,1,100,0,0
175522,-66.6666666666667,4,1,1,100,0,1
175584,-66.6666666666667,4,1,1,100,0,0
175647,-66.6666666666667,4,1,1,100,0,1
175709,-66.6666666666667,4,1,1,100,0,0
175772,-66.6666666666667,4,1,1,100,0,1
175834,-66.6666666666667,4,1,1,100,0,0
175897,-66.6666666666667,4,1,1,100,0,1
175959,-66.6666666666667,4,1,1,100,0,0
176022,-66.6666666666667,4,1,1,100,0,1
176084,-66.6666666666667,4,1,1,100,0,0
176147,-66.6666666666667,4,1,1,100,0,1
176272,-66.6666666666667,4,1,1,100,0,0
176397,-66.6666666666667,4,1,1,100,0,1
182397,-66.6666666666667,4,1,1,100,0,0
183397,-76.9230769230769,4,1,1,100,0,1
183772,-76.9230769230769,4,1,1,100,0,0
183897,-76.9230769230769,4,1,1,100,0,1
184272,-76.9230769230769,4,1,1,100,0,0
184397,-80,4,1,1,100,0,0
188397,-80,4,1,1,100,0,1
188522,-80,4,1,1,100,0,0
188647,-80,4,1,1,100,0,1
188709,-80,4,1,1,100,0,0
188772,-80,4,1,1,100,0,1
188834,-80,4,1,1,100,0,0
188897,-80,4,1,1,100,0,1
188959,-80,4,1,1,100,0,0
189022,-80,4,1,1,100,0,1
189084,-80,4,1,1,100,0,0
189147,-80,4,1,1,100,0,1
189209,-80,4,1,1,100,0,0
189272,-80,4,1,1,100,0,1
189334,-80,4,1,1,100,0,0
189397,-80,4,1,1,100,0,1
189459,-80,4,1,1,100,0,0
189522,-80,4,1,1,100,0,1
189584,-80,4,1,1,100,0,0
189647,-80,4,1,1,100,0,1
189709,-80,4,1,1,100,0,0
189772,-80,4,1,1,100,0,1
189834,-80,4,1,1,100,0,0
189897,-80,4,1,1,100,0,1
189959,-80,4,1,1,100,0,0
190022,-80,4,1,1,100,0,1
190084,-80,4,1,1,100,0,0
190147,-80,4,1,1,100,0,1
190209,-80,4,1,1,100,0,0
190272,-80,4,1,1,100,0,1
190334,-80,4,1,1,100,0,0
190397,-80,4,1,1,100,0,1
190522,-80,4,1,1,100,0,0
190772,-80,4,1,1,100,0,1
190897,-80,4,1,1,100,0,0
191147,-80,4,1,1,100,0,1
191272,-80,4,1,1,100,0,0
191397,-80,4,1,1,100,0,1
191459,-80,4,1,1,100,0,0
191522,-80,4,1,1,100,0,1
191584,-80,4,1,1,100,0,0
191647,-80,4,1,1,100,0,1
191709,-80,4,1,1,100,0,0
191772,-80,4,1,1,100,0,1
191897,-80,4,1,1,100,0,0
192147,-80,4,1,1,100,0,1
192272,-80,4,1,1,100,0,0
192522,-80,4,1,1,100,0,1
192647,-80,4,1,1,100,0,0
192897,-80,4,1,1,100,0,1
193334,-80,4,1,1,100,0,0
193397,-80,4,1,1,100,0,1
193428,-80,4,1,1,100,0,0

[Colours]
Combo1 : 255,129,45
Combo2 : 231,203,203
Combo3 : 216,171,171
Combo4 : 208,153,153
Combo5 : 254,46,46
Combo6 : 254,87,46

[HitObjects]
256,192,397,5,2,3:1:0:0:
256,192,522,1,8,3:3:0:0:
256,192,647,1,8,3:3:0:0:
256,192,772,1,8,3:3:0:0:
256,192,834,1,0,3:3:0:0:
256,192,897,1,8,3:3:0:0:
256,192,959,1,8,3:3:0:0:
256,192,1022,1,4,3:3:0:0:
256,192,1084,1,4,3:3:0:0:
256,192,1147,1,8,3:3:0:0:
256,192,1209,1,8,3:3:0:0:
256,192,1272,1,8,3:3:0:0:
256,192,1334,1,8,3:3:0:0:
256,192,1397,1,4,3:3:0:0:
256,192,1459,1,4,3:3:0:0:
256,192,1522,1,8,3:3:0:0:
256,192,1584,1,8,3:3:0:0:
256,192,1647,1,8,3:3:0:0:
256,192,1709,1,8,3:3:0:0:
256,192,1772,1,4,3:3:0:0:
256,192,1834,1,4,3:3:0:0:
256,192,1897,1,0,3:3:0:0:
256,192,1959,1,12,3:3:0:0:
256,192,2022,1,4,3:3:0:0:
256,192,2084,1,4,3:3:0:0:
256,192,2147,1,0,3:2:0:0:
256,192,2397,1,4,3:3:0:0:
256,192,3272,1,0,3:2:0:0:
256,192,3334,1,0,3:2:0:0:
256,192,3397,1,4,3:2:0:0:
256,192,3647,1,4,3:3:0:0:
256,192,3709,1,4,3:3:0:0:
256,192,3772,1,0,3:3:0:0:
256,192,3834,1,0,3:3:0:0:
256,192,3897,1,8,3:3:0:0:
256,192,3959,1,8,3:3:0:0:
256,192,4022,1,0,3:3:0:0:
256,192,4084,1,0,3:3:0:0:
256,192,4147,1,4,3:3:0:0:
256,192,4209,1,4,3:3:0:0:
256,192,4272,1,0,3:3:0:0:
256,192,4334,1,0,3:3:0:0:
256,192,4397,1,4,3:3:0:0:
256,192,5397,1,6,3:2:0:0:
256,192,5459,1,0,3:3:0:0:
256,192,5522,1,0,3:3:0:0:
256,192,5584,1,0,3:3:0:0:
256,192,5647,1,8,3:3:0:0:
256,192,5709,1,8,3:3:0:0:
256,192,5772,1,8,3:3:0:0:
256,192,5834,1,0,3:3:0:0:
256,192,5897,1,0,3:3:0:0:
256,192,5959,1,0,3:3:0:0:
256,192,6022,1,0,3:3:0:0:
256,192,6084,1,0,3:3:0:0:
256,192,6147,1,8,3:3:0:0:
256,192,6209,1,8,3:3:0:0:
256,192,6272,1,8,3:3:0:0:
256,192,6334,1,8,3:3:0:0:
256,192,6397,1,4,3:2:0:0:
256,192,6522,1,8,3:3:0:0:
256,192,6647,1,6,3:3:0:0:
256,192,6709,1,4,3:3:0:0:
256,192,6772,1,8,3:3:0:0:
256,192,6897,1,6,3:3:0:0:
256,192,7022,1,8,3:3:0:0:
256,192,7147,1,6,3:3:0:0:
256,192,7209,1,4,3:3:0:0:
256,192,7272,1,8,3:3:0:0:
256,192,7397,1,6,3:3:0:0:
256,192,7522,1,8,3:3:0:0:
256,192,7647,1,6,3:3:0:0:
256,192,7709,1,4,3:3:0:0:
256,192,7772,1,8,3:3:0:0:
256,192,7897,1,6,3:3:0:0:
256,192,8022,1,8,3:3:0:0:
256,192,8147,1,6,3:3:0:0:
256,192,8209,1,4,3:3:0:0:
256,192,8272,1,8,3:3:0:0:
256,192,8397,1,4,3:2:0:0:
256,192,8522,1,0,3:3:0:0:
256,192,8584,1,0,3:3:0:0:
256,192,8647,1,4,3:3:0:0:
256,192,8709,1,4,3:3:0:0:
256,192,8772,1,8,3:3:0:0:
256,192,8897,1,0,3:3:0:0:
256,192,8959,1,0,3:3:0:0:
256,192,9022,1,4,3:3:0:0:
256,192,9084,1,4,3:3:0:0:
256,192,9147,1,8,3:3:0:0:
256,192,9272,1,4,3:3:0:0:
256,192,9334,1,4,3:3:0:0:
256,192,9397,1,4,3:2:0:0:
256,192,9647,1,2,3:1:0:0:
256,192,9709,1,2,3:1:0:0:
256,192,9772,1,2,3:1:0:0:
256,192,9834,1,2,3:1:0:0:
256,192,9897,1,8,3:3:0:0:
256,192,10147,1,12,3:3:0:0:
256,192,10209,1,12,3:3:0:0:
256,192,10272,1,12,3:3:0:0:
256,192,10334,1,12,3:3:0:0:
256,192,10397,1,4,3:2:0:0:
256,192,10522,1,8,3:3:0:0:
256,192,10647,1,6,3:3:0:0:
256,192,10709,1,4,3:3:0:0:
256,192,10772,1,8,3:3:0:0:
256,192,10897,1,6,3:3:0:0:
256,192,11022,1,8,3:3:0:0:
256,192,11147,1,6,3:3:0:0:
256,192,11209,1,4,3:3:0:0:
256,192,11272,1,8,3:3:0:0:
256,192,11397,1,6,3:3:0:0:
256,192,11522,1,8,3:3:0:0:
256,192,11647,1,6,3:3:0:0:
256,192,11709,1,4,3:3:0:0:
256,192,11772,1,8,3:3:0:0:
256,192,11897,1,6,3:3:0:0:
256,192,12022,1,8,3:3:0:0:
256,192,12147,1,6,3:3:0:0:
256,192,12209,1,4,3:3:0:0:
256,192,12272,1,8,3:3:0:0:
256,192,12397,1,6,3:3:0:0:
256,192,12522,1,8,3:3:0:0:
256,192,12647,1,6,3:3:0:0:
256,192,12709,1,4,3:3:0:0:
256,192,12772,1,8,3:3:0:0:
256,192,12897,1,6,3:3:0:0:
256,192,13022,1,8,3:3:0:0:
256,192,13147,1,6,3:3:0:0:
256,192,13209,1,4,3:3:0:0:
256,192,13272,1,8,3:3:0:0:
256,192,13397,1,4,3:2:0:0:
256,192,13459,1,4,3:3:0:0:
256,192,13522,1,8,3:3:0:0:
256,192,13584,1,4,3:3:0:0:
256,192,13647,1,4,3:2:0:0:
256,192,13709,1,4,3:3:0:0:
256,192,13772,1,8,3:3:0:0:
256,192,13834,1,4,3:3:0:0:
256,192,13897,1,4,3:2:0:0:
256,192,13959,1,4,3:3:0:0:
256,192,14022,1,8,3:3:0:0:
256,192,14084,1,4,3:3:0:0:
256,192,14147,1,4,3:2:0:0:
256,192,14209,1,4,3:3:0:0:
256,192,14272,1,8,3:3:0:0:
256,192,14334,1,4,3:3:0:0:
256,192,14397,1,4,3:2:0:0:
256,192,14522,1,8,3:3:0:0:
256,192,14647,1,6,3:3:0:0:
256,192,14772,1,8,3:3:0:0:
256,192,14897,1,6,3:3:0:0:
256,192,15022,1,8,3:3:0:0:
256,192,15147,1,6,3:3:0:0:
256,192,15209,1,4,3:3:0:0:
256,192,15272,1,8,3:3:0:0:
256,192,15397,1,6,3:3:0:0:
256,192,15522,1,8,3:3:0:0:
256,192,15647,1,6,3:3:0:0:
256,192,15709,1,4,3:3:0:0:
256,192,15772,1,8,3:3:0:0:
256,192,15897,1,6,3:3:0:0:
256,192,16022,1,8,3:3:0:0:
256,192,16147,1,6,3:3:0:0:
256,192,16209,1,4,3:3:0:0:
256,192,16272,1,8,3:3:0:0:
256,192,16397,1,2,3:3:0:0:
256,192,16522,1,8,3:3:0:0:
256,192,16647,1,2,3:3:0:0:
256,192,16772,1,4,3:3:0:0:
256,192,16897,1,2,3:1:0:0:
256,192,17022,1,4,3:3:0:0:
256,192,17147,1,2,3:1:0:0:
256,192,17272,1,8,3:3:0:0:
256,192,17397,1,4,3:2:0:0:
256,192,17647,1,8,3:3:0:0:
256,192,17709,1,8,3:3:0:0:
256,192,17772,1,0,3:3:0:0:
256,192,17834,1,0,3:3:0:0:
256,192,17897,1,4,3:2:0:0:
256,192,18147,1,8,3:3:0:0:
256,192,18209,1,8,3:3:0:0:
256,192,18272,1,8,3:3:0:0:
256,192,18334,1,8,3:3:0:0:
256,192,18397,1,4,3:2:0:0:
256,192,18522,1,8,3:3:0:0:
256,192,18647,1,6,3:3:0:0:
256,192,18709,1,4,3:3:0:0:
256,192,18772,1,0,3:3:0:0:
256,192,18897,1,6,3:3:0:0:
256,192,19022,1,8,3:3:0:0:
256,192,19147,1,6,3:3:0:0:
256,192,19209,1,4,3:3:0:0:
256,192,19272,1,8,3:3:0:0:
256,192,19397,1,6,3:3:0:0:
256,192,19522,1,8,3:3:0:0:
256,192,19647,1,6,3:3:0:0:
256,192,19709,1,4,3:3:0:0:
256,192,19772,1,8,3:3:0:0:
256,192,19897,1,6,3:3:0:0:
256,192,20022,1,8,3:3:0:0:
256,192,20147,1,6,3:3:0:0:
256,192,20209,1,4,3:3:0:0:
256,192,20272,1,8,3:3:0:0:
256,192,20397,1,6,3:3:0:0:
256,192,20522,1,8,3:3:0:0:
256,192,20647,1,6,3:3:0:0:
256,192,20709,1,4,3:3:0:0:
256,192,20772,1,8,3:3:0:0:
256,192,20897,1,6,3:3:0:0:
256,192,21022,1,8,3:3:0:0:
256,192,21147,1,6,3:3:0:0:
256,192,21209,1,4,3:3:0:0:
256,192,21272,1,8,3:3:0:0:
256,192,21397,1,4,3:2:0:0:
256,192,21459,1,4,3:3:0:0:
256,192,21522,1,8,3:3:0:0:
256,192,21584,1,4,3:3:0:0:
256,192,21647,1,4,3:2:0:0:
256,192,21709,1,4,3:3:0:0:
256,192,21772,1,8,3:3:0:0:
256,192,21834,1,4,3:3:0:0:
256,192,21897,1,4,3:2:0:0:
256,192,21959,1,4,3:3:0:0:
256,192,22022,1,8,3:3:0:0:
256,192,22084,1,4,3:3:0:0:
256,192,22147,1,4,3:2:0:0:
256,192,22209,1,4,3:3:0:0:
256,192,22272,1,8,3:3:0:0:
256,192,22334,1,4,3:3:0:0:
256,192,22397,1,4,3:2:0:0:
256,192,22522,1,8,3:3:0:0:
256,192,22647,1,6,3:3:0:0:
256,192,22709,1,4,3:3:0:0:
256,192,22772,1,8,3:3:0:0:
256,192,22897,1,6,3:3:0:0:
256,192,23022,1,8,3:3:0:0:
256,192,23147,1,6,3:3:0:0:
256,192,23209,1,4,3:3:0:0:
256,192,23272,1,8,3:3:0:0:
256,192,23397,1,6,3:3:0:0:
256,192,23522,1,8,3:3:0:0:
256,192,23647,1,6,3:3:0:0:
256,192,23709,1,4,3:3:0:0:
256,192,23772,1,8,3:3:0:0:
256,192,23897,1,6,3:3:0:0:
256,192,24022,1,8,3:3:0:0:
256,192,24147,1,6,3:3:0:0:
256,192,24209,1,4,3:3:0:0:
256,192,24272,1,8,3:3:0:0:
256,192,24397,1,4,3:2:0:0:
256,192,24522,1,12,3:3:0:0:
256,192,24647,1,4,3:3:0:0:
256,192,24772,1,4,3:2:0:0:
256,192,24897,1,0,3:3:0:0:
256,192,25022,1,4,3:3:0:0:
256,192,25147,1,4,3:2:0:0:
256,192,25272,1,4,3:3:0:0:
256,192,25397,1,4,3:2:0:0:
256,192,25647,1,2,3:1:0:0:
256,192,25709,1,2,3:1:0:0:
256,192,25772,1,2,3:1:0:0:
256,192,25834,1,2,3:1:0:0:
256,192,25897,1,4,3:2:0:0:
256,192,26147,1,8,3:3:0:0:
256,192,26209,1,8,3:3:0:0:
256,192,26272,1,8,3:3:0:0:
256,192,26334,1,8,3:3:0:0:
256,192,26397,1,4,3:2:0:0:
256,192,26522,1,4,3:2:0:0:
256,192,26647,1,2,3:3:0:0:
256,192,26709,1,4,3:3:0:0:
256,192,26772,1,8,3:3:0:0:
256,192,26897,1,2,3:3:0:0:
256,192,27022,1,8,3:3:0:0:
256,192,27147,1,2,3:3:0:0:
256,192,27209,1,4,3:3:0:0:
256,192,27272,1,8,3:3:0:0:
256,192,27397,1,2,3:3:0:0:
256,192,27522,1,8,3:3:0:0:
256,192,27647,1,2,3:3:0:0:
256,192,27709,1,4,3:3:0:0:
256,192,27772,1,8,3:3:0:0:
256,192,27897,1,2,3:3:0:0:
256,192,28022,1,8,3:3:0:0:
256,192,28147,1,2,3:3:0:0:
256,192,28209,1,4,3:3:0:0:
256,192,28272,1,8,3:3:0:0:
256,192,28397,1,6,3:2:0:0:
256,192,28522,1,8,3:3:0:0:
256,192,28647,1,2,3:3:0:0:
256,192,28709,1,4,3:3:0:0:
256,192,28772,1,8,3:3:0:0:
256,192,28897,1,2,3:3:0:0:
256,192,29022,1,8,3:3:0:0:
256,192,29147,1,2,3:3:0:0:
256,192,29209,1,4,3:3:0:0:
256,192,29272,1,8,3:3:0:0:
256,192,29397,1,2,3:3:0:0:
256,192,29522,1,8,3:3:0:0:
256,192,29647,1,2,3:3:0:0:
256,192,29709,1,4,3:3:0:0:
256,192,29772,1,8,3:3:0:0:
256,192,29897,1,2,3:3:0:0:
256,192,30022,1,8,3:3:0:0:
256,192,30147,1,2,3:3:0:0:
256,192,30209,1,4,3:3:0:0:
256,192,30272,1,8,3:3:0:0:
256,192,30397,1,6,3:2:0:0:
256,192,30522,1,8,3:3:0:0:
256,192,30647,1,2,3:3:0:0:
256,192,30709,1,4,3:3:0:0:
256,192,30772,1,8,3:3:0:0:
256,192,30897,1,2,3:3:0:0:
256,192,31022,1,8,3:3:0:0:
256,192,31147,1,2,3:3:0:0:
256,192,31209,1,4,3:3:0:0:
256,192,31272,1,8,3:3:0:0:
256,192,31397,1,2,3:3:0:0:
256,192,31522,1,8,3:3:0:0:
256,192,31647,1,2,3:3:0:0:
256,192,31772,1,8,3:3:0:0:
256,192,31834,1,8,3:3:0:0:
256,192,31897,1,12,3:3:0:0:
256,192,31959,1,4,3:3:0:0:
256,192,32022,1,4,3:3:0:0:
256,192,32084,1,4,3:3:0:0:
256,192,32147,1,6,3:2:0:0:
256,192,32209,1,4,3:3:0:0:
256,192,32272,1,4,3:3:0:0:
256,192,32334,1,4,3:3:0:0:
256,192,32397,1,4,3:3:0:0:
256,192,32459,1,8,3:3:0:0:
256,192,32522,1,8,3:3:0:0:
256,192,32584,1,8,3:3:0:0:
256,192,32647,1,8,3:3:0:0:
256,192,32709,1,4,3:3:0:0:
256,192,32772,1,4,3:3:0:0:
256,192,32834,1,0,3:3:0:0:
256,192,32897,1,0,3:3:0:0:
256,192,32959,1,0,3:3:0:0:
256,192,33022,1,0,3:3:0:0:
256,192,33084,1,0,3:3:0:0:
256,192,33147,1,8,3:3:0:0:
256,192,33209,1,8,3:3:0:0:
256,192,33272,1,4,3:3:0:0:
256,192,33397,1,4,3:3:0:0:
256,192,33459,1,4,3:3:0:0:
256,192,33522,1,0,3:3:0:0:
256,192,33584,1,0,3:3:0:0:
256,192,33647,1,0,3:3:0:0:
256,192,33709,1,0,3:3:0:0:
256,192,33772,1,4,3:3:0:0:
256,192,33834,1,4,3:3:0:0:
256,192,33897,1,6,3:2:0:0:
256,192,34022,1,4,3:3:0:0:
256,192,34084,1,4,3:3:0:0:
256,192,34147,1,6,3:2:0:0:
256,192,34272,1,4,3:3:0:0:
256,192,34334,1,4,3:3:0:0:
256,192,34397,1,4,3:3:0:0:
256,192,34522,1,6,3:3:0:0:
256,192,34647,1,4,3:3:0:0:
256,192,34709,1,4,3:3:0:0:
256,192,34772,1,6,3:3:0:0:
256,192,34897,1,4,3:3:0:0:
256,192,35022,1,6,3:3:0:0:
256,192,35147,1,4,3:3:0:0:
256,192,35209,1,4,3:3:0:0:
256,192,35272,1,6,3:3:0:0:
256,192,35397,1,4,3:3:0:0:
256,192,35522,1,6,3:3:0:0:
256,192,35647,1,4,3:3:0:0:
256,192,35709,1,4,3:3:0:0:
256,192,35772,1,6,3:3:0:0:
256,192,35897,1,4,3:3:0:0:
256,192,36022,1,6,3:3:0:0:
256,192,36147,1,4,3:3:0:0:
256,192,36209,1,4,3:3:0:0:
256,192,36272,1,6,3:3:0:0:
256,192,36397,1,6,3:2:0:0:
256,192,36522,1,6,3:3:0:0:
256,192,36647,1,4,3:3:0:0:
256,192,36709,1,4,3:3:0:0:
256,192,36772,1,6,3:3:0:0:
256,192,36897,1,4,3:3:0:0:
256,192,37022,1,6,3:3:0:0:
256,192,37147,1,4,3:3:0:0:
256,192,37209,1,4,3:3:0:0:
256,192,37272,1,6,3:3:0:0:
256,192,37397,1,4,3:3:0:0:
256,192,37522,1,6,3:3:0:0:
256,192,37647,1,4,3:3:0:0:
256,192,37709,1,4,3:3:0:0:
256,192,37772,1,6,3:3:0:0:
256,192,37897,1,4,3:3:0:0:
256,192,38022,1,6,3:3:0:0:
256,192,38147,1,4,3:3:0:0:
256,192,38209,1,4,3:3:0:0:
256,192,38272,1,6,3:3:0:0:
256,192,38397,1,6,3:2:0:0:
256,192,38522,1,6,3:3:0:0:
256,192,38647,1,4,3:3:0:0:
256,192,38709,1,4,3:3:0:0:
256,192,38772,1,6,3:3:0:0:
256,192,38897,1,4,3:3:0:0:
256,192,39022,1,6,3:3:0:0:
256,192,39147,1,4,3:3:0:0:
256,192,39209,1,4,3:3:0:0:
256,192,39272,1,6,3:3:0:0:
256,192,39397,1,4,3:3:0:0:
256,192,39522,1,6,3:3:0:0:
256,192,39647,1,4,3:3:0:0:
256,192,39709,1,4,3:3:0:0:
256,192,39772,1,6,3:3:0:0:
256,192,39897,1,12,3:3:0:0:
256,192,39959,1,4,3:3:0:0:
256,192,40022,1,6,3:3:0:0:
256,192,40084,1,0,3:3:0:0:
256,192,40147,1,4,3:2:0:0:
256,192,40272,1,6,3:3:0:0:
256,192,40397,1,12,3:3:0:0:
256,192,40522,1,8,3:3:0:0:
256,192,40647,1,8,3:3:0:0:
256,192,40772,1,0,3:3:0:0:
256,192,40897,1,4,3:3:0:0:
256,192,40959,1,4,3:3:0:0:
256,192,41022,1,8,3:3:0:0:
256,192,41084,1,0,3:3:0:0:
256,192,41147,1,4,3:3:0:0:
256,192,41209,1,4,3:3:0:0:
256,192,41272,1,4,3:3:0:0:
256,192,41334,1,4,3:3:0:0:
256,192,41397,1,12,3:3:0:0:
256,192,41522,1,12,3:3:0:0:
256,192,41647,1,4,3:3:0:0:
256,192,41709,1,4,3:3:0:0:
256,192,41772,1,12,3:3:0:0:
256,192,41834,1,12,3:3:0:0:
256,192,41897,1,4,3:3:0:0:
256,192,41959,1,4,3:3:0:0:
256,192,42022,1,4,3:3:0:0:
256,192,42084,1,4,3:3:0:0:
256,192,42147,1,6,3:2:0:0:
256,192,42397,1,4,3:3:0:0:
256,192,42647,1,2,3:1:0:0:
256,192,42709,1,2,3:1:0:0:
256,192,42772,1,2,3:1:0:0:
256,192,42834,1,2,3:1:0:0:
256,192,42897,1,2,3:1:0:0:
256,192,43022,1,4,3:3:0:0:
256,192,43084,1,4,3:3:0:0:
256,192,43147,1,8,3:3:0:0:
256,192,43209,1,8,3:3:0:0:
256,192,43272,1,12,3:3:0:0:
256,192,43334,1,12,3:3:0:0:
256,192,43397,1,4,3:2:0:0:
256,192,43459,1,4,3:3:0:0:
256,192,43522,1,4,3:3:0:0:
256,192,43584,1,4,3:3:0:0:
256,192,43647,1,12,3:3:0:0:
256,192,43709,1,12,3:3:0:0:
256,192,43772,1,4,3:3:0:0:
256,192,43834,1,4,3:3:0:0:
256,192,43897,1,8,3:3:0:0:
256,192,44022,1,4,3:3:0:0:
256,192,44084,1,4,3:3:0:0:
256,192,44147,1,6,3:2:0:0:
256,192,44397,1,6,3:2:0:0:
256,192,44522,1,0,3:3:0:0:
256,192,44647,1,2,3:3:0:0:
256,192,44772,1,0,3:3:0:0:
256,192,44897,1,8,3:3:0:0:
256,192,45022,1,8,3:3:0:0:
256,192,45084,1,8,3:3:0:0:
256,192,45147,1,12,3:3:0:0:
256,192,45272,1,4,3:3:0:0:
256,192,45397,1,4,3:3:0:0:
256,192,45522,1,4,3:3:0:0:
256,192,45647,1,4,3:3:0:0:
256,192,45772,1,4,3:3:0:0:
256,192,45897,1,6,3:2:0:0:
256,192,46022,1,4,3:3:0:0:
256,192,46147,1,4,3:3:0:0:
256,192,46272,1,4,3:3:0:0:
256,192,46397,1,6,3:2:0:0:
256,192,46522,1,0,3:3:0:0:
256,192,46647,1,2,3:3:0:0:
256,192,46772,1,0,3:3:0:0:
256,192,46897,1,8,3:3:0:0:
256,192,47022,1,8,3:3:0:0:
256,192,47084,1,8,3:3:0:0:
256,192,47147,1,12,3:3:0:0:
256,192,47272,1,4,3:3:0:0:
256,192,47397,1,4,3:3:0:0:
256,192,47522,1,4,3:3:0:0:
256,192,47647,1,4,3:3:0:0:
256,192,47772,1,4,3:3:0:0:
256,192,47897,1,2,3:3:0:0:
256,192,48022,1,4,3:3:0:0:
256,192,48084,1,4,3:3:0:0:
256,192,48147,1,0,3:3:0:0:
256,192,48209,1,0,3:3:0:0:
256,192,48272,1,4,3:3:0:0:
256,192,48334,1,4,3:3:0:0:
256,192,48397,1,2,3:3:0:0:
256,192,48522,1,12,3:3:0:0:
256,192,48647,1,2,3:3:0:0:
256,192,48772,1,12,3:3:0:0:
256,192,48897,1,2,3:3:0:0:
256,192,49022,1,12,3:3:0:0:
256,192,49147,1,2,3:3:0:0:
256,192,49272,1,12,3:3:0:0:
256,192,49334,1,4,3:3:0:0:
256,192,49397,1,6,3:1:0:0:
256,192,50397,1,6,3:2:0:0:
256,192,50522,1,4,3:3:0:0:
256,192,50584,1,4,3:3:0:0:
256,192,50647,1,12,3:3:0:0:
256,192,50772,1,4,3:3:0:0:
256,192,50897,1,12,3:3:0:0:
256,192,51022,1,4,3:3:0:0:
256,192,51147,1,12,3:3:0:0:
256,192,51272,1,4,3:3:0:0:
256,192,51334,1,4,3:3:0:0:
256,192,51397,1,12,3:3:0:0:
256,192,51522,1,4,3:3:0:0:
256,192,51647,1,12,3:3:0:0:
256,192,51772,1,4,3:3:0:0:
256,192,51897,1,12,3:3:0:0:
256,192,52022,1,4,3:3:0:0:
256,192,52084,1,4,3:3:0:0:
256,192,52147,1,12,3:3:0:0:
256,192,52272,1,4,3:3:0:0:
256,192,52397,1,6,3:2:0:0:
256,192,52522,1,4,3:3:0:0:
256,192,52647,1,12,3:3:0:0:
256,192,52772,1,4,3:3:0:0:
256,192,52897,1,12,3:3:0:0:
256,192,53022,1,4,3:3:0:0:
256,192,53084,1,4,3:3:0:0:
256,192,53147,1,12,3:3:0:0:
256,192,53272,1,4,3:3:0:0:
256,192,53397,1,12,3:3:0:0:
256,192,53522,1,4,3:3:0:0:
256,192,53584,1,4,3:3:0:0:
256,192,53647,1,12,3:3:0:0:
256,192,53772,1,4,3:3:0:0:
256,192,53897,1,12,3:3:0:0:
256,192,54022,1,4,3:3:0:0:
256,192,54084,1,4,3:3:0:0:
256,192,54147,1,12,3:3:0:0:
256,192,54272,1,4,3:3:0:0:
256,192,54397,1,6,3:2:0:0:
256,192,54522,1,4,3:3:0:0:
256,192,54647,1,12,3:3:0:0:
256,192,54772,1,4,3:3:0:0:
256,192,54834,1,4,3:3:0:0:
256,192,54897,1,12,3:3:0:0:
256,192,55022,1,4,3:3:0:0:
256,192,55147,1,12,3:3:0:0:
256,192,55272,1,4,3:3:0:0:
256,192,55334,1,4,3:3:0:0:
256,192,55397,1,12,3:3:0:0:
256,192,55522,1,4,3:3:0:0:
256,192,55647,1,12,3:3:0:0:
256,192,55772,1,4,3:3:0:0:
256,192,55834,1,4,3:3:0:0:
256,192,55897,1,12,3:3:0:0:
256,192,56022,1,4,3:3:0:0:
256,192,56147,1,12,3:3:0:0:
256,192,56272,1,4,3:3:0:0:
256,192,56334,1,4,3:3:0:0:
256,192,56397,1,8,3:3:0:0:
256,192,56459,1,8,3:3:0:0:
256,192,56522,1,4,3:3:0:0:
256,192,56584,1,4,3:3:0:0:
256,192,56647,1,8,3:3:0:0:
256,192,56709,1,8,3:3:0:0:
256,192,56772,1,12,3:3:0:0:
256,192,56834,1,12,3:3:0:0:
256,192,56897,1,4,3:3:0:0:
256,192,56959,1,4,3:3:0:0:
256,192,57022,1,4,3:3:0:0:
256,192,57147,1,8,3:3:0:0:
256,192,57209,1,0,3:3:0:0:
256,192,57272,1,4,3:3:0:0:
256,192,57334,1,0,3:3:0:0:
256,192,57397,1,6,3:2:0:0:
256,192,57522,1,0,3:3:0:0:
256,192,57584,1,0,3:3:0:0:
256,192,57647,1,12,3:3:0:0:
256,192,57709,1,8,3:3:0:0:
256,192,57772,1,8,3:3:0:0:
256,192,57834,1,4,3:3:0:0:
256,192,57897,1,6,3:2:0:0:
256,192,57959,1,4,3:3:0:0:
256,192,58022,1,4,3:3:0:0:
256,192,58084,1,4,3:3:0:0:
256,192,58147,1,8,3:3:0:0:
256,192,58209,1,8,3:3:0:0:
256,192,58272,1,8,3:3:0:0:
256,192,58334,1,8,3:3:0:0:
256,192,58397,1,6,3:2:0:0:
256,192,58459,1,4,3:3:0:0:
256,192,58522,1,4,3:3:0:0:
256,192,58584,1,4,3:3:0:0:
256,192,58647,1,12,3:3:0:0:
256,192,58709,1,4,3:3:0:0:
256,192,58772,1,4,3:3:0:0:
256,192,58834,1,4,3:3:0:0:
256,192,58897,1,12,3:3:0:0:
256,192,58959,1,4,3:3:0:0:
256,192,59022,1,4,3:3:0:0:
256,192,59084,1,4,3:3:0:0:
256,192,59147,1,12,3:3:0:0:
256,192,59209,1,4,3:3:0:0:
256,192,59272,1,4,3:3:0:0:
256,192,59334,1,4,3:3:0:0:
256,192,59397,1,12,3:3:0:0:
256,192,59459,1,4,3:3:0:0:
256,192,59522,1,4,3:3:0:0:
256,192,59584,1,4,3:3:0:0:
256,192,59647,1,12,3:3:0:0:
256,192,59709,1,4,3:3:0:0:
256,192,59772,1,4,3:3:0:0:
256,192,59834,1,4,3:3:0:0:
256,192,59897,1,12,3:3:0:0:
256,192,59959,1,4,3:3:0:0:
256,192,60022,1,4,3:3:0:0:
256,192,60084,1,4,3:3:0:0:
256,192,60147,1,12,3:3:0:0:
256,192,60209,1,4,3:3:0:0:
256,192,60272,1,4,3:3:0:0:
256,192,60334,1,4,3:3:0:0:
256,192,60397,1,6,3:2:0:0:
256,192,60459,1,4,3:3:0:0:
256,192,60522,1,4,3:3:0:0:
256,192,60584,1,4,3:3:0:0:
256,192,60647,1,12,3:3:0:0:
256,192,60709,1,4,3:3:0:0:
256,192,60772,1,4,3:3:0:0:
256,192,60834,1,4,3:3:0:0:
256,192,60897,1,12,3:3:0:0:
256,192,60959,1,4,3:3:0:0:
256,192,61022,1,4,3:3:0:0:
256,192,61084,1,4,3:3:0:0:
256,192,61147,1,12,3:3:0:0:
256,192,61209,1,4,3:3:0:0:
256,192,61272,1,4,3:3:0:0:
256,192,61334,1,4,3:3:0:0:
256,192,61397,1,12,3:3:0:0:
256,192,61459,1,4,3:3:0:0:
256,192,61522,1,4,3:3:0:0:
256,192,61584,1,4,3:3:0:0:
256,192,61647,1,12,3:3:0:0:
256,192,61709,1,4,3:3:0:0:
256,192,61772,1,4,3:3:0:0:
256,192,61834,1,4,3:3:0:0:
256,192,61897,1,12,3:3:0:0:
256,192,61959,1,4,3:3:0:0:
256,192,62022,1,4,3:3:0:0:
256,192,62084,1,4,3:3:0:0:
256,192,62147,1,12,3:3:0:0:
256,192,62209,1,4,3:3:0:0:
256,192,62272,1,4,3:3:0:0:
256,192,62334,1,4,3:3:0:0:
256,192,62397,1,6,3:2:0:0:
256,192,62459,1,4,3:3:0:0:
256,192,62522,1,4,3:3:0:0:
256,192,62584,1,4,3:3:0:0:
256,192,62647,1,12,3:3:0:0:
256,192,62709,1,4,3:3:0:0:
256,192,62772,1,4,3:3:0:0:
256,192,62834,1,4,3:3:0:0:
256,192,62897,1,12,3:3:0:0:
256,192,62959,1,4,3:3:0:0:
256,192,63022,1,4,3:3:0:0:
256,192,63084,1,4,3:3:0:0:
256,192,63147,1,12,3:3:0:0:
256,192,63209,1,4,3:3:0:0:
256,192,63272,1,4,3:3:0:0:
256,192,63334,1,4,3:3:0:0:
256,192,63397,1,12,3:3:0:0:
256,192,63459,1,4,3:3:0:0:
256,192,63522,1,4,3:3:0:0:
256,192,63584,1,4,3:3:0:0:
256,192,63647,1,12,3:3:0:0:
256,192,63709,1,4,3:3:0:0:
256,192,63772,1,4,3:3:0:0:
256,192,63834,1,4,3:3:0:0:
256,192,63897,1,12,3:3:0:0:
256,192,63959,1,4,3:3:0:0:
256,192,64022,1,4,3:3:0:0:
256,192,64084,1,4,3:3:0:0:
256,192,64147,1,12,3:3:0:0:
256,192,64209,1,4,3:3:0:0:
256,192,64272,1,4,3:3:0:0:
256,192,64334,1,4,3:3:0:0:
256,192,64397,1,0,3:3:0:0:
256,192,64522,1,8,3:3:0:0:
256,192,64584,1,8,3:3:0:0:
256,192,64647,1,0,3:3:0:0:
256,192,64709,1,0,3:3:0:0:
256,192,64772,1,4,3:3:0:0:
256,192,64897,1,4,3:3:0:0:
256,192,65022,1,4,3:3:0:0:
256,192,65147,1,4,3:3:0:0:
256,192,65272,1,0,3:3:0:0:
256,192,65334,1,0,3:3:0:0:
256,192,65397,1,6,3:2:0:0:
256,192,65897,1,6,3:2:0:0:
256,192,66397,1,6,3:2:0:0:
256,192,66522,1,14,3:3:0:0:
256,192,66647,1,4,3:3:0:0:
256,192,66709,1,4,3:3:0:0:
256,192,66772,1,14,3:3:0:0:
256,192,66897,1,4,3:3:0:0:
256,192,67022,1,14,3:3:0:0:
256,192,67147,1,4,3:3:0:0:
256,192,67209,1,4,3:3:0:0:
256,192,67272,1,14,3:3:0:0:
256,192,67397,1,4,3:3:0:0:
256,192,67522,1,14,3:3:0:0:
256,192,67647,1,4,3:3:0:0:
256,192,67709,1,4,3:3:0:0:
256,192,67772,1,14,3:3:0:0:
256,192,67897,1,4,3:3:0:0:
256,192,68022,1,14,3:3:0:0:
256,192,68147,1,4,3:3:0:0:
256,192,68209,1,4,3:3:0:0:
256,192,68272,1,14,3:3:0:0:
256,192,68397,1,4,3:3:0:0:
256,192,68522,1,14,3:3:0:0:
256,192,68647,1,4,3:3:0:0:
256,192,68709,1,4,3:3:0:0:
256,192,68772,1,14,3:3:0:0:
256,192,68897,1,4,3:3:0:0:
256,192,69022,1,14,3:3:0:0:
256,192,69147,1,4,3:3:0:0:
256,192,69209,1,4,3:3:0:0:
256,192,69272,1,14,3:3:0:0:
256,192,69397,1,6,3:2:0:0:
256,192,69459,1,4,3:3:0:0:
256,192,69522,1,12,3:3:0:0:
256,192,69584,1,4,3:3:0:0:
256,192,69647,1,0,3:3:0:0:
256,192,69709,1,4,3:3:0:0:
256,192,69772,1,12,3:3:0:0:
256,192,69834,1,4,3:3:0:0:
256,192,69897,1,6,3:2:0:0:
256,192,69959,1,4,3:3:0:0:
256,192,70022,1,12,3:3:0:0:
256,192,70084,1,4,3:3:0:0:
256,192,70147,1,0,3:3:0:0:
256,192,70209,1,4,3:3:0:0:
256,192,70272,1,12,3:3:0:0:
256,192,70334,1,4,3:3:0:0:
256,192,70397,1,6,3:2:0:0:
256,192,70522,1,14,3:3:0:0:
256,192,70647,1,4,3:3:0:0:
256,192,70709,1,4,3:3:0:0:
256,192,70772,1,14,3:3:0:0:
256,192,70897,1,4,3:3:0:0:
256,192,71022,1,14,3:3:0:0:
256,192,71147,1,4,3:3:0:0:
256,192,71209,1,4,3:3:0:0:
256,192,71272,1,14,3:3:0:0:
256,192,71397,1,4,3:3:0:0:
256,192,71522,1,14,3:3:0:0:
256,192,71647,1,4,3:3:0:0:
256,192,71709,1,4,3:3:0:0:
256,192,71772,1,14,3:3:0:0:
256,192,71897,1,4,3:3:0:0:
256,192,72022,1,14,3:3:0:0:
256,192,72147,1,4,3:3:0:0:
256,192,72209,1,4,3:3:0:0:
256,192,72272,1,14,3:3:0:0:
256,192,72397,1,6,3:2:0:0:
256,192,72522,1,4,3:3:0:0:
256,192,72584,1,4,3:3:0:0:
256,192,72647,1,6,3:2:0:0:
256,192,72709,1,0,3:3:0:0:
256,192,72772,1,0,3:3:0:0:
256,192,72834,1,0,3:3:0:0:
256,192,72897,1,6,3:2:0:0:
256,192,73022,1,4,3:3:0:0:
256,192,73084,1,4,3:3:0:0:
256,192,73147,1,6,3:2:0:0:
256,192,73272,1,4,3:3:0:0:
256,192,73334,1,4,3:3:0:0:
256,192,73397,1,4,3:2:0:0:
256,192,73647,1,8,3:3:0:0:
256,192,73709,1,8,3:3:0:0:
256,192,73772,1,8,3:3:0:0:
256,192,73834,1,8,3:3:0:0:
256,192,73897,1,6,3:3:0:0:
256,192,74147,1,8,3:3:0:0:
256,192,74209,1,8,3:3:0:0:
256,192,74272,1,8,3:3:0:0:
256,192,74334,1,8,3:3:0:0:
256,192,74397,1,4,3:2:0:0:
256,192,75397,1,6,3:2:0:0:
256,192,75459,1,4,3:3:0:0:
256,192,75522,1,12,3:3:0:0:
256,192,75647,1,6,3:2:0:0:
256,192,75709,1,4,3:3:0:0:
256,192,75772,1,4,3:3:0:0:
256,192,75897,1,6,3:2:0:0:
256,192,75959,1,4,3:3:0:0:
256,192,76022,1,12,3:3:0:0:
256,192,76147,1,6,3:2:0:0:
256,192,76209,1,4,3:3:0:0:
256,192,76272,1,4,3:3:0:0:
256,192,76397,1,6,3:2:0:0:
256,192,76522,1,14,3:3:0:0:
256,192,76647,1,4,3:3:0:0:
256,192,76709,1,4,3:3:0:0:
256,192,76772,1,14,3:3:0:0:
256,192,76897,1,4,3:3:0:0:
256,192,77022,1,14,3:3:0:0:
256,192,77147,1,4,3:3:0:0:
256,192,77209,1,4,3:3:0:0:
256,192,77272,1,14,3:3:0:0:
256,192,77397,1,6,3:2:0:0:
256,192,77459,1,0,3:3:0:0:
256,192,77522,1,12,3:3:0:0:
256,192,77584,1,0,3:3:0:0:
256,192,77647,1,4,3:2:0:0:
256,192,77709,1,0,3:3:0:0:
256,192,77772,1,12,3:3:0:0:
256,192,77834,1,0,3:3:0:0:
256,192,77897,1,6,3:2:0:0:
256,192,77959,1,0,3:3:0:0:
256,192,78022,1,12,3:3:0:0:
256,192,78084,1,0,3:3:0:0:
256,192,78147,1,4,3:2:0:0:
256,192,78209,1,0,3:3:0:0:
256,192,78272,1,12,3:3:0:0:
256,192,78334,1,0,3:3:0:0:
256,192,78397,1,6,3:2:0:0:
256,192,78522,1,14,3:3:0:0:
256,192,78647,1,4,3:3:0:0:
256,192,78709,1,4,3:3:0:0:
256,192,78772,1,14,3:3:0:0:
256,192,78897,1,4,3:3:0:0:
256,192,79022,1,14,3:3:0:0:
256,192,79147,1,4,3:3:0:0:
256,192,79209,1,4,3:3:0:0:
256,192,79272,1,14,3:3:0:0:
256,192,79397,1,4,3:3:0:0:
256,192,79522,1,14,3:3:0:0:
256,192,79647,1,4,3:3:0:0:
256,192,79709,1,4,3:3:0:0:
256,192,79772,1,14,3:3:0:0:
256,192,79897,1,4,3:3:0:0:
256,192,80022,1,14,3:3:0:0:
256,192,80147,1,4,3:3:0:0:
256,192,80209,1,4,3:3:0:0:
256,192,80272,1,14,3:3:0:0:
256,192,80397,1,4,3:2:0:0:
256,192,80522,1,0,3:3:0:0:
256,192,80584,1,0,3:3:0:0:
256,192,80647,1,4,3:3:0:0:
256,192,80772,1,6,3:2:0:0:
256,192,80897,1,0,3:3:0:0:
256,192,81022,1,0,3:3:0:0:
256,192,81147,1,6,3:2:0:0:
256,192,81272,1,0,3:3:0:0:
256,192,81397,1,6,3:2:0:0:
256,192,81647,1,2,3:1:0:0:
256,192,81709,1,2,3:1:0:0:
256,192,81772,1,2,3:1:0:0:
256,192,81834,1,2,3:1:0:0:
256,192,81897,1,4,3:3:0:0:
256,192,82147,1,8,3:3:0:0:
256,192,82209,1,8,3:3:0:0:
256,192,82272,1,8,3:3:0:0:
256,192,82334,1,8,3:3:0:0:
256,192,82397,1,6,3:2:0:0:
256,192,82522,1,12,3:3:0:0:
256,192,82647,1,4,3:3:0:0:
256,192,82709,1,4,3:3:0:0:
256,192,82772,1,14,3:3:0:0:
256,192,82897,1,4,3:3:0:0:
256,192,83022,1,14,3:3:0:0:
256,192,83147,1,4,3:3:0:0:
256,192,83209,1,4,3:3:0:0:
256,192,83272,1,14,3:3:0:0:
256,192,83397,1,4,3:3:0:0:
256,192,83522,1,14,3:3:0:0:
256,192,83647,1,4,3:3:0:0:
256,192,83709,1,4,3:3:0:0:
256,192,83772,1,14,3:3:0:0:
256,192,83897,1,4,3:3:0:0:
256,192,84022,1,14,3:3:0:0:
256,192,84147,1,4,3:3:0:0:
256,192,84209,1,4,3:3:0:0:
256,192,84272,1,14,3:3:0:0:
256,192,84397,1,6,3:2:0:0:
256,192,84522,1,14,3:3:0:0:
256,192,84647,1,4,3:3:0:0:
256,192,84709,1,4,3:3:0:0:
256,192,84772,1,14,3:3:0:0:
256,192,84897,1,4,3:3:0:0:
256,192,85022,1,14,3:3:0:0:
256,192,85147,1,4,3:3:0:0:
256,192,85209,1,4,3:3:0:0:
256,192,85272,1,14,3:3:0:0:
256,192,85397,1,4,3:3:0:0:
256,192,85522,1,14,3:3:0:0:
256,192,85647,1,4,3:3:0:0:
256,192,85709,1,4,3:3:0:0:
256,192,85772,1,14,3:3:0:0:
256,192,85897,1,4,3:3:0:0:
256,192,86022,1,14,3:3:0:0:
256,192,86147,1,4,3:3:0:0:
256,192,86209,1,4,3:3:0:0:
256,192,86272,1,14,3:3:0:0:
256,192,86397,1,6,3:2:0:0:
256,192,86522,1,14,3:3:0:0:
256,192,86647,1,4,3:3:0:0:
256,192,86709,1,4,3:3:0:0:
256,192,86772,1,14,3:3:0:0:
256,192,86897,1,4,3:3:0:0:
256,192,87022,1,14,3:3:0:0:
256,192,87147,1,4,3:3:0:0:
256,192,87209,1,4,3:3:0:0:
256,192,87272,1,14,3:3:0:0:
256,192,87397,1,4,3:3:0:0:
256,192,87522,1,14,3:3:0:0:
256,192,87647,1,4,3:3:0:0:
256,192,87709,1,4,3:3:0:0:
256,192,87772,1,14,3:3:0:0:
256,192,87897,1,12,3:3:0:0:
256,192,88022,1,14,3:3:0:0:
256,192,88084,1,4,3:3:0:0:
256,192,88147,1,6,3:2:0:0:
256,192,88272,1,4,3:3:0:0:
256,192,88334,1,4,3:3:0:0:
256,192,88397,1,12,3:3:0:0:
256,192,88459,1,0,3:3:0:0:
256,192,88522,1,0,3:3:0:0:
256,192,88584,1,0,3:3:0:0:
256,192,88647,1,4,3:3:0:0:
256,192,88709,1,4,3:3:0:0:
256,192,88772,1,12,3:3:0:0:
256,192,88897,1,8,3:3:0:0:
256,192,89022,1,4,3:3:0:0:
256,192,89084,1,4,3:3:0:0:
256,192,89147,1,8,3:3:0:0:
256,192,89334,1,8,3:3:0:0:
256,192,89397,1,0,3:3:0:0:
256,192,89459,1,0,3:3:0:0:
256,192,89522,1,6,3:3:0:0:
256,192,89647,1,2,3:3:0:0:
256,192,89709,1,0,3:3:0:0:
256,192,89772,1,4,3:3:0:0:
256,192,89834,1,4,3:3:0:0:
256,192,89897,1,12,3:3:0:0:
256,192,89959,1,12,3:3:0:0:
256,192,90022,1,12,3:3:0:0:
256,192,90084,1,12,3:3:0:0:
256,192,90147,1,4,3:3:0:0:
256,192,90209,1,4,3:3:0:0:
256,192,90272,1,4,3:3:0:0:
256,192,90334,1,4,3:3:0:0:
256,192,90397,1,6,3:2:0:0:
256,192,90522,1,14,3:3:0:0:
256,192,90647,1,4,3:3:0:0:
256,192,90709,1,4,3:3:0:0:
256,192,90772,1,14,3:3:0:0:
256,192,90897,1,4,3:3:0:0:
256,192,91022,1,14,3:3:0:0:
256,192,91147,1,4,3:3:0:0:
256,192,91209,1,4,3:3:0:0:
256,192,91272,1,14,3:3:0:0:
256,192,91397,1,4,3:3:0:0:
256,192,91522,1,14,3:3:0:0:
256,192,91647,1,4,3:3:0:0:
256,192,91709,1,4,3:3:0:0:
256,192,91772,1,14,3:3:0:0:
256,192,91897,1,4,3:3:0:0:
256,192,92022,1,14,3:3:0:0:
256,192,92147,1,4,3:3:0:0:
256,192,92209,1,4,3:3:0:0:
256,192,92272,1,14,3:3:0:0:
256,192,92397,1,6,3:2:0:0:
256,192,92522,1,14,3:3:0:0:
256,192,92647,1,4,3:3:0:0:
256,192,92772,1,14,3:3:0:0:
256,192,92897,1,4,3:3:0:0:
256,192,93022,1,14,3:3:0:0:
256,192,93147,1,4,3:3:0:0:
256,192,93209,1,4,3:3:0:0:
256,192,93272,1,14,3:3:0:0:
256,192,93397,1,4,3:3:0:0:
256,192,93522,1,14,3:3:0:0:
256,192,93647,1,4,3:3:0:0:
256,192,93709,1,4,3:3:0:0:
256,192,93772,1,14,3:3:0:0:
256,192,93897,1,4,3:3:0:0:
256,192,94022,1,14,3:3:0:0:
256,192,94147,1,4,3:3:0:0:
256,192,94209,1,4,3:3:0:0:
256,192,94272,1,14,3:3:0:0:
256,192,94397,1,6,3:2:0:0:
256,192,94522,1,14,3:3:0:0:
256,192,94647,1,4,3:3:0:0:
256,192,94709,1,4,3:3:0:0:
256,192,94772,1,14,3:3:0:0:
256,192,94897,1,4,3:3:0:0:
256,192,95022,1,14,3:3:0:0:
256,192,95147,1,4,3:3:0:0:
256,192,95209,1,4,3:3:0:0:
256,192,95272,1,14,3:3:0:0:
256,192,95397,1,4,3:3:0:0:
256,192,95522,1,14,3:3:0:0:
256,192,95647,1,4,3:3:0:0:
256,192,95709,1,4,3:3:0:0:
256,192,95772,1,14,3:3:0:0:
256,192,95897,1,4,3:3:0:0:
256,192,96022,1,12,3:3:0:0:
256,192,96084,1,12,3:3:0:0:
256,192,96147,1,4,3:2:0:0:
256,192,96397,1,6,3:2:0:0:
256,192,96522,1,4,3:3:0:0:
256,192,96647,1,4,3:3:0:0:
256,192,96772,1,6,3:2:0:0:
256,192,96897,1,4,3:3:0:0:
256,192,96959,1,4,3:3:0:0:
256,192,97022,1,12,3:3:0:0:
256,192,97147,1,4,3:3:0:0:
256,192,97209,1,4,3:3:0:0:
256,192,97272,1,4,3:3:0:0:
256,192,97334,1,4,3:3:0:0:
256,192,97397,1,8,3:3:0:0:
256,192,97459,1,8,3:3:0:0:
256,192,97522,1,8,3:3:0:0:
256,192,97647,1,4,3:3:0:0:
256,192,97709,1,4,3:3:0:0:
256,192,97772,1,12,3:3:0:0:
256,192,97834,1,12,3:3:0:0:
256,192,97897,1,4,3:3:0:0:
256,192,97959,1,4,3:3:0:0:
256,192,98022,1,0,3:3:0:0:
256,192,98084,1,0,3:3:0:0:
256,192,98147,1,6,3:2:0:0:
256,192,98397,1,12,3:3:0:0:
256,192,98522,1,0,3:3:0:0:
256,192,98647,1,12,3:3:0:0:
256,192,98772,1,0,3:3:0:0:
256,192,98897,1,12,3:3:0:0:
256,192,99022,1,0,3:3:0:0:
256,192,99084,1,0,3:3:0:0:
256,192,99147,1,12,3:3:0:0:
256,192,99272,1,0,3:3:0:0:
256,192,99397,1,6,3:2:0:0:
256,192,99522,1,0,3:3:0:0:
256,192,99647,1,12,3:3:0:0:
256,192,99772,1,0,3:3:0:0:
256,192,99834,1,0,3:3:0:0:
256,192,99897,1,4,3:3:0:0:
256,192,99959,1,4,3:3:0:0:
256,192,100022,1,4,3:3:0:0:
256,192,100084,1,4,3:3:0:0:
256,192,100147,1,8,3:3:0:0:
256,192,100209,1,8,3:3:0:0:
256,192,100272,1,8,3:3:0:0:
256,192,100334,1,8,3:3:0:0:
256,192,100397,1,4,3:2:0:0:
256,192,100522,1,0,3:3:0:0:
256,192,100647,1,2,3:3:0:0:
256,192,100772,1,0,3:3:0:0:
256,192,100897,1,10,3:3:0:0:
256,192,101022,1,0,3:3:0:0:
256,192,101147,1,0,3:3:0:0:
256,192,101272,1,0,3:3:0:0:
256,192,101397,1,4,3:3:0:0:
256,192,101522,1,4,3:3:0:0:
256,192,101647,1,4,3:3:0:0:
256,192,101772,1,4,3:3:0:0:
256,192,101897,1,10,3:3:0:0:
256,192,102022,1,0,3:3:0:0:
256,192,102147,1,4,3:3:0:0:
256,192,102272,1,4,3:3:0:0:
256,192,102397,1,4,3:2:0:0:
256,192,102522,1,0,3:3:0:0:
256,192,102647,1,2,3:3:0:0:
256,192,102772,1,4,3:3:0:0:
256,192,102897,1,10,3:3:0:0:
256,192,103022,1,0,3:3:0:0:
256,192,103147,1,0,3:3:0:0:
256,192,103209,1,4,3:3:0:0:
256,192,103272,1,0,3:3:0:0:
256,192,103334,1,4,3:3:0:0:
256,192,103397,1,12,3:3:0:0:
256,192,103522,1,12,3:3:0:0:
256,192,103647,1,0,3:3:0:0:
256,192,103709,1,4,3:3:0:0:
256,192,103772,1,0,3:3:0:0:
256,192,103834,1,4,3:3:0:0:
256,192,103897,1,4,3:3:0:0:
256,192,103959,1,4,3:3:0:0:
256,192,104022,1,4,3:3:0:0:
256,192,104084,1,4,3:3:0:0:
256,192,104147,1,6,3:2:0:0:
256,192,104272,1,4,3:3:0:0:
256,192,104397,1,10,3:3:0:0:
256,192,104522,1,4,3:3:0:0:
256,192,104647,1,10,3:3:0:0:
256,192,104772,1,4,3:3:0:0:
256,192,104834,1,4,3:3:0:0:
256,192,104897,1,10,3:3:0:0:
256,192,105022,1,4,3:3:0:0:
256,192,105147,1,10,3:3:0:0:
256,192,105272,1,4,3:3:0:0:
256,192,105334,1,4,3:3:0:0:
256,192,105397,1,0,3:3:0:0:
256,192,105522,1,4,3:3:0:0:
256,192,105584,1,4,3:3:0:0:
256,192,105647,1,2,3:1:0:0:
256,192,105709,1,2,3:1:0:0:
256,192,105772,1,2,3:1:0:0:
256,192,105834,1,2,3:1:0:0:
256,192,105897,1,12,3:3:0:0:
256,192,105959,1,12,3:3:0:0:
256,192,106022,1,4,3:3:0:0:
256,192,106084,1,4,3:3:0:0:
256,192,106147,1,6,3:2:0:0:
256,192,106397,1,6,3:2:0:0:
256,192,106522,1,4,3:3:0:0:
256,192,106647,1,12,3:3:0:0:
256,192,106772,1,4,3:3:0:0:
256,192,106897,1,12,3:3:0:0:
256,192,107022,1,4,3:3:0:0:
256,192,107147,1,12,3:3:0:0:
256,192,107272,1,4,3:3:0:0:
256,192,107334,1,4,3:3:0:0:
256,192,107397,1,12,3:3:0:0:
256,192,107522,1,4,3:3:0:0:
256,192,107647,1,12,3:3:0:0:
256,192,107772,1,4,3:3:0:0:
256,192,107897,1,12,3:3:0:0:
256,192,108022,1,4,3:3:0:0:
256,192,108084,1,4,3:3:0:0:
256,192,108147,1,12,3:3:0:0:
256,192,108272,1,4,3:3:0:0:
256,192,108397,1,6,3:2:0:0:
256,192,108522,1,4,3:3:0:0:
256,192,108647,1,12,3:3:0:0:
256,192,108772,1,4,3:3:0:0:
256,192,108897,1,12,3:3:0:0:
256,192,109022,1,4,3:3:0:0:
256,192,109084,1,4,3:3:0:0:
256,192,109147,1,12,3:3:0:0:
256,192,109272,1,4,3:3:0:0:
256,192,109397,1,12,3:3:0:0:
256,192,109522,1,4,3:3:0:0:
256,192,109584,1,4,3:3:0:0:
256,192,109647,1,12,3:3:0:0:
256,192,109772,1,4,3:3:0:0:
256,192,109897,1,12,3:3:0:0:
256,192,110022,1,4,3:3:0:0:
256,192,110084,1,4,3:3:0:0:
256,192,110147,1,12,3:3:0:0:
256,192,110272,1,4,3:3:0:0:
256,192,110397,1,6,3:2:0:0:
256,192,110522,1,4,3:3:0:0:
256,192,110647,1,12,3:3:0:0:
256,192,110772,1,4,3:3:0:0:
256,192,110834,1,4,3:3:0:0:
256,192,110897,1,12,3:3:0:0:
256,192,111022,1,4,3:3:0:0:
256,192,111147,1,12,3:3:0:0:
256,192,111272,1,4,3:3:0:0:
256,192,111334,1,4,3:3:0:0:
256,192,111397,1,12,3:3:0:0:
256,192,111522,1,4,3:3:0:0:
256,192,111647,1,12,3:3:0:0:
256,192,111772,1,4,3:3:0:0:
256,192,111834,1,4,3:3:0:0:
256,192,111897,1,12,3:3:0:0:
256,192,112022,1,4,3:3:0:0:
256,192,112147,1,12,3:3:0:0:
256,192,112272,1,4,3:3:0:0:
256,192,112334,1,4,3:3:0:0:
256,192,112397,1,12,3:3:0:0:
256,192,112459,1,12,3:3:0:0:
256,192,112522,1,4,3:3:0:0:
256,192,112584,1,4,3:3:0:0:
256,192,112647,1,0,3:3:0:0:
256,192,112709,1,0,3:3:0:0:
256,192,112772,1,0,3:3:0:0:
256,192,112834,1,0,3:3:0:0:
256,192,112897,1,4,3:3:0:0:
256,192,112959,1,4,3:3:0:0:
256,192,113022,1,8,3:3:0:0:
256,192,113147,1,8,3:3:0:0:
256,192,113209,1,8,3:3:0:0:
256,192,113272,1,4,3:3:0:0:
256,192,113334,1,4,3:3:0:0:
256,192,113397,1,6,3:2:0:0:
256,192,113522,1,4,3:3:0:0:
256,192,113584,1,4,3:3:0:0:
256,192,113647,1,8,3:3:0:0:
256,192,113709,1,8,3:3:0:0:
256,192,113772,1,8,3:3:0:0:
256,192,113834,1,8,3:3:0:0:
256,192,113897,1,2,3:1:0:0:
256,192,113959,1,2,3:1:0:0:
256,192,114022,1,2,3:1:0:0:
256,192,114084,1,2,3:1:0:0:
256,192,114147,1,8,3:3:0:0:
256,192,114272,1,8,3:3:0:0:
256,192,114397,1,6,3:2:0:0:
256,192,114459,1,4,3:3:0:0:
256,192,114522,1,4,3:3:0:0:
256,192,114584,1,4,3:3:0:0:
256,192,114647,1,12,3:3:0:0:
256,192,114709,1,4,3:3:0:0:
256,192,114772,1,4,3:3:0:0:
256,192,114834,1,4,3:3:0:0:
256,192,114897,1,12,3:3:0:0:
256,192,114959,1,4,3:3:0:0:
256,192,115022,1,4,3:3:0:0:
256,192,115084,1,4,3:3:0:0:
256,192,115147,1,12,3:3:0:0:
256,192,115209,1,4,3:3:0:0:
256,192,115272,1,4,3:3:0:0:
256,192,115334,1,4,3:3:0:0:
256,192,115397,1,12,3:3:0:0:
256,192,115459,1,4,3:3:0:0:
256,192,115522,1,4,3:3:0:0:
256,192,115584,1,4,3:3:0:0:
256,192,115647,1,12,3:3:0:0:
256,192,115709,1,4,3:3:0:0:
256,192,115772,1,4,3:3:0:0:
256,192,115834,1,4,3:3:0:0:
256,192,115897,1,12,3:3:0:0:
256,192,115959,1,4,3:3:0:0:
256,192,116022,1,4,3:3:0:0:
256,192,116084,1,4,3:3:0:0:
256,192,116147,1,12,3:3:0:0:
256,192,116209,1,4,3:3:0:0:
256,192,116272,1,4,3:3:0:0:
256,192,116334,1,4,3:3:0:0:
256,192,116397,1,6,3:2:0:0:
256,192,116459,1,4,3:3:0:0:
256,192,116522,1,4,3:3:0:0:
256,192,116584,1,4,3:3:0:0:
256,192,116647,1,12,3:3:0:0:
256,192,116709,1,4,3:3:0:0:
256,192,116772,1,4,3:3:0:0:
256,192,116834,1,4,3:3:0:0:
256,192,116897,1,12,3:3:0:0:
256,192,116959,1,4,3:3:0:0:
256,192,117022,1,4,3:3:0:0:
256,192,117084,1,4,3:3:0:0:
256,192,117147,1,12,3:3:0:0:
256,192,117209,1,4,3:3:0:0:
256,192,117272,1,4,3:3:0:0:
256,192,117334,1,4,3:3:0:0:
256,192,117397,1,12,3:3:0:0:
256,192,117459,1,4,3:3:0:0:
256,192,117522,1,4,3:3:0:0:
256,192,117584,1,4,3:3:0:0:
256,192,117647,1,12,3:3:0:0:
256,192,117709,1,4,3:3:0:0:
256,192,117772,1,4,3:3:0:0:
256,192,117834,1,4,3:3:0:0:
256,192,117897,1,12,3:3:0:0:
256,192,117959,1,4,3:3:0:0:
256,192,118022,1,4,3:3:0:0:
256,192,118084,1,4,3:3:0:0:
256,192,118147,1,12,3:3:0:0:
256,192,118209,1,4,3:3:0:0:
256,192,118272,1,4,3:3:0:0:
256,192,118334,1,4,3:3:0:0:
256,192,118397,1,6,3:2:0:0:
256,192,118459,1,4,3:3:0:0:
256,192,118522,1,4,3:3:0:0:
256,192,118584,1,4,3:3:0:0:
256,192,118647,1,12,3:3:0:0:
256,192,118709,1,4,3:3:0:0:
256,192,118772,1,4,3:3:0:0:
256,192,118834,1,4,3:3:0:0:
256,192,118897,1,12,3:3:0:0:
256,192,118959,1,4,3:3:0:0:
256,192,119022,1,4,3:3:0:0:
256,192,119084,1,4,3:3:0:0:
256,192,119147,1,12,3:3:0:0:
256,192,119209,1,4,3:3:0:0:
256,192,119272,1,4,3:3:0:0:
256,192,119334,1,4,3:3:0:0:
256,192,119397,1,12,3:3:0:0:
256,192,119459,1,4,3:3:0:0:
256,192,119522,1,4,3:3:0:0:
256,192,119584,1,4,3:3:0:0:
256,192,119647,1,12,3:3:0:0:
256,192,119709,1,4,3:3:0:0:
256,192,119772,1,4,3:3:0:0:
256,192,119834,1,4,3:3:0:0:
256,192,119897,1,12,3:3:0:0:
256,192,119959,1,4,3:3:0:0:
256,192,120022,1,4,3:3:0:0:
256,192,120084,1,4,3:3:0:0:
256,192,120147,1,12,3:3:0:0:
256,192,120209,1,4,3:3:0:0:
256,192,120272,1,4,3:3:0:0:
256,192,120334,1,4,3:3:0:0:
256,192,120397,1,4,3:3:0:0:
256,192,120480,1,4,3:3:0:0:
256,192,120564,1,4,3:3:0:0:
256,192,120647,1,0,3:3:0:0:
256,192,120730,1,0,3:3:0:0:
256,192,120814,1,0,3:3:0:0:
256,192,120897,1,8,3:3:0:0:
256,192,120980,1,4,3:3:0:0:
256,192,121064,1,0,3:3:0:0:
256,192,121147,1,12,3:3:0:0:
256,192,121230,1,4,3:3:0:0:
256,192,121314,1,0,3:3:0:0:
256,192,121397,1,6,3:2:0:0:
256,192,121897,1,6,3:2:0:0:
256,192,122397,1,4,3:3:0:0:
256,192,122647,1,8,3:3:0:0:
256,192,122772,1,8,3:3:0:0:
256,192,122834,1,12,3:3:0:0:
256,192,122897,1,8,3:3:0:0:
256,192,122959,1,12,3:3:0:0:
256,192,123022,1,4,3:3:0:0:
256,192,123084,1,4,3:3:0:0:
256,192,123147,1,0,3:3:0:0:
256,192,123209,1,8,3:3:0:0:
256,192,123272,1,4,3:3:0:0:
256,192,123334,1,4,3:3:0:0:
256,192,123397,1,4,3:3:0:0:
256,192,123459,1,4,3:3:0:0:
256,192,123522,1,0,3:3:0:0:
256,192,123584,1,12,3:3:0:0:
256,192,123647,1,12,3:3:0:0:
256,192,123709,1,0,3:3:0:0:
256,192,123772,1,4,3:3:0:0:
256,192,123834,1,4,3:3:0:0:
256,192,123897,1,12,3:3:0:0:
256,192,123959,1,4,3:3:0:0:
256,192,124022,1,0,3:3:0:0:
256,192,124084,1,4,3:3:0:0:
256,192,124147,1,6,3:2:0:0:
256,192,124397,1,4,3:2:0:0:
256,192,124522,1,4,3:3:0:0:
256,192,124647,1,4,3:3:0:0:
256,192,124772,1,4,3:3:0:0:
256,192,124897,1,4,3:2:0:0:
256,192,125022,1,4,3:3:0:0:
256,192,125147,1,4,3:3:0:0:
256,192,125272,1,4,3:3:0:0:
256,192,125397,1,2,3:3:0:0:
256,192,125522,1,4,3:3:0:0:
256,192,125647,1,4,3:3:0:0:
256,192,125772,1,4,3:3:0:0:
256,192,125897,1,2,3:3:0:0:
256,192,126022,1,4,3:3:0:0:
256,192,126147,1,4,3:3:0:0:
256,192,126209,1,4,3:3:0:0:
256,192,126272,1,4,3:3:0:0:
256,192,126334,1,4,3:3:0:0:
256,192,126397,1,4,3:2:0:0:
256,192,126522,1,4,3:3:0:0:
256,192,126647,1,4,3:3:0:0:
256,192,126772,1,4,3:3:0:0:
256,192,126897,1,2,3:3:0:0:
256,192,127022,1,4,3:3:0:0:
256,192,127147,1,4,3:3:0:0:
256,192,127209,1,4,3:3:0:0:
256,192,127272,1,4,3:3:0:0:
256,192,127334,1,4,3:3:0:0:
256,192,127397,1,4,3:2:0:0:
256,192,127522,1,4,3:3:0:0:
256,192,127647,1,4,3:3:0:0:
256,192,127772,1,4,3:3:0:0:
256,192,127897,1,4,3:2:0:0:
256,192,127980,1,4,3:3:0:0:
256,192,128064,1,4,3:3:0:0:
256,192,128147,1,4,3:3:0:0:
256,192,128230,1,4,3:3:0:0:
256,192,128314,1,4,3:3:0:0:
256,192,128397,1,4,3:2:0:0:
256,192,128522,1,4,3:3:0:0:
256,192,128647,1,4,3:3:0:0:
256,192,128772,1,4,3:3:0:0:
256,192,128897,1,4,3:2:0:0:
256,192,129022,1,4,3:3:0:0:
256,192,129147,1,4,3:3:0:0:
256,192,129209,1,4,3:3:0:0:
256,192,129272,1,4,3:3:0:0:
256,192,129334,1,4,3:3:0:0:
256,192,129397,1,2,3:3:0:0:
256,192,129522,1,4,3:3:0:0:
256,192,129647,1,4,3:3:0:0:
256,192,129772,1,4,3:3:0:0:
256,192,129897,1,4,3:2:0:0:
256,192,130022,1,4,3:3:0:0:
256,192,130147,1,4,3:3:0:0:
256,192,130272,1,4,3:3:0:0:
256,192,130397,1,6,3:2:0:0:
256,192,130522,1,4,3:3:0:0:
256,192,130584,1,0,3:3:0:0:
256,192,130647,1,8,3:3:0:0:
256,192,130709,1,8,3:3:0:0:
256,192,130772,1,8,3:3:0:0:
256,192,130834,1,8,3:3:0:0:
256,192,130897,1,0,3:3:0:0:
256,192,130959,1,0,3:3:0:0:
256,192,131022,1,0,3:3:0:0:
256,192,131084,1,0,3:3:0:0:
256,192,131147,1,4,3:3:0:0:
256,192,131209,1,4,3:3:0:0:
256,192,131272,1,4,3:3:0:0:
256,192,131334,1,0,3:3:0:0:
256,192,131397,1,4,3:3:0:0:
256,192,131459,1,4,3:3:0:0:
256,192,131522,1,4,3:3:0:0:
256,192,131584,1,4,3:3:0:0:
256,192,131647,1,8,3:3:0:0:
256,192,131709,1,8,3:3:0:0:
256,192,131772,1,8,3:3:0:0:
256,192,131834,1,8,3:3:0:0:
256,192,131897,1,0,3:3:0:0:
256,192,132022,1,4,3:3:0:0:
256,192,132084,1,4,3:3:0:0:
256,192,132147,1,4,3:3:0:0:
256,192,132272,1,4,3:3:0:0:
256,192,132334,1,4,3:3:0:0:
256,192,132397,1,4,3:2:0:0:
256,192,132897,1,4,3:2:0:0:
256,192,133397,1,4,3:2:0:0:
256,192,133897,1,4,3:2:0:0:
256,192,134147,1,0,3:3:0:0:
256,192,134209,1,0,3:3:0:0:
256,192,134272,1,4,3:3:0:0:
256,192,134334,1,4,3:3:0:0:
256,192,134397,1,4,3:2:0:0:
256,192,134897,1,4,3:2:0:0:
256,192,135397,1,4,3:2:0:0:
256,192,135647,1,2,3:1:0:0:
256,192,135772,1,2,3:1:0:0:
256,192,135897,1,2,3:1:0:0:
256,192,135980,1,2,3:1:0:0:
256,192,136064,1,2,3:1:0:0:
256,192,136147,1,2,3:1:0:0:
256,192,136230,1,2,3:1:0:0:
256,192,136314,1,2,3:1:0:0:
256,192,136397,1,4,3:2:0:0:
256,192,136897,1,4,3:2:0:0:
256,192,137147,1,0,3:3:0:0:
256,192,137209,1,0,3:3:0:0:
256,192,137272,1,4,3:3:0:0:
256,192,137334,1,4,3:3:0:0:
256,192,137397,1,2,3:3:0:0:
256,192,137897,1,2,3:3:0:0:
256,192,138397,1,4,3:2:0:0:
256,192,138522,1,4,3:3:0:0:
256,192,138647,1,4,3:3:0:0:
256,192,138772,1,4,3:2:0:0:
256,192,138897,1,4,3:3:0:0:
256,192,139022,1,4,3:3:0:0:
256,192,139147,1,12,3:3:0:0:
256,192,139272,1,4,3:3:0:0:
256,192,139397,1,4,3:2:0:0:
256,192,139647,1,2,3:1:0:0:
256,192,139709,1,2,3:1:0:0:
256,192,139772,1,2,3:1:0:0:
256,192,139834,1,2,3:1:0:0:
256,192,139897,1,4,3:3:0:0:
256,192,140147,1,12,3:3:0:0:
256,192,140209,1,12,3:3:0:0:
256,192,140272,1,12,3:3:0:0:
256,192,140397,1,6,3:2:0:0:
256,192,140522,1,14,3:3:0:0:
256,192,140647,1,4,3:3:0:0:
256,192,140709,1,4,3:3:0:0:
256,192,140772,1,14,3:3:0:0:
256,192,140897,1,4,3:3:0:0:
256,192,141022,1,14,3:3:0:0:
256,192,141147,1,4,3:3:0:0:
256,192,141209,1,4,3:3:0:0:
256,192,141272,1,14,3:3:0:0:
256,192,141397,1,4,3:3:0:0:
256,192,141522,1,14,3:3:0:0:
256,192,141647,1,4,3:3:0:0:
256,192,141709,1,4,3:3:0:0:
256,192,141772,1,14,3:3:0:0:
256,192,141897,1,4,3:3:0:0:
256,192,142022,1,14,3:3:0:0:
256,192,142147,1,4,3:3:0:0:
256,192,142209,1,4,3:3:0:0:
256,192,142272,1,14,3:3:0:0:
256,192,142397,1,6,3:2:0:0:
256,192,142522,1,14,3:3:0:0:
256,192,142647,1,4,3:3:0:0:
256,192,142709,1,4,3:3:0:0:
256,192,142772,1,14,3:3:0:0:
256,192,142897,1,4,3:3:0:0:
256,192,143022,1,14,3:3:0:0:
256,192,143147,1,4,3:3:0:0:
256,192,143209,1,4,3:3:0:0:
256,192,143272,1,14,3:3:0:0:
256,192,143397,1,4,3:3:0:0:
256,192,143522,1,14,3:3:0:0:
256,192,143647,1,4,3:3:0:0:
256,192,143709,1,4,3:3:0:0:
256,192,143772,1,14,3:3:0:0:
256,192,143897,1,4,3:3:0:0:
256,192,144022,1,14,3:3:0:0:
256,192,144147,1,4,3:3:0:0:
256,192,144209,1,4,3:3:0:0:
256,192,144272,1,14,3:3:0:0:
256,192,144397,1,6,3:2:0:0:
256,192,144522,1,14,3:3:0:0:
256,192,144647,1,4,3:3:0:0:
256,192,144709,1,4,3:3:0:0:
256,192,144772,1,14,3:3:0:0:
256,192,144897,1,4,3:3:0:0:
256,192,145022,1,14,3:3:0:0:
256,192,145147,1,4,3:3:0:0:
256,192,145209,1,4,3:3:0:0:
256,192,145272,1,14,3:3:0:0:
256,192,145397,1,4,3:3:0:0:
256,192,145522,1,14,3:3:0:0:
256,192,145647,1,4,3:3:0:0:
256,192,145709,1,4,3:3:0:0:
256,192,145772,1,14,3:3:0:0:
256,192,145897,1,4,3:3:0:0:
256,192,146022,1,14,3:3:0:0:
256,192,146147,1,4,3:3:0:0:
256,192,146209,1,4,3:3:0:0:
256,192,146272,1,14,3:3:0:0:
256,192,146397,1,6,3:2:0:0:
256,192,146522,1,8,3:3:0:0:
256,192,146584,1,4,3:3:0:0:
256,192,146647,1,8,3:3:0:0:
256,192,146709,1,4,3:3:0:0:
256,192,146772,1,6,3:2:0:0:
256,192,146897,1,0,3:3:0:0:
256,192,147022,1,0,3:3:0:0:
256,192,147147,1,6,3:2:0:0:
256,192,147272,1,0,3:3:0:0:
256,192,147334,1,8,3:3:0:0:
256,192,147397,1,8,3:3:0:0:
256,192,147459,1,0,3:3:0:0:
256,192,147522,1,6,3:2:0:0:
256,192,147647,1,8,3:3:0:0:
256,192,147709,1,4,3:3:0:0:
256,192,147772,1,4,3:3:0:0:
256,192,147834,1,0,3:3:0:0:
256,192,147897,1,6,3:2:0:0:
256,192,147959,1,4,3:3:0:0:
256,192,148022,1,4,3:3:0:0:
256,192,148084,1,4,3:3:0:0:
256,192,148147,1,6,3:2:0:0:
256,192,148397,1,6,3:2:0:0:
256,192,148522,1,14,3:3:0:0:
256,192,148647,1,4,3:3:0:0:
256,192,148709,1,4,3:3:0:0:
256,192,148772,1,14,3:3:0:0:
256,192,148897,1,4,3:3:0:0:
256,192,149022,1,14,3:3:0:0:
256,192,149147,1,4,3:3:0:0:
256,192,149209,1,4,3:3:0:0:
256,192,149272,1,14,3:3:0:0:
256,192,149397,1,4,3:3:0:0:
256,192,149522,1,14,3:3:0:0:
256,192,149647,1,4,3:3:0:0:
256,192,149709,1,4,3:3:0:0:
256,192,149772,1,14,3:3:0:0:
256,192,149897,1,4,3:3:0:0:
256,192,150022,1,14,3:3:0:0:
256,192,150147,1,4,3:3:0:0:
256,192,150209,1,4,3:3:0:0:
256,192,150272,1,14,3:3:0:0:
256,192,150397,1,6,3:2:0:0:
256,192,150522,1,14,3:3:0:0:
256,192,150647,1,4,3:3:0:0:
256,192,150709,1,4,3:3:0:0:
256,192,150772,1,14,3:3:0:0:
256,192,150897,1,4,3:3:0:0:
256,192,151022,1,14,3:3:0:0:
256,192,151147,1,4,3:3:0:0:
256,192,151209,1,4,3:3:0:0:
256,192,151272,1,14,3:3:0:0:
256,192,151397,1,4,3:3:0:0:
256,192,151459,1,4,3:3:0:0:
256,192,151522,1,2,3:1:0:0:
256,192,151647,1,4,3:3:0:0:
256,192,151709,1,4,3:3:0:0:
256,192,151772,1,2,3:1:0:0:
256,192,151897,1,4,3:3:0:0:
256,192,151959,1,4,3:3:0:0:
256,192,152022,1,2,3:1:0:0:
256,192,152147,1,4,3:3:0:0:
256,192,152272,1,14,3:3:0:0:
256,192,152397,1,6,3:2:0:0:
256,192,152522,1,12,3:3:0:0:
256,192,152647,1,4,3:3:0:0:
256,192,152709,1,4,3:3:0:0:
256,192,152772,1,14,3:3:0:0:
256,192,152897,1,4,3:3:0:0:
256,192,153022,1,14,3:3:0:0:
256,192,153147,1,4,3:3:0:0:
256,192,153209,1,4,3:3:0:0:
256,192,153272,1,14,3:3:0:0:
256,192,153397,1,4,3:3:0:0:
256,192,153522,1,14,3:3:0:0:
256,192,153647,1,4,3:3:0:0:
256,192,153709,1,4,3:3:0:0:
256,192,153772,1,14,3:3:0:0:
256,192,153897,1,4,3:3:0:0:
256,192,154022,1,14,3:3:0:0:
256,192,154084,1,4,3:3:0:0:
256,192,154147,1,6,3:3:0:0:
256,192,154272,1,14,3:3:0:0:
256,192,154397,1,6,3:2:0:0:
256,192,154522,1,14,3:3:0:0:
256,192,154647,1,4,3:3:0:0:
256,192,154709,1,4,3:3:0:0:
256,192,154772,1,6,3:2:0:0:
256,192,154897,1,4,3:3:0:0:
256,192,155022,1,14,3:3:0:0:
256,192,155084,1,12,3:3:0:0:
256,192,155147,1,12,3:3:0:0:
256,192,155209,1,4,3:3:0:0:
256,192,155272,1,4,3:3:0:0:
256,192,155334,1,4,3:3:0:0:
256,192,155397,1,8,3:3:0:0:
256,192,155459,1,0,3:3:0:0:
256,192,155522,1,4,3:3:0:0:
256,192,155584,1,4,3:3:0:0:
256,192,155647,1,4,3:3:0:0:
256,192,155709,1,4,3:3:0:0:
256,192,155772,1,12,3:3:0:0:
256,192,155897,1,12,3:3:0:0:
256,192,155959,1,12,3:3:0:0:
256,192,156022,1,4,3:3:0:0:
256,192,156084,1,4,3:3:0:0:
256,192,156147,1,12,3:3:0:0:
256,192,156397,1,6,3:2:0:0:
256,192,156647,1,2,3:1:0:0:
256,192,156709,1,2,3:1:0:0:
256,192,156772,1,2,3:1:0:0:
256,192,156834,1,2,3:1:0:0:
256,192,156897,1,2,3:1:0:0:
256,192,156959,1,12,3:3:0:0:
256,192,157022,1,4,3:3:0:0:
256,192,157084,1,4,3:3:0:0:
256,192,157147,1,12,3:3:0:0:
256,192,157209,1,4,3:3:0:0:
256,192,157272,1,12,3:3:0:0:
256,192,157334,1,12,3:3:0:0:
256,192,157397,1,6,3:2:0:0:
256,192,157522,1,4,3:3:0:0:
256,192,157584,1,4,3:3:0:0:
256,192,157647,1,0,3:3:0:0:
256,192,157709,1,4,3:3:0:0:
256,192,157772,1,4,3:3:0:0:
256,192,157834,1,4,3:3:0:0:
256,192,157897,1,4,3:3:0:0:
256,192,158022,1,4,3:3:0:0:
256,192,158084,1,4,3:3:0:0:
256,192,158147,1,6,3:2:0:0:
256,192,158397,1,6,3:2:0:0:
256,192,158522,1,4,3:3:0:0:
256,192,158647,1,2,3:3:0:0:
256,192,158772,1,4,3:3:0:0:
256,192,158897,1,10,3:3:0:0:
256,192,159022,1,4,3:3:0:0:
256,192,159147,1,4,3:3:0:0:
256,192,159272,1,4,3:3:0:0:
256,192,159397,1,6,3:2:0:0:
256,192,159522,1,4,3:3:0:0:
256,192,159647,1,4,3:3:0:0:
256,192,159772,1,4,3:3:0:0:
256,192,159897,1,2,3:3:0:0:
256,192,160022,1,4,3:3:0:0:
256,192,160147,1,4,3:3:0:0:
256,192,160272,1,4,3:3:0:0:
256,192,160397,1,6,3:2:0:0:
256,192,160522,1,4,3:3:0:0:
256,192,160647,1,2,3:3:0:0:
256,192,160772,1,4,3:3:0:0:
256,192,160897,1,10,3:3:0:0:
256,192,161022,1,4,3:3:0:0:
256,192,161147,1,4,3:3:0:0:
256,192,161272,1,4,3:3:0:0:
256,192,161397,1,4,3:3:0:0:
256,192,161522,1,4,3:3:0:0:
256,192,161584,1,12,3:3:0:0:
256,192,161647,1,4,3:3:0:0:
256,192,161709,1,4,3:3:0:0:
256,192,161772,1,4,3:3:0:0:
256,192,161834,1,4,3:3:0:0:
256,192,161897,1,4,3:3:0:0:
256,192,161959,1,4,3:3:0:0:
256,192,162022,1,4,3:3:0:0:
256,192,162084,1,4,3:3:0:0:
256,192,162147,1,6,3:2:0:0:
256,192,162272,1,4,3:3:0:0:
256,192,162397,1,6,3:2:0:0:
256,192,162522,1,4,3:3:0:0:
256,192,162647,1,6,3:2:0:0:
256,192,162772,1,4,3:3:0:0:
256,192,162834,1,4,3:3:0:0:
256,192,162897,1,6,3:2:0:0:
256,192,163022,1,4,3:3:0:0:
256,192,163147,1,6,3:2:0:0:
256,192,163272,1,4,3:3:0:0:
256,192,163334,1,4,3:3:0:0:
256,192,163397,1,6,3:2:0:0:
256,192,163459,1,12,3:3:0:0:
256,192,163522,1,4,3:3:0:0:
256,192,163584,1,4,3:3:0:0:
256,192,163647,1,12,3:3:0:0:
256,192,163709,1,12,3:3:0:0:
256,192,163772,1,4,3:3:0:0:
256,192,163834,1,4,3:3:0:0:
256,192,163897,1,12,3:3:0:0:
256,192,164022,1,2,3:1:0:0:
256,192,164147,1,6,3:2:0:0:
256,192,164397,1,6,3:2:0:0:
256,192,164647,1,2,3:1:0:0:
256,192,164772,1,2,3:1:0:0:
256,192,164834,1,12,3:3:0:0:
256,192,164897,1,2,3:1:0:0:
256,192,164959,1,4,3:3:0:0:
256,192,165022,1,2,3:1:0:0:
256,192,165084,1,12,3:3:0:0:
256,192,165147,1,2,3:1:0:0:
256,192,165209,1,4,3:3:0:0:
256,192,165272,1,2,3:1:0:0:
256,192,165334,1,4,3:3:0:0:
256,192,165397,1,2,3:1:0:0:
256,192,165459,1,4,3:3:0:0:
256,192,165522,1,2,3:1:0:0:
256,192,165584,1,12,3:3:0:0:
256,192,165647,1,2,3:1:0:0:
256,192,165709,1,4,3:3:0:0:
256,192,165772,1,2,3:1:0:0:
256,192,165834,1,12,3:3:0:0:
256,192,165897,1,4,3:3:0:0:
256,192,165959,1,4,3:3:0:0:
256,192,166022,1,4,3:3:0:0:
256,192,166084,1,4,3:3:0:0:
256,192,166147,1,12,3:3:0:0:
256,192,166397,1,6,3:2:0:0:
256,192,166459,1,4,3:3:0:0:
256,192,166522,1,4,3:3:0:0:
256,192,166584,1,4,3:3:0:0:
256,192,166647,1,6,3:2:0:0:
256,192,166709,1,4,3:3:0:0:
256,192,166772,1,4,3:3:0:0:
256,192,166834,1,4,3:3:0:0:
256,192,166897,1,6,3:2:0:0:
256,192,166959,1,4,3:3:0:0:
256,192,167022,1,4,3:3:0:0:
256,192,167084,1,4,3:3:0:0:
256,192,167147,1,6,3:2:0:0:
256,192,167209,1,4,3:3:0:0:
256,192,167272,1,4,3:3:0:0:
256,192,167334,1,4,3:3:0:0:
256,192,167397,1,6,3:1:0:0:
256,192,167897,1,12,3:3:0:0:
256,192,168022,1,4,3:3:0:0:
256,192,168084,1,4,3:3:0:0:
256,192,168147,1,12,3:3:0:0:
256,192,168209,1,12,3:3:0:0:
256,192,168272,1,4,3:3:0:0:
256,192,168334,1,4,3:3:0:0:
256,192,168397,1,6,3:2:0:0:
256,192,168522,1,4,3:3:0:0:
256,192,168647,1,14,3:3:0:0:
256,192,168772,1,4,3:3:0:0:
256,192,168897,1,14,3:3:0:0:
256,192,169022,1,4,3:3:0:0:
256,192,169147,1,14,3:3:0:0:
256,192,169272,1,4,3:3:0:0:
256,192,169334,1,4,3:3:0:0:
256,192,169397,1,14,3:3:0:0:
256,192,169522,1,4,3:3:0:0:
256,192,169647,1,14,3:3:0:0:
256,192,169772,1,4,3:3:0:0:
256,192,169897,1,14,3:3:0:0:
256,192,170022,1,4,3:3:0:0:
256,192,170084,1,4,3:3:0:0:
256,192,170147,1,14,3:3:0:0:
256,192,170272,1,4,3:3:0:0:
256,192,170397,1,6,3:2:0:0:
256,192,170522,1,4,3:3:0:0:
256,192,170647,1,14,3:3:0:0:
256,192,170772,1,4,3:3:0:0:
256,192,170897,1,14,3:3:0:0:
256,192,171022,1,4,3:3:0:0:
256,192,171084,1,4,3:3:0:0:
256,192,171147,1,14,3:3:0:0:
256,192,171272,1,4,3:3:0:0:
256,192,171397,1,14,3:3:0:0:
256,192,171522,1,4,3:3:0:0:
256,192,171584,1,4,3:3:0:0:
256,192,171647,1,14,3:3:0:0:
256,192,171772,1,4,3:3:0:0:
256,192,171897,1,14,3:3:0:0:
256,192,172022,1,4,3:3:0:0:
256,192,172084,1,4,3:3:0:0:
256,192,172147,1,14,3:3:0:0:
256,192,172272,1,4,3:3:0:0:
256,192,172397,1,6,3:2:0:0:
256,192,172522,1,4,3:3:0:0:
256,192,172647,1,14,3:3:0:0:
256,192,172772,1,4,3:3:0:0:
256,192,172834,1,4,3:3:0:0:
256,192,172897,1,14,3:3:0:0:
256,192,173022,1,4,3:3:0:0:
256,192,173147,1,14,3:3:0:0:
256,192,173272,1,4,3:3:0:0:
256,192,173334,1,4,3:3:0:0:
256,192,173397,1,14,3:3:0:0:
256,192,173522,1,4,3:3:0:0:
256,192,173647,1,14,3:3:0:0:
256,192,173772,1,4,3:3:0:0:
256,192,173834,1,4,3:3:0:0:
256,192,173897,1,14,3:3:0:0:
256,192,174022,1,4,3:3:0:0:
256,192,174147,1,14,3:3:0:0:
256,192,174272,1,4,3:3:0:0:
256,192,174334,1,4,3:3:0:0:
256,192,174397,1,12,3:3:0:0:
256,192,174459,1,12,3:3:0:0:
256,192,174522,1,4,3:3:0:0:
256,192,174584,1,4,3:3:0:0:
256,192,174647,1,12,3:3:0:0:
256,192,174709,1,4,3:3:0:0:
256,192,174772,1,4,3:3:0:0:
256,192,174834,1,4,3:3:0:0:
256,192,174897,1,4,3:3:0:0:
256,192,174959,1,0,3:3:0:0:
256,192,175022,1,0,3:3:0:0:
256,192,175084,1,0,3:3:0:0:
256,192,175147,1,12,3:3:0:0:
256,192,175209,1,12,3:3:0:0:
256,192,175272,1,12,3:3:0:0:
256,192,175334,1,0,3:3:0:0:
256,192,175397,1,4,3:3:0:0:
256,192,175459,1,4,3:3:0:0:
256,192,175522,1,12,3:3:0:0:
256,192,175584,1,4,3:3:0:0:
256,192,175647,1,4,3:3:0:0:
256,192,175709,1,0,3:3:0:0:
256,192,175772,1,4,3:3:0:0:
256,192,175834,1,4,3:3:0:0:
256,192,175897,1,12,3:3:0:0:
256,192,175959,1,4,3:3:0:0:
256,192,176022,1,4,3:3:0:0:
256,192,176084,1,4,3:3:0:0:
256,192,176147,1,6,3:2:0:0:
256,192,176397,1,6,3:2:0:0:
256,192,176459,1,4,3:3:0:0:
256,192,176522,1,4,3:3:0:0:
256,192,176584,1,4,3:3:0:0:
256,192,176647,1,14,3:3:0:0:
256,192,176709,1,4,3:3:0:0:
256,192,176772,1,4,3:3:0:0:
256,192,176834,1,4,3:3:0:0:
256,192,176897,1,6,3:3:0:0:
256,192,176959,1,4,3:3:0:0:
256,192,177022,1,4,3:3:0:0:
256,192,177084,1,4,3:3:0:0:
256,192,177147,1,14,3:3:0:0:
256,192,177209,1,4,3:3:0:0:
256,192,177272,1,4,3:3:0:0:
256,192,177334,1,4,3:3:0:0:
256,192,177397,1,6,3:3:0:0:
256,192,177459,1,4,3:3:0:0:
256,192,177522,1,4,3:3:0:0:
256,192,177584,1,4,3:3:0:0:
256,192,177647,1,14,3:3:0:0:
256,192,177709,1,4,3:3:0:0:
256,192,177772,1,4,3:3:0:0:
256,192,177834,1,4,3:3:0:0:
256,192,177897,1,6,3:3:0:0:
256,192,177959,1,4,3:3:0:0:
256,192,178022,1,4,3:3:0:0:
256,192,178084,1,4,3:3:0:0:
256,192,178147,1,14,3:3:0:0:
256,192,178209,1,4,3:3:0:0:
256,192,178272,1,4,3:3:0:0:
256,192,178334,1,4,3:3:0:0:
256,192,178397,1,6,3:2:0:0:
256,192,178459,1,4,3:3:0:0:
256,192,178522,1,4,3:3:0:0:
256,192,178584,1,4,3:3:0:0:
256,192,178647,1,14,3:3:0:0:
256,192,178709,1,4,3:3:0:0:
256,192,178772,1,4,3:3:0:0:
256,192,178834,1,4,3:3:0:0:
256,192,178897,1,6,3:3:0:0:
256,192,178959,1,4,3:3:0:0:
256,192,179022,1,4,3:3:0:0:
256,192,179084,1,4,3:3:0:0:
256,192,179147,1,14,3:3:0:0:
256,192,179209,1,4,3:3:0:0:
256,192,179272,1,4,3:3:0:0:
256,192,179334,1,4,3:3:0:0:
256,192,179397,1,6,3:3:0:0:
256,192,179459,1,4,3:3:0:0:
256,192,179522,1,4,3:3:0:0:
256,192,179584,1,4,3:3:0:0:
256,192,179647,1,14,3:3:0:0:
256,192,179709,1,4,3:3:0:0:
256,192,179772,1,4,3:3:0:0:
256,192,179834,1,4,3:3:0:0:
256,192,179897,1,6,3:3:0:0:
256,192,179959,1,4,3:3:0:0:
256,192,180022,1,4,3:3:0:0:
256,192,180084,1,4,3:3:0:0:
256,192,180147,1,14,3:3:0:0:
256,192,180209,1,4,3:3:0:0:
256,192,180272,1,4,3:3:0:0:
256,192,180334,1,4,3:3:0:0:
256,192,180397,1,6,3:2:0:0:
256,192,180459,1,4,3:3:0:0:
256,192,180522,1,4,3:3:0:0:
256,192,180584,1,4,3:3:0:0:
256,192,180647,1,14,3:3:0:0:
256,192,180709,1,4,3:3:0:0:
256,192,180772,1,4,3:3:0:0:
256,192,180834,1,4,3:3:0:0:
256,192,180897,1,6,3:3:0:0:
256,192,180959,1,4,3:3:0:0:
256,192,181022,1,4,3:3:0:0:
256,192,181084,1,4,3:3:0:0:
256,192,181147,1,14,3:3:0:0:
256,192,181209,1,4,3:3:0:0:
256,192,181272,1,4,3:3:0:0:
256,192,181334,1,4,3:3:0:0:
256,192,181397,1,6,3:3:0:0:
256,192,181459,1,4,3:3:0:0:
256,192,181522,1,4,3:3:0:0:
256,192,181584,1,4,3:3:0:0:
256,192,181647,1,14,3:3:0:0:
256,192,181709,1,4,3:3:0:0:
256,192,181772,1,4,3:3:0:0:
256,192,181834,1,4,3:3:0:0:
256,192,181897,1,6,3:3:0:0:
256,192,181959,1,4,3:3:0:0:
256,192,182022,1,4,3:3:0:0:
256,192,182084,1,4,3:3:0:0:
256,192,182147,1,14,3:3:0:0:
256,192,182209,1,4,3:3:0:0:
256,192,182272,1,4,3:3:0:0:
256,192,182334,1,4,3:3:0:0:
256,192,182397,1,12,3:3:0:0:
256,192,182459,1,12,3:3:0:0:
256,192,182522,1,12,3:3:0:0:
256,192,182584,1,4,3:3:0:0:
256,192,182647,1,12,3:3:0:0:
256,192,182709,1,12,3:3:0:0:
256,192,182772,1,4,3:3:0:0:
256,192,182834,1,4,3:3:0:0:
256,192,182897,1,0,3:3:0:0:
256,192,182959,1,0,3:3:0:0:
256,192,183022,1,12,3:3:0:0:
256,192,183084,1,12,3:3:0:0:
256,192,183147,1,12,3:3:0:0:
256,192,183209,1,12,3:3:0:0:
256,192,183272,1,4,3:3:0:0:
256,192,183334,1,4,3:3:0:0:
256,192,183397,1,6,3:2:0:0:
256,192,183897,1,6,3:2:0:0:
256,192,184397,1,6,3:2:0:0:
256,192,184522,1,4,3:3:0:0:
256,192,184647,1,2,3:1:0:0:
256,192,184709,1,12,3:3:0:0:
256,192,184772,1,4,3:3:0:0:
256,192,184897,1,2,3:1:0:0:
256,192,184959,1,12,3:3:0:0:
256,192,185022,1,4,3:3:0:0:
256,192,185147,1,2,3:1:0:0:
256,192,185209,1,12,3:3:0:0:
256,192,185272,1,4,3:3:0:0:
256,192,185397,1,2,3:1:0:0:
256,192,185459,1,0,3:3:0:0:
256,192,185522,1,4,3:3:0:0:
256,192,185647,1,2,3:1:0:0:
256,192,185709,1,12,3:3:0:0:
256,192,185772,1,4,3:3:0:0:
256,192,185897,1,2,3:1:0:0:
256,192,185959,1,0,3:3:0:0:
256,192,186022,1,4,3:3:0:0:
256,192,186147,1,2,3:1:0:0:
256,192,186209,1,0,3:3:0:0:
256,192,186272,1,4,3:3:0:0:
256,192,186397,1,6,3:2:0:0:
256,192,186459,1,12,3:3:0:0:
256,192,186522,1,4,3:3:0:0:
256,192,186647,1,2,3:1:0:0:
256,192,186709,1,12,3:3:0:0:
256,192,186772,1,4,3:3:0:0:
256,192,186897,1,2,3:1:0:0:
256,192,186959,1,12,3:3:0:0:
256,192,187022,1,4,3:3:0:0:
256,192,187147,1,2,3:1:0:0:
256,192,187272,1,4,3:3:0:0:
256,192,187397,1,6,3:2:0:0:
256,192,187459,1,0,3:3:0:0:
256,192,187522,1,4,3:3:0:0:
256,192,187647,1,2,3:1:0:0:
256,192,187709,1,4,3:3:0:0:
256,192,187772,1,6,3:2:0:0:
256,192,187834,1,4,3:3:0:0:
256,192,187897,1,2,3:1:0:0:
256,192,187959,1,12,3:3:0:0:
256,192,188022,1,4,3:3:0:0:
256,192,188147,1,6,3:2:0:0:
256,192,188272,1,4,3:3:0:0:
256,192,188397,1,6,3:2:0:0:
256,192,188647,1,12,3:3:0:0:
256,192,188709,1,12,3:3:0:0:
256,192,188772,1,12,3:3:0:0:
256,192,188834,1,12,3:3:0:0:
256,192,188897,1,12,3:3:0:0:
256,192,188959,1,12,3:3:0:0:
256,192,189022,1,12,3:3:0:0:
256,192,189084,1,12,3:3:0:0:
256,192,189147,1,12,3:3:0:0:
256,192,189209,1,12,3:3:0:0:
256,192,189272,1,12,3:3:0:0:
256,192,189334,1,12,3:3:0:0:
256,192,189397,1,12,3:3:0:0:
256,192,189459,1,12,3:3:0:0:
256,192,189522,1,12,3:3:0:0:
256,192,189584,1,12,3:3:0:0:
256,192,189647,1,12,3:3:0:0:
256,192,189709,1,12,3:3:0:0:
256,192,189772,1,12,3:3:0:0:
256,192,189834,1,12,3:3:0:0:
256,192,189897,1,12,3:3:0:0:
256,192,189959,1,12,3:3:0:0:
256,192,190022,1,12,3:3:0:0:
256,192,190084,1,12,3:3:0:0:
256,192,190147,1,12,3:3:0:0:
256,192,190272,1,4,3:3:0:0:
256,192,190397,1,12,3:3:0:0:
256,192,190522,1,4,3:3:0:0:
256,192,190647,1,4,3:3:0:0:
256,192,190709,1,4,3:3:0:0:
256,192,190772,1,12,3:3:0:0:
256,192,190897,1,4,3:3:0:0:
256,192,190959,1,4,3:3:0:0:
256,192,191022,1,4,3:3:0:0:
256,192,191084,1,4,3:3:0:0:
256,192,191147,1,6,3:2:0:0:
256,192,191272,1,4,3:3:0:0:
256,192,191334,1,4,3:3:0:0:
256,192,191397,1,12,3:3:0:0:
256,192,191522,1,12,3:3:0:0:
256,192,191647,1,12,3:3:0:0:
256,192,191772,1,6,3:2:0:0:
256,192,191897,1,4,3:3:0:0:
256,192,191959,1,4,3:3:0:0:
256,192,192022,1,4,3:3:0:0:
256,192,192084,1,4,3:3:0:0:
256,192,192147,1,6,3:2:0:0:
256,192,192272,1,4,3:3:0:0:
256,192,192334,1,4,3:3:0:0:
256,192,192397,1,4,3:3:0:0:
256,192,192459,1,4,3:3:0:0:
256,192,192522,1,6,3:2:0:0:
256,192,192647,1,4,3:3:0:0:
256,192,192709,1,4,3:3:0:0:
256,192,192772,1,4,3:3:0:0:
256,192,192834,1,4,3:3:0:0:
256,192,192897,1,12,3:3:0:0:
256,192,192959,1,12,3:3:0:0:
256,192,193022,1,12,3:3:0:0:
256,192,193084,1,4,3:3:0:0:
256,192,193147,1,12,3:3:0:0:
256,192,193209,1,12,3:3:0:0:
256,192,193272,1,12,3:3:0:0:
256,192,193334,1,12,3:3:0:0:
256,192,193397,1,4,3:1:0:0:
256,192,197584,1,12,3:3:0:0:
256,192,197709,1,12,3:3:0:0:
256,192,197771,1,12,3:3:0:0:
