osu file format v14

[General]
AudioFilename: audio.mp3
AudioLeadIn: 0
PreviewTime: 167907
Countdown: 0
SampleSet: Normal
StackLeniency: 0.3
Mode: 0
LetterboxInBreaks: 0
WidescreenStoryboard: 0

[Editor]
Bookmarks: 407,2407,6407,10407,16407,18407,24407,26407,32282,32407,34407,40407,42407,44407,50407,58407,64407,66407,72407,74407,75407,76407,80407,82407,88407,90407,96407,98407,100407,104407,105407,106407,114407,120407,122407,124407,130407,132407,138407,140407,158407,164407,166407,167407,168407,174407,176407,182407,183407,184407,188407,190407,193407
DistanceSpacing: 0.4
BeatDivisor: 4
GridSize: 16
TimelineZoom: 3.4

[Metadata]
Title:Everything will freeze
TitleUnicode:Everything will freeze
Artist:UNDEAD CORPORATION
ArtistUnicode:UNDEAD CORPORATION
Creator:kirbob
Version:This world is my own
Source:
Tags:
BeatmapID:1691445
BeatmapSetID:805821

[Difficulty]
HPDrainRate:4.4
CircleSize:4.2
OverallDifficulty:9.5
ApproachRate:10
SliderMultiplier:2
SliderTickRate:1

[Events]
//Background and Video events
0,0,"fat ice dragon.jpg",0,0
//Break Periods
//Storyboard Layer 0 (Background)
//Storyboard Layer 1 (Fail)
//Storyboard Layer 2 (Pass)
//Storyboard Layer 3 (Foreground)
//Storyboard Sound Samples

[TimingPoints]
397,250,4,3,1,100,1,0
16397,-76.9230769230769,4,1,1,100,0,0
17397,-86.9565217391304,4,1,1,100,0,0
43897,-86.9565217391304,4,1,1,100,0,1
44397,-111.111111111111,4,1,1,100,0,0
48147,-83.3333333333333,4,1,1,100,0,0
50397,-71.4285714285714,4,1,1,100,0,1
50522,-71.4285714285714,4,1,1,100,0,0
51397,-71.4285714285714,4,1,1,100,0,1
51522,-71.4285714285714,4,1,1,100,0,0
52397,-71.4285714285714,4,1,1,100,0,1
52522,-71.4285714285714,4,1,1,100,0,0
53397,-71.4285714285714,4,1,1,100,0,1
53522,-71.4285714285714,4,1,1,100,0,0
54397,-71.4285714285714,4,1,1,100,0,1
54522,-71.4285714285714,4,1,1,100,0,0
55397,-71.4285714285714,4,1,1,100,0,1
55522,-71.4285714285714,4,1,1,100,0,0
56397,-71.4285714285714,4,1,1,100,0,1
56522,-71.4285714285714,4,1,1,100,0,0
56647,-71.4285714285714,4,1,1,100,0,1
56772,-71.4285714285714,4,1,1,100,0,0
56897,-71.4285714285714,4,1,1,100,0,1
57022,-71.4285714285714,4,1,1,100,0,0
57147,-71.4285714285714,4,1,1,100,0,1
57272,-71.4285714285714,4,1,1,100,0,0
57397,-71.4285714285714,4,1,1,100,0,1
57522,-71.4285714285714,4,1,1,100,0,0
57647,-71.4285714285714,4,1,1,100,0,1
57772,-71.4285714285714,4,1,1,100,0,0
57897,-71.4285714285714,4,1,1,100,0,1
58022,-71.4285714285714,4,1,1,100,0,0
58147,-71.4285714285714,4,1,1,100,0,1
58272,-71.4285714285714,4,1,1,100,0,0
58397,-71.4285714285714,4,1,1,100,0,1
64397,-71.4285714285714,4,1,1,100,0,0
65397,-83.3333333333333,4,1,1,100,0,1
65772,-83.3333333333333,4,1,1,100,0,0
65897,-83.3333333333333,4,1,1,100,0,1
66272,-83.3333333333333,4,1,1,100,0,0
66407,-86.9565217391304,4,1,1,100,0,0
99897,-86.9565217391304,4,1,1,100,0,1
100397,-111.111111111111,4,1,1,100,0,0
104147,-76.9230769230769,4,1,1,100,0,0
105397,-105.263157894737,4,1,1,100,0,0
106147,-68.9655172413793,4,1,1,100,0,1
106272,-68.9655172413793,4,1,1,100,0,0
106397,-68.9655172413793,4,1,1,100,0,1
106522,-68.9655172413793,4,1,1,100,0,0
107397,-68.9655172413793,4,1,1,100,0,1
107522,-68.9655172413793,4,1,1,100,0,0
108397,-68.9655172413793,4,1,1,100,0,1
108522,-68.9655172413793,4,1,1,100,0,0
109397,-68.9655172413793,4,1,1,100,0,1
109522,-68.9655172413793,4,1,1,100,0,0
110397,-68.9655172413793,4,1,1,100,0,1
110522,-68.9655172413793,4,1,1,100,0,0
111397,-68.9655172413793,4,1,1,100,0,1
111522,-68.9655172413793,4,1,1,100,0,0
112397,-68.9655172413793,4,1,1,100,0,1
112522,-68.9655172413793,4,1,1,100,0,0
112647,-68.9655172413793,4,1,1,100,0,1
112772,-68.9655172413793,4,1,1,100,0,0
112897,-68.9655172413793,4,1,1,100,0,1
113022,-68.9655172413793,4,1,1,100,0,0
113147,-68.9655172413793,4,1,1,100,0,1
113272,-68.9655172413793,4,1,1,100,0,0
113397,-68.9655172413793,4,1,1,100,0,1
113522,-68.9655172413793,4,1,1,100,0,0
113647,-68.9655172413793,4,1,1,100,0,1
113772,-68.9655172413793,4,1,1,100,0,0
113897,-68.9655172413793,4,1,1,100,0,1
114022,-68.9655172413793,4,1,1,100,0,0
114147,-68.9655172413793,4,1,1,100,0,1
114272,-68.9655172413793,4,1,1,100,0,0
114397,-68.9655172413793,4,1,1,100,0,1
120397,-76.9230769230769,4,1,1,100,0,0
121397,-76.9230769230769,4,1,1,100,0,1
121772,-76.9230769230769,4,1,1,100,0,0
121897,-76.9230769230769,4,1,1,100,0,1
122272,-76.9230769230769,4,1,1,100,0,0
122397,-76.9230769230769,4,1,1,100,0,1
122522,-76.9230769230769,4,1,1,100,0,0
122647,-76.9230769230769,4,1,1,100,0,1
122709,-76.9230769230769,4,1,1,100,0,0
122772,-76.9230769230769,4,1,1,100,0,1
122834,-76.9230769230769,4,1,1,100,0,0
122897,-76.9230769230769,4,1,1,100,0,1
122959,-76.9230769230769,4,1,1,100,0,0
123022,-76.9230769230769,4,1,1,100,0,1
123084,-76.9230769230769,4,1,1,100,0,0
123147,-76.9230769230769,4,1,1,100,0,1
123209,-76.9230769230769,4,1,1,100,0,0
123272,-76.9230769230769,4,1,1,100,0,1
123334,-76.9230769230769,4,1,1,100,0,0
123397,-76.9230769230769,4,1,1,100,0,1
123459,-76.9230769230769,4,1,1,100,0,0
123522,-76.9230769230769,4,1,1,100,0,1
123584,-76.9230769230769,4,1,1,100,0,0
123647,-76.9230769230769,4,1,1,100,0,1
123709,-76.9230769230769,4,1,1,100,0,0
123772,-76.9230769230769,4,1,1,100,0,1
123834,-76.9230769230769,4,1,1,100,0,0
123897,-76.9230769230769,4,1,1,100,0,1
123959,-76.9230769230769,4,1,1,100,0,0
124022,-76.9230769230769,4,1,1,100,0,1
124084,-76.9230769230769,4,1,1,100,0,0
124147,-76.9230769230769,4,1,1,100,0,1
124397,-100,4,1,1,100,0,0
139897,-83.3333333333333,4,1,1,100,0,0
140397,-68.9655172413793,4,1,1,100,0,1
158397,-111.111111111111,4,1,1,100,0,0
167897,-111.111111111111,4,1,1,100,0,1
168365,-111.111111111111,4,1,1,100,0,0
168397,-66.6666666666667,4,1,1,100,0,1
168647,-66.6666666666667,4,1,1,100,0,0
168897,-66.6666666666667,4,1,1,100,0,1
169147,-66.6666666666667,4,1,1,100,0,0
169397,-66.6666666666667,4,1,1,100,0,1
169647,-66.6666666666667,4,1,1,100,0,0
169897,-66.6666666666667,4,1,1,100,0,1
170147,-66.6666666666667,4,1,1,100,0,0
170397,-66.6666666666667,4,1,1,100,0,1
170647,-66.6666666666667,4,1,1,100,0,0
170897,-66.6666666666667,4,1,1,100,0,1
171147,-66.6666666666667,4,1,1,100,0,0
171397,-66.6666666666667,4,1,1,100,0,1
171647,-66.6666666666667,4,1,1,100,0,0
171897,-66.6666666666667,4,1,1,100,0,1
172147,-66.6666666666667,4,1,1,100,0,0
172397,-66.6666666666667,4,1,1,100,0,1
172647,-66.6666666666667,4,1,1,100,0,0
172897,-66.6666666666667,4,1,1,100,0,1
173147,-66.6666666666667,4,1,1,100,0,0
173397,-66.6666666666667,4,1,1,100,0,1
173647,-66.6666666666667,4,1,1,100,0,0
173897,-66.6666666666667,4,1,1,100,0,1
174147,-66.6666666666667,4,1,1,100,0,0
174397,-66.6666666666667,4,1,1,100,0,1
174522,-66.6666666666667,4,1,1,100,0,0
174647,-66.6666666666667,4,1,1,100,0,1
174772,-66.6666666666667,4,1,1,100,0,0
174897,-66.6666666666667,4,1,1,100,0,1
175022,-66.6666666666667,4,1,1,100,0,0
175147,-66.6666666666667,4,1,1,100,0,1
175272,-66.6666666666667,4,1,1,100,0,0
175397,-66.6666666666667,4,1,1,100,0,1
175459,-66.6666666666667,4,1,1,100,0,0
175522,-66.6666666666667,4,1,1,100,0,1
175584,-66.6666666666667,4,1,1,100,0,0
175647,-66.6666666666667,4,1,1,100,0,1
175709,-66.6666666666667,4,1,1,100,0,0
175772,-66.6666666666667,4,1,1,100,0,1
175834,-66.6666666666667,4,1,1,100,0,0
175897,-66.6666666666667,4,1,1,100,0,1
175959,-66.6666666666667,4,1,1,100,0,0
176022,-66.6666666666667,4,1,1,100,0,1
176084,-66.6666666666667,4,1,1,100,0,0
176147,-66.6666666666667,4,1,1,100,0,1
176272,-66.6666666666667,4,1,1,100,0,0
176397,-66.6666666666667,4,1,1,100,0,1
182397,-66.6666666666667,4,1,1,100,0,0
183397,-76.9230769230769,4,1,1,100,0,1
183772,-76.9230769230769,4,1,1,100,0,0
183897,-76.9230769230769,4,1,1,100,0,1
184272,-76.9230769230769,4,1,1,100,0,0
184397,-80,4,1,1,100,0,0
188397,-80,4,1,1,100,0,1
188522,-80,4,1,1,100,0,0
188647,-80,4,1,1,100,0,1
188709,-80,4,1,1,100,0,0
188772,-80,4,1,1,100,0,1
188834,-80,4,1,1,100,0,0
188897,-80,4,1,1,100,0,1
188959,-80,4,1,1,100,0,0
189022,-80,4,1,1,100,0,1
189084,-80,4,1,1,100,0,0
189147,-80,4,1,1,100,0,1
189209,-80,4,1,1,100,0,0
189272,-80,4,1,1,100,0,1
189334,-80,4,1,1,100,0,0
189397,-80,4,1,1,100,0,1
189459,-80,4,1,1,100,0,0
189522,-80,4,1,1,100,0,1
189584,-80,4,1,1,100,0,0
189647,-80,4,1,1,100,0,1
189709,-80,4,1,1,100,0,0
189772,-80,4,1,1,100,0,1
189834,-80,4,1,1,100,0,0
189897,-80,4,1,1,100,0,1
189959,-80,4,1,1,100,0,0
190022,-80,4,1,1,100,0,1
190084,-80,4,1,1,100,0,0
190147,-80,4,1,1,100,0,1
190209,-80,4,1,1,100,0,0
190272,-80,4,1,1,100,0,1
190334,-80,4,1,1,100,0,0
190397,-80,4,1,1,100,0,1
190522,-80,4,1,1,100,0,0
190772,-80,4,1,1,100,0,1
190897,-80,4,1,1,100,0,0
191147,-80,4,1,1,100,0,1
191272,-80,4,1,1,100,0,0
191397,-80,4,1,1,100,0,1
191459,-80,4,1,1,100,0,0
191522,-80,4,1,1,100,0,1
191584,-80,4,1,1,100,0,0
191647,-80,4,1,1,100,0,1
191709,-80,4,1,1,100,0,0
191772,-80,4,1,1,100,0,1
191897,-80,4,1,1,100,0,0
192147,-80,4,1,1,100,0,1
192272,-80,4,1,1,100,0,0
192522,-80,4,1,1,100,0,1
192647,-80,4,1,1,100,0,0
192897,-80,4,1,1,100,0,1
193334,-80,4,1,1,100,0,0
193397,-80,4,1,1,100,0,1
193428,-80,4,1,1,100,0,0

[Colours]
Combo1 : 255,129,45
Combo2 : 231,203,203
Combo3 : 221,183,183
Combo4 : 201,137,137
Combo5 : 254,46,46
Combo6 : 254,87,46

[HitObjects]
257,29,397,5,2,3:1:0:0:
205,103,522,2,0,L|211:219,1,100,8|8,3:3|3:3,0:0:0:0:
296,266,772,1,8,3:3:0:0:
303,238,834,1,0,3:3:0:0:
310,210,897,2,0,L|320:159,3,50,8|8|4|4,3:3|3:3|3:3|3:3,0:0:0:0:
434,52,1147,1,8,3:3:0:0:
445,90,1209,1,8,3:3:0:0:
435,128,1272,1,8,3:3:0:0:
407,156,1334,1,8,3:3:0:0:
369,166,1397,6,0,L|311:160,1,50,4|4,3:3|3:3,0:0:0:0:
243,64,1522,1,8,3:3:0:0:
205,89,1584,1,8,3:3:0:0:
184,129,1647,1,8,3:3:0:0:
186,174,1709,1,8,3:3:0:0:
210,212,1772,2,0,L|262:249,1,50,4|4,3:3|3:3,0:0:0:0:
415,260,1897,5,0,3:3:0:0:
411,208,1959,1,12,3:3:0:0:
407,156,2022,1,4,3:3:0:0:
403,104,2084,1,4,3:3:0:0:
399,52,2147,1,0,3:2:0:0:
180,297,2397,53,4,3:3:0:0:
180,297,3272,5,0,3:2:0:0:
151,292,3334,1,0,3:2:0:0:
123,288,3397,2,0,L|4:270,1,100,4|0,3:2|0:0,0:0:0:0:
308,235,3647,6,0,L|313:286,3,50,4|4|0|0,3:3|3:3|3:3|3:3,0:0:0:0:
312,284,3897,1,8,3:3:0:0:
262,278,3959,1,8,3:3:0:0:
220,243,4022,1,0,3:3:0:0:
201,192,4084,1,0,3:3:0:0:
210,138,4147,1,4,3:3:0:0:
244,96,4209,1,4,3:3:0:0:
295,77,4272,1,0,3:3:0:0:
349,86,4334,1,0,3:3:0:0:
391,121,4397,1,4,3:3:0:0:
391,121,5397,54,0,L|385:184,3,50,6|0|0|0,3:2|3:3|3:3|3:3,0:0:0:0:
366,205,5647,1,8,3:3:0:0:
331,224,5709,1,8,3:3:0:0:
291,222,5772,1,8,3:3:0:0:
257,200,5834,1,0,3:3:0:0:
238,163,5897,2,0,L|233:102,1,50,0|0,3:3|3:3,0:0:0:0:
326,17,6022,2,0,L|322:69,1,50,0|0,3:3|3:3,0:0:0:0:
233,113,6147,5,8,3:3:0:0:
192,104,6209,1,8,3:3:0:0:
151,116,6272,1,8,3:3:0:0:
122,147,6334,1,8,3:3:0:0:
112,188,6397,6,0,L|114:296,1,100,4|8,3:2|3:3,0:0:0:0:
196,174,6647,1,6,3:3:0:0:
196,174,6709,1,4,3:3:0:0:
196,174,6772,1,8,3:3:0:0:
25,112,6897,2,0,L|29:219,1,100,6|8,3:3|3:3,0:0:0:0:
121,295,7147,1,6,3:3:0:0:
121,295,7209,1,4,3:3:0:0:
121,295,7272,1,8,3:3:0:0:
204,255,7397,54,0,L|314:252,1,100,6|8,3:3|3:3,0:0:0:0:
383,190,7647,1,6,3:3:0:0:
383,190,7709,1,4,3:3:0:0:
383,190,7772,1,8,3:3:0:0:
301,127,7897,2,0,L|191:130,1,100,6|8,3:3|3:3,0:0:0:0:
118,194,8147,1,6,3:3:0:0:
118,194,8209,1,4,3:3:0:0:
118,194,8272,1,8,3:3:0:0:
136,27,8397,6,0,L|132:82,1,50,4|0,3:2|0:0,0:0:0:0:
97,277,8522,1,0,3:3:0:0:
230,195,8647,1,4,3:3:0:0:
60,54,8772,2,0,L|56:109,1,50,8|0,3:3|0:0,0:0:0:0:
83,201,8897,1,0,3:3:0:0:
125,199,8959,1,0,3:3:0:0:
167,197,9022,1,4,3:3:0:0:
209,195,9084,1,4,3:3:0:0:
251,193,9147,2,0,L|315:192,1,50,8|0,3:3|0:0,0:0:0:0:
379,83,9272,2,0,L|315:84,1,50,4|4,3:3|3:3,0:0:0:0:
238,263,9397,6,0,P|268:311|321:330,1,100,4|0,3:2|0:0,0:0:0:0:
419,160,9647,1,2,3:1:0:0:
381,159,9709,1,2,3:1:0:0:
343,158,9772,1,2,3:1:0:0:
305,157,9834,1,2,3:1:0:0:
270,157,9897,2,0,B|237:173|208:154|208:154|182:166|182:166|156:143|112:157,1,150,8|0,3:3|0:0,0:0:0:0:
96,166,10147,53,12,3:3:0:0:
100,212,10209,1,12,3:3:0:0:
104,258,10272,1,12,3:3:0:0:
108,304,10334,1,12,3:3:0:0:
112,350,10397,6,0,P|181:359|225:352,1,100,4|8,3:2|3:3,0:0:0:0:
320,271,10647,2,0,P|251:262|207:269,1,100,6|8,3:3|3:3,0:0:0:0:
400,328,10897,2,0,P|409:259|402:215,1,100,6|8,3:3|3:3,0:0:0:0:
277,351,11147,1,6,3:3:0:0:
277,351,11209,1,4,3:3:0:0:
277,351,11272,1,8,3:3:0:0:
483,318,11397,6,0,L|477:208,1,100,6|8,3:3|3:3,0:0:0:0:
330,190,11647,1,6,3:3:0:0:
330,190,11709,1,4,3:3:0:0:
330,190,11772,1,8,3:3:0:0:
277,351,11897,1,6,3:3:0:0:
381,269,12022,1,8,3:3:0:0:
240,259,12147,1,6,3:3:0:0:
240,259,12209,1,4,3:3:0:0:
240,259,12272,1,8,3:3:0:0:
376,369,12397,54,0,L|382:262,1,100,6|8,3:3|3:3,0:0:0:0:
246,175,12647,1,6,3:3:0:0:
246,175,12709,1,4,3:3:0:0:
246,175,12772,1,8,3:3:0:0:
144,258,12897,2,0,L|150:365,1,100,6|8,3:3|3:3,0:0:0:0:
316,278,13147,1,6,3:3:0:0:
316,278,13209,1,4,3:3:0:0:
316,278,13272,1,8,3:3:0:0:
246,175,13397,5,4,3:2:0:0:
209,165,13459,1,4,3:3:0:0:
171,174,13522,1,8,3:3:0:0:
143,201,13584,1,4,3:3:0:0:
115,228,13647,1,4,3:2:0:0:
77,237,13709,1,4,3:3:0:0:
40,227,13772,1,8,3:3:0:0:
13,198,13834,1,4,3:3:0:0:
3,161,13897,5,4,3:2:0:0:
30,132,13959,1,4,3:3:0:0:
67,120,14022,1,8,3:3:0:0:
105,128,14084,1,4,3:3:0:0:
134,154,14147,1,4,3:2:0:0:
146,191,14209,1,4,3:3:0:0:
138,229,14272,1,8,3:3:0:0:
112,258,14334,1,4,3:3:0:0:
86,287,14397,54,0,P|66:329|74:388,1,100,4|8,3:2|3:3,0:0:0:0:
207,214,14647,2,0,P|180:175|125:153,1,100,6|8,3:3|3:3,0:0:0:0:
209,355,14897,2,0,P|255:351|302:314,1,100,6|8,3:3|3:3,0:0:0:0:
284,164,15147,1,6,3:3:0:0:
284,164,15209,1,4,3:3:0:0:
284,164,15272,1,8,3:3:0:0:
130,277,15397,6,0,L|239:284,1,100,6|8,3:3|3:3,0:0:0:0:
329,253,15647,1,6,3:3:0:0:
329,253,15709,1,4,3:3:0:0:
329,253,15772,1,8,3:3:0:0:
234,79,15897,2,0,L|178:162,1,100,6|8,3:3|3:3,0:0:0:0:
381,168,16147,1,6,3:3:0:0:
381,168,16209,1,4,3:3:0:0:
381,168,16272,1,8,3:3:0:0:
240,14,16397,6,0,L|233:89,1,64.9999970245363,2|0,3:3|0:0,0:0:0:0:
289,172,16522,1,8,3:3:0:0:
439,1,16647,54,0,L|446:83,1,64.9999970245363,2|0,3:3|0:0,0:0:0:0:
385,174,16772,1,4,3:3:0:0:
224,0,16897,6,0,L|215:89,1,64.9999970245363,2|0,3:1|0:0,0:0:0:0:
282,186,17022,1,4,3:3:0:0:
446,0,17147,6,0,L|454:94,1,64.9999970245363,2|0,3:1|0:0,0:0:0:0:
383,199,17272,1,8,3:3:0:0:
219,9,17397,54,0,L|85:25,1,115.000002193451,4|0,3:2|0:0,0:0:0:0:
62,155,17647,5,8,3:3:0:0:
107,149,17709,1,8,3:3:0:0:
153,144,17772,1,0,3:3:0:0:
198,138,17834,1,0,3:3:0:0:
244,133,17897,2,0,B|283:112|325:129|325:129|344:119|344:119|387:135|426:115,1,172.500003290176,4|0,3:2|0:0,0:0:0:0:
433,103,18147,5,8,3:3:0:0:
431,152,18209,1,8,3:3:0:0:
429,201,18272,1,8,3:3:0:0:
427,250,18334,1,8,3:3:0:0:
425,299,18397,54,0,P|385:323|312:324,1,115.000002193451,4|8,3:2|3:3,0:0:0:0:
244,133,18647,2,0,P|284:155|322:218,1,115.000002193451,6|0,3:3|3:3,0:0:0:0:
191,373,18897,2,0,P|190:326|225:262,1,115.000002193451,6|8,3:3|3:3,0:0:0:0:
325,333,19147,1,6,3:3:0:0:
325,333,19209,1,4,3:3:0:0:
325,333,19272,1,8,3:3:0:0:
105,274,19397,6,0,L|228:266,1,115.000002193451,6|8,3:3|3:3,0:0:0:0:
328,220,19647,1,6,3:3:0:0:
328,220,19709,1,4,3:3:0:0:
328,220,19772,1,8,3:3:0:0:
241,157,19897,2,0,L|118:165,1,115.000002193451,6|8,3:3|3:3,0:0:0:0:
113,282,20147,1,6,3:3:0:0:
113,282,20209,1,4,3:3:0:0:
113,282,20272,1,8,3:3:0:0:
318,333,20397,6,0,P|330:272|327:214,1,115.000002193451,6|8,3:3|3:3,0:0:0:0:
182,91,20647,2,0,P|170:152|173:210,1,115.000002193451,6|8,3:3|3:3,0:0:0:0:
371,144,20897,2,0,P|310:132|252:135,1,115.000002193451,6|8,3:3|3:3,0:0:0:0:
256,269,21147,1,6,3:3:0:0:
256,269,21209,1,4,3:3:0:0:
256,269,21272,1,8,3:3:0:0:
357,59,21397,53,4,3:2:0:0:
309,43,21459,1,4,3:3:0:0:
259,53,21522,1,8,3:3:0:0:
221,86,21584,1,4,3:3:0:0:
204,134,21647,1,4,3:2:0:0:
214,183,21709,1,4,3:3:0:0:
247,221,21772,1,8,3:3:0:0:
295,238,21834,1,4,3:3:0:0:
345,229,21897,5,4,3:2:0:0:
349,178,21959,1,4,3:3:0:0:
319,136,22022,1,8,3:3:0:0:
269,123,22084,1,4,3:3:0:0:
222,145,22147,1,4,3:2:0:0:
175,167,22209,1,4,3:3:0:0:
125,154,22272,1,8,3:3:0:0:
95,112,22334,1,4,3:3:0:0:
99,61,22397,6,0,P|154:33|218:40,1,115.000002193451,4|8,3:2|3:3,0:0:0:0:
203,235,22647,2,0,P|175:180|182:116,1,115.000002193451,6|8,3:3|3:3,0:0:0:0:
377,131,22897,2,0,P|322:159|258:152,1,115.000002193451,6|8,3:3|3:3,0:0:0:0:
310,51,23147,1,6,3:3:0:0:
310,51,23209,1,4,3:3:0:0:
310,51,23272,1,8,3:3:0:0:
377,131,23397,54,0,L|368:251,1,115.000002193451,6|8,3:3|3:3,0:0:0:0:
287,321,23647,1,6,3:3:0:0:
287,321,23709,1,4,3:3:0:0:
287,321,23772,1,8,3:3:0:0:
260,147,23897,2,0,L|380:138,1,115.000002193451,6|8,3:3|3:3,0:0:0:0:
462,208,24147,1,6,3:3:0:0:
462,208,24209,1,4,3:3:0:0:
462,208,24272,1,8,3:3:0:0:
279,314,24397,6,0,L|270:250,1,57.5000010967255,4|0,3:2|0:0,0:0:0:0:
252,113,24522,1,12,3:3:0:0:
371,239,24647,1,4,3:3:0:0:
203,280,24772,6,0,L|244:214,1,57.5000010967255,4|0,3:2|0:0,0:0:0:0:
332,73,24897,1,0,3:3:0:0:
344,281,25022,1,4,3:3:0:0:
167,107,25147,54,0,L|239:112,1,57.5000010967255,4|0,3:2|0:0,0:0:0:0:
178,282,25272,2,0,L|120:285,1,57.5000010967255,4|0,3:3|0:0,0:0:0:0:
0,193,25397,2,0,B|109:171|73:218|177:193,1,172.500003290176,4|0,3:2|0:0,0:0:0:0:
191,190,25647,1,2,3:1:0:0:
233,193,25709,1,2,3:1:0:0:
275,196,25772,1,2,3:1:0:0:
317,199,25834,1,2,3:1:0:0:
359,202,25897,2,0,B|394:182|432:206|432:206|443:191|443:191|479:213|516:194,1,172.500003290176,4|0,3:2|0:0,0:0:0:0:
509,184,26147,5,8,3:3:0:0:
501,136,26209,1,8,3:3:0:0:
493,88,26272,1,8,3:3:0:0:
485,40,26334,1,8,3:3:0:0:
477,0,26397,5,4,3:2:0:0:
340,53,26522,1,4,3:2:0:0:
450,149,26647,1,2,3:3:0:0:
403,11,26772,2,0,L|279:26,1,115.000002193451,8|2,3:3|3:3,0:0:0:0:
114,85,27022,2,0,L|238:100,1,115.000002193451,8|2,3:3|3:3,0:0:0:0:
338,192,27272,1,8,3:3:0:0:
166,287,27397,54,0,L|163:165,1,115.000002193451,2|8,3:3|3:3,0:0:0:0:
269,252,27647,1,2,3:3:0:0:
269,252,27709,1,4,3:3:0:0:
269,252,27772,1,8,3:3:0:0:
166,287,27897,2,0,L|44:290,1,115.000002193451,2|8,3:3|3:3,0:0:0:0:
23,183,28147,1,2,3:3:0:0:
23,183,28209,1,4,3:3:0:0:
23,183,28272,1,8,3:3:0:0:
155,95,28397,5,6,3:2:0:0:
166,287,28522,1,8,3:3:0:0:
61,127,28647,1,2,3:3:0:0:
253,117,28772,2,0,L|374:123,1,115.000002193451,8|2,3:3|3:3,0:0:0:0:
496,202,29022,2,0,L|375:208,1,115.000002193451,8|2,3:3|3:3,0:0:0:0:
401,47,29272,1,8,3:3:0:0:
496,202,29397,6,0,L|481:328,1,115.000002193451,2|8,3:3|3:3,0:0:0:0:
395,352,29647,1,2,3:3:0:0:
375,355,29709,1,4,3:3:0:0:
355,358,29772,1,8,3:3:0:0:
289,281,29897,2,0,L|304:155,1,115.000002193451,2|8,3:3|3:3,0:0:0:0:
405,80,30147,1,2,3:3:0:0:
422,81,30209,1,4,3:3:0:0:
439,82,30272,1,8,3:3:0:0:
496,202,30397,53,6,3:2:0:0:
327,261,30522,1,8,3:3:0:0:
361,86,30647,1,2,3:3:0:0:
420,255,30772,2,0,L|292:246,1,115.000002193451,8|2,3:3|3:3,0:0:0:0:
101,191,31022,2,0,L|229:182,1,115.000002193451,8|2,3:3|3:3,0:0:0:0:
191,319,31272,1,8,3:3:0:0:
58,94,31397,6,0,L|186:103,1,115.000002193451,2|8,3:3|3:3,0:0:0:0:
113,217,31647,1,2,3:3:0:0:
113,217,31709,1,0,0:0:0:0:
113,217,31772,1,8,3:3:0:0:
113,217,31834,1,8,3:3:0:0:
113,217,31897,5,12,3:3:0:0:
142,242,31959,1,4,3:3:0:0:
179,249,32022,1,4,3:3:0:0:
215,236,32084,1,4,3:3:0:0:
239,207,32147,2,0,L|237:139,1,57.5000010967255,6|4,3:2|3:3,0:0:0:0:
110,76,32272,2,0,L|112:144,1,57.5000010967255,4|4,3:3|3:3,0:0:0:0:
214,27,32397,53,4,3:3:0:0:
204,48,32459,1,8,3:3:0:0:
205,71,32522,1,8,3:3:0:0:
218,90,32584,1,8,3:3:0:0:
238,100,32647,1,8,3:3:0:0:
251,119,32709,1,4,3:3:0:0:
252,142,32772,1,4,3:3:0:0:
242,163,32834,1,0,3:3:0:0:
222,176,32897,6,0,L|155:164,3,57.5000010967255,0|0|0|0,3:3|3:3|3:3|3:3,0:0:0:0:
92,249,33147,2,0,L|159:237,3,57.5000010967255,8|8|4|0,3:3|3:3|3:3|0:0,0:0:0:0:
24,205,33397,1,4,3:3:0:0:
7,232,33459,1,4,3:3:0:0:
5,263,33522,1,0,3:3:0:0:
19,291,33584,1,0,3:3:0:0:
45,308,33647,5,0,3:3:0:0:
76,309,33709,1,0,3:3:0:0:
104,295,33772,1,4,3:3:0:0:
135,296,33834,1,4,3:3:0:0:
161,312,33897,1,6,3:2:0:0:
272,249,34022,1,4,3:3:0:0:
272,249,34084,1,4,3:3:0:0:
272,249,34147,1,6,3:2:0:0:
378,318,34272,1,4,3:3:0:0:
378,318,34334,1,4,3:3:0:0:
378,318,34397,53,4,3:3:0:0:
288,171,34522,1,6,3:3:0:0:
206,323,34647,1,4,3:3:0:0:
354,233,34772,2,0,L|309:122,1,115.000002193451,6|4,3:3|3:3,0:0:0:0:
139,74,35022,2,0,L|184:185,1,115.000002193451,6|4,3:3|3:3,0:0:0:0:
260,13,35272,1,6,3:3:0:0:
55,15,35397,6,0,L|49:146,1,115.000002193451,4|6,3:3|3:3,0:0:0:0:
101,209,35647,1,4,3:3:0:0:
101,209,35709,1,4,3:3:0:0:
101,209,35772,1,6,3:3:0:0:
187,178,35897,2,0,L|318:184,1,115.000002193451,4|6,3:3|3:3,0:0:0:0:
378,253,36147,1,4,3:3:0:0:
378,253,36209,1,4,3:3:0:0:
378,253,36272,1,6,3:3:0:0:
320,66,36397,5,6,3:2:0:0:
187,178,36522,1,6,3:3:0:0:
359,148,36647,1,4,3:3:0:0:
196,88,36772,2,0,L|77:113,1,115.000002193451,6|4,3:3|3:3,0:0:0:0:
210,290,37022,2,0,L|185:171,1,115.000002193451,6|4,3:3|3:3,0:0:0:0:
93,264,37272,1,6,3:3:0:0:
210,290,37397,54,0,L|332:297,1,115.000002193451,4|6,3:3|3:3,0:0:0:0:
410,359,37647,1,4,3:3:0:0:
434,361,37709,1,4,3:3:0:0:
458,364,37772,1,6,3:3:0:0:
506,269,37897,2,0,L|513:147,1,115.000002193451,4|6,3:3|3:3,0:0:0:0:
416,88,38147,1,4,3:3:0:0:
389,90,38209,1,4,3:3:0:0:
362,92,38272,1,6,3:3:0:0:
285,202,38397,5,6,3:2:0:0:
449,258,38522,1,6,3:3:0:0:
416,88,38647,1,4,3:3:0:0:
360,252,38772,2,0,L|474:242,1,115.000002193451,6|4,3:3|3:3,0:0:0:0:
281,88,39022,2,0,L|291:202,1,115.000002193451,6|4,3:3|3:3,0:0:0:0:
341,17,39272,1,6,3:3:0:0:
193,22,39397,6,0,L|61:17,1,115.000002193451,4|6,3:3|3:3,0:0:0:0:
17,99,39647,1,4,3:3:0:0:
17,99,39709,1,4,3:3:0:0:
17,99,39772,1,6,3:3:0:0:
17,99,39834,1,0,0:0:0:0:
17,99,39897,53,12,3:3:0:0:
52,127,39959,1,4,3:3:0:0:
96,133,40022,1,6,3:3:0:0:
137,116,40084,1,0,3:3:0:0:
164,81,40147,1,4,3:2:0:0:
191,46,40209,1,0,0:0:0:0:
232,29,40272,1,6,3:3:0:0:
276,35,40334,1,0,0:0:0:0:
311,63,40397,5,12,3:3:0:0:
272,228,40522,1,8,3:3:0:0:
196,77,40647,1,8,3:3:0:0:
352,144,40772,1,0,3:3:0:0:
324,146,40834,1,0,0:0:0:0:
296,148,40897,1,4,3:3:0:0:
268,150,40959,1,4,3:3:0:0:
240,152,41022,2,0,L|161:159,1,57.5000010967255,8|0,3:3|3:3,0:0:0:0:
88,184,41147,5,4,3:3:0:0:
67,221,41209,1,4,3:3:0:0:
67,263,41272,1,4,3:3:0:0:
88,299,41334,1,4,3:3:0:0:
124,320,41397,2,0,L|195:324,1,57.5000010967255,12|0,3:3|0:0,0:0:0:0:
246,232,41522,2,0,L|175:236,1,57.5000010967255,12|0,3:3|0:0,0:0:0:0:
277,319,41647,1,4,3:3:0:0:
319,337,41709,1,4,3:3:0:0:
362,323,41772,2,0,L|389:270,1,57.5000010967255,12|12,3:3|3:3,0:0:0:0:
415,166,41897,53,4,3:3:0:0:
385,122,41959,1,4,3:3:0:0:
337,98,42022,1,4,3:3:0:0:
283,101,42084,1,4,3:3:0:0:
239,131,42147,1,6,3:2:0:0:
195,161,42209,1,0,0:0:0:0:
141,164,42272,1,0,0:0:0:0:
93,140,42334,1,0,0:0:0:0:
63,96,42397,6,0,B|142:80|142:80|167:86|167:86|231:72,1,172.500003290176,4|0,3:3|0:0,0:0:0:0:
254,56,42647,5,2,3:1:0:0:
304,46,42709,1,2,3:1:0:0:
352,62,42772,1,2,3:1:0:0:
385,100,42834,1,2,3:1:0:0:
395,149,42897,53,2,3:1:0:0:
360,169,42959,1,0,0:0:0:0:
319,168,43022,1,4,3:3:0:0:
284,147,43084,1,4,3:3:0:0:
249,126,43147,1,8,3:3:0:0:
208,125,43209,1,8,3:3:0:0:
173,145,43272,1,12,3:3:0:0:
151,180,43334,1,12,3:3:0:0:
151,220,43397,5,4,3:2:0:0:
195,245,43459,1,4,3:3:0:0:
245,244,43522,1,4,3:3:0:0:
288,218,43584,1,4,3:3:0:0:
312,174,43647,1,12,3:3:0:0:
311,123,43709,1,12,3:3:0:0:
285,80,43772,1,4,3:3:0:0:
241,56,43834,1,4,3:3:0:0:
191,57,43897,5,8,3:3:0:0:
174,104,43959,1,0,0:0:0:0:
182,153,44022,1,4,3:3:0:0:
214,191,44084,1,4,3:3:0:0:
260,208,44147,1,6,3:2:0:0:
306,225,44209,1,0,0:0:0:0:
338,263,44272,1,0,0:0:0:0:
346,312,44334,1,0,0:0:0:0:
329,359,44397,54,0,L|230:352,1,89.9999972534181,6|0,3:2|3:3,0:0:0:0:
78,304,44647,2,0,L|177:297,1,89.9999972534181,2|0,3:3|3:3,0:0:0:0:
232,236,44897,1,8,3:3:0:0:
142,167,45022,1,8,3:3:0:0:
142,167,45084,1,8,3:3:0:0:
142,167,45147,1,12,3:3:0:0:
78,304,45272,1,4,3:3:0:0:
232,236,45397,6,0,L|239:137,1,89.9999972534181,4|4,3:3|3:3,0:0:0:0:
313,27,45647,2,0,L|320:126,1,89.9999972534181,4|4,3:3|3:3,0:0:0:0:
386,177,45897,1,6,3:2:0:0:
466,68,46022,1,4,3:3:0:0:
466,68,46084,1,0,0:0:0:0:
466,68,46147,1,4,3:3:0:0:
313,27,46272,1,4,3:3:0:0:
225,146,46397,6,0,L|232:247,1,89.9999972534181,6|0,3:2|3:3,0:0:0:0:
156,347,46647,2,0,L|163:246,1,89.9999972534181,2|0,3:3|3:3,0:0:0:0:
240,351,46897,1,8,3:3:0:0:
80,287,47022,1,8,3:3:0:0:
80,287,47084,1,8,3:3:0:0:
80,287,47147,1,12,3:3:0:0:
246,226,47272,1,4,3:3:0:0:
156,347,47397,53,4,3:3:0:0:
125,161,47522,1,4,3:3:0:0:
295,293,47647,1,4,3:3:0:0:
43,202,47772,1,4,3:3:0:0:
279,104,47897,6,0,L|276:154,1,44.999998626709,2|0,3:3|0:0,0:0:0:0:
167,274,48022,2,0,L|164:224,1,44.999998626709,4|4,3:3|3:3,0:0:0:0:
32,79,48147,2,0,B|119:72|119:72|132:78|132:78|216:71,1,179.999994506836,0|4,3:3|3:3,0:0:0:0:
221,51,48397,5,2,3:3:0:0:
430,40,48522,1,12,3:3:0:0:
276,0,48647,53,2,3:3:0:0:
395,183,48772,1,12,3:3:0:0:
368,0,48897,5,2,3:3:0:0:
264,203,49022,1,12,3:3:0:0:
276,0,49147,5,2,3:3:0:0:
406,201,49272,1,12,3:3:0:0:
135,67,49397,1,6,3:1:0:0:
135,67,50397,6,0,B|124:163|161:128|158:218,1,139.999995727539,6|4,3:2|3:3,0:0:0:0:
115,303,50647,1,12,3:3:0:0:
115,303,50709,1,0,0:0:0:0:
115,303,50772,1,4,3:3:0:0:
31,126,50897,1,12,3:3:0:0:
240,142,51022,1,4,3:3:0:0:
52,233,51147,1,12,3:3:0:0:
68,25,51272,1,4,3:3:0:0:
182,211,51397,6,0,B|243:224|243:224|266:217|266:217|331:233,1,139.999995727539,12|4,3:3|3:3,0:0:0:0:
377,311,51647,1,12,3:3:0:0:
377,311,51709,1,0,0:0:0:0:
377,311,51772,1,4,3:3:0:0:
217,311,51897,1,12,3:3:0:0:
321,147,52022,1,4,3:3:0:0:
294,361,52147,1,12,3:3:0:0:
398,197,52272,1,4,3:3:0:0:
182,211,52397,6,0,B|92:195|124:237|34:219,1,139.999995727539,6|4,3:2|3:3,0:0:0:0:
167,97,52647,1,12,3:3:0:0:
143,288,52772,1,4,3:3:0:0:
72,114,52897,1,12,3:3:0:0:
244,211,53022,1,4,3:3:0:0:
244,211,53084,1,4,3:3:0:0:
244,211,53147,1,12,3:3:0:0:
26,255,53272,1,4,3:3:0:0:
167,97,53397,54,0,B|230:87|230:87|261:92|261:92|319:83,1,139.999995727539,12|4,3:3|3:3,0:0:0:0:
206,0,53647,1,12,3:3:0:0:
241,208,53772,1,4,3:3:0:0:
404,74,53897,1,12,3:3:0:0:
175,104,54022,1,4,3:3:0:0:
175,104,54084,1,4,3:3:0:0:
175,104,54147,1,12,3:3:0:0:
354,191,54272,1,4,3:3:0:0:
284,37,54397,6,0,B|191:41|226:8|130:13,1,139.999995727539,6|4,3:2|3:3,0:0:0:0:
72,89,54647,1,12,3:3:0:0:
215,209,54772,1,4,3:3:0:0:
215,209,54834,1,4,3:3:0:0:
215,209,54897,1,12,3:3:0:0:
284,37,55022,1,4,3:3:0:0:
142,140,55147,1,12,3:3:0:0:
313,123,55272,1,4,3:3:0:0:
72,89,55397,6,0,B|66:148|66:148|71:174|71:174|64:245,1,139.999995727539,12|4,3:3|3:3,0:0:0:0:
0,353,55647,1,12,3:3:0:0:
178,285,55772,1,4,3:3:0:0:
178,285,55834,1,4,3:3:0:0:
178,285,55897,1,12,3:3:0:0:
0,214,56022,1,4,3:3:0:0:
119,365,56147,1,12,3:3:0:0:
125,173,56272,1,4,3:3:0:0:
0,284,56397,53,8,3:3:0:0:
36,306,56459,1,8,3:3:0:0:
77,314,56522,1,4,3:3:0:0:
118,307,56584,1,4,3:3:0:0:
155,287,56647,1,8,3:3:0:0:
192,267,56709,1,8,3:3:0:0:
233,260,56772,1,12,3:3:0:0:
274,268,56834,1,12,3:3:0:0:
310,290,56897,5,4,3:3:0:0:
346,312,56959,1,4,3:3:0:0:
387,320,57022,1,4,3:3:0:0:
428,313,57084,1,0,0:0:0:0:
465,293,57147,2,0,L|501:229,1,69.9999978637696,8|0,3:3|3:3,0:0:0:0:
409,124,57272,2,0,L|403:197,1,69.9999978637696,4|0,3:3|3:3,0:0:0:0:
342,293,57397,5,6,3:2:0:0:
303,322,57459,1,0,0:0:0:0:
254,327,57522,1,0,3:3:0:0:
209,307,57584,1,0,3:3:0:0:
180,267,57647,1,12,3:3:0:0:
174,218,57709,1,8,3:3:0:0:
194,173,57772,1,8,3:3:0:0:
234,144,57834,1,4,3:3:0:0:
283,139,57897,53,6,3:2:0:0:
328,159,57959,1,4,3:3:0:0:
373,179,58022,1,4,3:3:0:0:
422,174,58084,1,4,3:3:0:0:
462,145,58147,2,0,L|468:66,1,69.9999978637696,8|8,3:3|3:3,0:0:0:0:
373,6,58272,2,0,L|379:85,1,69.9999978637696,8|8,3:3|3:3,0:0:0:0:
290,124,58397,5,6,3:2:0:0:
285,174,58459,1,4,3:3:0:0:
305,219,58522,1,4,3:3:0:0:
325,264,58584,1,4,3:3:0:0:
320,314,58647,1,12,3:3:0:0:
291,353,58709,1,4,3:3:0:0:
245,374,58772,1,4,3:3:0:0:
196,368,58834,1,4,3:3:0:0:
155,339,58897,5,12,3:3:0:0:
135,294,58959,1,4,3:3:0:0:
141,243,59022,1,4,3:3:0:0:
170,204,59084,1,4,3:3:0:0:
215,183,59147,1,12,3:3:0:0:
260,162,59209,1,4,3:3:0:0:
289,123,59272,1,4,3:3:0:0:
295,72,59334,1,4,3:3:0:0:
274,24,59397,53,12,3:3:0:0:
226,45,59459,1,4,3:3:0:0:
194,87,59522,1,4,3:3:0:0:
188,139,59584,1,4,3:3:0:0:
208,187,59647,1,12,3:3:0:0:
228,235,59709,1,4,3:3:0:0:
222,287,59772,1,4,3:3:0:0:
190,329,59834,1,4,3:3:0:0:
142,350,59897,5,12,3:3:0:0:
89,343,59959,1,4,3:3:0:0:
47,312,60022,1,4,3:3:0:0:
27,263,60084,1,4,3:3:0:0:
33,210,60147,2,0,L|63:135,3,69.9999978637696,12|4|4|4,3:3|3:3|3:3|3:3,0:0:0:0:
207,186,60397,5,6,3:2:0:0:
249,218,60459,1,4,3:3:0:0:
301,225,60522,1,4,3:3:0:0:
349,204,60584,1,4,3:3:0:0:
381,161,60647,1,12,3:3:0:0:
387,108,60709,1,4,3:3:0:0:
367,60,60772,1,4,3:3:0:0:
325,29,60834,1,4,3:3:0:0:
272,22,60897,53,12,3:3:0:0:
223,43,60959,1,4,3:3:0:0:
191,84,61022,1,4,3:3:0:0:
185,136,61084,1,4,3:3:0:0:
206,185,61147,1,12,3:3:0:0:
227,234,61209,1,4,3:3:0:0:
221,286,61272,1,4,3:3:0:0:
189,327,61334,1,4,3:3:0:0:
140,348,61397,5,12,3:3:0:0:
97,316,61459,1,4,3:3:0:0:
75,266,61522,1,4,3:3:0:0:
81,212,61584,1,4,3:3:0:0:
113,168,61647,1,12,3:3:0:0:
162,146,61709,1,4,3:3:0:0:
216,152,61772,1,4,3:3:0:0:
260,184,61834,1,4,3:3:0:0:
282,234,61897,5,12,3:3:0:0:
304,284,61959,1,4,3:3:0:0:
348,316,62022,1,4,3:3:0:0:
402,322,62084,1,4,3:3:0:0:
451,300,62147,2,0,L|475:218,3,69.9999978637696,12|4|4|4,3:3|3:3|3:3|3:3,0:0:0:0:
423,121,62397,53,6,3:2:0:0:
373,143,62459,1,4,3:3:0:0:
340,187,62522,1,4,3:3:0:0:
334,241,62584,1,4,3:3:0:0:
328,295,62647,1,12,3:3:0:0:
295,339,62709,1,4,3:3:0:0:
245,361,62772,1,4,3:3:0:0:
191,355,62834,1,4,3:3:0:0:
147,322,62897,5,12,3:3:0:0:
125,272,62959,1,4,3:3:0:0:
131,218,63022,1,4,3:3:0:0:
164,174,63084,1,4,3:3:0:0:
214,152,63147,1,12,3:3:0:0:
268,158,63209,1,4,3:3:0:0:
312,191,63272,1,4,3:3:0:0:
334,241,63334,1,4,3:3:0:0:
328,295,63397,5,12,3:3:0:0:
278,316,63459,1,4,3:3:0:0:
224,309,63522,1,4,3:3:0:0:
180,276,63584,1,4,3:3:0:0:
159,225,63647,1,12,3:3:0:0:
165,171,63709,1,4,3:3:0:0:
198,127,63772,1,4,3:3:0:0:
249,106,63834,1,4,3:3:0:0:
304,113,63897,53,12,3:3:0:0:
343,142,63959,1,4,3:3:0:0:
362,186,64022,1,4,3:3:0:0:
379,225,64084,1,4,3:3:0:0:
414,251,64147,1,12,3:3:0:0:
451,254,64209,1,4,3:3:0:0:
487,239,64272,1,4,3:3:0:0:
503,214,64334,1,4,3:3:0:0:
507,183,64397,5,0,3:3:0:0:
435,43,64522,2,0,L|361:32,2,69.9999978637696,8|8|0,3:3|3:3|3:3,0:0:0:0:
435,181,64772,1,4,3:3:0:0:
503,92,64897,1,4,3:3:0:0:
304,113,65022,1,4,3:3:0:0:
509,167,65147,1,4,3:3:0:0:
358,25,65272,1,0,3:3:0:0:
359,199,65397,6,0,B|360:241|377:286|377:286|321:205|239:209|156:326|296:366|301:307,1,359.999989013672,6|0,3:2|0:0,0:0:0:0:
267,164,65897,2,0,B|222:169|181:211|181:211|145:177|145:177|66:236|7:168|7:168|35:149|67:145,1,359.999989013672,6|0,3:2|0:0,0:0:0:0:
257,255,66397,6,0,P|244:322|205:364,1,119.999996337891,6|14,3:2|3:3,0:0:0:0:
198,187,66647,2,0,P|262:164|318:177,1,115.000002193451,4|14,3:3|3:3,0:0:0:0:
168,272,66897,2,0,P|116:227|99:172,1,115.000002193451,4|14,3:3|3:3,0:0:0:0:
264,262,67147,1,4,3:3:0:0:
264,262,67209,1,4,3:3:0:0:
264,262,67272,1,14,3:3:0:0:
198,187,67397,6,0,L|190:66,1,115.000002193451,4|14,3:3|3:3,0:0:0:0:
288,43,67647,1,4,3:3:0:0:
288,43,67709,1,4,3:3:0:0:
288,43,67772,1,14,3:3:0:0:
383,116,67897,2,0,L|262:124,1,115.000002193451,4|14,3:3|3:3,0:0:0:0:
205,195,68147,1,4,3:3:0:0:
205,195,68209,1,4,3:3:0:0:
205,195,68272,1,14,3:3:0:0:
123,140,68397,6,0,P|54:129|6:148,1,115.000002193451,4|14,3:3|3:3,0:0:0:0:
168,238,68647,2,0,P|212:183|219:132,1,115.000002193451,4|14,3:3|3:3,0:0:0:0:
60,227,68897,2,0,P|85:292|126:324,1,115.000002193451,4|14,3:3|3:3,0:0:0:0:
130,147,69147,1,4,3:3:0:0:
130,147,69209,1,4,3:3:0:0:
130,147,69272,1,14,3:3:0:0:
78,74,69397,53,6,3:2:0:0:
118,58,69459,1,4,3:3:0:0:
160,64,69522,1,12,3:3:0:0:
193,90,69584,1,4,3:3:0:0:
209,130,69647,1,0,3:3:0:0:
242,156,69709,1,4,3:3:0:0:
284,162,69772,1,12,3:3:0:0:
324,146,69834,1,4,3:3:0:0:
350,112,69897,5,6,3:2:0:0:
304,107,69959,1,4,3:3:0:0:
261,125,70022,1,12,3:3:0:0:
233,162,70084,1,4,3:3:0:0:
227,208,70147,1,0,3:3:0:0:
245,250,70209,1,4,3:3:0:0:
282,278,70272,1,12,3:3:0:0:
328,284,70334,1,4,3:3:0:0:
371,266,70397,6,0,P|406:208|394:145,1,115.000002193451,6|14,3:2|3:3,0:0:0:0:
250,111,70647,2,0,P|282:170|343:191,1,115.000002193451,4|14,3:3|3:3,0:0:0:0:
444,83,70897,2,0,P|376:81|327:123,1,115.000002193451,4|14,3:3|3:3,0:0:0:0:
489,163,71147,1,4,3:3:0:0:
489,163,71209,1,4,3:3:0:0:
489,163,71272,1,14,3:3:0:0:
451,240,71397,54,0,L|326:233,1,115.000002193451,4|14,3:3|3:3,0:0:0:0:
274,161,71647,1,4,3:3:0:0:
274,161,71709,1,4,3:3:0:0:
274,161,71772,1,14,3:3:0:0:
358,33,71897,2,0,L|351:158,1,115.000002193451,4|14,3:3|3:3,0:0:0:0:
388,244,72147,1,4,3:3:0:0:
388,244,72209,1,4,3:3:0:0:
388,244,72272,1,14,3:3:0:0:
475,175,72397,6,0,L|414:162,1,57.5000010967255,6|0,3:2|0:0,0:0:0:0:
207,209,72522,1,4,3:3:0:0:
465,322,72647,6,0,L|401:335,1,57.5000010967255,6|0,3:2|3:3,0:0:0:0:
183,286,72772,1,0,3:3:0:0:
481,163,72897,54,0,L|413:148,1,57.5000010967255,6|0,3:2|0:0,0:0:0:0:
185,200,73022,1,4,3:3:0:0:
479,340,73147,6,0,L|408:355,1,57.5000010967255,6|0,3:2|0:0,0:0:0:0:
168,301,73272,1,4,3:3:0:0:
489,150,73397,6,0,B|450:135|412:146|412:146|395:134|395:134|352:156|304:128,1,172.500003290176,4|0,3:2|0:0,0:0:0:0:
292,112,73647,1,8,3:3:0:0:
246,104,73709,1,8,3:3:0:0:
202,120,73772,1,8,3:3:0:0:
172,155,73834,1,8,3:3:0:0:
163,201,73897,2,0,B|161:264|161:264|177:298|177:298|177:371,1,172.500003290176,6|0,3:3|0:0,0:0:0:0:
205,384,74147,53,8,3:3:0:0:
257,376,74209,1,8,3:3:0:0:
309,368,74272,1,8,3:3:0:0:
361,360,74334,1,8,3:3:0:0:
413,352,74397,1,4,3:2:0:0:
413,352,75397,5,6,3:2:0:0:
430,145,75522,1,12,3:3:0:0:
264,299,75647,5,6,3:2:0:0:
470,280,75772,1,4,3:3:0:0:
278,111,75897,53,6,3:2:0:0:
337,329,76022,1,12,3:3:0:0:
367,83,76147,1,6,3:2:0:0:
367,83,76209,1,4,3:3:0:0:
367,83,76272,1,4,3:3:0:0:
193,77,76397,6,0,P|196:143|231:180,1,115.000002193451,6|14,3:2|3:3,0:0:0:0:
382,131,76647,2,0,P|323:100|273:112,1,115.000002193451,4|14,3:3|3:3,0:0:0:0:
241,262,76897,2,0,P|296:226|311:177,1,115.000002193451,4|14,3:3|3:3,0:0:0:0:
168,238,77147,1,4,3:3:0:0:
168,238,77209,1,4,3:3:0:0:
168,238,77272,1,14,3:3:0:0:
189,331,77397,5,6,3:2:0:0:
227,349,77459,1,0,3:3:0:0:
268,345,77522,1,12,3:3:0:0:
302,321,77584,1,0,3:3:0:0:
319,283,77647,1,4,3:2:0:0:
315,241,77709,1,0,3:3:0:0:
291,207,77772,1,12,3:3:0:0:
253,190,77834,1,0,3:3:0:0:
215,173,77897,53,6,3:2:0:0:
191,139,77959,1,0,3:3:0:0:
187,97,78022,1,12,3:3:0:0:
204,59,78084,1,0,3:3:0:0:
238,35,78147,1,4,3:2:0:0:
279,30,78209,1,0,3:3:0:0:
317,48,78272,1,12,3:3:0:0:
341,82,78334,1,0,3:3:0:0:
345,123,78397,6,0,P|325:180|273:213,1,115.000002193451,6|14,3:2|3:3,0:0:0:0:
151,107,78647,2,0,P|210:95|264:124,1,115.000002193451,4|14,3:3|3:3,0:0:0:0:
235,284,78897,2,0,P|195:238|193:176,1,115.000002193451,4|14,3:3|3:3,0:0:0:0:
353,131,79147,1,4,3:3:0:0:
353,131,79209,1,4,3:3:0:0:
353,131,79272,1,14,3:3:0:0:
396,204,79397,6,0,L|373:331,1,115.000002193451,4|14,3:3|3:3,0:0:0:0:
295,354,79647,1,4,3:3:0:0:
295,354,79709,1,4,3:3:0:0:
295,354,79772,1,14,3:3:0:0:
235,284,79897,2,0,L|108:261,1,115.000002193451,4|14,3:3|3:3,0:0:0:0:
80,177,80147,1,4,3:3:0:0:
87,151,80209,1,4,3:3:0:0:
94,125,80272,1,14,3:3:0:0:
211,29,80397,54,0,L|222:88,1,57.5000010967255,4|0,3:2|0:0,0:0:0:0:
250,258,80522,1,0,3:3:0:0:
89,175,80647,1,4,3:3:0:0:
340,20,80772,6,0,L|318:82,1,57.5000010967255,6|0,3:2|0:0,0:0:0:0:
250,258,80897,1,0,3:3:0:0:
143,91,81022,1,0,3:3:0:0:
416,153,81147,6,0,L|349:144,1,57.5000010967255,6|0,3:2|0:0,0:0:0:0:
211,29,81272,2,0,L|278:38,1,57.5000010967255,0|0,3:3|0:0,0:0:0:0:
380,224,81397,2,0,B|265:219|315:170|210:167,1,172.500003290176,6|0,3:2|0:0,0:0:0:0:
181,171,81647,53,2,3:1:0:0:
145,198,81709,1,2,3:1:0:0:
127,239,81772,1,2,3:1:0:0:
132,283,81834,1,2,3:1:0:0:
158,319,81897,2,0,B|199:342|235:324|235:324|257:340|257:340|285:315|330:329,1,172.500003290176,4|0,3:3|0:0,0:0:0:0:
363,333,82147,5,8,3:3:0:0:
370,287,82209,1,8,3:3:0:0:
377,241,82272,1,8,3:3:0:0:
384,195,82334,1,8,3:3:0:0:
391,149,82397,5,6,3:2:0:0:
257,65,82522,1,12,3:3:0:0:
252,224,82647,1,4,3:3:0:0:
336,89,82772,2,0,L|212:71,1,115.000002193451,14|4,3:3|3:3,0:0:0:0:
67,168,83022,2,0,L|191:150,1,115.000002193451,14|4,3:3|3:3,0:0:0:0:
252,224,83272,1,14,3:3:0:0:
178,288,83397,54,0,L|64:271,1,115.000002193451,4|14,3:3|3:3,0:0:0:0:
75,175,83647,1,4,3:3:0:0:
75,175,83709,1,4,3:3:0:0:
75,175,83772,1,14,3:3:0:0:
143,113,83897,2,0,L|256:129,1,115.000002193451,4|14,3:3|3:3,0:0:0:0:
337,197,84147,1,4,3:3:0:0:
337,197,84209,1,4,3:3:0:0:
337,197,84272,1,14,3:3:0:0:
152,205,84397,5,6,3:2:0:0:
288,69,84522,1,14,3:3:0:0:
239,255,84647,1,4,3:3:0:0:
103,120,84772,2,0,L|217:97,1,115.000002193451,14|4,3:3|3:3,0:0:0:0:
424,153,85022,2,0,L|310:176,1,115.000002193451,14|4,3:3|3:3,0:0:0:0:
215,97,85272,1,14,3:3:0:0:
283,16,85397,6,0,L|297:131,1,115.000002193451,4|14,3:3|3:3,0:0:0:0:
245,214,85647,1,4,3:3:0:0:
219,225,85709,1,4,3:3:0:0:
193,236,85772,1,14,3:3:0:0:
93,210,85897,2,0,L|79:95,1,115.000002193451,4|14,3:3|3:3,0:0:0:0:
156,19,86147,1,4,3:3:0:0:
184,25,86210,1,4,3:3:0:0:
212,31,86272,1,14,3:3:0:0:
313,93,86397,53,6,3:2:0:0:
155,212,86522,1,14,3:3:0:0:
158,94,86647,1,4,3:3:0:0:
310,207,86772,2,0,L|313:81,1,115.000002193451,14|4,3:3|3:3,0:0:0:0:
402,22,87022,2,0,L|412:146,1,115.000002193451,14|4,3:3|3:3,0:0:0:0:
472,202,87272,1,14,3:3:0:0:
450,303,87397,6,0,L|315:281,1,115.000002193451,4|14,3:3|3:3,0:0:0:0:
248,311,87647,1,4,3:3:0:0:
248,311,87709,1,4,3:3:0:0:
248,311,87772,1,14,3:3:0:0:
248,311,87834,1,0,0:0:0:0:
214,335,87897,5,12,3:3:0:0:
172,338,87959,1,0,0:0:0:0:
134,320,88022,1,14,3:3:0:0:
110,285,88084,1,4,3:3:0:0:
106,242,88147,2,0,B|98:195|128:167|128:167|112:149|112:149|135:115|115:64,1,172.500003290176,6|4,3:2|3:3,0:0:0:0:
110,70,88397,53,12,3:3:0:0:
70,73,88459,1,0,3:3:0:0:
38,94,88522,1,0,3:3:0:0:
20,130,88584,1,0,3:3:0:0:
22,169,88647,1,4,3:3:0:0:
44,201,88709,1,4,3:3:0:0:
79,218,88772,1,12,3:3:0:0:
118,216,88834,1,0,0:0:0:0:
151,194,88897,5,8,3:3:0:0:
169,159,88959,1,0,0:0:0:0:
202,138,89022,1,4,3:3:0:0:
241,135,89084,1,4,3:3:0:0:
275,152,89147,2,0,L|298:210,3,57.5000010967255,8|0|0|8,3:3|0:0|0:0|3:3,0:0:0:0:
186,238,89397,5,0,3:3:0:0:
217,254,89459,1,0,3:3:0:0:
251,253,89522,1,6,3:3:0:0:
280,235,89584,1,0,0:0:0:0:
296,205,89647,1,2,3:3:0:0:
325,187,89709,1,0,3:3:0:0:
359,186,89772,1,4,3:3:0:0:
390,202,89834,1,4,3:3:0:0:
408,231,89897,2,0,L|406:297,3,57.5000010967255,12|12|12|12,3:3|3:3|3:3|3:3,0:0:0:0:
234,359,90147,69,4,3:3:0:0:
278,356,90209,1,4,3:3:0:0:
322,353,90272,1,4,3:3:0:0:
366,350,90334,1,4,3:3:0:0:
412,349,90397,5,6,3:2:0:0:
251,253,90522,1,14,3:3:0:0:
437,258,90647,1,4,3:3:0:0:
278,356,90772,2,0,L|154:339,1,115.000002193451,14|4,3:3|3:3,0:0:0:0:
21,281,91022,2,0,L|145:264,1,115.000002193451,14|4,3:3|3:3,0:0:0:0:
191,199,91272,1,14,3:3:0:0:
116,149,91397,54,0,L|109:23,1,115.000002193451,4|14,3:3|3:3,0:0:0:0:
203,98,91647,1,4,3:3:0:0:
203,98,91709,1,4,3:3:0:0:
203,98,91772,1,14,3:3:0:0:
302,0,91897,2,0,L|175:5,1,115.000002193451,4|14,3:3|3:3,0:0:0:0:
117,41,92147,1,4,3:3:0:0:
117,41,92209,1,4,3:3:0:0:
117,41,92272,1,14,3:3:0:0:
203,98,92397,5,6,3:2:0:0:
377,34,92522,1,14,3:3:0:0:
187,4,92647,1,4,3:3:0:0:
339,109,92772,2,0,L|470:100,1,115.000002193451,14|4,3:3|3:3,0:0:0:0:
512,205,93022,2,0,L|381:196,1,115.000002193451,14|4,3:3|3:3,0:0:0:0:
321,246,93272,1,14,3:3:0:0:
242,190,93397,6,0,L|233:59,1,115.000002193451,4|14,3:3|3:3,0:0:0:0:
152,42,93647,1,4,3:3:0:0:
117,42,93709,1,4,3:3:0:0:
82,42,93772,1,14,3:3:0:0:
37,125,93897,2,0,L|46:256,1,115.000002193451,4|14,3:3|3:3,0:0:0:0:
136,301,94147,1,4,3:3:0:0:
163,293,94209,1,4,3:3:0:0:
190,285,94272,1,14,3:3:0:0:
238,123,94397,53,6,3:2:0:0:
44,239,94522,1,14,3:3:0:0:
250,237,94647,1,4,3:3:0:0:
171,38,94772,2,0,L|157:166,1,115.000002193451,14|4,3:3|3:3,0:0:0:0:
250,237,95022,2,0,L|236:109,1,115.000002193451,14|4,3:3|3:3,0:0:0:0:
304,59,95272,1,14,3:3:0:0:
364,122,95397,6,0,L|351:236,1,115.000002193451,4|14,3:3|3:3,0:0:0:0:
297,306,95647,1,4,3:3:0:0:
258,317,95709,1,4,3:3:0:0:
218,307,95772,1,14,3:3:0:0:
188,278,95834,1,0,0:0:0:0:
177,239,95897,69,4,3:3:0:0:
186,199,95959,1,0,0:0:0:0:
215,170,96022,1,12,3:3:0:0:
255,158,96084,1,12,3:3:0:0:
295,168,96147,2,0,B|334:171|352:195|352:195|383:187|383:187|423:210|457:190,1,172.500003290176,4|0,3:2|0:0,0:0:0:0:
469,168,96397,5,6,3:2:0:0:
303,66,96522,1,4,3:3:0:0:
498,72,96647,1,4,3:3:0:0:
327,165,96772,1,6,3:2:0:0:
333,193,96834,1,0,0:0:0:0:
339,221,96897,1,4,3:3:0:0:
345,249,96959,1,4,3:3:0:0:
351,277,97022,2,0,L|365:340,1,57.5000010967255,12|0,3:3|0:0,0:0:0:0:
216,317,97147,6,0,L|230:254,1,57.5000010967255,4|4,3:3|3:3,0:0:0:0:
274,197,97272,1,4,3:3:0:0:
305,168,97334,1,4,3:3:0:0:
317,127,97397,2,0,L|314:65,1,57.5000010967255,8|8,3:3|3:3,0:0:0:0:
208,28,97522,2,0,L|205:85,1,57.5000010967255,8|0,3:3|0:0,0:0:0:0:
233,207,97647,1,4,3:3:0:0:
273,229,97709,1,4,3:3:0:0:
318,228,97772,1,12,3:3:0:0:
356,204,97834,2,0,L|401:152,1,57.5000010967255,12|4,3:3|3:3,0:0:0:0:
314,69,97959,53,4,3:3:0:0:
273,96,98022,1,0,3:3:0:0:
250,139,98084,1,0,3:3:0:0:
251,187,98147,2,0,B|254:260|254:260|266:286|266:286|268:362,1,172.500003290176,6|0,3:2|0:0,0:0:0:0:
253,368,98397,5,12,3:3:0:0:
92,291,98522,1,0,3:3:0:0:
285,264,98647,5,12,3:3:0:0:
107,384,98772,1,0,3:3:0:0:
273,379,98897,53,12,3:3:0:0:
41,264,99022,1,0,3:3:0:0:
41,264,99084,1,0,3:3:0:0:
41,264,99147,5,12,3:3:0:0:
296,251,99272,1,0,3:3:0:0:
88,199,99397,5,6,3:2:0:0:
337,326,99522,1,0,3:3:0:0:
162,96,99647,53,12,3:3:0:0:
176,375,99772,1,0,3:3:0:0:
257,69,99897,5,4,3:3:0:0:
254,111,99959,1,4,3:3:0:0:
251,148,100022,1,4,3:3:0:0:
249,182,100084,1,4,3:3:0:0:
247,212,100147,1,8,3:3:0:0:
245,238,100209,1,8,3:3:0:0:
243,261,100272,1,8,3:3:0:0:
241,281,100334,1,8,3:3:0:0:
239,298,100397,6,0,L|120:307,1,89.9999972534181,4|0,3:2|3:3,0:0:0:0:
28,223,100647,2,0,L|128:231,1,89.9999972534181,2|0,3:3|3:3,0:0:0:0:
165,157,100897,1,10,3:3:0:0:
247,305,101022,1,0,3:3:0:0:
247,305,101084,1,0,0:0:0:0:
247,305,101147,1,0,3:3:0:0:
76,298,101272,1,0,3:3:0:0:
212,225,101397,54,0,L|305:235,1,89.9999972534181,4|4,3:3|3:3,0:0:0:0:
438,161,101647,2,0,L|345:171,1,89.9999972534181,4|4,3:3|3:3,0:0:0:0:
443,250,101897,1,10,3:3:0:0:
454,86,102022,1,0,3:3:0:0:
454,86,102084,1,0,0:0:0:0:
454,86,102147,1,4,3:3:0:0:
277,155,102272,1,4,3:3:0:0:
364,337,102397,6,0,L|372:233,1,89.9999972534181,4|0,3:2|3:3,0:0:0:0:
277,155,102647,2,0,L|285:259,1,89.9999972534181,2|4,3:3|3:3,0:0:0:0:
368,121,102897,1,10,3:3:0:0:
216,74,103022,1,0,3:3:0:0:
216,74,103084,1,0,0:0:0:0:
216,74,103147,2,0,L|211:129,1,44.999998626709,0|4,3:3|3:3,0:0:0:0:
372,165,103272,2,0,L|367:110,1,44.999998626709,0|4,3:3|3:3,0:0:0:0:
143,179,103397,5,12,3:3:0:0:
180,206,103459,1,0,0:0:0:0:
225,210,103522,1,12,3:3:0:0:
266,191,103584,1,0,0:0:0:0:
292,154,103647,1,0,3:3:0:0:
333,135,103709,1,4,3:3:0:0:
378,139,103772,1,0,3:3:0:0:
415,166,103834,1,4,3:3:0:0:
433,207,103897,54,0,L|430:262,1,44.999998626709,4|4,3:3|3:3,0:0:0:0:
268,235,104022,2,0,L|265:190,1,44.999998626709,4|4,3:3|3:3,0:0:0:0:
462,319,104147,2,0,B|427:336|377:311|377:311|363:331|363:331|315:300|264:335,1,194.999991073609,6|0,3:2|0:0,0:0:0:0:
260,350,104397,5,10,3:3:0:0:
63,284,104522,1,4,3:3:0:0:
268,235,104647,5,10,3:3:0:0:
112,372,104772,1,4,3:3:0:0:
276,356,104897,53,10,3:3:0:0:
39,276,105022,1,4,3:3:0:0:
282,220,105147,5,10,3:3:0:0:
94,384,105272,1,4,3:3:0:0:
195,153,105397,6,0,L|214:103,3,47.4999987316132,0|0|4|4,3:3|0:0|3:3|3:3,0:0:0:0:
221,84,105647,1,2,3:1:0:0:
192,80,105709,1,2,3:1:0:0:
163,76,105772,1,2,3:1:0:0:
134,72,105834,1,2,3:1:0:0:
105,68,105897,2,0,L|46:59,1,47.4999987316132,12|12,3:3|3:3,0:0:0:0:
89,210,106022,53,4,3:3:0:0:
140,205,106084,1,4,3:3:0:0:
191,200,106147,2,0,B|272:197|249:168|338:163,1,145.000004425049,6|0,3:2|0:0,0:0:0:0:
480,266,106397,38,0,B|416:261|416:261|389:243|389:243|319:238,1,145.000004425049,6|4,3:2|3:3,0:0:0:0:
422,353,106647,1,12,3:3:0:0:
457,174,106772,1,4,3:3:0:0:
321,346,106897,1,12,3:3:0:0:
354,157,107022,1,4,3:3:0:0:
422,353,107147,1,12,3:3:0:0:
205,286,107272,1,4,3:3:0:0:
205,286,107334,1,4,3:3:0:0:
205,286,107397,6,0,B|293:289|257:244|361:246,1,145.000004425049,12|4,3:3|3:3,0:0:0:0:
422,353,107647,1,12,3:3:0:0:
225,209,107772,1,4,3:3:0:0:
225,359,107897,1,12,3:3:0:0:
428,221,108022,1,4,3:3:0:0:
428,221,108084,1,4,3:3:0:0:
428,221,108147,1,12,3:3:0:0:
331,379,108272,1,4,3:3:0:0:
324,186,108397,6,0,B|323:124|323:124|332:96|332:96|331:38,1,145.000004425049,6|4,3:2|3:3,0:0:0:0:
186,55,108647,1,12,3:3:0:0:
225,209,108772,1,4,3:3:0:0:
331,42,108897,1,12,3:3:0:0:
136,144,109022,1,4,3:3:0:0:
136,144,109084,1,4,3:3:0:0:
136,144,109147,1,12,3:3:0:0:
324,186,109272,1,4,3:3:0:0:
186,55,109397,54,0,B|96:57|126:80|40:82,1,145.000004425049,12|4,3:3|3:3,0:0:0:0:
44,81,109584,1,4,3:3:0:0:
44,81,109647,1,12,3:3:0:0:
106,224,109772,1,4,3:3:0:0:
238,122,109897,1,12,3:3:0:0:
29,167,110022,1,4,3:3:0:0:
29,167,110084,1,4,3:3:0:0:
29,167,110147,1,12,3:3:0:0:
186,55,110272,1,4,3:3:0:0:
106,224,110397,6,0,B|108:284|108:284|126:315|126:315|130:375,1,145.000004425049,6|4,3:2|3:3,0:0:0:0:
21,290,110647,1,12,3:3:0:0:
205,290,110772,1,4,3:3:0:0:
205,290,110834,1,4,3:3:0:0:
205,290,110897,1,12,3:3:0:0:
50,366,111022,1,4,3:3:0:0:
137,156,111147,1,12,3:3:0:0:
183,367,111272,1,4,3:3:0:0:
183,367,111334,1,4,3:3:0:0:
183,367,111397,6,0,B|266:374|251:337|342:344,1,145.000004425049,12|4,3:3|3:3,0:0:0:0:
466,365,111647,1,12,3:3:0:0:
301,200,111772,1,4,3:3:0:0:
301,200,111834,1,4,3:3:0:0:
301,200,111897,1,12,3:3:0:0:
324,343,112022,1,4,3:3:0:0:
454,146,112147,1,12,3:3:0:0:
222,157,112272,1,4,3:3:0:0:
222,157,112334,1,4,3:3:0:0:
222,157,112397,54,0,L|149:169,1,72.5000022125245,12|12,3:3|3:3,0:0:0:0:
33,223,112522,2,0,L|106:235,1,72.5000022125245,4|4,3:3|3:3,0:0:0:0:
188,325,112647,1,0,3:3:0:0:
233,333,112709,1,0,3:3:0:0:
275,317,112772,1,0,3:3:0:0:
304,282,112834,1,0,3:3:0:0:
311,237,112897,5,4,3:3:0:0:
295,194,112959,1,4,3:3:0:0:
259,165,113022,1,8,3:3:0:0:
243,122,113084,1,0,0:0:0:0:
250,77,113147,2,0,L|293:2,1,72.5000022125245,8|8,3:3|3:3,0:0:0:0:
354,76,113272,2,0,L|440:68,1,72.5000022125245,4|4,3:3|3:3,0:0:0:0:
450,160,113397,5,6,3:2:0:0:
411,189,113459,1,0,0:0:0:0:
362,194,113522,1,4,3:3:0:0:
317,174,113584,1,4,3:3:0:0:
289,135,113647,2,0,L|298:52,3,72.5000022125245,8|8|8|8,3:3|3:3|3:3|3:3,0:0:0:0:
157,44,113897,54,0,P|209:36|244:39,1,72.5000022125245,2|2,3:1|3:1,0:0:0:0:
435,105,114022,2,0,P|383:113|348:110,1,72.5000022125245,2|2,3:1|3:1,0:0:0:0:
213,134,114147,1,8,3:3:0:0:
213,134,114209,1,0,0:0:0:0:
213,134,114272,1,8,3:3:0:0:
213,134,114334,1,0,0:0:0:0:
213,134,114397,5,6,3:2:0:0:
187,169,114459,1,4,3:3:0:0:
146,186,114522,1,4,3:3:0:0:
102,180,114584,1,4,3:3:0:0:
67,153,114647,1,12,3:3:0:0:
49,112,114709,1,4,3:3:0:0:
55,68,114772,1,4,3:3:0:0:
82,33,114834,1,4,3:3:0:0:
123,17,114897,5,12,3:3:0:0:
166,22,114959,1,4,3:3:0:0:
201,50,115022,1,4,3:3:0:0:
217,91,115084,1,4,3:3:0:0:
252,119,115147,1,12,3:3:0:0:
295,124,115209,1,4,3:3:0:0:
336,108,115272,1,4,3:3:0:0:
363,73,115334,1,4,3:3:0:0:
369,29,115397,53,12,3:3:0:0:
321,36,115459,1,4,3:3:0:0:
282,66,115522,1,4,3:3:0:0:
264,111,115584,1,4,3:3:0:0:
270,159,115647,1,12,3:3:0:0:
299,197,115709,1,4,3:3:0:0:
305,245,115772,1,4,3:3:0:0:
287,290,115834,1,4,3:3:0:0:
248,320,115897,6,0,L|180:345,3,72.5000022125245,12|4|4|4,3:3|3:3|3:3|3:3,0:0:0:0:
40,256,116147,2,0,L|108:281,3,72.5000022125245,12|4|4|4,3:3|3:3|3:3|3:3,0:0:0:0:
117,44,116397,5,6,3:2:0:0:
89,83,116459,1,4,3:3:0:0:
84,130,116522,1,4,3:3:0:0:
103,173,116584,1,4,3:3:0:0:
141,201,116647,1,12,3:3:0:0:
188,205,116709,1,4,3:3:0:0:
231,186,116772,1,4,3:3:0:0:
259,148,116834,1,4,3:3:0:0:
264,101,116897,53,12,3:3:0:0:
292,63,116959,1,4,3:3:0:0:
335,44,117022,1,4,3:3:0:0:
382,48,117084,1,4,3:3:0:0:
420,76,117147,1,12,3:3:0:0:
438,119,117209,1,4,3:3:0:0:
433,165,117272,1,4,3:3:0:0:
406,204,117334,1,4,3:3:0:0:
363,223,117397,5,12,3:3:0:0:
382,266,117459,1,4,3:3:0:0:
376,312,117522,1,4,3:3:0:0:
348,349,117584,1,4,3:3:0:0:
305,367,117647,1,12,3:3:0:0:
258,361,117709,1,4,3:3:0:0:
221,333,117772,1,4,3:3:0:0:
203,291,117834,1,4,3:3:0:0:
208,245,117897,6,0,L|241:169,3,72.5000022125245,12|4|4|4,3:3|3:3|3:3|3:3,0:0:0:0:
105,186,118147,2,0,L|72:110,3,72.5000022125245,12|4|4|4,3:3|3:3|3:3|3:3,0:0:0:0:
84,341,118397,53,6,3:2:0:0:
121,313,118459,1,4,3:3:0:0:
139,270,118522,1,4,3:3:0:0:
133,223,118584,1,4,3:3:0:0:
105,186,118647,1,12,3:3:0:0:
77,149,118709,1,4,3:3:0:0:
71,102,118772,1,4,3:3:0:0:
89,59,118834,1,4,3:3:0:0:
126,31,118897,5,12,3:3:0:0:
172,25,118959,1,4,3:3:0:0:
215,43,119022,1,4,3:3:0:0:
243,80,119084,1,4,3:3:0:0:
249,126,119147,1,12,3:3:0:0:
277,163,119209,1,4,3:3:0:0:
320,181,119272,1,4,3:3:0:0:
366,175,119334,1,4,3:3:0:0:
403,147,119397,5,12,3:3:0:0:
361,129,119459,1,4,3:3:0:0:
315,134,119522,1,4,3:3:0:0:
278,161,119584,1,4,3:3:0:0:
259,203,119647,1,12,3:3:0:0:
222,230,119709,1,4,3:3:0:0:
176,235,119772,1,4,3:3:0:0:
134,217,119834,1,4,3:3:0:0:
107,179,119897,53,12,3:3:0:0:
102,134,119959,1,4,3:3:0:0:
119,94,120022,1,4,3:3:0:0:
151,69,120084,1,4,3:3:0:0:
189,63,120147,1,12,3:3:0:0:
223,76,120209,1,4,3:3:0:0:
244,102,120272,1,4,3:3:0:0:
248,133,120334,1,4,3:3:0:0:
235,159,120397,6,0,B|197:163|197:163|144:188,2,86.6666626993817,4|4|4,3:3|3:3|3:3,0:0:0:0:
312,110,120647,2,0,B|364:116|364:116|420:137,2,86.6666626993817,0|0|0,3:3|3:3|3:3,0:0:0:0:
228,71,120897,5,8,3:3:0:0:
242,167,120980,53,4,3:3:0:0:
320,108,121063,5,0,3:3:0:0:
208,75,121147,5,12,3:3:0:0:
259,180,121230,53,4,3:3:0:0:
334,87,121313,5,0,3:3:0:0:
185,94,121397,6,0,B|157:156|185:211|185:211|203:224|203:224|225:286|202:352|202:352|226:285|301:268,1,389.999982147218,6|0,3:2|0:0,0:0:0:0:
390,299,121897,2,0,B|427:319|457:348|457:348|412:233|516:264|536:120|343:51|371:237|420:208,1,389.999982147218,6|0,3:2|0:0,0:0:0:0:
463,82,122397,54,0,L|395:71,1,64.9999970245363,4|0,3:3|0:0,0:0:0:0:
227,120,122522,2,0,L|295:109,1,64.9999970245363,0|0,0:0|0:0,0:0:0:0:
314,16,122647,5,8,3:3:0:0:
282,10,122709,1,0,0:0:0:0:
249,20,122772,1,8,3:3:0:0:
223,46,122834,1,12,3:3:0:0:
185,55,122897,1,8,3:3:0:0:
145,42,122959,1,12,3:3:0:0:
115,9,123022,5,4,3:3:0:0:
126,56,123084,1,4,3:3:0:0:
137,105,123147,1,0,3:3:0:0:
148,156,123209,1,8,3:3:0:0:
159,209,123272,1,4,3:3:0:0:
170,264,123334,1,4,3:3:0:0:
181,321,123397,53,4,3:3:0:0:
125,303,123459,1,4,3:3:0:0:
83,256,123522,1,0,3:3:0:0:
69,190,123584,1,12,3:3:0:0:
89,121,123647,1,12,3:3:0:0:
143,68,123709,1,0,3:3:0:0:
219,48,123772,1,4,3:3:0:0:
297,68,123834,1,4,3:3:0:0:
356,126,123897,6,0,L|361:205,1,64.9999970245363,12|4,3:3|3:3,0:0:0:0:
267,272,124022,2,0,L|272:193,1,64.9999970245363,0|4,3:3|3:3,0:0:0:0:
183,155,124147,5,6,3:2:0:0:
175,160,124397,6,0,P|160:211|173:262,1,100,4|4,3:2|3:3,0:0:0:0:
273,368,124647,2,0,P|288:317|275:266,1,100,4|4,3:3|3:3,0:0:0:0:
328,215,124897,2,0,P|277:200|226:213,1,100,4|4,3:2|3:3,0:0:0:0:
120,313,125147,2,0,P|171:328|222:315,1,100,4|4,3:3|3:3,0:0:0:0:
55,187,125397,6,0,L|45:301,1,100,2|4,3:3|3:3,0:0:0:0:
142,136,125647,2,0,L|152:250,1,100,4|4,3:3|3:3,0:0:0:0:
246,85,125897,2,0,L|236:199,1,100,2|4,3:3|3:3,0:0:0:0:
333,34,126147,2,0,L|343:148,1,100,4|4,3:3|3:3,0:0:0:0:
499,174,126397,6,0,P|448:189|397:176,1,100,4|4,3:2|3:3,0:0:0:0:
291,76,126647,2,0,P|342:61|393:74,1,100,4|4,3:3|3:3,0:0:0:0:
444,21,126897,2,0,P|459:72|446:123,1,100,2|4,3:3|3:3,0:0:0:0:
346,229,127147,2,0,P|331:178|344:127,1,100,4|4,3:3|3:3,0:0:0:0:
432,292,127397,53,4,3:2:0:0:
216,315,127522,1,4,3:3:0:0:
346,229,127647,1,4,3:3:0:0:
306,363,127772,1,4,3:3:0:0:
201,165,127897,1,4,3:2:0:0:
432,292,128022,1,0,0:0:0:0:
173,238,128147,1,4,3:3:0:0:
308,160,128272,1,0,0:0:0:0:
129,299,128397,6,0,L|15:287,1,100,4|4,3:2|3:3,0:0:0:0:
183,138,128647,2,0,L|171:252,1,100,4|4,3:3|3:3,0:0:0:0:
22,84,128897,2,0,L|136:96,1,100,4|4,3:2|3:3,0:0:0:0:
314,37,129147,2,0,L|200:49,1,100,4|4,3:3|3:3,0:0:0:0:
75,158,129397,6,0,P|126:173|177:160,1,100,2|4,3:3|3:3,0:0:0:0:
283,60,129647,2,0,P|232:45|181:58,1,100,4|4,3:3|3:3,0:0:0:0:
130,5,129897,2,0,P|115:56|128:107,1,100,4|4,3:2|3:3,0:0:0:0:
228,213,130147,2,0,P|243:162|230:111,1,100,4|4,3:3|3:3,0:0:0:0:
78,277,130397,54,0,B|133:284|133:284|188:277,1,100,6|4,3:2|3:3,0:0:0:0:
307,221,130647,1,8,3:3:0:0:
346,211,130709,1,8,3:3:0:0:
384,221,130772,1,8,3:3:0:0:
412,249,130834,1,8,3:3:0:0:
422,287,130897,5,0,3:3:0:0:
399,308,130959,1,0,3:3:0:0:
368,314,131022,1,0,3:3:0:0:
338,304,131084,1,0,3:3:0:0:
317,280,131147,1,4,3:3:0:0:
310,249,131209,1,4,3:3:0:0:
320,219,131272,1,4,3:3:0:0:
344,198,131334,1,0,3:3:0:0:
375,192,131397,5,4,3:3:0:0:
399,171,131459,1,4,3:3:0:0:
409,141,131522,1,4,3:3:0:0:
402,110,131584,1,4,3:3:0:0:
381,86,131647,1,8,3:3:0:0:
351,76,131709,1,8,3:3:0:0:
320,82,131772,1,8,3:3:0:0:
297,103,131834,1,8,3:3:0:0:
287,132,131897,53,0,3:3:0:0:
185,138,132022,1,4,3:3:0:0:
170,133,132084,1,4,3:3:0:0:
159,121,132147,1,4,3:3:0:0:
213,50,132272,1,4,3:3:0:0:
225,39,132334,1,4,3:3:0:0:
240,36,132397,5,4,3:2:0:0:
286,101,132897,1,4,3:2:0:0:
252,173,133397,1,4,3:2:0:0:
258,252,133897,1,4,3:2:0:0:
231,272,134147,1,0,3:3:0:0:
219,268,134209,1,0,3:3:0:0:
207,264,134272,1,4,3:3:0:0:
195,260,134334,1,4,3:3:0:0:
183,256,134397,5,4,3:2:0:0:
104,262,134897,1,4,3:2:0:0:
138,190,135397,1,4,3:2:0:0:
166,179,135647,53,2,3:1:0:0:
50,167,135772,1,2,3:1:0:0:
209,115,135897,6,0,L|283:126,2,66.6666666666667,2|2|2,3:1|3:1|3:1,0:0:0:0:
276,29,136147,2,0,L|202:40,2,66.6666666666667,2|2|2,3:1|3:1|3:1,0:0:0:0:
101,48,136397,5,4,3:2:0:0:
173,82,136897,1,4,3:2:0:0:
202,61,137147,1,0,3:3:0:0:
214,60,137209,1,0,3:3:0:0:
226,59,137272,1,4,3:3:0:0:
238,58,137334,1,4,3:3:0:0:
250,57,137397,1,2,3:3:0:0:
322,91,137897,1,2,3:3:0:0:
434,40,138397,53,4,3:2:0:0:
403,115,138522,2,0,L|410:218,1,100,4|4,3:3|3:3,0:0:0:0:
240,82,138772,5,4,3:2:0:0:
271,157,138897,2,0,L|264:260,1,100,4|4,3:3|3:3,0:0:0:0:
197,300,139147,1,12,3:3:0:0:
111,165,139272,1,4,3:3:0:0:
271,157,139397,2,0,B|371:153|319:192|430:188,1,150,4|0,3:2|0:0,0:0:0:0:
440,175,139647,5,2,3:1:0:0:
457,135,139709,1,2,3:1:0:0:
451,91,139772,1,2,3:1:0:0:
424,56,139834,1,2,3:1:0:0:
381,38,139897,54,0,B|311:36|311:36|280:49|280:49|204:47,1,179.999994506836,4|0,3:3|0:0,0:0:0:0:
128,30,140147,2,0,P|84:24|61:29,3,59.9999981689454,12|12|12|0,3:3|3:3|3:3|0:0,0:0:0:0:
96,121,140397,37,6,3:2:0:0:
82,143,140459,1,0,0:0:0:0:
79,170,140522,1,14,3:3:0:0:
89,195,140584,1,0,0:0:0:0:
111,211,140647,1,4,3:3:0:0:
122,236,140709,1,4,3:3:0:0:
118,264,140772,1,14,3:3:0:0:
99,287,140834,1,0,0:0:0:0:
69,297,140897,5,4,3:3:0:0:
42,273,140959,1,0,0:0:0:0:
28,234,141022,1,14,3:3:0:0:
35,188,141084,1,0,0:0:0:0:
66,147,141147,1,4,3:3:0:0:
113,126,141209,1,4,3:3:0:0:
164,132,141272,1,14,3:3:0:0:
205,162,141334,1,0,0:0:0:0:
246,192,141397,5,4,3:3:0:0:
297,198,141460,1,0,0:0:0:0:
344,177,141522,1,14,3:3:0:0:
375,136,141585,1,0,0:0:0:0:
380,85,141647,1,4,3:3:0:0:
360,38,141710,1,4,3:3:0:0:
318,8,141772,1,14,3:3:0:0:
267,1,141835,1,0,0:0:0:0:
223,18,141897,53,4,3:3:0:0:
196,51,141959,1,0,0:0:0:0:
189,88,142022,1,14,3:3:0:0:
201,123,142084,1,0,0:0:0:0:
228,147,142147,1,4,3:3:0:0:
255,171,142209,1,4,3:3:0:0:
266,205,142272,1,14,3:3:0:0:
258,240,142334,1,0,0:0:0:0:
234,266,142397,5,6,3:2:0:0:
195,257,142459,1,0,0:0:0:0:
161,226,142522,1,14,3:3:0:0:
145,177,142584,1,0,0:0:0:0:
156,120,142647,1,4,3:3:0:0:
194,76,142709,1,4,3:3:0:0:
248,57,142772,1,14,3:3:0:0:
305,67,142834,1,0,0:0:0:0:
348,105,142897,5,4,3:3:0:0:
367,159,142959,1,0,0:0:0:0:
357,216,143022,1,14,3:3:0:0:
320,260,143084,1,0,0:0:0:0:
265,279,143147,1,4,3:3:0:0:
208,268,143209,1,4,3:3:0:0:
164,231,143272,1,14,3:3:0:0:
144,177,143334,1,0,0:0:0:0:
156,120,143397,54,0,B|204:79|204:79|234:75|234:75|285:33,1,145.000004425049,4|14,3:3|3:3,0:0:0:0:
246,164,143647,1,4,3:3:0:0:
53,102,143772,1,14,3:3:0:0:
196,262,143897,1,4,3:3:0:0:
147,54,144022,1,14,3:3:0:0:
85,248,144147,2,0,B|65:326|65:326|84:389,1,145.000004425049,4|14,3:3|3:3,0:0:0:0:
196,262,144397,6,0,L|191:113,1,145.000004425049,6|14,3:2|3:3,0:0:0:0:
73,27,144647,1,4,3:3:0:0:
73,27,144709,1,4,3:3:0:0:
73,27,144772,1,14,3:3:0:0:
49,124,144897,2,0,L|54:273,1,145.000004425049,4|14,3:3|3:3,0:0:0:0:
141,338,145147,1,4,3:3:0:0:
141,338,145209,1,4,3:3:0:0:
141,338,145272,1,14,3:3:0:0:
196,262,145397,5,4,3:3:0:0:
54,133,145522,1,14,3:3:0:0:
210,127,145647,53,4,3:3:0:0:
53,268,145772,1,14,3:3:0:0:
220,284,145897,5,4,3:3:0:0:
31,114,146022,1,14,3:3:0:0:
236,103,146147,5,4,3:3:0:0:
28,290,146272,1,14,3:3:0:0:
296,242,146397,54,0,L|286:158,1,72.5000022125245,6|0,3:2|0:0,0:0:0:0:
161,65,146522,1,8,3:3:0:0:
159,85,146584,1,4,3:3:0:0:
157,105,146647,1,8,3:3:0:0:
155,125,146709,1,4,3:3:0:0:
153,145,146772,2,0,L|143:229,1,72.5000022125245,6|0,3:2|0:0,0:0:0:0:
196,275,146897,5,0,3:3:0:0:
232,276,146959,1,0,0:0:0:0:
264,259,147022,1,0,3:3:0:0:
296,242,147084,1,0,0:0:0:0:
332,243,147147,2,0,L|411:258,1,72.5000022125245,6|0,3:2|0:0,0:0:0:0:
297,364,147272,5,0,3:3:0:0:
253,329,147334,1,8,3:3:0:0:
232,276,147397,1,8,3:3:0:0:
240,220,147459,1,0,3:3:0:0:
275,175,147522,2,0,L|350:133,1,72.5000022125245,6|0,3:2|0:0,0:0:0:0:
442,250,147647,53,8,3:3:0:0:
414,248,147709,1,4,3:3:0:0:
386,246,147772,1,4,3:3:0:0:
358,244,147834,1,0,3:3:0:0:
330,242,147897,2,0,L|242:236,1,72.5000022125245,6|4,3:2|3:3,0:0:0:0:
193,103,148022,5,4,3:3:0:0:
193,103,148084,1,4,3:3:0:0:
193,103,148147,2,0,P|235:84|267:82,1,72.5000022125245,6|0,3:2|0:0,0:0:0:0:
399,153,148272,2,0,P|361:126|343:99,1,72.5000022125245,0|0,0:0|0:0,0:0:0:0:
490,41,148397,6,0,B|475:98|475:98|481:138|481:138|464:204,1,145.000004425049,6|14,3:2|3:3,0:0:0:0:
338,249,148647,1,4,3:3:0:0:
338,249,148709,1,4,3:3:0:0:
338,249,148772,1,14,3:3:0:0:
131,184,148897,2,0,P|214:175|279:198,1,145.000004425049,4|14,3:3|3:3,0:0:0:0:
151,282,149147,1,4,3:3:0:0:
151,282,149209,1,4,3:3:0:0:
151,282,149272,1,14,3:3:0:0:
103,88,149397,53,4,3:3:0:0:
271,193,149522,1,14,3:3:0:0:
47,187,149647,1,4,3:3:0:0:
47,187,149709,1,4,3:3:0:0:
47,187,149772,1,14,3:3:0:0:
232,97,149897,1,4,3:3:0:0:
99,282,150022,5,14,3:3:0:0:
141,260,150084,1,0,0:0:0:0:
177,254,150147,1,4,3:3:0:0:
205,258,150209,1,4,3:3:0:0:
224,268,150272,1,14,3:3:0:0:
238,283,150334,1,0,0:0:0:0:
246,301,150397,5,6,3:2:0:0:
282,343,150459,1,0,0:0:0:0:
334,361,150522,1,14,3:3:0:0:
388,350,150584,1,0,0:0:0:0:
429,314,150647,1,4,3:3:0:0:
447,261,150709,1,4,3:3:0:0:
436,207,150772,1,14,3:3:0:0:
400,166,150834,1,0,0:0:0:0:
348,149,150897,53,4,3:3:0:0:
307,185,150959,1,0,0:0:0:0:
253,195,151022,1,14,3:3:0:0:
201,177,151084,1,0,0:0:0:0:
165,135,151147,1,4,3:3:0:0:
113,117,151209,1,4,3:3:0:0:
63,125,151272,1,14,3:3:0:0:
27,153,151334,1,0,0:0:0:0:
11,190,151397,5,4,3:3:0:0:
14,225,151459,1,4,3:3:0:0:
34,253,151522,1,2,3:1:0:0:
61,265,151584,1,0,0:0:0:0:
90,261,151647,1,4,3:3:0:0:
119,257,151709,1,4,3:3:0:0:
143,255,151772,1,2,3:1:0:0:
172,251,151834,1,0,0:0:0:0:
201,247,151897,6,0,B|263:202|328:241|328:241|357:228|357:228|423:259|477:213,1,290.000008850098,4|4,3:3|3:3,0:0:0:0:
437,120,152272,1,14,3:3:0:0:
372,346,152397,54,0,B|377:249|348:283|353:183,1,145.000004425049,6|12,3:2|3:3,0:0:0:0:
437,120,152647,1,4,3:3:0:0:
441,291,152772,1,14,3:3:0:0:
250,141,152897,5,4,3:3:0:0:
294,309,153022,1,14,3:3:0:0:
365,68,153147,1,4,3:3:0:0:
119,147,153272,1,14,3:3:0:0:
358,213,153397,5,4,3:3:0:0:
198,39,153522,1,14,3:3:0:0:
199,328,153647,1,4,3:3:0:0:
288,38,153772,1,14,3:3:0:0:
68,261,153897,53,4,3:3:0:0:
97,271,153959,1,0,0:0:0:0:
127,265,154022,1,14,3:3:0:0:
149,244,154084,1,4,3:3:0:0:
157,214,154147,2,0,L|152:125,1,72.5000022125245,6|0,3:3|0:0,0:0:0:0:
106,69,154272,1,14,3:3:0:0:
59,181,154397,5,6,3:2:0:0:
108,197,154459,1,0,0:0:0:0:
157,214,154522,1,14,3:3:0:0:
206,230,154584,1,0,0:0:0:0:
255,247,154647,1,4,3:3:0:0:
305,237,154709,1,4,3:3:0:0:
355,227,154772,2,0,L|434:207,1,72.5000022125245,6|0,3:2|0:0,0:0:0:0:
269,48,154897,5,4,3:3:0:0:
257,80,154959,1,0,0:0:0:0:
262,113,155022,2,0,P|289:140|326:149,1,72.5000022125245,14|12,3:3|3:3,0:0:0:0:
449,37,155147,2,0,P|412:46|385:74,1,72.5000022125245,12|4,3:3|3:3,0:0:0:0:
416,167,155272,53,4,3:3:0:0:
439,203,155334,1,4,3:3:0:0:
440,245,155397,1,8,3:3:0:0:
420,282,155459,1,0,3:3:0:0:
384,304,155522,1,4,3:3:0:0:
341,305,155584,1,4,3:3:0:0:
304,285,155647,1,4,3:3:0:0:
281,249,155710,1,4,3:3:0:0:
244,229,155772,6,0,L|161:217,1,72.5000022125245,12|0,3:3|0:0,0:0:0:0:
56,311,155897,2,0,L|139:299,1,72.5000022125245,12|12,3:3|3:3,0:0:0:0:
89,98,156022,1,4,3:3:0:0:
89,98,156084,1,4,3:3:0:0:
89,98,156147,2,0,P|68:181|109:239,1,145.000004425049,12|0,3:3|0:0,0:0:0:0:
244,229,156397,5,6,3:2:0:0:
271,210,156459,1,0,0:0:0:0:
306,206,156522,1,0,0:0:0:0:
342,222,156584,1,0,0:0:0:0:
367,256,156647,1,2,3:1:0:0:
371,301,156709,1,2,3:1:0:0:
351,341,156772,1,2,3:1:0:0:
314,366,156834,1,2,3:1:0:0:
269,369,156897,53,2,3:1:0:0:
237,323,156959,1,12,3:3:0:0:
232,267,157022,1,4,3:3:0:0:
255,216,157084,1,4,3:3:0:0:
301,183,157147,1,12,3:3:0:0:
324,132,157209,1,4,3:3:0:0:
319,76,157272,1,12,3:3:0:0:
287,30,157334,1,12,3:3:0:0:
236,6,157397,5,6,3:2:0:0:
184,9,157459,1,0,0:0:0:0:
144,34,157522,1,4,3:3:0:0:
124,71,157584,1,4,3:3:0:0:
125,108,157647,1,0,3:3:0:0:
142,136,157709,1,4,3:3:0:0:
157,161,157772,1,4,3:3:0:0:
157,187,157834,1,4,3:3:0:0:
145,207,157897,6,0,B|115:278|177:262|146:355|146:355|169:260|213:300|232:224|232:224|258:308|323:289,1,435.000013275147,4|0,3:3|0:0,0:0:0:0:
423,220,158397,6,0,L|414:122,1,89.9999972534181,6|4,3:2|3:3,0:0:0:0:
337,26,158647,2,0,L|328:124,1,89.9999972534181,2|4,3:3|3:3,0:0:0:0:
248,167,158897,1,10,3:3:0:0:
158,60,159022,1,4,3:3:0:0:
158,60,159084,1,0,0:0:0:0:
158,60,159147,1,4,3:3:0:0:
337,26,159272,1,4,3:3:0:0:
248,167,159397,6,0,L|146:153,1,89.9999972534181,6|4,3:2|3:3,0:0:0:0:
0,122,159647,2,0,L|102:108,1,89.9999972534181,4|4,3:3|3:3,0:0:0:0:
158,60,159897,1,2,3:3:0:0:
65,207,160022,1,4,3:3:0:0:
65,207,160084,1,0,0:0:0:0:
65,207,160147,1,4,3:3:0:0:
247,172,160272,1,4,3:3:0:0:
158,60,160397,6,0,L|170:160,1,89.9999972534181,6|4,3:2|3:3,0:0:0:0:
247,172,160647,2,0,L|235:272,1,89.9999972534181,2|4,3:3|3:3,0:0:0:0:
159,309,160897,1,10,3:3:0:0:
311,340,161022,1,4,3:3:0:0:
311,340,161084,1,0,0:0:0:0:
311,340,161147,1,4,3:3:0:0:
161,213,161272,1,4,3:3:0:0:
337,249,161397,54,0,L|322:308,1,44.999998626709,4|0,3:3|0:0,0:0:0:0:
150,282,161522,2,0,L|135:223,1,44.999998626709,4|12,3:3|3:3,0:0:0:0:
349,358,161647,1,4,3:3:0:0:
314,364,161709,1,4,3:3:0:0:
280,351,161772,1,4,3:3:0:0:
257,323,161834,1,4,3:3:0:0:
251,287,161897,6,0,L|258:227,1,44.999998626709,4|4,3:3|3:3,0:0:0:0:
412,193,162022,2,0,L|419:253,1,44.999998626709,4|4,3:3|3:3,0:0:0:0:
214,180,162147,2,0,L|224:77,1,89.9999972534181,6|4,3:2|3:3,0:0:0:0:
429,55,162397,5,6,3:2:0:0:
214,180,162522,1,4,3:3:0:0:
186,55,162647,53,6,3:2:0:0:
422,192,162772,1,4,3:3:0:0:
440,49,162897,5,6,3:2:0:0:
203,186,163022,1,4,3:3:0:0:
176,49,163147,5,6,3:2:0:0:
435,199,163272,1,4,3:3:0:0:
442,29,163397,53,6,3:2:0:0:
423,32,163459,1,12,3:3:0:0:
404,35,163522,1,4,3:3:0:0:
296,108,163647,1,12,3:3:0:0:
315,111,163709,1,12,3:3:0:0:
334,114,163772,1,4,3:3:0:0:
435,199,163897,1,12,3:3:0:0:
274,222,164022,1,2,3:1:0:0:
331,25,164147,2,0,P|340:75|329:126,1,89.9999972534181,6|0,3:2|0:0,0:0:0:0:
108,55,164397,6,0,L|207:45,1,89.9999972534181,6|0,3:2|0:0,0:0:0:0:
334,114,164647,1,2,3:1:0:0:
341,157,164709,1,0,0:0:0:0:
325,197,164772,1,2,3:1:0:0:
291,224,164834,1,12,3:3:0:0:
248,230,164897,5,2,3:1:0:0:
207,214,164959,1,4,3:3:0:0:
164,220,165022,1,2,3:1:0:0:
130,247,165084,1,12,3:3:0:0:
114,287,165147,1,2,3:1:0:0:
120,330,165209,1,4,3:3:0:0:
147,364,165272,1,2,3:1:0:0:
187,380,165334,1,4,3:3:0:0:
230,374,165397,53,2,3:1:0:0:
264,347,165459,1,4,3:3:0:0:
279,306,165522,1,2,3:1:0:0:
273,263,165584,1,12,3:3:0:0:
247,229,165647,1,2,3:1:0:0:
206,213,165709,1,4,3:3:0:0:
180,179,165772,1,2,3:1:0:0:
174,136,165834,1,12,3:3:0:0:
189,95,165897,5,4,3:3:0:0:
233,126,165959,1,4,3:3:0:0:
255,174,166022,1,4,3:3:0:0:
250,227,166084,1,4,3:3:0:0:
219,270,166147,2,0,L|126:284,1,89.9999972534181,12|0,3:3|0:0,0:0:0:0:
52,208,166397,5,6,3:2:0:0:
87,176,166459,1,4,3:3:0:0:
133,165,166522,1,4,3:3:0:0:
178,179,166584,1,4,3:3:0:0:
210,213,166647,1,6,3:2:0:0:
255,227,166709,1,4,3:3:0:0:
301,216,166772,1,4,3:3:0:0:
336,184,166834,1,4,3:3:0:0:
349,139,166897,53,6,3:2:0:0:
339,93,166959,1,4,3:3:0:0:
306,58,167022,1,4,3:3:0:0:
261,44,167084,1,4,3:3:0:0:
213,54,167147,1,6,3:2:0:0:
180,86,167210,1,4,3:3:0:0:
165,131,167272,1,4,3:3:0:0:
176,178,167335,1,4,3:3:0:0:
209,212,167397,5,6,3:1:0:0:
209,212,167897,5,12,3:3:0:0:
257,205,167959,1,0,0:0:0:0:
301,199,168022,1,4,3:3:0:0:
340,193,168084,1,4,3:3:0:0:
375,187,168147,1,12,3:3:0:0:
406,181,168209,1,12,3:3:0:0:
433,175,168272,1,4,3:3:0:0:
457,169,168334,1,4,3:3:0:0:
478,163,168397,6,0,B|383:142|417:174|323:153,1,150.000005722046,6|4,3:2|3:3,0:0:0:0:
206,44,168647,1,14,3:3:0:0:
379,85,168772,1,4,3:3:0:0:
209,136,168897,1,14,3:3:0:0:
331,7,169022,1,4,3:3:0:0:
425,226,169147,1,14,3:3:0:0:
216,143,169272,1,4,3:3:0:0:
216,143,169334,1,4,3:3:0:0:
216,143,169397,6,0,B|277:139|277:139|306:126|306:126|367:120,1,150.000005722046,14|4,3:3|3:3,0:0:0:0:
248,259,169647,1,14,3:3:0:0:
254,63,169772,1,4,3:3:0:0:
347,236,169897,1,14,3:3:0:0:
158,238,170022,1,4,3:3:0:0:
158,238,170084,1,4,3:3:0:0:
158,238,170147,1,14,3:3:0:0:
254,63,170272,1,4,3:3:0:0:
347,236,170397,6,0,B|251:229|296:198|192:191,1,150.000005722046,6|4,3:2|3:3,0:0:0:0:
165,324,170647,1,14,3:3:0:0:
319,157,170772,1,4,3:3:0:0:
122,166,170897,1,14,3:3:0:0:
317,308,171022,1,4,3:3:0:0:
317,308,171084,1,4,3:3:0:0:
317,308,171147,1,14,3:3:0:0:
220,136,171272,1,4,3:3:0:0:
165,324,171397,54,0,B|225:318|225:318|253:304|253:304|315:298,1,150.000005722046,14|4,3:3|3:3,0:0:0:0:
317,308,171584,1,4,3:3:0:0:
317,308,171647,1,14,3:3:0:0:
350,154,171772,1,4,3:3:0:0:
302,381,171897,1,14,3:3:0:0:
445,238,172022,1,4,3:3:0:0:
445,238,172084,1,4,3:3:0:0:
445,238,172147,1,14,3:3:0:0:
195,226,172272,1,4,3:3:0:0:
431,356,172397,6,0,B|437:280|404:289|415:203,1,150.000005722046,6|4,3:2|3:3,0:0:0:0:
483,101,172647,1,14,3:3:0:0:
490,248,172772,1,4,3:3:0:0:
490,248,172834,1,4,3:3:0:0:
490,248,172897,1,14,3:3:0:0:
309,110,173022,1,4,3:3:0:0:
359,272,173147,1,14,3:3:0:0:
392,38,173272,1,4,3:3:0:0:
392,38,173334,1,4,3:3:0:0:
392,38,173397,6,0,B|388:102|388:102|399:126|399:126|394:200,1,150.000005722046,14|4,3:3|3:3,0:0:0:0:
288,38,173647,1,14,3:3:0:0:
491,108,173772,1,4,3:3:0:0:
491,108,173834,1,4,3:3:0:0:
491,108,173897,1,14,3:3:0:0:
231,152,174022,1,4,3:3:0:0:
497,183,174147,1,14,3:3:0:0:
213,77,174272,1,4,3:3:0:0:
413,39,174397,53,12,3:3:0:0:
384,68,174459,1,12,3:3:0:0:
373,107,174522,1,4,3:3:0:0:
383,146,174584,1,4,3:3:0:0:
411,175,174647,1,12,3:3:0:0:
421,214,174709,1,4,3:3:0:0:
410,253,174772,1,4,3:3:0:0:
381,282,174834,1,4,3:3:0:0:
341,291,174897,5,4,3:3:0:0:
303,280,174959,1,0,3:3:0:0:
274,251,175022,1,0,3:3:0:0:
264,212,175084,1,0,3:3:0:0:
274,173,175147,2,0,L|327:119,1,75.0000028610231,12|12,3:3|3:3,0:0:0:0:
413,39,175272,2,0,L|407:114,1,75.0000028610231,12|0,3:3|3:3,0:0:0:0:
469,203,175397,5,4,3:3:0:0:
421,214,175459,1,4,3:3:0:0:
373,199,175522,1,12,3:3:0:0:
339,162,175584,1,4,3:3:0:0:
328,113,175647,1,4,3:3:0:0:
294,76,175709,1,0,3:3:0:0:
246,61,175772,1,4,3:3:0:0:
198,72,175834,1,4,3:3:0:0:
161,106,175897,53,12,3:3:0:0:
146,153,175959,1,4,3:3:0:0:
157,203,176022,1,4,3:3:0:0:
190,239,176084,1,4,3:3:0:0:
236,253,176147,2,0,L|386:232,1,150.000005722046,6|0,3:2|0:0,0:0:0:0:
244,153,176397,5,6,3:2:0:0:
191,137,176459,1,4,3:3:0:0:
137,149,176522,1,4,3:3:0:0:
96,186,176584,1,4,3:3:0:0:
80,239,176647,1,14,3:3:0:0:
92,292,176709,1,4,3:3:0:0:
130,333,176772,1,4,3:3:0:0:
182,350,176834,1,4,3:3:0:0:
236,338,176897,5,6,3:3:0:0:
276,301,176959,1,4,3:3:0:0:
293,248,177022,1,4,3:3:0:0:
333,211,177084,1,4,3:3:0:0:
387,199,177147,1,14,3:3:0:0:
439,216,177209,1,4,3:3:0:0:
477,257,177272,1,4,3:3:0:0:
488,310,177334,1,4,3:3:0:0:
471,363,177397,53,6,3:3:0:0:
434,322,177459,1,4,3:3:0:0:
422,267,177522,1,4,3:3:0:0:
439,214,177584,1,4,3:3:0:0:
480,176,177647,1,14,3:3:0:0:
497,123,177709,1,4,3:3:0:0:
485,68,177772,1,4,3:3:0:0:
448,27,177834,1,4,3:3:0:0:
394,10,177897,5,6,3:3:0:0:
340,22,177959,1,4,3:3:0:0:
298,60,178022,1,4,3:3:0:0:
281,112,178084,1,4,3:3:0:0:
293,167,178147,1,14,3:3:0:0:
330,208,178209,1,4,3:3:0:0:
384,225,178272,1,4,3:3:0:0:
438,214,178334,1,4,3:3:0:0:
479,177,178397,5,6,3:2:0:0:
431,152,178459,1,4,3:3:0:0:
376,154,178522,1,4,3:3:0:0:
330,183,178584,1,4,3:3:0:0:
304,231,178647,1,14,3:3:0:0:
258,260,178709,1,4,3:3:0:0:
203,262,178772,1,4,3:3:0:0:
155,237,178834,1,4,3:3:0:0:
126,190,178897,53,6,3:3:0:0:
124,136,178959,1,4,3:3:0:0:
150,87,179022,1,4,3:3:0:0:
195,58,179084,1,4,3:3:0:0:
250,56,179147,1,14,3:3:0:0:
297,81,179209,1,4,3:3:0:0:
327,128,179272,1,4,3:3:0:0:
374,153,179334,1,4,3:3:0:0:
429,151,179397,5,6,3:3:0:0:
400,105,179459,1,4,3:3:0:0:
351,79,179522,1,4,3:3:0:0:
296,81,179584,1,4,3:3:0:0:
249,110,179647,1,14,3:3:0:0:
223,158,179709,1,4,3:3:0:0:
225,213,179772,1,4,3:3:0:0:
254,260,179834,1,4,3:3:0:0:
303,286,179897,5,6,3:3:0:0:
357,284,179959,1,4,3:3:0:0:
404,255,180022,1,4,3:3:0:0:
430,206,180084,1,4,3:3:0:0:
429,151,180147,2,0,L|403:68,3,75.0000028610231,14|4|4|4,3:3|3:3|3:3|3:3,0:0:0:0:
248,110,180397,53,6,3:2:0:0:
285,152,180459,1,4,3:3:0:0:
338,169,180522,1,4,3:3:0:0:
392,157,180584,1,4,3:3:0:0:
445,174,180647,1,14,3:3:0:0:
482,216,180709,1,4,3:3:0:0:
494,270,180772,1,4,3:3:0:0:
477,323,180835,1,4,3:3:0:0:
435,360,180897,5,6,3:3:0:0:
380,371,180959,1,4,3:3:0:0:
327,353,181021,1,4,3:3:0:0:
290,313,181084,1,4,3:3:0:0:
279,258,181147,1,14,3:3:0:0:
296,205,181209,1,4,3:3:0:0:
285,150,181272,1,4,3:3:0:0:
248,110,181335,1,4,3:3:0:0:
195,92,181397,5,6,3:3:0:0:
205,146,181459,1,4,3:3:0:0:
240,187,181522,1,4,3:3:0:0:
291,205,181584,1,4,3:3:0:0:
344,195,181647,1,14,3:3:0:0:
385,160,181709,1,4,3:3:0:0:
403,109,181771,1,4,3:3:0:0:
393,56,181834,1,4,3:3:0:0:
360,19,181897,53,6,3:3:0:0:
316,4,181959,1,4,3:3:0:0:
275,12,182022,1,4,3:3:0:0:
246,36,182084,1,4,3:3:0:0:
219,57,182147,1,14,3:3:0:0:
188,61,182209,1,4,3:3:0:0:
162,50,182272,1,4,3:3:0:0:
138,40,182334,1,4,3:3:0:0:
114,43,182397,6,0,L|47:78,1,75.0000028610231,12|12,3:3|3:3,0:0:0:0:
153,132,182522,1,12,3:3:0:0:
153,132,182584,1,4,3:3:0:0:
153,132,182647,2,0,L|220:167,1,75.0000028610231,12|12,3:3|3:3,0:0:0:0:
350,196,182772,2,0,L|286:236,1,75.0000028610231,4|4,3:3|3:3,0:0:0:0:
197,335,182897,5,0,3:3:0:0:
197,335,182959,1,0,3:3:0:0:
197,335,183022,2,0,L|193:259,1,75.0000028610231,12|12,3:3|3:3,0:0:0:0:
153,132,183147,2,0,P|191:124|228:140,1,75.0000028610231,12|12,3:3|3:3,0:0:0:0:
118,216,183272,2,0,P|80:224|43:208,1,75.0000028610231,4|4,3:3|3:3,0:0:0:0:
92,71,183397,54,0,B|280:-11|292:173|469:129,1,389.999982147218,6|0,3:2|0:0,0:0:0:0:
411,28,183897,2,0,B|345:96|405:179|405:179|373:225|373:225|427:298|374:380,1,389.999982147218,6|0,3:2|0:0,0:0:0:0:
195,173,184397,38,0,P|267:158|327:187,1,125,6|4,3:2|3:3,0:0:0:0:
163,256,184647,2,0,P|114:201|109:134,1,125,2|4,3:1|3:3,0:0:0:0:
251,243,184897,2,0,P|227:312|172:350,1,125,2|4,3:1|3:3,0:0:0:0:
202,179,185147,1,2,3:1:0:0:
202,179,185209,1,12,3:3:0:0:
202,179,185272,1,4,3:3:0:0:
268,126,185397,6,0,L|395:151,1,125,2|4,3:1|3:3,0:0:0:0:
462,225,185647,1,2,3:1:0:0:
462,225,185709,1,12,3:3:0:0:
462,225,185772,1,4,3:3:0:0:
373,267,185897,2,0,L|246:242,1,125,2|4,3:1|3:3,0:0:0:0:
202,179,186147,1,2,3:1:0:0:
202,179,186209,1,0,3:3:0:0:
202,179,186272,1,4,3:3:0:0:
284,203,186397,6,0,P|268:276|225:305,1,125,6|4,3:2|3:3,0:0:0:0:
222,140,186647,2,0,P|293:117|339:140,1,125,2|4,3:1|3:3,0:0:0:0:
199,226,186897,2,0,P|143:175|140:123,1,125,2|4,3:1|3:3,0:0:0:0:
292,210,187147,1,2,3:1:0:0:
292,210,187209,1,0,0:0:0:0:
292,210,187272,1,4,3:3:0:0:
252,287,187397,53,6,3:2:0:0:
219,307,187459,1,0,3:3:0:0:
180,308,187522,1,4,3:3:0:0:
146,289,187584,1,0,0:0:0:0:
125,256,187647,1,2,3:1:0:0:
124,217,187709,1,4,3:3:0:0:
142,183,187772,1,6,3:2:0:0:
176,163,187834,1,4,3:3:0:0:
215,161,187897,5,2,3:1:0:0:
249,141,187959,1,12,3:3:0:0:
267,107,188022,1,4,3:3:0:0:
266,68,188084,1,0,0:0:0:0:
246,34,188147,1,6,3:2:0:0:
212,16,188210,1,0,0:0:0:0:
173,17,188272,1,4,3:3:0:0:
140,37,188334,1,0,0:0:0:0:
121,71,188397,6,0,B|123:125|123:125|132:146|132:146|134:199,1,125,6|0,3:2|0:0,0:0:0:0:
60,241,188647,5,12,3:3:0:0:
98,270,188709,1,12,3:3:0:0:
145,276,188772,1,12,3:3:0:0:
189,257,188834,1,12,3:3:0:0:
217,219,188897,5,12,3:3:0:0:
261,200,188959,1,12,3:3:0:0:
308,206,189022,1,12,3:3:0:0:
346,235,189084,1,12,3:3:0:0:
365,278,189147,1,12,3:3:0:0:
359,326,189209,1,12,3:3:0:0:
331,364,189272,1,12,3:3:0:0:
286,382,189334,1,12,3:3:0:0:
238,375,189397,5,12,3:3:0:0:
220,329,189459,1,12,3:3:0:0:
218,279,189522,1,12,3:3:0:0:
233,232,189584,1,12,3:3:0:0:
264,192,189647,1,12,3:3:0:0:
279,145,189709,1,12,3:3:0:0:
277,95,189772,1,12,3:3:0:0:
259,49,189834,1,12,3:3:0:0:
226,11,189897,53,12,3:3:0:0:
210,59,189959,1,12,3:3:0:0:
220,108,190022,1,12,3:3:0:0:
253,145,190084,1,12,3:3:0:0:
301,161,190147,2,0,L|430:133,1,125,12|4,3:3|3:3,0:0:0:0:
386,35,190397,6,0,L|318:55,1,62.5,12|0,3:3|0:0,0:0:0:0:
136,123,190522,1,4,3:3:0:0:
308,245,190647,1,4,3:3:0:0:
268,3,190772,6,0,L|214:59,1,62.5,12|0,3:3|0:0,0:0:0:0:
77,224,190897,1,4,3:3:0:0:
308,245,191022,1,4,3:3:0:0:
132,60,191147,54,0,L|136:133,1,62.5,6|0,3:2|0:0,0:0:0:0:
308,245,191272,2,0,L|304:172,1,62.5,4|4,3:3|3:3,0:0:0:0:
134,285,191397,5,12,3:3:0:0:
393,271,191522,1,12,3:3:0:0:
165,189,191647,1,12,3:3:0:0:
353,352,191772,2,0,B|353:275|383:300|383:227,1,125,6|4,3:2|3:3,0:0:0:0:
360,202,191959,1,4,3:3:0:0:
319,181,192022,1,4,3:3:0:0:
272,183,192084,1,4,3:3:0:0:
233,208,192147,2,0,L|234:281,1,62.5,6|0,3:2|0:0,0:0:0:0:
353,352,192272,5,4,3:3:0:0:
395,332,192334,1,4,3:3:0:0:
421,293,192397,1,4,3:3:0:0:
424,246,192459,1,4,3:3:0:0:
403,204,192522,2,0,L|355:160,1,62.5,6|0,3:2|0:0,0:0:0:0:
233,208,192647,53,4,3:3:0:0:
195,231,192709,1,4,3:3:0:0:
150,231,192772,1,4,3:3:0:0:
111,209,192834,1,4,3:3:0:0:
87,169,192897,2,0,B|91:112|91:112|82:90|82:90|88:27,1,125,12|12,3:3|3:3,0:0:0:0:
244,72,193147,5,12,3:3:0:0:
238,140,193209,1,12,3:3:0:0:
233,208,193272,1,12,3:3:0:0:
227,276,193334,1,12,3:3:0:0:
222,344,193397,1,4,3:1:0:0:
