osu file format v14

[General]
AudioFilename: audio.mp3
AudioLeadIn: 0
PreviewTime: -1
Countdown: 0
SampleSet: None
StackLeniency: 0.7
Mode: 0
LetterboxInBreaks: 0
WidescreenStoryboard: 1

[Editor]
DistanceSpacing: 0.8
BeatDivisor: 4
GridSize: 8
TimelineZoom: 1

[Metadata]
Title:Re:Zero Opening
TitleUnicode:Re:Zero Opening
Artist:Unbekannt
ArtistUnicode:Unbekannt
Creator:SmashyLP
Version:Normal
Source:
Tags:
BeatmapID:1560407
BeatmapSetID:739524

[Difficulty]
HPDrainRate:5
CircleSize:3
OverallDifficulty:2
ApproachRate:4
SliderMultiplier:1.4
SliderTickRate:1

[Events]
//Background and Video events
0,0,"Ram Wallpaper.jpg",0,0
//Break Periods
//Storyboard Layer 0 (Background)
//Storyboard Layer 1 (Fail)
//Storyboard Layer 2 (Pass)
//Storyboard Layer 3 (Foreground)
//Storyboard Sound Samples

[TimingPoints]
5743.1435141963,315.839343054166,4,1,1,50,1,0
5901,-200,4,1,1,50,0,0
53750,-100,4,1,1,50,0,0

[HitObjects]
96,64,5743,5,0,0:0:0:0:
96,64,6058,2,0,B|88:144|88:144|104:208,1,140
128,264,7006,2,0,L|144:304,2,35
80,160,7638,1,0,0:0:0:0:
120,56,7954,1,0,0:0:0:0:
216,0,8269,2,0,B|272:-16|272:-16|328:16|336:48,1,140
400,128,9217,2,0,P|424:176|424:264,1,140
368,320,10164,2,0,L|352:336,2,17.5
424,264,10480,1,0,0:0:0:0:
432,184,10796,6,0,B|344:136|344:136|240:184,1,210
96,256,12059,1,0,0:0:0:0:
152,128,12375,1,0,0:0:0:0:
256,264,12691,1,0,0:0:0:0:
376,168,13007,1,0,0:0:0:0:
464,56,13323,2,0,B|384:32|384:32|280:112,1,210
176,200,14586,2,0,B|120:240|120:240|120:280|96:344|96:344|104:344|216:368|176:320,1,280
112,160,16165,1,0,0:0:0:0:
208,80,16481,1,0,0:0:0:0:
320,128,16797,1,0,0:0:0:0:
336,256,17113,1,0,0:0:0:0:
240,328,17429,2,0,P|216:336|192:344,2,35
360,288,18060,1,0,0:0:0:0:
472,208,18376,2,0,B|504:176|504:176|408:144,2,140
368,272,19955,1,0,0:0:0:0:
224,296,20271,1,0,0:0:0:0:
88,48,20903,6,0,B|88:192|88:192|136:128|208:104,1,280
296,80,22482,1,0,0:0:0:0:
400,64,22798,2,0,P|424:64|448:72,2,35
296,80,23430,2,0,B|232:96|184:136|184:136|224:184|160:272|160:272|224:256|304:280,1,420
448,200,25956,2,0,P|464:168|464:160,2,35
400,272,26430,2,0,L|368:296,1,35
272,328,26746,2,0,L|208:328,1,52.5
120,288,27062,2,0,P|104:280|96:264,2,35
264,168,27693,1,0,0:0:0:0:
328,104,27851,1,0,0:0:0:0:
424,136,28167,6,0,P|432:176|432:216,1,70
392,328,29115,2,0,P|344:344|240:336,2,140
104,80,31010,6,0,L|104:128,1,35
96,192,31326,2,0,L|144:192,1,35
208,192,31641,2,0,L|208:144,1,35
208,80,31957,2,0,L|256:80,1,35
320,88,32273,2,0,L|320:160,1,70
320,240,32747,1,0,0:0:0:0:
320,320,32905,2,0,B|392:320|392:320|392:240,1,140
392,176,33694,1,0,0:0:0:0:
392,96,33852,2,0,B|392:48|392:48|288:48,1,140
224,48,34642,1,0,0:0:0:0:
224,128,34800,2,0,B|224:184|224:184|304:184,1,122.5
288,104,35589,6,0,L|288:64,3,35
264,344,36379,2,0,B|192:312|192:312|232:232|232:232|136:192|112:216,1,280
88,264,37800,1,0,0:0:0:0:
48,312,37958,2,0,P|8:280|0:264,1,70
0,184,38590,1,0,0:0:0:0:
40,104,38906,2,0,B|72:56|72:56|128:120|128:120|200:48|248:48,1,280
344,56,40485,2,0,P|384:72|416:88,1,70
408,264,41117,6,0,L|368:264,1,35
376,192,41432,2,0,L|376:144,1,35
376,80,41748,2,0,L|328:80,1,35
264,80,42064,2,0,L|264:128,1,35
264,184,42380,2,0,B|264:240|264:240|176:240,1,140
112,240,43328,1,0,0:0:0:0:
112,160,43643,2,0,B|112:48|112:48|152:48,1,140
216,48,44591,1,0,0:0:0:0:
216,120,44907,2,0,L|216:240,2,105
288,40,46012,5,0,0:0:0:0:
288,40,46170,2,0,P|336:80|360:152,1,140
352,248,47118,1,0,0:0:0:0:
280,328,47433,2,0,B|224:352|184:344|184:344|208:272|184:232,1,210
144,144,48697,1,0,0:0:0:0:
96,72,49013,1,0,0:0:0:0:
48,160,49328,1,0,0:0:0:0:
72,272,49644,1,0,0:0:0:0:
176,336,49960,2,0,B|288:344|288:344|232:272|264:208,1,245
272,128,51224,6,0,L|280:80,1,35
392,152,51697,2,0,L|368:184,1,35
312,296,52171,2,0,L|264:288,1,35
200,280,52487,1,0,0:0:0:0:
88,256,52803,1,0,0:0:0:0:
48,168,53119,2,0,P|40:144|32:128,4,35
64,280,54066,6,0,B|216:280|216:280|344:320,1,280
368,240,55014,2,0,B|256:192|256:192|152:64,1,280
72,88,56277,2,0,L|32:232,1,140
112,240,56909,2,0,L|152:96,1,140
224,128,57540,2,0,L|184:264,1,140
152,336,58172,2,0,L|0:296,1,140
72,144,59119,2,0,P|120:96|192:80,2,140
48,240,59909,2,0,P|40:280|48:312,2,70
80,144,60699,2,0,B|120:56|120:56|128:128|192:232,1,280
256,304,61646,2,0,L|288:328,6,35
344,288,62199,2,0,L|376:272,5,35
392,176,62910,1,0,0:0:0:0:
352,80,63225,1,0,0:0:0:0:
248,72,63541,1,0,0:0:0:0:
112,112,63857,6,0,B|88:200|88:200|144:184|144:184|72:328|72:328|160:288|328:328,1,560
416,352,65436,1,0,0:0:0:0:
416,184,65752,1,0,0:0:0:0:
288,312,66068,1,0,0:0:0:0:
256,192,66384,2,0,B|240:160|240:160|200:192|120:200,1,140
96,80,67015,2,0,B|184:96|184:96|200:64|248:64,1,140
304,64,67489,2,0,L|384:72,1,70
464,168,67963,2,0,B|384:208|384:208|376:144|376:144|304:216|312:280,1,280
216,312,68911,2,0,L|120:320,7,70
112,232,70174,6,0,L|112:144,5,70
112,80,71121,2,0,L|112:40,2,35
240,120,71437,6,0,L|320:80,7,70
400,56,72701,2,0,B|448:40|464:16|464:16|456:112|496:208|496:208|424:152|344:216,1,420
128,312,73964,2,0,B|240:256|240:256|96:200|120:104|120:104|152:152|320:48,1,560
368,192,76333,1,0,0:0:0:0:
368,192,76491,2,0,B|368:304|360:296|280:216|280:224|288:248|272:296|208:320|80:264|72:152|64:232|112:320|176:192|168:80|144:48|216:16|248:80|208:152|200:192|248:216|288:104|296:32|352:40|400:80|408:120|400:184|416:248|472:184|472:120|496:152,1,770
480,224,78386,2,0,L|424:304,3,70
384,328,79017,2,0,B|216:344|216:344|152:248|152:248|240:272|296:192,1,420
200,80,80281,6,0,L|144:144,15,70
272,72,82807,6,0,L|320:128,15,70
384,208,85334,6,0,B|432:112|432:112|448:264|344:336|344:336|296:240|152:224,1,560
96,88,87229,6,0,B|144:144|144:144|208:80|352:80,1,280
368,184,88493,6,0,L|368:224,2,35
360,176,88808,1,0,0:0:0:0:
