osu file format v14

[General]
AudioFilename: audio.mp3
AudioLeadIn: 0
PreviewTime: 49222
Countdown: 1
SampleSet: None
StackLeniency: 0.7
Mode: 0
LetterboxInBreaks: 0
WidescreenStoryboard: 1

[Editor]
DistanceSpacing: 1.2
BeatDivisor: 4
GridSize: 16
TimelineZoom: 1

[Metadata]
Title:Jingo Jungle (dj-Jo Remix)
TitleUnicode:Jingo Jungle (dj-Jo Remix)
Artist:Un3h
ArtistUnicode:Un3h
Creator:kevww
Version:Normal
Source:幼女戦記
Tags:
BeatmapID:1217092
BeatmapSetID:574679

[Difficulty]
HPDrainRate:3
CircleSize:3
OverallDifficulty:4
ApproachRate:6
SliderMultiplier:2.5
SliderTickRate:3

[Events]
//Background and Video events
0,0,"BG.jpg",0,0
//Break Periods
//Storyboard Layer 0 (Background)
//Storyboard Layer 1 (Fail)
//Storyboard Layer 2 (Pass)
//Storyboard Layer 3 (Foreground)
//Storyboard Sound Samples

[TimingPoints]
2344,461.538461538462,4,1,0,100,1,0
16651,1846.15384615385,4,1,0,100,1,0
17574,1846.15384615385,4,1,0,100,1,0
18000,461.538461538462,4,1,0,100,1,0
22222,461.538461538462,4,1,0,100,1,0
34222,857.142857142857,4,1,0,100,1,0
49222,315.789473684211,4,1,0,100,1,0
50315,461.538461538462,4,1,0,100,1,0

[Colours]
Combo1 : 255,0,0
Combo2 : 0,0,255
Combo3 : 128,0,64
Combo4 : 0,128,0

[HitObjects]
256,192,36,12,0,1882,0:0:0:0:
128,128,2344,5,0,0:0:0:0:
256,256,2805,1,0,0:0:0:0:
416,240,3267,2,0,P|304:128|256:160,1,250
256,160,4190,5,0,0:0:0:0:
112,288,4651,1,0,0:0:0:0:
320,96,5113,1,0,0:0:0:0:
336,256,5574,2,0,P|192:224|208:176,2,250
384,304,7420,5,0,0:0:0:0:
336,96,7882,1,0,0:0:0:0:
128,160,8344,1,0,0:0:0:0:
256,192,8805,2,0,L|128:208,1,125
128,208,9267,1,0,0:0:0:0:
352,192,9728,1,0,0:0:0:0:
112,208,10190,6,0,P|256:256|256:208,2,250
368,112,11574,1,0,0:0:0:0:
112,288,12036,1,0,0:0:0:0:
384,224,12497,1,0,0:0:0:0:
144,176,12959,2,0,L|256:256,4,125
256,192,14344,5,0,0:0:0:0:
368,96,14805,2,0,P|416:160|400:176,4,125
176,176,15959,2,0,L|304:240,1,125
320,96,16651,2,0,P|400:208|320:272,1,250
336,269,18923,5,0,0:0:0:0:
128,128,19384,1,0,0:0:0:0:
320,160,19846,2,0,P|336:304|272:288,1,250
304,304,20769,1,0,0:0:0:0:
144,192,21230,5,0,0:0:0:0:
144,192,21461,1,0,0:0:0:0:
144,192,21692,1,0,0:0:0:0:
320,128,21923,2,0,P|368:208|336:224,1,125
224,160,22452,2,0,L|320:256,5,125
312,248,23837,1,0,0:0:0:0:
320,256,24068,1,0,0:0:0:0:
240,192,24298,6,0,P|208:272|240:304,6,125
256,144,26145,1,0,0:0:0:0:
336,272,26375,1,0,0:0:0:0:
176,256,26606,1,0,0:0:0:0:
256,192,26837,2,0,P|384:176|416:208,3,125
371,169,27760,5,0,0:0:0:0:
128,240,28222,1,0,0:0:0:0:
272,112,28683,1,0,0:0:0:0:
320,256,29145,1,0,0:0:0:0:
96,192,29606,1,0,0:0:0:0:
240,144,29837,2,0,P|320:208|304:224,6,125
336,192,31452,5,0,0:0:0:0:
224,272,31683,2,0,P|160:240|176:224,6,125
160,160,33529,2,0,P|240:208|224:224,2,125
208,160,34436,2,0,L|256:240,2,62.5
240,144,35293,6,0,L|304:224,1,62.5
288,192,35722,1,0,0:0:0:0:
288,192,35936,1,0,0:0:0:0:
288,192,36150,1,0,0:0:0:0:
400,240,36364,2,0,P|352:304|288:288,1,125
208,176,37222,5,0,0:0:0:0:
208,176,37436,1,0,0:0:0:0:
208,176,37650,1,0,0:0:0:0:
320,144,38079,2,0,P|352:176|352:192,2,62.5
224,288,38936,2,0,P|192:272|176:240,2,62.5
160,128,39936,2,0,P|192:96|208:112,2,62.5
224,208,40864,5,0,0:0:0:0:
80,160,41079,1,0,0:0:0:0:
192,64,41293,1,0,0:0:0:0:
384,176,41722,1,0,0:0:0:0:
464,320,41936,1,0,0:0:0:0:
304,320,42150,1,0,0:0:0:0:
128,160,42579,6,0,P|256:160|256:176,1,187.5
256,160,43436,1,0,0:0:0:0:
256,160,43650,1,0,0:0:0:0:
256,160,43864,1,0,0:0:0:0:
176,160,44507,6,0,P|256:256|272:256,1,125
242,253,45150,1,0,0:0:0:0:
384,176,45793,2,0,L|208:128,1,125
263,143,46436,1,0,0:0:0:0:
263,143,46650,1,0,0:0:0:0:
256,192,46864,12,0,47936,0:0:0:0:
256,192,48364,5,0,0:0:0:0:
256,192,48793,1,0,0:0:0:0:
256,192,49007,1,0,0:0:0:0:
256,192,49222,2,0,P|336:160|352:160,3,62.5
320,160,49853,1,0,0:0:0:0:
144,208,50315,5,0,0:0:0:0:
144,208,50545,1,0,0:0:0:0:
144,208,50776,1,0,0:0:0:0:
256,144,51468,2,0,L|368:208,5,125
160,240,53084,1,0,0:0:0:0:
160,240,53315,1,0,0:0:0:0:
160,240,53545,1,0,0:0:0:0:
336,128,54007,5,0,0:0:0:0:
336,128,54238,1,0,0:0:0:0:
336,128,54468,1,0,0:0:0:0:
144,128,54930,1,0,0:0:0:0:
144,128,55161,1,0,0:0:0:0:
144,128,55391,1,0,0:0:0:0:
144,128,55622,6,0,L|224:224,3,125
352,128,56776,1,0,0:0:0:0:
256,208,57007,1,0,0:0:0:0:
256,112,57238,1,0,0:0:0:0:
160,160,57699,2,0,L|208:272,1,62.5
192,224,58161,1,0,0:0:0:0:
320,96,58853,6,0,P|368:144|384:224,5,125
192,240,60468,1,0,0:0:0:0:
256,96,60930,1,0,0:0:0:0:
320,272,61391,1,0,0:0:0:0:
128,240,61853,2,0,P|144:144|160:144,2,125
336,144,62776,1,0,0:0:0:0:
128,304,63238,1,0,0:0:0:0:
176,112,63699,1,0,0:0:0:0:
320,160,64161,2,0,P|368:288|288:320,1,250
256,192,64853,12,0,66238,0:0:0:0:
256,192,66468,12,0,68084,0:0:0:0:
336,128,71315,5,0,0:0:0:0:
208,272,71545,2,0,P|160:160|176:144,2,125
368,208,72468,1,0,0:0:0:0:
368,208,72699,1,0,0:0:0:0:
368,208,72930,1,0,0:0:0:0:
240,288,73391,2,0,P|160:160|224:112,2,250
256,192,74776,12,0,76161,0:0:0:0:
256,192,76622,5,0,0:0:0:0:
384,112,77084,2,0,P|432:208|416:224,1,125
96,192,77776,2,0,P|160:272|224:272,6,125
320,160,79853,1,0,0:0:0:0:
320,160,80084,1,0,0:0:0:0:
320,160,80315,1,0,0:0:0:0:
256,192,80776,12,0,83545,0:0:0:0:
128,272,84007,5,0,0:0:0:0:
224,128,84468,2,0,P|336:176|368:208,2,125
144,240,85161,2,0,P|224:272|272:256,5,125
256,192,86776,12,0,90815,0:0:0:0:
