osu file format v14

[General]
AudioFilename: audio.mp3
AudioLeadIn: 0
PreviewTime: 49155
Countdown: 1
SampleSet: None
StackLeniency: 0.7
Mode: 0
LetterboxInBreaks: 0
WidescreenStoryboard: 0

[Editor]
DistanceSpacing: 1.2
BeatDivisor: 4
GridSize: 16
TimelineZoom: 1

[Metadata]
Title:Jingo Jungle (dj-Jo Remix)
TitleUnicode:Jingo Jungle (dj-Jo Remix)
Artist:Un3h
ArtistUnicode:Un3h
Creator:kevww
Version:Insane
Source:幼女戦記
Tags:
BeatmapID:1217091
BeatmapSetID:574679

[Difficulty]
HPDrainRate:5
CircleSize:4
OverallDifficulty:5
ApproachRate:8
SliderMultiplier:2.5
SliderTickRate:3

[Events]
//Background and Video events
0,0,"BG.jpg",0,0
//Break Periods
//Storyboard Layer 0 (Background)
//Storyboard Layer 1 (Fail)
//Storyboard Layer 2 (Pass)
//Storyboard Layer 3 (Foreground)
//Storyboard Sound Samples

[TimingPoints]
2344,461.538461538462,4,1,0,100,1,0
16536,1846.15384615385,4,1,0,100,1,0
18000,461.538461538462,4,1,0,100,1,0
22036,2000,4,1,0,100,1,0
22222,461.538461538462,4,1,0,100,1,0
33298,857.142857142857,4,1,0,100,1,0
49155,315.789473684211,4,1,0,100,1,0
50315,461.538461538462,4,1,0,100,1,0

[Colours]
Combo1 : 255,0,0
Combo2 : 0,0,255
Combo3 : 128,0,64
Combo4 : 0,128,0

[HitObjects]
256,192,36,8,0,1882,0:0:0:0:
320,112,2344,6,0,P|272:272|224:272,1,250
192,112,3267,1,0,0:0:0:0:
320,144,3728,2,0,P|224:272|224:272,2,125
192,128,4651,1,0,0:0:0:0:
320,272,5113,1,0,0:0:0:0:
176,112,5574,5,8,0:0:0:0:
176,112,5690,1,8,0:0:0:0:
176,112,5805,1,8,0:0:0:0:
176,112,5921,1,8,0:0:0:0:
176,112,6036,1,8,0:0:0:0:
336,224,6497,1,0,0:0:0:0:
304,112,7421,6,0,B|256:272|240:272|224:240,4,125,0|0|0|0|4,0:0|0:0|0:0|0:0|0:0,0:0:0:0:
240,128,8805,1,0,0:0:0:0:
208,64,9267,2,0,B|336:160|336:192|336:192,1,125
176,128,9728,1,0,0:0:0:0:
176,128,9844,1,0,0:0:0:0:
368,160,10190,1,0,0:0:0:0:
144,256,10651,5,0,0:0:0:0:
192,128,11113,2,0,P|336:208|416:176,1,250
368,96,12036,1,0,0:0:0:0:
384,128,12151,1,0,0:0:0:0:
384,160,12267,1,0,0:0:0:0:
368,192,12382,1,0,0:0:0:0:
352,208,12497,1,0,0:0:0:0:
224,192,12959,6,0,L|336:128,4,125
128,256,14344,1,0,0:0:0:0:
352,208,14805,1,0,0:0:0:0:
352,208,14921,1,0,0:0:0:0:
352,208,15036,1,0,0:0:0:0:
352,208,15151,1,0,0:0:0:0:
352,208,15267,1,0,0:0:0:0:
352,208,15728,5,0,0:0:0:0:
160,96,16651,6,0,P|272:192|368:224,1,250
400,112,18805,1,0,0:0:0:0:
272,144,19267,2,0,L|16:224,1,250
256,96,20423,1,0,0:0:0:0:
256,96,20538,1,0,0:0:0:0:
256,96,20653,1,0,0:0:0:0:
256,96,20769,1,0,0:0:0:0:
256,96,20884,1,0,0:0:0:0:
336,112,21113,6,0,P|336:240|320:256,1,125
304,112,21692,2,0,P|368:256|352:272,1,187.5
176,144,22382,1,0,0:0:0:0:
176,144,22497,1,0,0:0:0:0:
192,160,22728,1,0,0:0:0:0:
192,160,22844,1,0,0:0:0:0:
208,176,23074,1,0,0:0:0:0:
208,176,23190,1,0,0:0:0:0:
368,144,23421,1,0,0:0:0:0:
384,240,23651,6,0,L|160:288,1,187.5
256,48,24344,5,0,0:0:0:0:
256,320,24574,1,0,0:0:0:0:
352,112,24690,1,0,0:0:0:0:
160,272,24921,1,0,0:0:0:0:
400,192,25036,1,0,0:0:0:0:
256,192,25267,1,0,0:0:0:0:
112,192,25382,1,0,0:0:0:0:
256,128,26029,6,0,P|352:224|352:256,1,125
352,208,26375,1,0,0:0:0:0:
192,256,26837,1,0,0:0:0:0:
192,256,26952,2,0,L|336:192,1,125
160,96,27760,1,0,0:0:0:0:
336,256,27991,1,0,0:0:0:0:
96,240,28222,1,0,0:0:0:0:
240,112,28337,2,0,P|320:192|304:208,1,125
144,144,28799,5,0,0:0:0:0:
352,272,29029,1,0,0:0:0:0:
240,96,29260,2,0,P|128:224|144:256,1,187.5
320,96,29837,5,0,0:0:0:0:
128,288,30068,1,0,0:0:0:0:
224,80,30299,1,0,0:0:0:0:
256,304,30529,1,0,0:0:0:0:
112,96,30760,1,0,0:0:0:0:
336,256,30991,1,0,0:0:0:0:
224,112,31683,6,0,P|304:192|288:176,5,125
176,256,33068,1,0,0:0:0:0:
336,224,33299,2,0,P|256:160|240:144,1,125
192,112,33875,5,0,0:0:0:0:
192,112,33991,1,0,0:0:0:0:
368,112,34222,1,0,0:0:0:0:
192,96,34568,1,0,0:0:0:0:
192,96,34683,1,0,0:0:0:0:
368,288,35227,1,0,0:0:0:0:
192,80,35441,2,0,P|256:160|288:176,1,125
144,240,36068,1,0,0:0:0:0:
320,192,36529,1,0,0:0:0:0:
144,128,37156,1,0,0:0:0:0:
288,224,37370,1,0,0:0:0:0:
160,256,37584,1,0,0:0:0:0:
368,240,38013,2,0,L|400:304,2,62.5
224,112,39013,1,0,0:0:0:0:
224,112,39156,1,0,0:0:0:0:
224,112,39441,1,0,0:0:0:0:
224,112,39941,1,0,0:0:0:0:
224,112,40156,1,0,0:0:0:0:
224,112,40370,2,0,L|304:192,1,62.5
208,112,40799,2,0,L|272:176,3,62.5
256,160,41656,2,0,L|304:224,1,62.5
304,224,42084,2,0,L|352:272,1,62.5
256,80,42727,1,0,0:0:0:0:
256,272,42870,1,0,0:0:0:0:
192,96,43013,1,0,0:0:0:0:
320,256,43156,1,0,0:0:0:0:
160,144,43299,1,0,0:0:0:0:
352,208,43441,1,0,0:0:0:0:
256,192,43584,1,0,0:0:0:0:
432,64,44013,1,0,0:0:0:0:
192,112,44441,6,0,L|272:176,1,83.3333333333333
256,160,45156,1,0,0:0:0:0:
176,112,45727,2,0,L|256:240,1,125
256,192,46799,12,0,47870,0:0:0:0:
256,192,48084,5,0,0:0:0:0:
256,192,48406,1,0,0:0:0:0:
256,192,48727,1,0,0:0:0:0:
256,192,48941,1,0,0:0:0:0:
320,64,49156,2,0,L|400:256,1,187.5
112,256,49617,5,0,0:0:0:0:
256,96,49853,1,0,0:0:0:0:
256,304,50315,1,0,0:0:0:0:
256,96,50430,1,0,0:0:0:0:
336,272,50545,1,0,0:0:0:0:
176,128,50661,1,0,0:0:0:0:
256,192,50776,1,0,0:0:0:0:
352,160,51353,6,0,L|64:288,1,312.5
64,288,52161,2,0,L|176:224,2,125
368,128,53084,1,0,0:0:0:0:
320,320,53315,1,0,0:0:0:0:
176,192,53545,1,0,0:0:0:0:
256,192,54007,6,0,L|144:272,2,125
160,128,54930,1,0,0:0:0:0:
320,304,55161,1,0,0:0:0:0:
320,112,55392,1,0,0:0:0:0:
96,288,55622,1,0,0:0:0:0:
224,80,55853,5,0,0:0:0:0:
320,272,56084,1,0,0:0:0:0:
320,272,56315,2,0,L|304:128,1,125
306,147,56776,1,0,0:0:0:0:
96,80,57007,1,0,0:0:0:0:
176,224,57238,2,0,L|304:176,4,125
144,112,58853,6,0,L|368:272,1,250
347,257,59545,2,0,L|240:176,2,125
192,160,60468,2,0,L|304:240,1,125
80,160,60930,1,0,0:0:0:0:
176,128,61161,2,0,L|320:192,2,125
336,288,61853,1,0,0:0:0:0:
400,112,62315,5,0,0:0:0:0:
208,288,62545,1,0,0:0:0:0:
160,96,62776,1,0,0:0:0:0:
400,256,63007,2,0,P|304:320|272:320,1,125
298,320,63468,1,0,0:0:0:0:
304,320,63699,1,0,0:0:0:0:
208,128,64161,1,0,0:0:0:0:
384,272,64622,1,0,0:0:0:0:
256,192,64738,12,0,66007,0:0:0:0:
256,192,66353,12,0,68084,0:0:0:0:
144,272,68315,6,0,P|256:288|272:272,1,125
272,272,68661,2,0,P|320:224|320:208,1,62.5
192,112,69007,1,0,0:0:0:0:
416,288,69238,1,0,0:0:0:0:
176,176,69699,2,0,P|320:240|416:208,1,250
256,192,71315,5,0,0:0:0:0:
96,224,71545,2,0,B|224:304|208:288,2,125
256,192,72468,2,0,L|128:224,2,125
256,192,73392,12,0,76161,0:0:0:0:
128,112,76507,5,0,0:0:0:0:
224,256,76622,2,0,P|400:192|400:176,1,250
400,176,77315,1,0,0:0:0:0:
144,144,77776,1,0,0:0:0:0:
384,304,78007,1,0,0:0:0:0:
352,112,78238,1,0,0:0:0:0:
144,256,78468,1,0,0:0:0:0:
160,160,78930,6,0,L|320:240,2,125
256,192,79853,1,0,0:0:0:0:
256,192,80315,1,0,0:0:0:0:
256,192,80776,12,0,84007,0:0:0:0:
176,144,84468,5,0,0:0:0:0:
352,320,84699,1,0,0:0:0:0:
352,96,84930,1,0,0:0:0:0:
96,176,85392,2,0,P|192:288|224:304,5,125
256,192,86776,1,0,0:0:0:0:
256,192,86952,12,0,89933,0:0:0:0:
