osu file format v14

[General]
AudioFilename: audio.mp3
AudioLeadIn: 0
PreviewTime: -1
Countdown: 1
SampleSet: Normal
StackLeniency: 0.7
Mode: 3
LetterboxInBreaks: 0
SpecialStyle: 0
WidescreenStoryboard: 0

[Editor]
DistanceSpacing: 0.8
BeatDivisor: 6
GridSize: 8
TimelineZoom: 1

[Metadata]
Title:Crystallize - (The Brig Remix)
TitleUnicode:Crystallize - (The Brig Remix)
Artist:Umperia (ft. Ashley Apollodor)
ArtistUnicode:Umperia (ft. Ashley Apollodor)
Creator:Lom Ulsiik
Version:Crystallization
Source:
Tags:
BeatmapID:1743900
BeatmapSetID:832409

[Difficulty]
HPDrainRate:8
CircleSize:4
OverallDifficulty:8
ApproachRate:5
SliderMultiplier:1.6
SliderTickRate:2

[Events]
//Background and Video events
0,0,"Crystal.jpg",0,0
//Break Periods
//Storyboard Layer 0 (Background)
//Storyboard Layer 1 (Fail)
//Storyboard Layer 2 (Pass)
//Storyboard Layer 3 (Foreground)
//Storyboard Sound Samples

[TimingPoints]
86,400,4,1,0,40,1,0

[HitObjects]
320,192,86,5,0,0:0:0:0:
448,192,485,1,0,0:0:0:0:
320,192,752,1,0,0:0:0:0:
448,192,885,1,0,0:0:0:0:
192,192,1152,1,0,0:0:0:0:
64,192,1285,1,0,0:0:0:0:
192,192,1552,1,0,0:0:0:0:
320,192,1685,1,0,0:0:0:0:
192,192,2085,1,0,0:0:0:0:
448,192,2352,1,0,0:0:0:0:
192,192,2485,1,0,0:0:0:0:
448,192,2752,1,0,0:0:0:0:
64,192,2885,1,0,0:0:0:0:
448,192,3152,1,0,0:0:0:0:
192,192,3285,1,0,0:0:0:0:
320,192,3685,1,0,0:0:0:0:
192,192,4085,1,0,0:0:0:0:
64,192,4352,1,0,0:0:0:0:
320,192,4485,1,0,0:0:0:0:
192,192,4752,1,0,0:0:0:0:
448,192,4885,1,0,0:0:0:0:
192,192,5285,1,0,0:0:0:0:
320,192,5685,1,0,0:0:0:0:
192,192,5951,1,0,0:0:0:0:
448,192,6085,1,0,0:0:0:0:
320,192,6351,1,0,0:0:0:0:
64,192,6485,1,0,0:0:0:0:
192,192,6885,128,0,9484:0:0:0:0:
448,192,7151,1,0,0:0:0:0:
320,192,7285,1,0,0:0:0:0:
448,192,7551,1,0,0:0:0:0:
64,192,7685,1,0,0:0:0:0:
320,192,7951,1,0,0:0:0:0:
448,192,8085,1,0,0:0:0:0:
320,192,8484,1,0,0:0:0:0:
448,192,8751,1,0,0:0:0:0:
64,192,8884,1,0,0:0:0:0:
448,192,9151,1,0,0:0:0:0:
64,192,9284,1,0,0:0:0:0:
448,192,9484,1,0,0:0:0:0:
320,192,9684,1,0,0:0:0:0:
64,192,9751,1,0,0:0:0:0:
448,192,9818,1,0,0:0:0:0:
320,192,9884,1,0,0:0:0:0:
192,192,9951,1,0,0:0:0:0:
64,192,10018,128,0,10218:0:0:0:0:
320,192,10484,1,0,0:0:0:0:
192,192,10751,1,0,0:0:0:0:
320,192,10884,1,0,0:0:0:0:
320,192,11151,1,0,0:0:0:0:
192,192,11284,1,0,0:0:0:0:
320,192,11684,1,0,0:0:0:0:
64,192,12084,1,0,0:0:0:0:
320,192,12351,1,0,0:0:0:0:
192,192,12484,1,0,0:0:0:0:
320,192,12617,1,0,0:0:0:0:
64,192,12751,1,0,0:0:0:0:
320,192,12884,1,0,0:0:0:0:
192,192,13017,1,0,0:0:0:0:
64,192,13151,1,0,0:0:0:0:
448,192,13284,1,0,0:0:0:0:
192,192,13551,1,0,0:0:0:0:
320,192,13684,1,0,0:0:0:0:
192,192,13950,1,0,0:0:0:0:
320,192,14084,1,0,0:0:0:0:
192,192,14350,1,0,0:0:0:0:
64,192,14484,1,0,0:0:0:0:
320,192,14750,1,0,0:0:0:0:
192,192,14884,1,0,0:0:0:0:
192,192,15150,1,0,0:0:0:0:
448,192,15284,1,0,0:0:0:0:
192,192,15550,1,0,0:0:0:0:
448,192,15684,1,0,0:0:0:0:
192,192,15950,1,0,0:0:0:0:
64,192,16084,1,0,0:0:0:0:
320,192,16350,1,0,0:0:0:0:
192,192,16483,1,0,0:0:0:0:
320,192,16750,1,0,0:0:0:0:
448,192,16883,1,0,0:0:0:0:
192,192,17150,1,0,0:0:0:0:
64,192,17283,1,0,0:0:0:0:
320,192,17550,1,0,0:0:0:0:
448,192,17683,1,0,0:0:0:0:
192,192,17950,1,0,0:0:0:0:
320,192,18083,1,0,0:0:0:0:
320,192,18350,1,0,0:0:0:0:
64,192,18483,1,0,0:0:0:0:
448,192,18750,1,0,0:0:0:0:
192,192,18883,1,0,0:0:0:0:
320,192,19150,1,0,0:0:0:0:
64,192,19283,1,0,0:0:0:0:
192,192,19550,1,0,0:0:0:0:
448,192,19683,1,0,0:0:0:0:
320,192,19950,1,0,0:0:0:0:
64,192,20083,1,0,0:0:0:0:
192,192,20350,1,0,0:0:0:0:
448,192,20483,1,0,0:0:0:0:
64,192,20750,1,0,0:0:0:0:
320,192,20883,1,0,0:0:0:0:
320,192,21150,1,0,0:0:0:0:
192,192,21283,1,0,0:0:0:0:
320,192,21550,1,0,0:0:0:0:
448,192,21683,1,0,0:0:0:0:
192,192,21949,1,0,0:0:0:0:
320,192,22083,1,0,0:0:0:0:
320,192,22349,1,0,0:0:0:0:
192,192,22483,1,0,0:0:0:0:
64,192,22483,1,0,0:0:0:0:
64,192,22749,1,0,0:0:0:0:
320,192,22883,1,0,0:0:0:0:
192,192,23149,1,0,0:0:0:0:
320,192,23283,1,0,0:0:0:0:
448,192,23283,1,0,0:0:0:0:
192,192,23549,1,0,0:0:0:0:
448,192,23683,1,0,0:0:0:0:
320,192,23949,1,0,0:0:0:0:
192,192,24083,1,0,0:0:0:0:
64,192,24083,1,0,0:0:0:0:
448,192,24349,1,0,0:0:0:0:
192,192,24483,1,0,0:0:0:0:
64,192,24483,1,0,0:0:0:0:
192,192,24749,1,0,0:0:0:0:
448,192,24882,1,0,0:0:0:0:
320,192,24882,1,0,0:0:0:0:
320,192,25149,1,0,0:0:0:0:
192,192,25282,1,0,0:0:0:0:
64,192,25282,1,0,0:0:0:0:
448,192,25482,1,0,0:0:0:0:
192,192,25682,1,0,0:0:0:0:
320,192,25682,1,0,0:0:0:0:
320,192,25949,1,0,0:0:0:0:
448,192,26082,1,0,0:0:0:0:
320,192,26216,1,0,0:0:0:0:
192,192,26349,1,0,0:0:0:0:
64,192,26349,1,0,0:0:0:0:
320,192,26482,1,0,0:0:0:0:
448,192,26482,1,0,0:0:0:0:
192,192,26616,1,0,0:0:0:0:
448,192,26749,1,0,0:0:0:0:
64,192,26882,1,0,0:0:0:0:
320,192,27016,1,0,0:0:0:0:
448,192,27149,1,0,0:0:0:0:
64,192,27282,1,0,0:0:0:0:
192,192,27282,1,0,0:0:0:0:
320,192,27415,1,0,0:0:0:0:
192,192,27549,1,0,0:0:0:0:
448,192,27682,1,0,0:0:0:0:
64,192,27815,1,0,0:0:0:0:
192,192,27949,1,0,0:0:0:0:
320,192,28082,1,0,0:0:0:0:
448,192,28082,1,0,0:0:0:0:
64,192,28215,1,0,0:0:0:0:
320,192,28349,1,0,0:0:0:0:
192,192,28482,1,0,0:0:0:0:
448,192,28615,1,0,0:0:0:0:
64,192,28749,1,0,0:0:0:0:
320,192,28882,1,0,0:0:0:0:
448,192,28882,1,0,0:0:0:0:
192,192,29015,1,0,0:0:0:0:
64,192,29149,1,0,0:0:0:0:
320,192,29282,1,0,0:0:0:0:
192,192,29415,1,0,0:0:0:0:
448,192,29549,1,0,0:0:0:0:
192,192,29682,1,0,0:0:0:0:
64,192,29682,1,0,0:0:0:0:
448,192,29815,1,0,0:0:0:0:
64,192,29949,1,0,0:0:0:0:
320,192,30082,1,0,0:0:0:0:
192,192,30215,1,0,0:0:0:0:
64,192,30348,1,0,0:0:0:0:
448,192,30482,1,0,0:0:0:0:
320,192,30482,1,0,0:0:0:0:
192,192,30615,1,0,0:0:0:0:
448,192,30748,1,0,0:0:0:0:
64,192,30882,1,0,0:0:0:0:
320,192,31148,1,0,0:0:0:0:
192,192,31282,1,0,0:0:0:0:
64,192,31282,1,0,0:0:0:0:
192,192,31548,1,0,0:0:0:0:
320,192,31682,1,0,0:0:0:0:
448,192,31682,1,0,0:0:0:0:
320,192,31948,1,0,0:0:0:0:
192,192,32082,1,0,0:0:0:0:
64,192,32082,1,0,0:0:0:0:
448,192,32215,1,0,0:0:0:0:
64,192,32348,1,0,0:0:0:0:
192,192,32482,1,0,0:0:0:0:
448,192,32615,1,0,0:0:0:0:
192,192,32748,1,0,0:0:0:0:
448,192,32881,1,0,0:0:0:0:
320,192,32881,1,0,0:0:0:0:
64,192,33015,1,0,0:0:0:0:
320,192,33148,1,0,0:0:0:0:
192,192,33281,1,0,0:0:0:0:
448,192,33415,1,0,0:0:0:0:
320,192,33548,1,0,0:0:0:0:
192,192,33681,1,0,0:0:0:0:
64,192,33681,1,0,0:0:0:0:
448,192,33815,1,0,0:0:0:0:
320,192,33948,1,0,0:0:0:0:
64,192,34081,1,0,0:0:0:0:
320,192,34215,1,0,0:0:0:0:
64,192,34348,1,0,0:0:0:0:
320,192,34481,1,0,0:0:0:0:
192,192,34481,1,0,0:0:0:0:
448,192,34615,1,0,0:0:0:0:
192,192,34748,1,0,0:0:0:0:
64,192,34881,1,0,0:0:0:0:
192,192,34948,1,0,0:0:0:0:
320,192,35015,1,0,0:0:0:0:
192,192,35081,1,0,0:0:0:0:
448,192,35148,1,0,0:0:0:0:
192,192,35281,1,0,0:0:0:0:
64,192,35281,1,0,0:0:0:0:
320,192,35415,1,0,0:0:0:0:
448,192,35548,1,0,0:0:0:0:
64,192,35681,1,0,0:0:0:0:
192,192,35814,1,0,0:0:0:0:
320,192,36081,1,0,0:0:0:0:
448,192,36081,1,0,0:0:0:0:
192,192,36214,1,0,0:0:0:0:
320,192,36348,1,0,0:0:0:0:
64,192,36481,1,0,0:0:0:0:
320,192,36614,1,0,0:0:0:0:
448,192,36748,1,0,0:0:0:0:
64,192,36881,1,0,0:0:0:0:
192,192,36881,1,0,0:0:0:0:
448,192,37014,1,0,0:0:0:0:
64,192,37148,1,0,0:0:0:0:
320,192,37281,1,0,0:0:0:0:
192,192,37414,1,0,0:0:0:0:
64,192,37548,1,0,0:0:0:0:
448,192,37681,1,0,0:0:0:0:
320,192,37681,1,0,0:0:0:0:
64,192,37814,1,0,0:0:0:0:
192,192,37948,1,0,0:0:0:0:
320,192,38081,1,0,0:0:0:0:
64,192,38214,1,0,0:0:0:0:
192,192,38347,1,0,0:0:0:0:
320,192,38481,1,0,0:0:0:0:
448,192,38481,1,0,0:0:0:0:
192,192,38614,1,0,0:0:0:0:
448,192,38747,1,0,0:0:0:0:
64,192,38881,1,0,0:0:0:0:
320,192,39014,1,0,0:0:0:0:
64,192,39147,1,0,0:0:0:0:
320,192,39281,1,0,0:0:0:0:
192,192,39281,1,0,0:0:0:0:
448,192,39414,1,0,0:0:0:0:
320,192,39547,1,0,0:0:0:0:
192,192,39681,1,0,0:0:0:0:
320,192,39947,1,0,0:0:0:0:
192,192,40081,1,0,0:0:0:0:
64,192,40081,1,0,0:0:0:0:
448,192,40214,1,0,0:0:0:0:
320,192,40347,1,0,0:0:0:0:
64,192,40481,1,0,0:0:0:0:
448,192,40614,1,0,0:0:0:0:
64,192,40747,1,0,0:0:0:0:
192,192,40881,1,0,0:0:0:0:
448,192,41014,1,0,0:0:0:0:
192,192,41147,1,0,0:0:0:0:
64,192,41280,1,0,0:0:0:0:
320,192,41414,1,0,0:0:0:0:
192,192,41547,1,0,0:0:0:0:
320,192,41680,1,0,0:0:0:0:
448,192,41680,1,0,0:0:0:0:
64,192,41814,1,0,0:0:0:0:
320,192,41947,1,0,0:0:0:0:
64,192,42080,1,0,0:0:0:0:
320,192,42214,1,0,0:0:0:0:
448,192,42347,1,0,0:0:0:0:
64,192,42480,1,0,0:0:0:0:
192,192,42480,1,0,0:0:0:0:
448,192,42614,1,0,0:0:0:0:
192,192,42747,1,0,0:0:0:0:
448,192,42880,1,0,0:0:0:0:
320,192,43014,1,0,0:0:0:0:
64,192,43147,1,0,0:0:0:0:
448,192,43280,1,0,0:0:0:0:
320,192,43280,1,0,0:0:0:0:
192,192,43414,1,0,0:0:0:0:
64,192,43547,1,0,0:0:0:0:
320,192,43680,1,0,0:0:0:0:
448,192,43813,1,0,0:0:0:0:
192,192,43947,1,0,0:0:0:0:
64,192,43947,1,0,0:0:0:0:
448,192,44080,1,0,0:0:0:0:
320,192,44213,1,0,0:0:0:0:
64,192,44347,1,0,0:0:0:0:
192,192,44480,1,0,0:0:0:0:
448,192,44613,1,0,0:0:0:0:
64,192,44747,1,0,0:0:0:0:
320,192,44880,1,0,0:0:0:0:
192,192,44880,1,0,0:0:0:0:
448,192,45013,1,0,0:0:0:0:
64,192,45147,1,0,0:0:0:0:
320,192,45280,1,0,0:0:0:0:
192,192,45413,1,0,0:0:0:0:
64,192,45547,1,0,0:0:0:0:
448,192,45680,1,0,0:0:0:0:
320,192,45680,1,0,0:0:0:0:
192,192,45813,1,0,0:0:0:0:
64,192,45947,1,0,0:0:0:0:
448,192,46080,1,0,0:0:0:0:
192,192,46213,1,0,0:0:0:0:
320,192,46346,1,0,0:0:0:0:
192,192,46480,1,0,0:0:0:0:
64,192,46480,1,0,0:0:0:0:
448,192,46613,1,0,0:0:0:0:
192,192,46746,1,0,0:0:0:0:
64,192,46880,1,0,0:0:0:0:
192,192,47013,1,0,0:0:0:0:
64,192,47146,1,0,0:0:0:0:
320,192,47280,1,0,0:0:0:0:
448,192,47280,1,0,0:0:0:0:
64,192,47413,1,0,0:0:0:0:
320,192,47546,1,0,0:0:0:0:
64,192,47680,1,0,0:0:0:0:
320,192,47746,1,0,0:0:0:0:
192,192,47813,1,0,0:0:0:0:
448,192,47880,1,0,0:0:0:0:
64,192,47946,1,0,0:0:0:0:
320,192,48080,1,0,0:0:0:0:
448,192,48080,1,0,0:0:0:0:
192,192,48213,1,0,0:0:0:0:
448,192,48346,1,0,0:0:0:0:
64,192,48480,1,0,0:0:0:0:
448,192,48613,1,0,0:0:0:0:
320,192,48746,1,0,0:0:0:0:
192,192,48880,1,0,0:0:0:0:
64,192,48880,1,0,0:0:0:0:
448,192,49013,1,0,0:0:0:0:
192,192,49146,1,0,0:0:0:0:
320,192,49279,1,0,0:0:0:0:
64,192,49413,1,0,0:0:0:0:
448,192,49546,1,0,0:0:0:0:
192,192,49679,128,0,49946:0:0:0:0:
320,192,49679,128,0,49946:0:0:0:0:
64,192,50079,1,0,0:0:0:0:
192,192,50213,1,0,0:0:0:0:
320,192,50346,1,0,0:0:0:0:
64,192,50479,1,0,0:0:0:0:
320,192,50746,1,0,0:0:0:0:
64,192,50879,1,0,0:0:0:0:
448,192,51013,1,0,0:0:0:0:
192,192,51146,1,0,0:0:0:0:
64,192,51279,128,0,51546:0:0:0:0:
320,192,51413,1,0,0:0:0:0:
448,192,51546,1,0,0:0:0:0:
192,192,51679,1,0,0:0:0:0:
320,192,51812,1,0,0:0:0:0:
448,192,51946,1,0,0:0:0:0:
192,192,52079,1,0,0:0:0:0:
64,192,52212,1,0,0:0:0:0:
320,192,52346,1,0,0:0:0:0:
448,192,52479,1,0,0:0:0:0:
192,192,52612,1,0,0:0:0:0:
64,192,52746,1,0,0:0:0:0:
448,192,52879,1,0,0:0:0:0:
320,192,52879,1,0,0:0:0:0:
64,192,53012,1,0,0:0:0:0:
192,192,53012,1,0,0:0:0:0:
320,192,53146,1,0,0:0:0:0:
448,192,53146,1,0,0:0:0:0:
192,192,53279,1,0,0:0:0:0:
64,192,53279,1,0,0:0:0:0:
320,192,53412,1,0,0:0:0:0:
448,192,53412,1,0,0:0:0:0:
192,192,53546,1,0,0:0:0:0:
64,192,53546,1,0,0:0:0:0:
320,192,53679,128,0,54212:0:0:0:0:
192,192,53946,1,0,0:0:0:0:
64,192,54079,1,0,0:0:0:0:
64,192,54346,1,0,0:0:0:0:
192,192,54479,1,0,0:0:0:0:
320,192,54479,1,0,0:0:0:0:
448,192,54612,1,0,0:0:0:0:
192,192,54745,1,0,0:0:0:0:
64,192,54879,1,0,0:0:0:0:
320,192,55012,1,0,0:0:0:0:
448,192,55145,1,0,0:0:0:0:
192,192,55279,1,0,0:0:0:0:
64,192,55279,1,0,0:0:0:0:
320,192,55412,1,0,0:0:0:0:
192,192,55545,1,0,0:0:0:0:
448,192,55679,1,0,0:0:0:0:
320,192,55812,1,0,0:0:0:0:
448,192,55945,1,0,0:0:0:0:
64,192,56079,1,0,0:0:0:0:
192,192,56079,1,0,0:0:0:0:
320,192,56212,1,0,0:0:0:0:
448,192,56345,1,0,0:0:0:0:
64,192,56479,1,0,0:0:0:0:
320,192,56612,1,0,0:0:0:0:
192,192,56745,1,0,0:0:0:0:
64,192,56745,1,0,0:0:0:0:
448,192,56879,1,0,0:0:0:0:
192,192,57145,1,0,0:0:0:0:
448,192,57278,1,0,0:0:0:0:
320,192,57412,1,0,0:0:0:0:
192,192,57545,1,0,0:0:0:0:
448,192,57678,1,0,0:0:0:0:
320,192,57678,1,0,0:0:0:0:
64,192,57812,1,0,0:0:0:0:
192,192,57945,1,0,0:0:0:0:
320,192,58078,1,0,0:0:0:0:
448,192,58212,1,0,0:0:0:0:
192,192,58345,1,0,0:0:0:0:
320,192,58478,1,0,0:0:0:0:
448,192,58478,1,0,0:0:0:0:
64,192,58612,1,0,0:0:0:0:
320,192,58745,1,0,0:0:0:0:
192,192,58878,1,0,0:0:0:0:
448,192,59012,1,0,0:0:0:0:
320,192,59145,1,0,0:0:0:0:
64,192,59278,1,0,0:0:0:0:
192,192,59278,1,0,0:0:0:0:
320,192,59412,1,0,0:0:0:0:
448,192,59412,1,0,0:0:0:0:
192,192,59545,1,0,0:0:0:0:
64,192,59545,1,0,0:0:0:0:
320,192,59678,1,0,0:0:0:0:
448,192,59678,1,0,0:0:0:0:
192,192,59812,1,0,0:0:0:0:
64,192,59812,1,0,0:0:0:0:
320,192,59945,1,0,0:0:0:0:
448,192,59945,1,0,0:0:0:0:
64,192,60078,128,0,60611:0:0:0:0:
448,192,60345,1,0,0:0:0:0:
320,192,60478,1,0,0:0:0:0:
448,192,60745,1,0,0:0:0:0:
192,192,60878,1,0,0:0:0:0:
320,192,60878,1,0,0:0:0:0:
64,192,61011,1,0,0:0:0:0:
448,192,61145,1,0,0:0:0:0:
192,192,61278,1,0,0:0:0:0:
320,192,61411,1,0,0:0:0:0:
64,192,61545,1,0,0:0:0:0:
320,192,61678,1,0,0:0:0:0:
448,192,61678,1,0,0:0:0:0:
192,192,61945,1,0,0:0:0:0:
448,192,62078,1,0,0:0:0:0:
64,192,62211,1,0,0:0:0:0:
320,192,62345,1,0,0:0:0:0:
192,192,62478,1,0,0:0:0:0:
64,192,62478,1,0,0:0:0:0:
448,192,62744,1,0,0:0:0:0:
64,192,62878,1,0,0:0:0:0:
320,192,63144,1,0,0:0:0:0:
192,192,63278,1,0,0:0:0:0:
64,192,63278,1,0,0:0:0:0:
448,192,63544,1,0,0:0:0:0:
192,192,63678,1,0,0:0:0:0:
64,192,63678,1,0,0:0:0:0:
192,192,63944,1,0,0:0:0:0:
320,192,64078,1,0,0:0:0:0:
448,192,64078,1,0,0:0:0:0:
448,192,64344,1,0,0:0:0:0:
64,192,64478,1,0,0:0:0:0:
320,192,64611,1,0,0:0:0:0:
448,192,64744,1,0,0:0:0:0:
64,192,64878,1,0,0:0:0:0:
320,192,65011,1,0,0:0:0:0:
448,192,65144,1,0,0:0:0:0:
320,192,65278,1,0,0:0:0:0:
64,192,65411,1,0,0:0:0:0:
192,192,65544,1,0,0:0:0:0:
320,192,65677,1,0,0:0:0:0:
448,192,65677,1,0,0:0:0:0:
64,192,65811,1,0,0:0:0:0:
320,192,65944,1,0,0:0:0:0:
448,192,66077,1,0,0:0:0:0:
64,192,66211,1,0,0:0:0:0:
320,192,66344,1,0,0:0:0:0:
192,192,66477,1,0,0:0:0:0:
64,192,66477,1,0,0:0:0:0:
448,192,66611,1,0,0:0:0:0:
192,192,66744,1,0,0:0:0:0:
64,192,66877,1,0,0:0:0:0:
320,192,67011,1,0,0:0:0:0:
64,192,67144,1,0,0:0:0:0:
320,192,67277,1,0,0:0:0:0:
448,192,67277,1,0,0:0:0:0:
192,192,67411,1,0,0:0:0:0:
448,192,67544,1,0,0:0:0:0:
192,192,67677,1,0,0:0:0:0:
448,192,67811,1,0,0:0:0:0:
320,192,67944,1,0,0:0:0:0:
64,192,68077,1,0,0:0:0:0:
192,192,68077,1,0,0:0:0:0:
448,192,68210,1,0,0:0:0:0:
192,192,68344,1,0,0:0:0:0:
64,192,68477,1,0,0:0:0:0:
448,192,68610,1,0,0:0:0:0:
192,192,68744,1,0,0:0:0:0:
448,192,68877,1,0,0:0:0:0:
320,192,68877,1,0,0:0:0:0:
192,192,69010,1,0,0:0:0:0:
64,192,69144,1,0,0:0:0:0:
448,192,69277,1,0,0:0:0:0:
320,192,69410,1,0,0:0:0:0:
448,192,69544,1,0,0:0:0:0:
64,192,69677,1,0,0:0:0:0:
192,192,69677,1,0,0:0:0:0:
448,192,69810,1,0,0:0:0:0:
192,192,69944,1,0,0:0:0:0:
64,192,70077,1,0,0:0:0:0:
448,192,70210,1,0,0:0:0:0:
192,192,70344,1,0,0:0:0:0:
448,192,70477,1,0,0:0:0:0:
320,192,70477,1,0,0:0:0:0:
64,192,70610,1,0,0:0:0:0:
320,192,70744,1,0,0:0:0:0:
448,192,70877,1,0,0:0:0:0:
320,192,71143,1,0,0:0:0:0:
192,192,71277,1,0,0:0:0:0:
64,192,71277,1,0,0:0:0:0:
320,192,71410,1,0,0:0:0:0:
448,192,71543,1,0,0:0:0:0:
320,192,71677,1,0,0:0:0:0:
64,192,71943,1,0,0:0:0:0:
448,192,72077,1,0,0:0:0:0:
320,192,72077,1,0,0:0:0:0:
64,192,72210,1,0,0:0:0:0:
320,192,72343,1,0,0:0:0:0:
192,192,72477,1,0,0:0:0:0:
448,192,72610,1,0,0:0:0:0:
320,192,72743,1,0,0:0:0:0:
192,192,72877,1,0,0:0:0:0:
64,192,72877,1,0,0:0:0:0:
448,192,73010,1,0,0:0:0:0:
64,192,73143,1,0,0:0:0:0:
192,192,73277,1,0,0:0:0:0:
320,192,73410,1,0,0:0:0:0:
64,192,73543,1,0,0:0:0:0:
448,192,73676,1,0,0:0:0:0:
320,192,73676,1,0,0:0:0:0:
192,192,73810,1,0,0:0:0:0:
64,192,73943,1,0,0:0:0:0:
320,192,74076,1,0,0:0:0:0:
448,192,74210,1,0,0:0:0:0:
320,192,74343,1,0,0:0:0:0:
64,192,74476,1,0,0:0:0:0:
192,192,74476,1,0,0:0:0:0:
320,192,74610,1,0,0:0:0:0:
448,192,74743,1,0,0:0:0:0:
320,192,74876,1,0,0:0:0:0:
192,192,75010,1,0,0:0:0:0:
64,192,75143,1,0,0:0:0:0:
192,192,75276,1,0,0:0:0:0:
320,192,75410,1,0,0:0:0:0:
448,192,75543,1,0,0:0:0:0:
320,192,75676,1,0,0:0:0:0:
192,192,75810,1,0,0:0:0:0:
64,192,75943,1,0,0:0:0:0:
192,192,76076,1,0,0:0:0:0:
320,192,76210,1,0,0:0:0:0:
448,192,76343,1,0,0:0:0:0:
320,192,76476,1,0,0:0:0:0:
192,192,76609,1,0,0:0:0:0:
64,192,76743,1,0,0:0:0:0:
192,192,76876,1,0,0:0:0:0:
448,192,77009,1,0,0:0:0:0:
192,192,77143,1,0,0:0:0:0:
64,192,77276,1,0,0:0:0:0:
448,192,77409,1,0,0:0:0:0:
320,192,77543,1,0,0:0:0:0:
64,192,77676,1,0,0:0:0:0:
320,192,77809,1,0,0:0:0:0:
448,192,77943,1,0,0:0:0:0:
192,192,78076,1,0,0:0:0:0:
64,192,78209,1,0,0:0:0:0:
192,192,78343,1,0,0:0:0:0:
448,192,78476,1,0,0:0:0:0:
64,192,78609,1,0,0:0:0:0:
192,192,78743,1,0,0:0:0:0:
64,192,78876,1,0,0:0:0:0:
448,192,79009,1,0,0:0:0:0:
320,192,79142,1,0,0:0:0:0:
448,192,79276,1,0,0:0:0:0:
64,192,79409,1,0,0:0:0:0:
320,192,79542,1,0,0:0:0:0:
448,192,79676,1,0,0:0:0:0:
320,192,79809,1,0,0:0:0:0:
192,192,79942,1,0,0:0:0:0:
448,192,80076,1,0,0:0:0:0:
64,192,80209,1,0,0:0:0:0:
320,192,80342,1,0,0:0:0:0:
448,192,80476,1,0,0:0:0:0:
64,192,80609,1,0,0:0:0:0:
192,192,80742,1,0,0:0:0:0:
64,192,80876,1,0,0:0:0:0:
320,192,81009,1,0,0:0:0:0:
448,192,81142,1,0,0:0:0:0:
64,192,81276,1,0,0:0:0:0:
192,192,81409,1,0,0:0:0:0:
64,192,81542,1,0,0:0:0:0:
448,192,81676,1,0,0:0:0:0:
64,192,81809,1,0,0:0:0:0:
448,192,81942,1,0,0:0:0:0:
320,192,82075,1,0,0:0:0:0:
320,192,82275,128,0,82542:0:0:0:0:
64,192,82475,1,0,0:0:0:0:
192,192,82675,128,0,82942:0:0:0:0:
448,192,82809,1,0,0:0:0:0:
192,192,83275,1,0,0:0:0:0:
448,192,83409,1,0,0:0:0:0:
64,192,83542,1,0,0:0:0:0:
192,192,83675,1,0,0:0:0:0:
448,192,83809,1,0,0:0:0:0:
192,192,83942,1,0,0:0:0:0:
64,192,84075,1,0,0:0:0:0:
192,192,84209,1,0,0:0:0:0:
448,192,84342,1,0,0:0:0:0:
64,192,84475,1,0,0:0:0:0:
448,192,84608,1,0,0:0:0:0:
192,192,84742,1,0,0:0:0:0:
448,192,84875,1,0,0:0:0:0:
192,192,85008,1,0,0:0:0:0:
64,192,85142,1,0,0:0:0:0:
320,192,85275,1,0,0:0:0:0:
64,192,85408,1,0,0:0:0:0:
192,192,85542,1,0,0:0:0:0:
448,192,85675,1,0,0:0:0:0:
320,192,85808,1,0,0:0:0:0:
64,192,85942,1,0,0:0:0:0:
448,192,86075,1,0,0:0:0:0:
192,192,86208,1,0,0:0:0:0:
448,192,86342,1,0,0:0:0:0:
64,192,86475,1,0,0:0:0:0:
448,192,86608,1,0,0:0:0:0:
192,192,86742,1,0,0:0:0:0:
64,192,86875,1,0,0:0:0:0:
320,192,87008,1,0,0:0:0:0:
448,192,87141,1,0,0:0:0:0:
192,192,87275,1,0,0:0:0:0:
448,192,87408,1,0,0:0:0:0:
64,192,87541,1,0,0:0:0:0:
320,192,87675,1,0,0:0:0:0:
448,192,87808,1,0,0:0:0:0:
192,192,87941,1,0,0:0:0:0:
64,192,88075,1,0,0:0:0:0:
320,192,88208,1,0,0:0:0:0:
448,192,88341,1,0,0:0:0:0:
192,192,88475,1,0,0:0:0:0:
64,192,88608,1,0,0:0:0:0:
320,192,88741,1,0,0:0:0:0:
448,192,88875,1,0,0:0:0:0:
192,192,89008,1,0,0:0:0:0:
320,192,89141,1,0,0:0:0:0:
64,192,89275,1,0,0:0:0:0:
320,192,89408,1,0,0:0:0:0:
320,192,89675,1,0,0:0:0:0:
192,192,89675,1,0,0:0:0:0:
448,192,89808,1,0,0:0:0:0:
64,192,89941,1,0,0:0:0:0:
320,192,90074,1,0,0:0:0:0:
448,192,90208,1,0,0:0:0:0:
320,192,90341,1,0,0:0:0:0:
64,192,90474,1,0,0:0:0:0:
192,192,90474,1,0,0:0:0:0:
320,192,90608,1,0,0:0:0:0:
64,192,90741,1,0,0:0:0:0:
320,192,90874,1,0,0:0:0:0:
448,192,91008,1,0,0:0:0:0:
320,192,91141,1,0,0:0:0:0:
192,192,91274,1,0,0:0:0:0:
64,192,91274,1,0,0:0:0:0:
448,192,91408,1,0,0:0:0:0:
192,192,91541,1,0,0:0:0:0:
448,192,91674,1,0,0:0:0:0:
64,192,91808,1,0,0:0:0:0:
192,192,91941,1,0,0:0:0:0:
320,192,92074,1,0,0:0:0:0:
448,192,92074,1,0,0:0:0:0:
64,192,92208,1,0,0:0:0:0:
320,192,92341,1,0,0:0:0:0:
64,192,92474,1,0,0:0:0:0:
320,192,92607,1,0,0:0:0:0:
448,192,92741,1,0,0:0:0:0:
320,192,92874,1,0,0:0:0:0:
192,192,92874,1,0,0:0:0:0:
448,192,93007,1,0,0:0:0:0:
64,192,93141,1,0,0:0:0:0:
320,192,93274,1,0,0:0:0:0:
448,192,93407,1,0,0:0:0:0:
320,192,93541,1,0,0:0:0:0:
64,192,93674,1,0,0:0:0:0:
192,192,93674,1,0,0:0:0:0:
448,192,93807,1,0,0:0:0:0:
192,192,93941,1,0,0:0:0:0:
320,192,94074,1,0,0:0:0:0:
64,192,94207,1,0,0:0:0:0:
192,192,94341,1,0,0:0:0:0:
448,192,94474,1,0,0:0:0:0:
320,192,94474,1,0,0:0:0:0:
192,192,94607,1,0,0:0:0:0:
64,192,94741,1,0,0:0:0:0:
448,192,94874,1,0,0:0:0:0:
192,192,95007,1,0,0:0:0:0:
448,192,95141,1,0,0:0:0:0:
64,192,95274,1,0,0:0:0:0:
320,192,95407,1,0,0:0:0:0:
448,192,95540,1,0,0:0:0:0:
192,192,95674,1,0,0:0:0:0:
64,192,95807,1,0,0:0:0:0:
320,192,95940,1,0,0:0:0:0:
192,192,96074,1,0,0:0:0:0:
64,192,96074,1,0,0:0:0:0:
320,192,96207,1,0,0:0:0:0:
448,192,96340,1,0,0:0:0:0:
192,192,96474,1,0,0:0:0:0:
64,192,96607,1,0,0:0:0:0:
192,192,96740,1,0,0:0:0:0:
320,192,96874,1,0,0:0:0:0:
448,192,96874,1,0,0:0:0:0:
192,192,97007,1,0,0:0:0:0:
448,192,97140,1,0,0:0:0:0:
64,192,97274,1,0,0:0:0:0:
192,192,97274,1,0,0:0:0:0:
320,192,97407,1,0,0:0:0:0:
192,192,97540,1,0,0:0:0:0:
320,192,97674,1,0,0:0:0:0:
448,192,97674,1,0,0:0:0:0:
192,192,97807,1,0,0:0:0:0:
448,192,97940,1,0,0:0:0:0:
64,192,98073,1,0,0:0:0:0:
192,192,98073,1,0,0:0:0:0:
448,192,98207,1,0,0:0:0:0:
64,192,98340,1,0,0:0:0:0:
320,192,98473,1,0,0:0:0:0:
448,192,98473,1,0,0:0:0:0:
192,192,98607,1,0,0:0:0:0:
448,192,98740,1,0,0:0:0:0:
64,192,98873,1,0,0:0:0:0:
192,192,98873,1,0,0:0:0:0:
320,192,99007,1,0,0:0:0:0:
192,192,99140,1,0,0:0:0:0:
320,192,99273,1,0,0:0:0:0:
448,192,99273,1,0,0:0:0:0:
64,192,99540,1,0,0:0:0:0:
192,192,99540,1,0,0:0:0:0:
320,192,99673,1,0,0:0:0:0:
448,192,99673,1,0,0:0:0:0:
192,192,99940,1,0,0:0:0:0:
64,192,99940,1,0,0:0:0:0:
320,192,100073,1,0,0:0:0:0:
448,192,100073,1,0,0:0:0:0:
64,192,100340,1,0,0:0:0:0:
192,192,100340,1,0,0:0:0:0:
320,192,100473,1,0,0:0:0:0:
448,192,100473,1,0,0:0:0:0:
64,192,100740,1,0,0:0:0:0:
192,192,100740,1,0,0:0:0:0:
320,192,100873,1,0,0:0:0:0:
448,192,100873,1,0,0:0:0:0:
192,192,101140,1,0,0:0:0:0:
64,192,101140,1,0,0:0:0:0:
320,192,101406,1,0,0:0:0:0:
448,192,101406,1,0,0:0:0:0:
192,192,101540,1,0,0:0:0:0:
64,192,101540,1,0,0:0:0:0:
320,192,101606,1,0,0:0:0:0:
448,192,101606,1,0,0:0:0:0:
192,192,101673,1,0,0:0:0:0:
64,192,101673,1,0,0:0:0:0:
192,192,101940,1,0,0:0:0:0:
64,192,101940,1,0,0:0:0:0:
320,192,102206,1,0,0:0:0:0:
448,192,102206,1,0,0:0:0:0:
448,192,102473,128,0,102673:0:0:0:0:
320,192,102473,128,0,102673:0:0:0:0:
192,192,102473,128,0,102673:0:0:0:0:
64,192,102473,128,0,102673:0:0:0:0:
192,192,102873,1,0,0:0:0:0:
320,192,103006,1,0,0:0:0:0:
192,192,103073,1,0,0:0:0:0:
320,192,103140,1,0,0:0:0:0:
64,192,103273,1,0,0:0:0:0:
192,192,103273,1,0,0:0:0:0:
320,192,103406,1,0,0:0:0:0:
448,192,103539,1,0,0:0:0:0:
192,192,103606,128,0,103873:0:0:0:0:
320,192,103606,128,0,103873:0:0:0:0:
448,192,104073,128,0,104406:0:0:0:0:
64,192,104073,128,0,104406:0:0:0:0:
192,192,104539,128,0,104739:0:0:0:0:
320,192,104739,1,0,0:0:0:0:
448,192,104873,1,0,0:0:0:0:
64,192,104873,1,0,0:0:0:0:
320,192,105006,1,0,0:0:0:0:
192,192,105139,1,0,0:0:0:0:
448,192,105273,1,0,0:0:0:0:
320,192,105406,1,0,0:0:0:0:
64,192,105539,1,0,0:0:0:0:
192,192,105539,1,0,0:0:0:0:
320,192,105673,1,0,0:0:0:0:
448,192,105673,1,0,0:0:0:0:
320,192,105806,1,0,0:0:0:0:
64,192,105873,1,0,0:0:0:0:
448,192,105939,1,0,0:0:0:0:
320,192,106073,128,0,106272:0:0:0:0:
192,192,106472,1,0,0:0:0:0:
64,192,106472,1,0,0:0:0:0:
320,192,106606,1,0,0:0:0:0:
192,192,106739,1,0,0:0:0:0:
448,192,106872,1,0,0:0:0:0:
64,192,107006,1,0,0:0:0:0:
448,192,107139,1,0,0:0:0:0:
64,192,107272,128,0,107539:0:0:0:0:
448,192,107672,128,0,107872:0:0:0:0:
64,192,107939,1,0,0:0:0:0:
192,192,108072,128,0,108339:0:0:0:0:
320,192,108472,1,0,0:0:0:0:
448,192,108472,1,0,0:0:0:0:
64,192,108606,1,0,0:0:0:0:
192,192,108739,1,0,0:0:0:0:
64,192,108872,128,0,109139:0:0:0:0:
448,192,109272,128,0,109539:0:0:0:0:
192,192,109672,1,0,0:0:0:0:
64,192,109672,1,0,0:0:0:0:
320,192,109939,1,0,0:0:0:0:
64,192,110072,1,0,0:0:0:0:
320,192,110205,1,0,0:0:0:0:
448,192,110339,1,0,0:0:0:0:
64,192,110472,128,0,110739:0:0:0:0:
320,192,110605,1,0,0:0:0:0:
448,192,110739,1,0,0:0:0:0:
192,192,110872,128,0,111072:0:0:0:0:
448,192,111139,1,0,0:0:0:0:
320,192,111272,1,0,0:0:0:0:
192,192,111539,1,0,0:0:0:0:
320,192,111672,1,0,0:0:0:0:
64,192,111938,1,0,0:0:0:0:
192,192,112072,128,0,112338:0:0:0:0:
448,192,112338,1,0,0:0:0:0:
64,192,112472,128,0,112738:0:0:0:0:
320,192,112605,1,0,0:0:0:0:
448,192,112738,1,0,0:0:0:0:
192,192,112872,128,0,113138:0:0:0:0:
448,192,113005,1,0,0:0:0:0:
448,192,113272,128,0,113472:0:0:0:0:
192,192,113538,1,0,0:0:0:0:
64,192,113672,128,0,113938:0:0:0:0:
320,192,114072,128,0,114338:0:0:0:0:
448,192,114072,128,0,114338:0:0:0:0:
192,192,114471,1,0,0:0:0:0:
64,192,114471,1,0,0:0:0:0:
320,192,114605,1,0,0:0:0:0:
64,192,114738,1,0,0:0:0:0:
448,192,114871,128,0,115205:0:0:0:0:
192,192,115271,128,0,115605:0:0:0:0:
448,192,115405,1,0,0:0:0:0:
64,192,115538,1,0,0:0:0:0:
448,192,115671,128,0,115871:0:0:0:0:
64,192,115805,1,0,0:0:0:0:
320,192,115938,1,0,0:0:0:0:
64,192,116071,128,0,116338:0:0:0:0:
192,192,116071,128,0,116338:0:0:0:0:
320,192,116471,128,0,116671:0:0:0:0:
192,192,116738,128,0,116805:0:0:0:0:
448,192,116871,1,0,0:0:0:0:
448,192,117271,1,0,0:0:0:0:
64,192,117404,1,0,0:0:0:0:
320,192,117538,1,0,0:0:0:0:
192,192,117671,128,0,117871:0:0:0:0:
64,192,117671,128,0,117871:0:0:0:0:
320,192,117938,1,0,0:0:0:0:
192,192,118071,1,0,0:0:0:0:
64,192,118204,1,0,0:0:0:0:
448,192,118338,1,0,0:0:0:0:
320,192,118338,1,0,0:0:0:0:
192,192,118471,1,0,0:0:0:0:
64,192,118471,1,0,0:0:0:0:
320,192,118604,1,0,0:0:0:0:
192,192,118671,1,0,0:0:0:0:
448,192,118738,1,0,0:0:0:0:
192,192,118871,128,0,119138:0:0:0:0:
320,192,119271,1,0,0:0:0:0:
192,192,119271,1,0,0:0:0:0:
64,192,119404,1,0,0:0:0:0:
448,192,119538,1,0,0:0:0:0:
192,192,119671,1,0,0:0:0:0:
64,192,119671,1,0,0:0:0:0:
320,192,119804,1,0,0:0:0:0:
448,192,119804,1,0,0:0:0:0:
192,192,119937,1,0,0:0:0:0:
64,192,120071,128,0,120404:0:0:0:0:
320,192,120471,1,0,0:0:0:0:
448,192,120604,1,0,0:0:0:0:
192,192,120737,1,0,0:0:0:0:
64,192,120871,128,0,121071:0:0:0:0:
448,192,121137,1,0,0:0:0:0:
320,192,121271,128,0,121471:0:0:0:0:
192,192,121537,1,0,0:0:0:0:
64,192,121671,128,0,122004:0:0:0:0:
320,192,122071,1,0,0:0:0:0:
448,192,122071,1,0,0:0:0:0:
448,192,122204,1,0,0:0:0:0:
320,192,122204,1,0,0:0:0:0:
192,192,122337,1,0,0:0:0:0:
64,192,122337,1,0,0:0:0:0:
448,192,122471,1,0,0:0:0:0:
320,192,122471,1,0,0:0:0:0:
192,192,122604,1,0,0:0:0:0:
64,192,122604,1,0,0:0:0:0:
64,192,122737,1,0,0:0:0:0:
192,192,122737,1,0,0:0:0:0:
320,192,122870,1,0,0:0:0:0:
448,192,122870,1,0,0:0:0:0:
448,192,123004,128,0,123204:0:0:0:0:
192,192,123270,128,0,123470:0:0:0:0:
448,192,123670,1,0,0:0:0:0:
320,192,123937,1,0,0:0:0:0:
192,192,124070,1,0,0:0:0:0:
64,192,124070,1,0,0:0:0:0:
320,192,124204,1,0,0:0:0:0:
64,192,124337,1,0,0:0:0:0:
448,192,124470,1,0,0:0:0:0:
192,192,124604,1,0,0:0:0:0:
448,192,124737,1,0,0:0:0:0:
64,192,124870,128,0,125204:0:0:0:0:
192,192,125004,1,0,0:0:0:0:
320,192,125137,1,0,0:0:0:0:
448,192,125270,1,0,0:0:0:0:
320,192,125270,1,0,0:0:0:0:
192,192,125403,1,0,0:0:0:0:
64,192,125403,1,0,0:0:0:0:
448,192,125537,1,0,0:0:0:0:
320,192,125537,1,0,0:0:0:0:
192,192,125670,1,0,0:0:0:0:
64,192,125670,1,0,0:0:0:0:
320,192,125803,1,0,0:0:0:0:
192,192,125937,1,0,0:0:0:0:
64,192,126070,128,0,126270:0:0:0:0:
448,192,126070,128,0,126270:0:0:0:0:
320,192,126337,1,0,0:0:0:0:
320,192,126470,128,0,126670:0:0:0:0:
192,192,126470,128,0,126670:0:0:0:0:
448,192,126737,1,0,0:0:0:0:
64,192,126870,128,0,127070:0:0:0:0:
320,192,127270,1,0,0:0:0:0:
448,192,127270,1,0,0:0:0:0:
192,192,127403,1,0,0:0:0:0:
448,192,127537,1,0,0:0:0:0:
64,192,127603,1,0,0:0:0:0:
320,192,127670,1,0,0:0:0:0:
448,192,127803,1,0,0:0:0:0:
192,192,127937,1,0,0:0:0:0:
320,192,128070,1,0,0:0:0:0:
64,192,128203,1,0,0:0:0:0:
448,192,128336,1,0,0:0:0:0:
64,192,128470,128,0,128670:0:0:0:0:
448,192,128603,1,0,0:0:0:0:
192,192,128736,1,0,0:0:0:0:
448,192,128870,1,0,0:0:0:0:
320,192,128870,1,0,0:0:0:0:
64,192,129003,1,0,0:0:0:0:
320,192,129136,1,0,0:0:0:0:
448,192,129270,128,0,129470:0:0:0:0:
192,192,129403,1,0,0:0:0:0:
320,192,129536,1,0,0:0:0:0:
64,192,129670,1,0,0:0:0:0:
320,192,129803,1,0,0:0:0:0:
448,192,129936,1,0,0:0:0:0:
192,192,130070,128,0,130270:0:0:0:0:
448,192,130203,1,0,0:0:0:0:
320,192,130336,1,0,0:0:0:0:
192,192,130470,1,0,0:0:0:0:
64,192,130470,1,0,0:0:0:0:
320,192,130603,1,0,0:0:0:0:
448,192,130736,1,0,0:0:0:0:
64,192,130869,128,0,131069:0:0:0:0:
448,192,131003,1,0,0:0:0:0:
192,192,131136,1,0,0:0:0:0:
320,192,131269,1,0,0:0:0:0:
448,192,131269,1,0,0:0:0:0:
192,192,131403,1,0,0:0:0:0:
64,192,131536,1,0,0:0:0:0:
448,192,131669,128,0,131869:0:0:0:0:
192,192,131803,1,0,0:0:0:0:
320,192,131936,1,0,0:0:0:0:
192,192,132069,1,0,0:0:0:0:
64,192,132069,1,0,0:0:0:0:
320,192,132203,1,0,0:0:0:0:
192,192,132336,1,0,0:0:0:0:
320,192,132469,128,0,132669:0:0:0:0:
64,192,132603,1,0,0:0:0:0:
192,192,132736,1,0,0:0:0:0:
320,192,132869,1,0,0:0:0:0:
448,192,132869,1,0,0:0:0:0:
64,192,133003,1,0,0:0:0:0:
448,192,133136,1,0,0:0:0:0:
192,192,133269,128,0,133469:0:0:0:0:
64,192,133402,1,0,0:0:0:0:
448,192,133536,1,0,0:0:0:0:
192,192,133669,1,0,0:0:0:0:
64,192,133669,1,0,0:0:0:0:
192,192,133936,1,0,0:0:0:0:
320,192,134069,1,0,0:0:0:0:
448,192,134069,1,0,0:0:0:0:
64,192,134336,1,0,0:0:0:0:
448,192,134469,1,0,0:0:0:0:
192,192,134736,1,0,0:0:0:0:
64,192,134869,128,0,135069:0:0:0:0:
320,192,135136,1,0,0:0:0:0:
192,192,135269,1,0,0:0:0:0:
64,192,135269,1,0,0:0:0:0:
448,192,135402,1,0,0:0:0:0:
192,192,135536,1,0,0:0:0:0:
448,192,135669,128,0,135869:0:0:0:0:
64,192,135936,1,0,0:0:0:0:
320,192,136069,1,0,0:0:0:0:
448,192,136069,1,0,0:0:0:0:
192,192,136202,1,0,0:0:0:0:
448,192,136335,1,0,0:0:0:0:
64,192,136469,128,0,136669:0:0:0:0:
320,192,136735,1,0,0:0:0:0:
192,192,136869,1,0,0:0:0:0:
64,192,136869,1,0,0:0:0:0:
448,192,137135,1,0,0:0:0:0:
64,192,137269,128,0,137469:0:0:0:0:
192,192,137535,1,0,0:0:0:0:
448,192,137669,1,0,0:0:0:0:
320,192,137669,1,0,0:0:0:0:
64,192,137935,1,0,0:0:0:0:
320,192,138069,128,0,138269:0:0:0:0:
192,192,138469,1,0,0:0:0:0:
448,192,138735,1,0,0:0:0:0:
64,192,138868,128,0,139068:0:0:0:0:
448,192,139135,1,0,0:0:0:0:
320,192,139268,1,0,0:0:0:0:
192,192,139268,1,0,0:0:0:0:
448,192,139535,1,0,0:0:0:0:
320,192,139668,1,0,0:0:0:0:
64,192,139735,1,0,0:0:0:0:
448,192,139802,1,0,0:0:0:0:
320,192,139935,1,0,0:0:0:0:
192,192,140068,1,0,0:0:0:0:
64,192,140335,1,0,0:0:0:0:
320,192,140468,128,0,140668:0:0:0:0:
192,192,140868,1,0,0:0:0:0:
64,192,140868,1,0,0:0:0:0:
320,192,141002,1,0,0:0:0:0:
64,192,141135,1,0,0:0:0:0:
448,192,141268,128,0,141468:0:0:0:0:
192,192,141402,1,0,0:0:0:0:
64,192,141535,1,0,0:0:0:0:
192,192,141668,1,0,0:0:0:0:
320,192,141668,1,0,0:0:0:0:
448,192,141801,1,0,0:0:0:0:
192,192,141935,1,0,0:0:0:0:
320,192,142068,128,0,142268:0:0:0:0:
192,192,142201,1,0,0:0:0:0:
64,192,142335,1,0,0:0:0:0:
448,192,142468,1,0,0:0:0:0:
320,192,142468,1,0,0:0:0:0:
192,192,142601,1,0,0:0:0:0:
64,192,142735,1,0,0:0:0:0:
192,192,142868,128,0,143068:0:0:0:0:
448,192,143001,1,0,0:0:0:0:
320,192,143135,1,0,0:0:0:0:
64,192,143268,1,0,0:0:0:0:
192,192,143268,1,0,0:0:0:0:
320,192,143401,1,0,0:0:0:0:
64,192,143535,1,0,0:0:0:0:
448,192,143668,128,0,143868:0:0:0:0:
192,192,143801,1,0,0:0:0:0:
320,192,143935,1,0,0:0:0:0:
64,192,144068,1,0,0:0:0:0:
192,192,144068,1,0,0:0:0:0:
448,192,144201,1,0,0:0:0:0:
320,192,144334,1,0,0:0:0:0:
64,192,144468,128,0,144668:0:0:0:0:
192,192,144601,1,0,0:0:0:0:
320,192,144734,1,0,0:0:0:0:
320,192,144868,1,0,0:0:0:0:
448,192,144868,1,0,0:0:0:0:
192,192,145001,1,0,0:0:0:0:
64,192,145134,1,0,0:0:0:0:
192,192,145268,128,0,145468:0:0:0:0:
448,192,145534,1,0,0:0:0:0:
64,192,145668,1,0,0:0:0:0:
320,192,145801,1,0,0:0:0:0:
448,192,145934,1,0,0:0:0:0:
64,192,146068,128,0,146268:0:0:0:0:
320,192,146201,1,0,0:0:0:0:
192,192,146334,1,0,0:0:0:0:
448,192,146468,1,0,0:0:0:0:
320,192,146468,1,0,0:0:0:0:
64,192,146601,1,0,0:0:0:0:
320,192,146734,1,0,0:0:0:0:
192,192,146868,1,0,0:0:0:0:
64,192,146868,128,0,147067:0:0:0:0:
320,192,147001,1,0,0:0:0:0:
448,192,147134,1,0,0:0:0:0:
320,192,147267,1,0,0:0:0:0:
64,192,147401,1,0,0:0:0:0:
448,192,147534,1,0,0:0:0:0:
192,192,147667,128,0,147867:0:0:0:0:
320,192,147801,1,0,0:0:0:0:
64,192,147934,1,0,0:0:0:0:
448,192,148067,1,0,0:0:0:0:
320,192,148067,1,0,0:0:0:0:
192,192,148201,1,0,0:0:0:0:
448,192,148334,1,0,0:0:0:0:
64,192,148467,128,0,148667:0:0:0:0:
320,192,148601,1,0,0:0:0:0:
448,192,148734,1,0,0:0:0:0:
320,192,148867,1,0,0:0:0:0:
192,192,149001,1,0,0:0:0:0:
64,192,149134,1,0,0:0:0:0:
448,192,149267,128,0,149467:0:0:0:0:
192,192,149401,1,0,0:0:0:0:
64,192,149534,1,0,0:0:0:0:
320,192,149667,1,0,0:0:0:0:
192,192,149667,1,0,0:0:0:0:
64,192,149800,1,0,0:0:0:0:
448,192,149934,1,0,0:0:0:0:
64,192,150067,128,0,150267:0:0:0:0:
448,192,150334,1,0,0:0:0:0:
320,192,150467,1,0,0:0:0:0:
192,192,150467,1,0,0:0:0:0:
448,192,150600,1,0,0:0:0:0:
64,192,150734,1,0,0:0:0:0:
448,192,150867,128,0,151067:0:0:0:0:
320,192,151000,1,0,0:0:0:0:
192,192,151267,1,0,0:0:0:0:
64,192,151267,1,0,0:0:0:0:
320,192,151400,1,0,0:0:0:0:
64,192,151534,1,0,0:0:0:0:
64,192,151667,128,0,151867:0:0:0:0:
320,192,151800,1,0,0:0:0:0:
192,192,151934,1,0,0:0:0:0:
320,192,152067,1,0,0:0:0:0:
448,192,152067,1,0,0:0:0:0:
64,192,152200,1,0,0:0:0:0:
192,192,152334,1,0,0:0:0:0:
448,192,152467,128,0,152667:0:0:0:0:
64,192,152600,1,0,0:0:0:0:
320,192,152733,1,0,0:0:0:0:
192,192,152867,1,0,0:0:0:0:
64,192,152867,1,0,0:0:0:0:
320,192,153000,1,0,0:0:0:0:
64,192,153133,1,0,0:0:0:0:
448,192,153267,1,0,0:0:0:0:
320,192,153267,1,0,0:0:0:0:
192,192,153400,1,0,0:0:0:0:
64,192,153533,1,0,0:0:0:0:
192,192,153667,128,0,153867:0:0:0:0:
320,192,153800,1,0,0:0:0:0:
448,192,153933,1,0,0:0:0:0:
320,192,154067,1,0,0:0:0:0:
64,192,154200,1,0,0:0:0:0:
448,192,154333,1,0,0:0:0:0:
192,192,154467,1,0,0:0:0:0:
64,192,154467,1,0,0:0:0:0:
320,192,154600,1,0,0:0:0:0:
448,192,154733,1,0,0:0:0:0:
64,192,154867,128,0,155067:0:0:0:0:
192,192,155133,1,0,0:0:0:0:
320,192,155266,1,0,0:0:0:0:
448,192,155266,1,0,0:0:0:0:
64,192,155400,1,0,0:0:0:0:
448,192,155533,1,0,0:0:0:0:
320,192,155666,1,0,0:0:0:0:
192,192,155800,1,0,0:0:0:0:
448,192,155933,1,0,0:0:0:0:
64,192,156066,1,0,0:0:0:0:
192,192,156066,1,0,0:0:0:0:
320,192,156200,1,0,0:0:0:0:
192,192,156333,1,0,0:0:0:0:
448,192,156466,1,0,0:0:0:0:
64,192,156600,1,0,0:0:0:0:
448,192,156733,1,0,0:0:0:0:
192,192,156866,1,0,0:0:0:0:
320,192,156866,1,0,0:0:0:0:
64,192,157000,1,0,0:0:0:0:
320,192,157133,1,0,0:0:0:0:
192,192,157266,1,0,0:0:0:0:
64,192,157400,1,0,0:0:0:0:
192,192,157533,1,0,0:0:0:0:
448,192,157666,1,0,0:0:0:0:
320,192,157666,1,0,0:0:0:0:
64,192,157800,1,0,0:0:0:0:
448,192,157933,1,0,0:0:0:0:
64,192,158066,1,0,0:0:0:0:
448,192,158199,1,0,0:0:0:0:
320,192,158333,1,0,0:0:0:0:
192,192,158466,1,0,0:0:0:0:
64,192,158466,1,0,0:0:0:0:
448,192,158599,1,0,0:0:0:0:
192,192,158733,1,0,0:0:0:0:
64,192,158866,1,0,0:0:0:0:
448,192,158999,1,0,0:0:0:0:
64,192,159133,1,0,0:0:0:0:
320,192,159266,1,0,0:0:0:0:
448,192,159266,1,0,0:0:0:0:
192,192,159399,1,0,0:0:0:0:
320,192,159533,1,0,0:0:0:0:
192,192,159666,1,0,0:0:0:0:
64,192,159666,1,0,0:0:0:0:
448,192,159799,1,0,0:0:0:0:
192,192,159933,1,0,0:0:0:0:
320,192,160066,1,0,0:0:0:0:
64,192,160199,1,0,0:0:0:0:
192,192,160333,1,0,0:0:0:0:
64,192,160466,1,0,0:0:0:0:
448,192,160599,1,0,0:0:0:0:
192,192,160732,1,0,0:0:0:0:
448,192,160866,1,0,0:0:0:0:
320,192,160866,1,0,0:0:0:0:
64,192,160999,1,0,0:0:0:0:
320,192,161132,1,0,0:0:0:0:
448,192,161266,1,0,0:0:0:0:
192,192,161399,1,0,0:0:0:0:
64,192,161532,1,0,0:0:0:0:
448,192,161666,1,0,0:0:0:0:
320,192,161799,1,0,0:0:0:0:
192,192,161932,1,0,0:0:0:0:
320,192,162066,1,0,0:0:0:0:
448,192,162066,1,0,0:0:0:0:
320,192,162332,1,0,0:0:0:0:
192,192,162466,1,0,0:0:0:0:
64,192,162466,1,0,0:0:0:0:
448,192,162599,1,0,0:0:0:0:
64,192,162732,1,0,0:0:0:0:
320,192,162866,1,0,0:0:0:0:
448,192,162866,1,0,0:0:0:0:
192,192,162999,1,0,0:0:0:0:
448,192,163132,1,0,0:0:0:0:
192,192,163266,1,0,0:0:0:0:
64,192,163266,1,0,0:0:0:0:
448,192,163399,1,0,0:0:0:0:
192,192,163532,1,0,0:0:0:0:
448,192,163665,1,0,0:0:0:0:
320,192,163799,1,0,0:0:0:0:
64,192,163932,1,0,0:0:0:0:
320,192,164065,1,0,0:0:0:0:
448,192,164065,1,0,0:0:0:0:
192,192,164199,1,0,0:0:0:0:
64,192,164332,1,0,0:0:0:0:
320,192,164465,1,0,0:0:0:0:
448,192,164599,1,0,0:0:0:0:
320,192,164732,1,0,0:0:0:0:
192,192,164865,1,0,0:0:0:0:
64,192,164865,1,0,0:0:0:0:
320,192,164999,1,0,0:0:0:0:
448,192,165132,1,0,0:0:0:0:
192,192,165265,1,0,0:0:0:0:
64,192,165399,1,0,0:0:0:0:
192,192,165532,1,0,0:0:0:0:
448,192,165665,1,0,0:0:0:0:
320,192,165665,1,0,0:0:0:0:
192,192,165799,1,0,0:0:0:0:
64,192,165932,1,0,0:0:0:0:
192,192,166065,1,0,0:0:0:0:
320,192,166065,1,0,0:0:0:0:
448,192,166198,1,0,0:0:0:0:
320,192,166332,1,0,0:0:0:0:
192,192,166465,1,0,0:0:0:0:
320,192,166598,1,0,0:0:0:0:
448,192,166732,1,0,0:0:0:0:
64,192,166865,1,0,0:0:0:0:
192,192,166998,1,0,0:0:0:0:
448,192,167132,1,0,0:0:0:0:
192,192,167265,1,0,0:0:0:0:
64,192,167265,1,0,0:0:0:0:
448,192,167398,1,0,0:0:0:0:
192,192,167532,1,0,0:0:0:0:
320,192,167665,1,0,0:0:0:0:
448,192,167798,1,0,0:0:0:0:
192,192,167932,1,0,0:0:0:0:
320,192,168065,1,0,0:0:0:0:
448,192,168065,1,0,0:0:0:0:
192,192,168198,1,0,0:0:0:0:
64,192,168332,1,0,0:0:0:0:
448,192,168465,1,0,0:0:0:0:
320,192,168598,1,0,0:0:0:0:
320,192,168732,1,0,0:0:0:0:
64,192,168865,1,0,0:0:0:0:
192,192,168865,1,0,0:0:0:0:
320,192,168998,1,0,0:0:0:0:
448,192,169131,1,0,0:0:0:0:
64,192,169265,1,0,0:0:0:0:
192,192,169398,1,0,0:0:0:0:
64,192,169531,1,0,0:0:0:0:
448,192,169665,1,0,0:0:0:0:
320,192,169665,1,0,0:0:0:0:
320,192,169798,1,0,0:0:0:0:
192,192,169931,1,0,0:0:0:0:
64,192,170065,1,0,0:0:0:0:
192,192,170198,1,0,0:0:0:0:
448,192,170331,1,0,0:0:0:0:
64,192,170465,1,0,0:0:0:0:
192,192,170465,1,0,0:0:0:0:
448,192,170598,1,0,0:0:0:0:
192,192,170731,1,0,0:0:0:0:
64,192,170865,1,0,0:0:0:0:
320,192,170998,1,0,0:0:0:0:
192,192,171131,1,0,0:0:0:0:
448,192,171265,1,0,0:0:0:0:
320,192,171265,1,0,0:0:0:0:
64,192,171398,1,0,0:0:0:0:
320,192,171531,1,0,0:0:0:0:
448,192,171664,1,0,0:0:0:0:
192,192,171798,1,0,0:0:0:0:
448,192,171931,1,0,0:0:0:0:
64,192,172064,1,0,0:0:0:0:
192,192,172064,128,0,172398:0:0:0:0:
448,192,172198,1,0,0:0:0:0:
64,192,172331,1,0,0:0:0:0:
320,192,172464,128,0,172798:0:0:0:0:
192,192,172598,1,0,0:0:0:0:
448,192,172731,1,0,0:0:0:0:
192,192,172864,1,0,0:0:0:0:
64,192,172864,1,0,0:0:0:0:
320,192,173264,1,0,0:0:0:0:
448,192,173264,1,0,0:0:0:0:
192,192,173398,1,0,0:0:0:0:
448,192,173531,1,0,0:0:0:0:
64,192,173664,1,0,0:0:0:0:
192,192,173664,1,0,0:0:0:0:
320,192,173798,1,0,0:0:0:0:
192,192,173931,1,0,0:0:0:0:
320,192,174064,1,0,0:0:0:0:
448,192,174064,1,0,0:0:0:0:
64,192,174197,1,0,0:0:0:0:
448,192,174331,1,0,0:0:0:0:
64,192,174464,1,0,0:0:0:0:
192,192,174464,1,0,0:0:0:0:
320,192,174597,1,0,0:0:0:0:
192,192,174731,1,0,0:0:0:0:
320,192,174864,1,0,0:0:0:0:
448,192,174864,1,0,0:0:0:0:
64,192,174997,1,0,0:0:0:0:
448,192,175131,1,0,0:0:0:0:
192,192,175264,1,0,0:0:0:0:
64,192,175264,1,0,0:0:0:0:
320,192,175397,1,0,0:0:0:0:
192,192,175531,1,0,0:0:0:0:
320,192,175664,1,0,0:0:0:0:
448,192,175664,1,0,0:0:0:0:
64,192,175797,1,0,0:0:0:0:
448,192,175931,1,0,0:0:0:0:
192,192,176064,1,0,0:0:0:0:
64,192,176064,1,0,0:0:0:0:
192,192,176331,1,0,0:0:0:0:
64,192,176331,1,0,0:0:0:0:
320,192,176464,1,0,0:0:0:0:
448,192,176464,1,0,0:0:0:0:
64,192,176731,1,0,0:0:0:0:
192,192,176731,1,0,0:0:0:0:
320,192,176864,1,0,0:0:0:0:
448,192,176864,1,0,0:0:0:0:
320,192,177130,1,0,0:0:0:0:
448,192,177130,1,0,0:0:0:0:
192,192,177264,1,0,0:0:0:0:
64,192,177264,1,0,0:0:0:0:
448,192,177530,1,0,0:0:0:0:
320,192,177530,1,0,0:0:0:0:
192,192,177664,1,0,0:0:0:0:
64,192,177664,1,0,0:0:0:0:
320,192,177930,1,0,0:0:0:0:
448,192,177930,1,0,0:0:0:0:
448,192,178064,1,0,0:0:0:0:
64,192,178197,1,0,0:0:0:0:
192,192,178330,1,0,0:0:0:0:
448,192,178397,1,0,0:0:0:0:
64,192,178464,1,0,0:0:0:0:
320,192,178730,1,0,0:0:0:0:
192,192,178730,1,0,0:0:0:0:
192,192,178997,1,0,0:0:0:0:
320,192,178997,1,0,0:0:0:0:
192,192,179264,128,0,179930:0:0:0:0:
320,192,179264,128,0,179930:0:0:0:0:
320,192,180130,1,0,0:0:0:0:
192,192,180197,1,0,0:0:0:0:
64,192,180263,1,0,0:0:0:0:
192,192,180330,1,0,0:0:0:0:
320,192,180397,1,0,0:0:0:0:
448,192,180463,1,0,0:0:0:0:
192,192,180530,1,0,0:0:0:0:
448,192,180597,1,0,0:0:0:0:
320,192,180663,1,0,0:0:0:0:
64,192,180730,1,0,0:0:0:0:
64,192,180863,128,0,181197:0:0:0:0:
448,192,180863,128,0,181197:0:0:0:0:
320,192,181330,1,0,0:0:0:0:
192,192,181330,1,0,0:0:0:0:
192,192,181663,128,0,181930:0:0:0:0:
320,192,181663,128,0,181930:0:0:0:0:
320,192,182063,1,0,0:0:0:0:
192,192,182197,1,0,0:0:0:0:
320,192,182330,1,0,0:0:0:0:
320,192,182463,1,0,0:0:0:0:
192,192,182596,1,0,0:0:0:0:
64,192,182663,1,0,0:0:0:0:
448,192,182730,1,0,0:0:0:0:
192,192,182796,1,0,0:0:0:0:
448,192,182863,1,0,0:0:0:0:
320,192,182996,1,0,0:0:0:0:
192,192,183130,1,0,0:0:0:0:
320,192,183263,1,0,0:0:0:0:
448,192,183263,1,0,0:0:0:0:
64,192,183396,1,0,0:0:0:0:
448,192,183530,1,0,0:0:0:0:
192,192,183663,1,0,0:0:0:0:
448,192,183796,1,0,0:0:0:0:
320,192,183930,1,0,0:0:0:0:
320,192,184063,128,0,184396:0:0:0:0:
192,192,184063,128,0,184396:0:0:0:0:
64,192,184463,128,0,184730:0:0:0:0:
448,192,184463,128,0,184730:0:0:0:0:
320,192,184730,1,0,0:0:0:0:
192,192,184863,1,0,0:0:0:0:
64,192,184863,1,0,0:0:0:0:
192,192,184996,128,0,185196:0:0:0:0:
64,192,185263,1,0,0:0:0:0:
320,192,185329,1,0,0:0:0:0:
448,192,185396,1,0,0:0:0:0:
192,192,185529,1,0,0:0:0:0:
320,192,185663,128,0,185996:0:0:0:0:
192,192,186063,128,0,186329:0:0:0:0:
448,192,186063,1,0,0:0:0:0:
64,192,186196,1,0,0:0:0:0:
448,192,186329,1,0,0:0:0:0:
320,192,186463,1,0,0:0:0:0:
192,192,186463,1,0,0:0:0:0:
448,192,186729,1,0,0:0:0:0:
64,192,186729,1,0,0:0:0:0:
320,192,186863,1,0,0:0:0:0:
64,192,186929,1,0,0:0:0:0:
448,192,186996,1,0,0:0:0:0:
192,192,187129,1,0,0:0:0:0:
320,192,187263,128,0,187529:0:0:0:0:
64,192,187529,1,0,0:0:0:0:
192,192,187663,128,0,187862:0:0:0:0:
448,192,187929,1,0,0:0:0:0:
192,192,188062,128,0,188196:0:0:0:0:
320,192,188062,128,0,188196:0:0:0:0:
320,192,188329,1,0,0:0:0:0:
192,192,188329,1,0,0:0:0:0:
64,192,188462,128,0,188662:0:0:0:0:
448,192,188729,1,0,0:0:0:0:
320,192,188862,128,0,189129:0:0:0:0:
192,192,188862,128,0,189129:0:0:0:0:
320,192,189262,1,0,0:0:0:0:
448,192,189396,1,0,0:0:0:0:
64,192,189529,1,0,0:0:0:0:
320,192,189662,1,0,0:0:0:0:
448,192,189662,1,0,0:0:0:0:
192,192,189796,1,0,0:0:0:0:
64,192,189862,1,0,0:0:0:0:
192,192,189929,1,0,0:0:0:0:
320,192,190062,128,0,190262:0:0:0:0:
64,192,190329,1,0,0:0:0:0:
192,192,190462,128,0,190662:0:0:0:0:
448,192,190595,1,0,0:0:0:0:
320,192,190729,1,0,0:0:0:0:
64,192,190862,128,0,191129:0:0:0:0:
448,192,190862,128,0,191129:0:0:0:0:
320,192,191129,1,0,0:0:0:0:
192,192,191262,1,0,0:0:0:0:
320,192,191262,1,0,0:0:0:0:
64,192,191395,1,0,0:0:0:0:
192,192,191395,1,0,0:0:0:0:
320,192,191529,1,0,0:0:0:0:
448,192,191529,1,0,0:0:0:0:
64,192,191662,128,0,191929:0:0:0:0:
448,192,191662,128,0,191929:0:0:0:0:
192,192,192062,128,0,192595:0:0:0:0:
320,192,192062,128,0,192595:0:0:0:0:
64,192,192729,1,0,0:0:0:0:
320,192,192862,1,0,0:0:0:0:
448,192,192862,1,0,0:0:0:0:
64,192,192995,128,0,193195:0:0:0:0:
192,192,193262,1,0,0:0:0:0:
448,192,193395,1,0,0:0:0:0:
320,192,193528,1,0,0:0:0:0:
448,192,193662,128,0,193862:0:0:0:0:
320,192,193928,1,0,0:0:0:0:
192,192,194062,1,0,0:0:0:0:
320,192,194195,1,0,0:0:0:0:
64,192,194328,1,0,0:0:0:0:
320,192,194462,1,0,0:0:0:0:
448,192,194462,1,0,0:0:0:0:
192,192,194595,1,0,0:0:0:0:
64,192,194662,1,0,0:0:0:0:
192,192,194728,1,0,0:0:0:0:
448,192,194862,1,0,0:0:0:0:
192,192,194995,1,0,0:0:0:0:
64,192,195128,1,0,0:0:0:0:
448,192,195262,128,0,195528:0:0:0:0:
320,192,195662,128,0,195928:0:0:0:0:
64,192,196061,1,0,0:0:0:0:
448,192,196195,128,0,196395:0:0:0:0:
192,192,196461,1,0,0:0:0:0:
320,192,196595,1,0,0:0:0:0:
64,192,196728,1,0,0:0:0:0:
192,192,196861,128,0,197128:0:0:0:0:
64,192,197261,128,0,197528:0:0:0:0:
448,192,197661,1,0,0:0:0:0:
320,192,197661,1,0,0:0:0:0:
64,192,197795,1,0,0:0:0:0:
448,192,197928,1,0,0:0:0:0:
192,192,198061,1,0,0:0:0:0:
64,192,198195,1,0,0:0:0:0:
192,192,198328,1,0,0:0:0:0:
448,192,198461,128,0,198728:0:0:0:0:
192,192,198728,1,0,0:0:0:0:
320,192,198861,1,0,0:0:0:0:
64,192,198994,1,0,0:0:0:0:
448,192,199128,1,0,0:0:0:0:
192,192,199261,1,0,0:0:0:0:
64,192,199261,1,0,0:0:0:0:
320,192,199394,1,0,0:0:0:0:
448,192,199394,1,0,0:0:0:0:
192,192,199528,1,0,0:0:0:0:
64,192,199528,1,0,0:0:0:0:
320,192,199661,1,0,0:0:0:0:
448,192,199661,1,0,0:0:0:0:
64,192,199794,128,0,199994:0:0:0:0:
448,192,200061,128,0,200261:0:0:0:0:
192,192,200461,128,0,200594:0:0:0:0:
320,192,200728,1,0,0:0:0:0:
192,192,200861,1,0,0:0:0:0:
64,192,200861,1,0,0:0:0:0:
320,192,200994,1,0,0:0:0:0:
448,192,201128,1,0,0:0:0:0:
64,192,201286,128,0,201686:0:0:0:0:
448,192,201686,128,0,202019:0:0:0:0:
320,192,202061,1,0,0:0:0:0:
64,192,202194,1,0,0:0:0:0:
320,192,202327,1,0,0:0:0:0:
448,192,202461,1,0,0:0:0:0:
320,192,202461,1,0,0:0:0:0:
192,192,202594,1,0,0:0:0:0:
64,192,202594,1,0,0:0:0:0:
320,192,202727,1,0,0:0:0:0:
448,192,202727,1,0,0:0:0:0:
192,192,202886,1,0,0:0:0:0:
64,192,202994,128,0,203194:0:0:0:0:
320,192,203261,128,0,203527:0:0:0:0:
64,192,203661,128,0,203927:0:0:0:0:
448,192,203661,128,0,203927:0:0:0:0:
320,192,204061,1,0,0:0:0:0:
64,192,204194,1,0,0:0:0:0:
320,192,204327,1,0,0:0:0:0:
448,192,204394,1,0,0:0:0:0:
192,192,204460,1,0,0:0:0:0:
64,192,204594,1,0,0:0:0:0:
320,192,204727,1,0,0:0:0:0:
192,192,204860,128,0,206260:0:0:0:0:
320,192,204994,1,0,0:0:0:0:
448,192,205127,1,0,0:0:0:0:
64,192,205260,1,0,0:0:0:0:
448,192,205394,1,0,0:0:0:0:
64,192,205527,1,0,0:0:0:0:
320,192,205660,1,0,0:0:0:0:
448,192,205794,1,0,0:0:0:0:
64,192,205927,1,0,0:0:0:0:
320,192,206060,1,0,0:0:0:0:
448,192,206194,1,0,0:0:0:0:
64,192,206327,1,0,0:0:0:0:
320,192,206460,1,0,0:0:0:0:
448,192,206460,1,0,0:0:0:0:
192,192,206594,1,0,0:0:0:0:
320,192,206727,1,0,0:0:0:0:
64,192,206860,128,0,207060:0:0:0:0:
320,192,206993,1,0,0:0:0:0:
448,192,207127,1,0,0:0:0:0:
64,192,207260,1,0,0:0:0:0:
192,192,207260,1,0,0:0:0:0:
320,192,207393,1,0,0:0:0:0:
192,192,207527,1,0,0:0:0:0:
448,192,207660,128,0,207860:0:0:0:0:
192,192,207793,1,0,0:0:0:0:
64,192,207927,1,0,0:0:0:0:
192,192,208060,1,0,0:0:0:0:
320,192,208060,1,0,0:0:0:0:
448,192,208193,1,0,0:0:0:0:
320,192,208327,1,0,0:0:0:0:
64,192,208460,128,0,208660:0:0:0:0:
320,192,208727,1,0,0:0:0:0:
192,192,208860,1,0,0:0:0:0:
64,192,208860,1,0,0:0:0:0:
448,192,208993,1,0,0:0:0:0:
192,192,209127,1,0,0:0:0:0:
448,192,209260,128,0,209460:0:0:0:0:
64,192,209527,1,0,0:0:0:0:
320,192,209660,1,0,0:0:0:0:
448,192,209793,1,0,0:0:0:0:
192,192,209926,1,0,0:0:0:0:
64,192,210060,128,0,210260:0:0:0:0:
192,192,210326,1,0,0:0:0:0:
320,192,210460,1,0,0:0:0:0:
448,192,210460,1,0,0:0:0:0:
64,192,210593,1,0,0:0:0:0:
320,192,210726,1,0,0:0:0:0:
448,192,210860,128,0,211060:0:0:0:0:
64,192,211126,1,0,0:0:0:0:
192,192,211260,1,0,0:0:0:0:
448,192,211393,1,0,0:0:0:0:
320,192,211526,1,0,0:0:0:0:
64,192,211660,128,0,211860:0:0:0:0:
192,192,211793,1,0,0:0:0:0:
448,192,211926,1,0,0:0:0:0:
192,192,212060,1,0,0:0:0:0:
64,192,212060,1,0,0:0:0:0:
448,192,212193,1,0,0:0:0:0:
192,192,212326,1,0,0:0:0:0:
448,192,212459,128,0,212659:0:0:0:0:
320,192,212726,1,0,0:0:0:0:
64,192,212859,1,0,0:0:0:0:
192,192,212993,1,0,0:0:0:0:
448,192,213126,1,0,0:0:0:0:
64,192,213259,128,0,213459:0:0:0:0:
192,192,213526,1,0,0:0:0:0:
448,192,213659,1,0,0:0:0:0:
320,192,213659,1,0,0:0:0:0:
64,192,213793,1,0,0:0:0:0:
192,192,213926,1,0,0:0:0:0:
448,192,214059,128,0,214259:0:0:0:0:
192,192,214193,1,0,0:0:0:0:
64,192,214326,1,0,0:0:0:0:
320,192,214459,1,0,0:0:0:0:
192,192,214459,1,0,0:0:0:0:
448,192,214593,1,0,0:0:0:0:
320,192,214726,1,0,0:0:0:0:
64,192,214859,128,0,215059:0:0:0:0:
448,192,214993,1,0,0:0:0:0:
192,192,215126,1,0,0:0:0:0:
320,192,215259,1,0,0:0:0:0:
448,192,215259,1,0,0:0:0:0:
64,192,215392,1,0,0:0:0:0:
320,192,215526,1,0,0:0:0:0:
448,192,215659,128,0,215859:0:0:0:0:
64,192,215792,1,0,0:0:0:0:
192,192,215926,1,0,0:0:0:0:
320,192,216059,1,0,0:0:0:0:
448,192,216059,1,0,0:0:0:0:
64,192,216192,1,0,0:0:0:0:
320,192,216326,1,0,0:0:0:0:
64,192,216459,128,0,216659:0:0:0:0:
320,192,216592,1,0,0:0:0:0:
448,192,216726,1,0,0:0:0:0:
192,192,216859,1,0,0:0:0:0:
64,192,216859,1,0,0:0:0:0:
448,192,216992,1,0,0:0:0:0:
320,192,217126,1,0,0:0:0:0:
64,192,217259,1,0,0:0:0:0:
192,192,217526,1,0,0:0:0:0:
320,192,217659,1,0,0:0:0:0:
448,192,217659,1,0,0:0:0:0:
192,192,217792,1,0,0:0:0:0:
64,192,217925,1,0,0:0:0:0:
448,192,218059,128,0,218259:0:0:0:0:
64,192,218325,1,0,0:0:0:0:
320,192,218459,1,0,0:0:0:0:
192,192,218459,1,0,0:0:0:0:
448,192,218592,1,0,0:0:0:0:
192,192,218725,1,0,0:0:0:0:
64,192,218859,128,0,219059:0:0:0:0:
320,192,219125,1,0,0:0:0:0:
64,192,219259,1,0,0:0:0:0:
448,192,219392,1,0,0:0:0:0:
192,192,219525,1,0,0:0:0:0:
448,192,219659,128,0,219859:0:0:0:0:
64,192,219792,1,0,0:0:0:0:
192,192,219925,1,0,0:0:0:0:
448,192,220059,1,0,0:0:0:0:
320,192,220059,1,0,0:0:0:0:
64,192,220192,1,0,0:0:0:0:
448,192,220325,1,0,0:0:0:0:
64,192,220458,128,0,220658:0:0:0:0:
448,192,220725,1,0,0:0:0:0:
192,192,220858,1,0,0:0:0:0:
64,192,220858,1,0,0:0:0:0:
320,192,220992,1,0,0:0:0:0:
192,192,221125,1,0,0:0:0:0:
448,192,221258,128,0,221458:0:0:0:0:
64,192,221392,1,0,0:0:0:0:
192,192,221525,1,0,0:0:0:0:
448,192,221658,1,0,0:0:0:0:
320,192,221658,1,0,0:0:0:0:
64,192,221792,1,0,0:0:0:0:
192,192,221925,1,0,0:0:0:0:
64,192,222058,128,0,222258:0:0:0:0:
448,192,222192,1,0,0:0:0:0:
320,192,222325,1,0,0:0:0:0:
64,192,222458,1,0,0:0:0:0:
448,192,222592,1,0,0:0:0:0:
64,192,222725,1,0,0:0:0:0:
448,192,222858,128,0,223058:0:0:0:0:
192,192,222992,1,0,0:0:0:0:
320,192,223125,1,0,0:0:0:0:
192,192,223258,1,0,0:0:0:0:
64,192,223258,1,0,0:0:0:0:
448,192,223391,1,0,0:0:0:0:
64,192,223525,1,0,0:0:0:0:
320,192,223658,1,0,0:0:0:0:
192,192,223658,1,0,0:0:0:0:
64,192,223791,1,0,0:0:0:0:
448,192,223925,1,0,0:0:0:0:
192,192,224058,1,0,0:0:0:0:
64,192,224191,1,0,0:0:0:0:
320,192,224325,1,0,0:0:0:0:
448,192,224458,128,0,224658:0:0:0:0:
64,192,224591,1,0,0:0:0:0:
192,192,224725,1,0,0:0:0:0:
448,192,224858,1,0,0:0:0:0:
320,192,224858,1,0,0:0:0:0:
64,192,224991,1,0,0:0:0:0:
320,192,225125,1,0,0:0:0:0:
64,192,225258,128,0,225458:0:0:0:0:
448,192,225391,1,0,0:0:0:0:
192,192,225525,1,0,0:0:0:0:
320,192,225658,1,0,0:0:0:0:
64,192,225791,1,0,0:0:0:0:
320,192,225924,1,0,0:0:0:0:
448,192,226058,128,0,226258:0:0:0:0:
192,192,226191,1,0,0:0:0:0:
320,192,226324,1,0,0:0:0:0:
64,192,226458,1,0,0:0:0:0:
192,192,226458,1,0,0:0:0:0:
320,192,226591,1,0,0:0:0:0:
448,192,226724,1,0,0:0:0:0:
64,192,226858,128,0,227058:0:0:0:0:
448,192,227124,1,0,0:0:0:0:
320,192,227258,1,0,0:0:0:0:
192,192,227258,1,0,0:0:0:0:
64,192,227391,1,0,0:0:0:0:
320,192,227524,1,0,0:0:0:0:
448,192,227658,128,0,227858:0:0:0:0:
64,192,227791,1,0,0:0:0:0:
192,192,227924,1,0,0:0:0:0:
448,192,228058,1,0,0:0:0:0:
320,192,228058,1,0,0:0:0:0:
64,192,228191,1,0,0:0:0:0:
448,192,228324,1,0,0:0:0:0:
64,192,228458,128,0,228657:0:0:0:0:
448,192,228724,1,0,0:0:0:0:
320,192,228857,1,0,0:0:0:0:
192,192,228857,1,0,0:0:0:0:
64,192,228991,1,0,0:0:0:0:
320,192,229124,1,0,0:0:0:0:
448,192,229257,128,0,229457:0:0:0:0:
64,192,229391,1,0,0:0:0:0:
192,192,229524,1,0,0:0:0:0:
320,192,229657,1,0,0:0:0:0:
448,192,229657,1,0,0:0:0:0:
64,192,229791,1,0,0:0:0:0:
320,192,229924,1,0,0:0:0:0:
64,192,230057,128,0,230257:0:0:0:0:
448,192,230191,1,0,0:0:0:0:
192,192,230324,1,0,0:0:0:0:
448,192,230457,1,0,0:0:0:0:
192,192,230591,1,0,0:0:0:0:
64,192,230724,1,0,0:0:0:0:
320,192,230857,1,0,0:0:0:0:
64,192,230991,1,0,0:0:0:0:
320,192,231124,1,0,0:0:0:0:
64,192,231257,1,0,0:0:0:0:
448,192,231390,1,0,0:0:0:0:
320,192,231524,1,0,0:0:0:0:
64,192,231657,1,0,0:0:0:0:
448,192,232057,1,0,0:0:0:0:
64,192,232857,1,0,0:0:0:0:
320,192,233657,1,0,0:0:0:0:
192,192,234457,1,0,0:0:0:0:
320,192,235257,1,0,0:0:0:0:
448,192,236057,1,0,0:0:0:0:
192,192,236856,1,0,0:0:0:0:
64,192,237656,1,0,0:0:0:0:
192,192,238456,128,0,242256:0:0:0:0:
320,192,238456,128,0,242256:0:0:0:0:
