osu file format v14

[General]
AudioFilename: drizzlingsun.mp3
AudioLeadIn: 0
PreviewTime: 17206
Countdown: 0
SampleSet: Soft
StackLeniency: 0.3
Mode: 0
LetterboxInBreaks: 1
WidescreenStoryboard: 1

[Editor]
Bookmarks: 3492,10349,17206,24063,30920,37777,44634,51492,58349,65206,72063,78920,85777,92634,99491,106349,113206,120063,126920,133777,140634,147492,154349,161206,168063,174920,181777,188634,195492,202349,209206,216063,222920
DistanceSpacing: 0.8
BeatDivisor: 16
GridSize: 4
TimelineZoom: 3

[Metadata]
Title:Drizzling Sun
TitleUnicode:Drizzling Sun
Artist:Umiai
ArtistUnicode:海秋
Creator:Axarious
Version:Beginner
Source:
Tags:
BeatmapID:1269591
BeatmapSetID:600897

[Difficulty]
HPDrainRate:3
CircleSize:5.2
OverallDifficulty:8
ApproachRate:9.9
SliderMultiplier:1.6
SliderTickRate:0.5

[Events]
//Background and Video events
0,0,"23 drizzlingsun.png",0,0
//Break Periods
//Storyboard Layer 0 (Background)
//Storyboard Layer 1 (Fail)
//Storyboard Layer 2 (Pass)
//Storyboard Layer 3 (Foreground)
//Storyboard Sound Samples

[TimingPoints]
1778,428.571428571429,4,2,0,50,1,0
3492,428.571428571429,4,2,0,50,1,0
58777,3428.57142857143,4,2,0,50,1,0
58777,-12.5,4,2,0,50,0,0
58991,428.571428571429,4,2,0,50,1,0
59205,428.571428571429,4,2,0,50,1,0
60062,428.571428571429,4,2,0,50,1,0
65206,428.571428571429,4,2,0,50,1,0
113206,6857.14285714286,4,2,0,50,1,0
113206,-200,4,2,0,50,0,0
113420,428.571428571429,4,2,0,50,1,0
114062,6857.14285714286,4,2,0,50,1,0
114062,-200,4,2,0,50,0,0
114276,428.571428571429,4,2,0,50,1,0
114918,6857.14285714286,4,2,0,50,1,0
114918,-200,4,2,0,50,0,0
115133,428.571428571429,4,2,0,50,1,0
115775,6857.14285714286,4,2,0,50,1,0
115775,-200,4,2,0,50,0,0
115990,428.571428571429,4,2,0,50,1,0
116633,6857.14285714286,4,2,0,50,1,0
116633,-200,4,2,0,50,0,0
116847,428.571428571429,4,2,0,50,1,0
117489,6857.14285714286,4,2,0,50,1,0
117489,-200,4,2,0,50,0,0
117703,428.571428571429,4,2,0,50,1,0
118345,6857.14285714286,4,2,0,50,1,0
118345,-200,4,2,0,50,0,0
118559,428.571428571429,4,2,0,50,1,0
119203,6857.14285714286,4,2,0,50,1,0
119203,-200,4,2,0,50,0,0
119418,428.571428571429,4,2,0,50,1,0
120063,428.571428571429,4,2,0,50,1,0
140634,-66.6666666666667,4,2,0,50,0,0
168438,-66.6666666666667,4,2,0,5,0,0
168491,3428.57142857143,4,2,0,50,1,0
168491,-12.5,4,2,0,50,0,0
168705,428.571428571429,4,2,0,50,1,0
168919,428.571428571429,4,2,0,50,1,0
169776,428.571428571429,4,2,0,50,1,0
170151,-100,4,2,0,5,0,0
170204,-100,4,2,0,50,0,0
171088,-100,4,2,0,5,0,0
171276,-100,4,2,0,50,0,0
171865,-100,4,2,0,5,0,0
171918,-100,4,2,0,50,0,0
172722,-100,4,2,0,5,0,0
172776,-100,4,2,0,50,0,0
173579,-100,4,2,0,5,0,0
173633,-100,4,2,0,50,0,0
174436,-100,4,2,0,5,0,0
174490,-100,4,2,0,50,0,0
174920,428.571428571429,4,2,0,50,1,0
178723,-100,4,2,0,5,0,0
178777,-100,4,2,0,50,0,0
181295,-100,4,2,0,5,0,0
181348,-100,4,2,0,50,0,0
181777,1714.28571428571,4,2,0,50,1,0
181777,-12.5,4,2,0,50,0,0
181991,428.571428571429,4,2,0,50,1,0
182152,-100,4,2,0,5,0,0
182205,428.571428571429,4,2,0,50,1,0
182205,-100,4,2,0,50,0,0
183009,-100,4,2,0,5,0,0
183062,-66.6666666666667,4,2,0,50,0,0
183866,-100,4,2,0,5,0,0
183919,-50,4,2,0,50,0,0
184723,-100,4,2,0,5,0,0
184776,-50,4,2,0,50,0,0
185580,-100,4,2,0,5,0,0
185633,-50,4,2,0,50,0,0
186437,-100,4,2,0,5,0,0
186490,-44.4444444444445,4,2,0,50,0,0
187294,-100,4,2,0,5,0,0
187348,-66.6666666666667,4,2,0,50,0,0
188152,-100,4,2,0,5,0,0
188205,-76.9230769230769,4,2,0,50,0,0
188634,428.571428571429,4,2,0,50,1,0
188634,-76.9230769230769,4,2,0,50,0,0
195491,-100,4,2,0,50,0,0

[Colours]
Combo1 : 179,253,159
Combo2 : 252,153,135
Combo3 : 253,202,134
Combo4 : 253,251,151

[HitObjects]
296,152,1778,5,0,3:0:0:0:
296,152,2206,1,0,3:0:0:0:
296,152,2635,6,0,B|352:94|352:94|442:78,1,160
380,148,3278,1,0,0:0:0:0:
380,148,3385,1,0,0:0:0:0:
380,148,3492,6,0,B|316:124|316:124|308:112,1,80
360,72,3813,1,0,0:0:0:0:
296,48,3920,1,0,0:0:0:0:
296,48,4027,2,0,L|304:20,2,20
360,72,4242,2,0,L|396:52,1,40
448,152,4456,5,0,0:0:0:0:
508,120,4563,2,0,L|500:72,1,40
380,148,4777,2,0,L|332:124,1,40
296,48,4992,2,0,L|300:100,1,40
284,148,5206,6,0,L|304:172,2,20
360,72,5420,2,0,L|364:28,1,40
492,16,5634,2,0,L|448:32,1,40
451,33,5795,1,0,0:0:0:0:
448,36,5849,2,0,L|426:71,1,40
496,160,6062,5,0,0:0:0:0:
468,132,6170,1,0,0:0:0:0:
428,144,6277,5,0,0:0:0:0:
396,128,6384,1,0,0:0:0:0:
360,144,6492,5,0,0:0:0:0:
320,140,6599,1,0,0:0:0:0:
292,160,6706,5,0,0:0:0:0:
288,124,6813,1,0,0:0:0:0:
316,104,6920,6,0,B|368:128|368:128|380:148,1,80
300,40,7242,6,0,L|284:0,1,40
364,60,7456,1,0,0:0:0:0:
364,60,7563,2,0,L|404:24,1,40
512,72,7777,2,0,L|496:48,2,20
424,92,7992,1,0,0:0:0:0:
448,152,8099,1,0,0:0:0:0:
512,160,8206,5,0,0:0:0:0:
460,140,8313,1,0,0:0:0:0:
404,144,8420,1,0,0:0:0:0:
352,124,8527,1,0,0:0:0:0:
296,132,8634,5,0,0:0:0:0:
316,76,8849,5,0,0:0:0:0:
400,88,9063,2,0,L|408:64,2,20
456,40,9278,1,0,0:0:0:0:
508,68,9384,1,0,0:0:0:0:
492,124,9492,6,0,L|480:168,1,40
400,88,9706,2,0,L|412:132,1,40
296,132,9920,1,0,0:0:0:0:
324,136,10027,1,0,0:0:0:0:
288,112,10134,2,0,L|316:104,2,20
228,164,10349,5,0,0:0:0:0:
204,148,10563,5,0,0:0:0:0:
180,132,10777,6,0,L|132:140,1,40
44,157,10992,2,0,L|84:164,1,40
152,68,11206,5,0,0:0:0:0:
92,100,11313,1,0,0:0:0:0:
124,52,11420,6,0,L|132:20,2,20
64,20,11634,2,0,L|16:24,1,40
60,128,11849,2,0,L|68:76,1,40
36,144,12063,5,0,0:0:0:0:
12,160,12170,1,0,0:0:0:0:
160,160,12384,1,0,0:0:0:0:
136,144,12492,2,0,L|152:104,1,40
196,32,12706,2,0,L|144:40,1,40
216,92,12920,5,0,0:0:0:0:
224,112,13027,1,0,0:0:0:0:
168,144,13134,5,0,0:0:0:0:
160,124,13241,1,0,0:0:0:0:
88,112,13349,5,0,0:0:0:0:
96,132,13456,1,0,0:0:0:0:
40,164,13563,5,0,0:0:0:0:
32,144,13670,1,0,0:0:0:0:
8,88,13777,6,0,B|24:24|24:24|16:8,1,80
112,52,14099,2,0,L|72:60,1,40
164,88,14313,1,0,0:0:0:0:
172,24,14420,2,0,L|124:12,1,40
224,64,14634,1,0,0:0:0:0:
200,156,14849,6,0,L|208:124,2,20
164,88,15063,1,0,0:0:0:0:
104,80,15170,1,0,0:0:0:0:
48,104,15277,1,0,0:0:0:0:
24,160,15384,1,0,0:0:0:0:
12,148,15492,5,0,0:0:0:0:
36,132,15706,5,0,0:0:0:0:
60,116,15920,6,0,L|88:120,2,20
132,156,16134,1,0,0:0:0:0:
132,156,16242,1,0,0:0:0:0:
196,152,16349,6,0,L|220:168,2,20
228,96,16563,1,0,0:0:0:0:
228,96,16670,1,0,0:0:0:0:
164,88,16777,6,0,L|116:64,1,40
168,24,16992,2,0,L|227:17,1,60
288,36,17206,6,0,B|300:24|300:24|368:32,1,80
448,60,17527,1,0,0:0:0:0:
392,40,17634,5,0,0:0:0:0:
472,36,17742,2,0,L|468:12,2,20
496,160,17956,2,0,B|448:128,1,40
328,152,18171,5,0,0:0:0:0:
392,152,18277,2,0,L|348:164,1,40
284,68,18492,2,0,L|300:116,1,40
416,28,18706,1,0,0:0:0:0:
336,16,18813,1,0,0:0:0:0:
400,48,18920,6,0,L|396:72,2,20
436,164,19134,1,0,0:0:0:0:
372,164,19242,1,0,0:0:0:0:
452,144,19349,6,0,L|448:96,1,40
456,92,19509,1,0,0:0:0:0:
464,80,19563,2,0,L|468:128,1,40
404,152,19777,5,0,0:0:0:0:
332,140,19884,1,0,0:0:0:0:
392,116,19992,5,0,0:0:0:0:
316,144,20099,1,0,0:0:0:0:
384,156,20206,5,0,0:0:0:0:
300,140,20313,1,0,0:0:0:0:
372,120,20420,5,0,0:0:0:0:
284,144,20527,1,0,0:0:0:0:
364,160,20634,6,0,B|352:96|352:96|360:72,1,80
432,8,20956,6,0,L|392:16,1,40
488,160,21170,1,0,0:0:0:0:
428,140,21277,2,0,L|480:148,1,40
484,40,21492,6,0,L|464:60,2,20
404,112,21706,2,0,B|392:116|392:116|356:100,1,40
328,16,21920,5,0,0:0:0:0:
308,80,22027,1,0,0:0:0:0:
304,20,22134,5,0,0:0:0:0:
328,92,22242,1,0,0:0:0:0:
396,52,22349,6,0,B|408:48|408:48|444:64,1,40
492,48,22563,5,0,0:0:0:0:
424,144,22777,5,0,0:0:0:0:
424,144,22884,2,0,L|418:163,2,20
404,80,23099,1,0,0:0:0:0:
324,96,23206,5,0,0:0:0:0:
392,96,23313,1,0,0:0:0:0:
312,112,23420,5,0,0:0:0:0:
380,76,23527,1,0,0:0:0:0:
292,56,23634,5,0,0:0:0:0:
368,56,23742,1,0,0:0:0:0:
292,112,23849,6,0,L|300:76,2,20
224,128,24063,5,0,0:0:0:0:
200,136,24277,5,0,0:0:0:0:
176,144,24492,6,0,L|128:128,1,40
56,152,24706,2,0,L|16:156,1,40
128,72,24920,5,0,0:0:0:0:
116,160,25027,1,0,0:0:0:0:
104,88,25134,6,0,L|100:56,2,20
188,4,25349,2,0,L|232:16,1,40
36,32,25563,2,0,L|44:80,1,40
56,16,25777,5,0,0:0:0:0:
76,0,25884,1,0,0:0:0:0:
180,88,26099,1,0,0:0:0:0:
204,76,26206,2,0,L|148:64,1,40
228,164,26420,2,0,L|172:152,1,40
72,112,26634,5,0,0:0:0:0:
84,164,26742,1,0,0:0:0:0:
96,92,26849,5,0,0:0:0:0:
76,144,26956,1,0,0:0:0:0:
64,56,27063,5,0,0:0:0:0:
84,116,27170,1,0,0:0:0:0:
100,12,27277,5,0,0:0:0:0:
88,72,27384,1,0,0:0:0:0:
44,8,27492,6,0,B|100:28|100:28|128:20,1,80
220,40,27813,2,0,L|168:40,1,40
136,80,28027,1,0,0:0:0:0:
76,88,28134,2,0,L|122:100,1,40
0,112,28349,1,0,0:0:0:0:
224,160,28563,6,0,L|216:132,2,20
160,160,28777,1,0,0:0:0:0:
104,128,28884,1,0,0:0:0:0:
80,68,28992,1,0,0:0:0:0:
88,4,29099,1,0,0:0:0:0:
68,24,29206,5,0,0:0:0:0:
48,44,29420,5,0,0:0:0:0:
28,64,29634,6,0,L|56:68,2,20
64,124,29848,1,0,0:0:0:0:
12,156,29956,1,0,0:0:0:0:
88,144,30063,6,0,L|112:160,2,20
176,92,30277,1,0,0:0:0:0:
168,152,30384,1,0,0:0:0:0:
152,80,30492,6,0,L|156:32,1,40
228,104,30707,2,0,L|215:163,1,60
204,224,30920,6,0,P|212:256|196:304,1,80
96,356,31242,1,0,0:0:0:0:
40,324,31349,2,0,P|32:360|40:380,1,40
120,300,31563,5,0,0:0:0:0:
132,240,31670,2,0,B|144:260|144:260|128:336,1,80
64,284,31992,5,0,0:0:0:0:
160,296,32099,1,0,0:0:0:0:
76,272,32206,5,0,0:0:0:0:
168,312,32313,1,0,0:0:0:0:
76,304,32420,5,0,0:0:0:0:
176,288,32527,1,0,0:0:0:0:
108,256,32634,6,0,L|104:228,2,20
120,368,32849,1,0,0:0:0:0:
120,368,32956,2,0,P|160:368|200:384,1,80
228,352,33277,2,0,L|184:356,1,40
188,272,33492,6,0,P|208:276|232:288,1,40
152,336,33706,2,0,L|144:380,1,40
96,224,33920,6,0,P|104:252|104:284,1,40
48,376,34134,2,0,P|28:364|48:332,1,40
48,272,34349,6,0,L|64:368,1,80
120,312,34670,1,0,0:0:0:0:
184,272,34777,5,0,0:0:0:0:
152,336,34884,1,0,0:0:0:0:
160,264,34992,5,0,0:0:0:0:
176,348,35099,1,0,0:0:0:0:
212,288,35206,5,0,0:0:0:0:
120,304,35313,1,0,0:0:0:0:
180,304,35420,5,0,0:0:0:0:
88,288,35527,1,0,0:0:0:0:
168,280,35634,5,0,0:0:0:0:
72,308,35742,1,0,0:0:0:0:
156,312,35849,5,0,0:0:0:0:
48,284,35956,1,0,0:0:0:0:
140,364,36063,6,0,P|144:328|124:264,2,80
80,384,36599,2,0,P|72:364|64:332,1,40
188,260,36813,2,0,P|188:236|172:208,1,40
76,280,37027,5,0,0:0:0:0:
200,324,37134,2,0,P|208:296|224:272,1,40
88,320,37349,5,0,0:0:0:0:
168,308,37456,1,0,0:0:0:0:
184,380,37563,6,0,P|216:323|187:218,1,160
288,304,38206,5,0,0:0:0:0:
348,284,38313,1,0,0:0:0:0:
300,244,38527,5,0,0:0:0:0:
412,288,38742,5,0,0:0:0:0:
376,340,38849,1,0,0:0:0:0:
320,340,38956,1,0,0:0:0:0:
288,304,39063,5,0,0:0:0:0:
288,268,39170,1,0,0:0:0:0:
300,244,39277,5,0,0:0:0:0:
320,228,39384,1,0,0:0:0:0:
336,224,39492,6,0,L|368:220,2,20
288,368,39706,1,0,0:0:0:0:
344,336,39813,2,0,P|392:328|428:336,1,80
288,304,40134,1,0,0:0:0:0:
364,312,40242,1,0,0:0:0:0:
308,288,40349,6,0,P|307:269|316:244,1,40
496,372,40563,2,0,P|496:353|488:328,1,40
476,220,40777,6,0,L|428:240,1,40
368,352,40992,2,0,L|316:344,1,40
420,384,41206,5,0,0:0:0:0:
380,220,41634,5,0,0:0:0:0:
380,220,41742,1,0,0:0:0:0:
320,240,41849,2,0,P|296:248|276:268,1,40
308,372,42063,5,0,0:0:0:0:
368,352,42170,1,0,0:0:0:0:
420,316,42277,1,0,0:0:0:0:
456,264,42384,1,0,0:0:0:0:
504,224,42492,5,0,0:0:0:0:
444,244,42599,1,0,0:0:0:0:
408,296,42706,1,0,0:0:0:0:
408,360,42813,1,0,0:0:0:0:
372,308,42920,6,0,L|364:288,1,20
512,344,43134,6,0,L|424:332,1,80
368,380,43456,1,0,0:0:0:0:
428,356,43563,1,0,0:0:0:0:
472,308,43670,1,0,0:0:0:0:
408,296,43777,5,0,0:0:0:0:
348,316,43884,1,0,0:0:0:0:
292,284,43992,5,0,0:0:0:0:
288,224,44099,1,0,0:0:0:0:
312,280,44206,5,0,0:0:0:0:
308,344,44313,1,0,0:0:0:0:
368,368,44420,6,0,P|328:371|288:379,1,80
88,336,45063,5,0,0:0:0:0:
140,308,45170,1,0,0:0:0:0:
184,348,45277,1,0,0:0:0:0:
196,288,45384,6,0,P|204:248|224:220,1,40
88,276,45599,1,0,0:0:0:0:
36,304,45706,2,0,L|84:296,1,40
224,368,45920,2,0,P|204:368|180:356,1,40
0,292,46134,6,0,P|24:288|48:292,1,40
224,348,46349,2,0,L|124:356,1,80
24,348,46670,1,0,0:0:0:0:
64,384,46777,2,0,L|48:316,1,40
16,220,46992,2,0,L|8:272,1,40
88,356,47206,5,0,0:0:0:0:
8,372,47313,1,0,0:0:0:0:
120,368,47420,5,0,0:0:0:0:
32,356,47527,1,0,0:0:0:0:
136,344,47634,5,0,0:0:0:0:
64,360,47742,1,0,0:0:0:0:
164,360,47849,5,0,0:0:0:0:
88,340,47956,1,0,0:0:0:0:
148,268,48063,6,0,P|196:256|216:240,1,40
48,224,48277,2,0,L|56:264,1,40
228,220,48492,5,0,0:0:0:0:
200,288,48599,1,0,0:0:0:0:
208,232,48706,5,0,0:0:0:0:
216,304,48813,1,0,0:0:0:0:
152,252,48920,6,0,P|132:244|88:240,1,40
0,244,49134,2,0,L|60:256,1,40
144,312,49349,6,0,P|136:340|136:360,1,40
72,260,49563,2,0,L|64:196,1,40
44,316,49777,1,0,0:0:0:0:
212,340,49992,5,0,0:0:0:0:
148,360,50099,1,0,0:0:0:0:
112,304,50206,5,0,0:0:0:0:
156,252,50313,1,0,0:0:0:0:
216,276,50420,1,0,0:0:0:0:
212,340,50527,1,0,0:0:0:0:
148,360,50634,5,0,0:0:0:0:
120,288,50742,1,0,0:0:0:0:
124,348,50849,5,0,0:0:0:0:
144,276,50956,1,0,0:0:0:0:
152,340,51063,5,0,0:0:0:0:
124,260,51170,1,0,0:0:0:0:
96,360,51277,6,0,P|168:332|216:252,1,160
344,272,51920,5,0,0:0:0:0:
304,316,52027,1,0,0:0:0:0:
400,248,52242,5,0,0:0:0:0:
288,260,52456,5,0,0:0:0:0:
344,272,52563,2,0,P|360:292|368:312,1,40
496,328,52777,2,0,L|488:380,1,40
360,264,52992,6,0,L|364:208,1,40
488,268,53206,2,0,P|460:280|440:296,1,40
388,352,53420,1,0,0:0:0:0:
328,368,53527,1,0,0:0:0:0:
400,368,53634,6,0,P|396:344|396:320,1,40
424,220,53849,2,0,L|420:268,1,40
452,380,54063,5,0,0:0:0:0:
492,336,54170,1,0,0:0:0:0:
512,280,54277,1,0,0:0:0:0:
508,220,54384,1,0,0:0:0:0:
456,252,54492,5,0,0:0:0:0:
464,316,54599,1,0,0:0:0:0:
452,380,54706,1,0,0:0:0:0:
404,336,54813,1,0,0:0:0:0:
340,324,54920,6,0,P|324:272|372:312,1,160
332,384,55456,1,0,0:0:0:0:
284,344,55563,2,0,L|292:280,1,40
372,236,55777,5,0,0:0:0:0:
336,220,55884,1,0,0:0:0:0:
304,244,55992,5,0,0:0:0:0:
312,288,56099,1,0,0:0:0:0:
364,312,56206,5,0,0:0:0:0:
428,288,56313,1,0,0:0:0:0:
392,340,56420,5,0,0:0:0:0:
384,276,56527,1,0,0:0:0:0:
428,324,56634,5,0,0:0:0:0:
496,224,56849,2,0,L|444:232,1,40
464,380,57063,5,0,0:0:0:0:
496,324,57170,1,0,0:0:0:0:
480,260,57277,1,0,0:0:0:0:
480,260,57384,1,0,0:0:0:0:
416,244,57492,5,0,0:0:0:0:
480,260,57599,1,0,0:0:0:0:
480,260,57706,1,0,0:0:0:0:
480,260,57813,1,0,0:0:0:0:
436,308,57920,5,0,0:0:0:0:
480,260,58027,2,0,L|492:216,1,40
472,28,58349,5,0,0:0:0:0:
480,260,58778,6,0,B|472:264|472:264|464:252|464:252|456:256|456:256|448:244|448:244|440:248|440:248|432:236|432:236|424:240|424:240|416:228|416:228|408:232|408:232|388:220|388:220|360:240|324:248|288:248|288:248|312:224|368:252|396:284|396:284|424:316|480:344|504:320|504:320|452:328|408:300|352:304|376:312|376:312|360:312|360:316|360:316|368:316|368:316|348:316|348:320|348:320|356:320|356:320|336:320|336:324|336:324|344:324|344:324|324:324|324:328|324:328|332:328|332:328|312:328|312:332|312:332|320:332|320:332|304:332|300:336|300:336|308:336|308:336|304:340|292:340|288:336|288:336|328:312|396:348|368:360|412:384|468:384|468:384|432:372|392:372|356:384,1,1120
328,160,58990,5,0,0:0:0:0:
328,160,59097,1,0,0:0:0:0:
328,160,59204,1,0,0:0:0:0:
392,144,59419,5,0,0:0:0:0:
392,144,59525,1,0,0:0:0:0:
348,96,59740,5,0,0:0:0:0:
312,88,59847,5,0,0:0:0:0:
312,88,59900,1,0,0:0:0:0:
312,88,59954,1,0,0:0:0:0:
284,112,60062,5,0,0:0:0:0:
512,160,60276,1,0,0:0:0:0:
348,36,60490,5,0,0:0:0:0:
480,104,60704,1,0,0:0:0:0:
496,44,60812,1,0,0:0:0:0:
436,56,61026,5,0,0:0:0:0:
436,56,61133,1,0,0:0:0:0:
436,56,61240,1,0,0:0:0:0:
436,56,61347,1,0,0:0:0:0:
288,32,61562,5,0,0:0:0:0:
308,56,61669,1,0,0:0:0:0:
312,88,61776,5,0,0:0:0:0:
388,20,61990,5,0,0:0:0:0:
392,48,62097,1,0,0:0:0:0:
380,76,62204,1,0,0:0:0:0:
380,76,62312,1,0,0:0:0:0:
424,120,62526,5,0,0:0:0:0:
468,164,62740,5,0,0:0:0:0:
484,104,62847,1,0,0:0:0:0:
512,48,62954,1,0,0:0:0:0:
508,28,63062,5,0,0:0:0:0:
476,72,63169,1,0,0:0:0:0:
420,96,63276,1,0,0:0:0:0:
360,96,63383,1,0,0:0:0:0:
332,112,63490,5,0,0:0:0:0:
332,112,63544,1,0,0:0:0:0:
332,112,63597,1,0,0:0:0:0:
300,104,63704,5,0,0:0:0:0:
288,132,63812,1,0,0:0:0:0:
284,164,63919,5,0,0:0:0:0:
304,160,64026,1,0,0:0:0:0:
328,148,64133,1,0,0:0:0:0:
360,120,64240,1,0,0:0:0:0:
384,144,64347,5,0,0:0:0:0:
404,120,64454,1,0,0:0:0:0:
436,148,64562,5,0,0:0:0:0:
440,112,64669,1,0,0:0:0:0:
464,88,64776,5,0,0:0:0:0:
464,88,64829,1,0,0:0:0:0:
464,88,64883,1,0,0:0:0:0:
496,80,64990,5,0,0:0:0:0:
496,144,65097,1,0,0:0:0:0:
212,116,65420,6,0,L|221:158,2,40
92,160,65848,2,0,L|44:164,1,40
160,148,66063,2,0,B|124:108|124:108|100:100,1,80
172,68,66384,2,0,L|164:44,1,20
160,32,66491,6,0,L|208:56,1,40
40,108,66706,2,0,L|0:96,1,40
56,16,66920,6,0,B|68:32|68:32|64:56,2,40
8,64,67348,6,0,B|-4:48|-4:48|0:24,1,40
124,20,67563,2,0,L|184:8,1,40
144,104,67777,6,0,B|152:124|152:124|204:168,1,80
228,52,68098,2,0,L|216:80,1,20
212,88,68206,6,0,B|132:80|132:80|56:104,1,160
224,160,68848,6,0,L|184:144,2,40
124,148,69170,2,0,B|64:164|64:164|32:164,2,80
152,92,69706,2,0,L|148:52,1,40
228,0,69920,2,0,L|216:44,1,40
20,64,70134,2,0,L|32:108,1,40
8,164,70348,6,0,L|44:160,2,20
80,136,70563,2,0,B|100:124|100:124|160:136,1,80
112,88,70884,2,0,L|116:48,1,40
208,160,71098,2,0,L|220:140,1,20
228,124,71206,6,0,L|220:76,1,40
24,132,71420,2,0,L|36:92,1,40
20,40,71634,6,0,L|24:80,1,40
228,28,71848,2,0,L|224:68,1,40
312,164,72063,5,0,0:0:0:0:
372,152,72491,5,0,0:0:0:0:
312,164,72706,5,0,0:0:0:0:
312,164,72813,1,0,0:0:0:0:
312,164,72920,1,0,0:0:0:0:
424,108,73134,5,0,0:0:0:0:
424,108,73241,1,0,0:0:0:0:
404,164,73456,5,0,0:0:0:0:
372,152,73563,5,0,0:0:0:0:
372,152,73616,1,0,0:0:0:0:
372,152,73670,1,0,0:0:0:0:
364,120,73777,5,0,0:0:0:0:
384,64,73991,5,0,0:0:0:0:
504,56,74206,5,0,0:0:0:0:
324,76,74420,1,0,0:0:0:0:
284,28,74527,1,0,0:0:0:0:
444,52,74741,5,0,0:0:0:0:
444,52,74848,1,0,0:0:0:0:
444,52,74956,1,0,0:0:0:0:
444,52,75063,1,0,0:0:0:0:
292,148,75277,5,0,0:0:0:0:
324,144,75384,1,0,0:0:0:0:
356,156,75491,5,0,0:0:0:0:
484,100,75706,5,0,0:0:0:0:
456,112,75813,1,0,0:0:0:0:
436,136,75920,1,0,0:0:0:0:
436,136,76027,1,0,0:0:0:0:
384,100,76241,5,0,0:0:0:0:
380,36,76456,5,0,0:0:0:0:
328,72,76563,1,0,0:0:0:0:
312,132,76670,1,0,0:0:0:0:
324,164,76777,5,0,0:0:0:0:
336,108,76884,1,0,0:0:0:0:
320,52,76991,1,0,0:0:0:0:
284,8,77098,1,0,0:0:0:0:
284,36,77206,5,0,0:0:0:0:
284,36,77259,1,0,0:0:0:0:
284,36,77313,1,0,0:0:0:0:
296,64,77420,5,0,0:0:0:0:
284,92,77527,1,0,0:0:0:0:
284,124,77634,5,0,0:0:0:0:
304,152,77741,1,0,0:0:0:0:
348,164,77848,5,0,0:0:0:0:
384,140,77956,1,0,0:0:0:0:
392,96,78063,5,0,0:0:0:0:
368,56,78170,1,0,0:0:0:0:
400,20,78277,5,0,0:0:0:0:
440,40,78384,1,0,0:0:0:0:
436,84,78491,5,0,0:0:0:0:
436,84,78545,1,0,0:0:0:0:
436,84,78598,1,0,0:0:0:0:
468,116,78706,5,0,0:0:0:0:
504,60,78813,1,0,0:0:0:0:
196,164,79134,6,0,B|184:160|184:160|152:164,2,40
76,136,79563,2,0,B|72:108|72:108|76:92,1,40
148,32,79777,2,0,L|132:120,1,80
228,56,80098,2,0,B|208:68,1,20
196,76,80206,6,0,B|200:100|200:100|220:116,1,40
0,44,80420,2,0,L|8:0,1,40
176,16,80634,6,0,B|176:36|176:36|168:56,2,40
112,44,81063,6,0,B|112:24|112:24|120:0,1,40
16,44,81277,2,0,B|56:56,1,40
172,92,81491,6,0,B|136:104|136:104|92:100,1,80
24,140,81813,2,0,L|52:152,1,20
60,156,81920,6,0,B|144:164|144:164|216:140,1,160
224,24,82563,6,0,L|184:36,2,40
148,84,82885,2,0,B|136:76|136:76|116:0,2,80
212,132,83420,2,0,L|208:92,1,40
96,124,83635,2,0,L|84:168,1,40
24,60,83849,2,0,L|36:104,1,40
8,160,84063,6,0,L|44:156,2,20
0,8,84278,2,0,B|20:-4|20:-4|80:8,1,80
96,104,84599,2,0,L|100:64,1,40
212,28,84813,2,0,L|192:16,1,20
176,8,84920,6,0,L|128:16,1,40
24,132,85135,2,0,L|40:88,1,40
128,160,85349,6,0,L|124:120,1,40
224,112,85563,2,0,L|192:68,1,40
136,224,85778,5,0,0:0:0:0:
16,272,85991,2,0,P|64:288|96:280,1,80
0,252,86313,1,0,0:0:0:0:
0,252,86420,1,0,0:0:0:0:
8,224,86527,1,0,0:0:0:0:
8,224,86634,1,0,0:0:0:0:
40,340,86848,5,0,0:0:0:0:
40,340,86956,1,0,0:0:0:0:
148,344,87170,5,0,0:0:0:0:
144,312,87277,1,0,0:0:0:0:
164,276,87384,1,0,0:0:0:0:
204,260,87491,5,0,0:0:0:0:
188,284,87598,1,0,0:0:0:0:
212,276,87706,1,0,0:0:0:0:
200,296,87813,1,0,0:0:0:0:
216,296,87920,6,0,P|220:344|208:380,2,80
212,276,88456,1,0,0:0:0:0:
212,276,88563,1,0,0:0:0:0:
212,276,88670,1,0,0:0:0:0:
188,284,88777,5,0,0:0:0:0:
188,284,88884,1,0,0:0:0:0:
188,284,88991,1,0,0:0:0:0:
188,284,89098,1,0,0:0:0:0:
164,276,89206,5,0,0:0:0:0:
164,356,89420,2,0,P|160:324|124:272,1,80
84,256,89741,2,0,L|40:252,2,40
44,356,90063,6,0,L|-8:368,2,40
88,316,90384,2,0,P|40:340|4:340,1,80
112,224,90706,2,0,L|120:272,1,40
148,320,90920,5,0,0:0:0:0:
168,340,91027,1,0,0:0:0:0:
196,344,91134,1,0,0:0:0:0:
220,336,91241,1,0,0:0:0:0:
176,304,91348,5,0,0:0:0:0:
168,340,91456,1,0,0:0:0:0:
140,360,91563,1,0,0:0:0:0:
104,356,91670,1,0,0:0:0:0:
132,292,91777,5,0,0:0:0:0:
168,340,91884,1,0,0:0:0:0:
224,320,91991,1,0,0:0:0:0:
224,260,92098,1,0,0:0:0:0:
168,244,92206,5,0,0:0:0:0:
292,220,92634,5,0,0:0:0:0:
288,248,92741,1,0,0:0:0:0:
288,248,92956,2,0,P|304:292|304:332,1,80
416,384,93277,2,0,L|404:328,1,40
360,224,93491,5,0,0:0:0:0:
408,272,93598,1,0,0:0:0:0:
344,260,93706,5,0,0:0:0:0:
404,232,93813,2,0,P|440:252|492:252,1,80
372,288,94134,2,0,L|312:296,1,40
288,352,94348,6,0,P|316:332|392:320,2,80
408,352,94884,1,0,0:0:0:0:
392,384,94991,2,0,L|376:312,1,40
464,220,95206,5,0,0:0:0:0:
432,228,95313,1,0,0:0:0:0:
464,252,95420,5,0,0:0:0:0:
440,260,95527,1,0,0:0:0:0:
452,288,95634,5,0,0:0:0:0:
440,324,95741,1,0,0:0:0:0:
460,356,95848,1,0,0:0:0:0:
472,320,95956,1,0,0:0:0:0:
452,288,96063,6,0,L|392:296,1,40
288,376,96277,2,0,P|312:372|336:360,1,40
496,320,96491,6,0,P|468:312|432:312,1,40
296,352,96706,2,0,L|348:348,1,40
420,348,96920,5,0,0:0:0:0:
360,324,97027,1,0,0:0:0:0:
428,308,97134,5,0,0:0:0:0:
380,356,97241,1,0,0:0:0:0:
388,288,97348,5,0,0:0:0:0:
388,288,97563,2,0,L|376:232,1,40
472,380,97777,6,0,P|472:328|488:288,1,80
284,220,98206,2,0,L|296:312,1,80
308,336,98527,1,0,0:0:0:0:
292,368,98634,5,0,0:0:0:0:
328,384,98741,1,0,0:0:0:0:
368,352,98848,1,0,0:0:0:0:
424,328,98956,1,0,0:0:0:0:
484,340,99063,5,0,0:0:0:0:
224,376,99491,6,0,P|220:316|232:284,1,80
152,344,99813,1,0,0:0:0:0:
116,356,99920,2,0,P|88:364|56:360,1,40
184,232,100134,2,0,L|192:272,1,40
132,384,100348,6,0,L|68:368,1,40
160,244,100563,2,0,P|160:232|164:212,2,20
220,244,100777,2,0,P|180:244|132:264,1,80
0,360,101206,5,0,0:0:0:0:
64,352,101313,1,0,0:0:0:0:
16,336,101420,5,0,0:0:0:0:
80,360,101527,1,0,0:0:0:0:
0,384,101634,6,0,P|12:356|8:316,1,60
44,376,101848,2,0,L|112:372,1,60
32,312,102063,5,0,0:0:0:0:
12,272,102170,1,0,0:0:0:0:
56,220,102277,5,0,0:0:0:0:
48,244,102384,1,0,0:0:0:0:
92,288,102491,6,0,L|148:280,1,40
224,376,102706,2,0,P|200:376|184:372,1,40
12,352,102920,6,0,P|48:348|96:360,1,80
204,352,103241,2,0,L|112:364,1,80
60,304,103563,1,0,0:0:0:0:
96,296,103670,1,0,0:0:0:0:
152,264,103777,6,0,L|112:260,1,40
220,236,103991,2,0,P|200:248|180:248,1,40
56,364,104206,6,0,P|64:328|84:312,1,40
24,224,104420,2,0,L|28:276,1,40
32,384,104634,5,0,0:0:0:0:
224,312,104848,1,0,0:0:0:0:
224,312,104956,1,0,0:0:0:0:
224,312,105063,1,0,0:0:0:0:
0,328,105277,1,0,0:0:0:0:
0,328,105384,1,0,0:0:0:0:
12,356,105491,5,0,0:0:0:0:
0,384,105598,1,0,0:0:0:0:
44,376,105706,1,0,0:0:0:0:
84,348,105813,1,0,0:0:0:0:
136,364,105920,5,0,0:0:0:0:
172,220,106134,1,0,0:0:0:0:
288,248,106348,5,0,0:0:0:0:
352,232,106456,2,0,L|300:225,1,40
304,348,106670,6,0,P|292:308|304:264,1,80
364,220,106991,2,0,L|372:268,1,40
364,376,107206,5,0,0:0:0:0:
404,368,107313,1,0,0:0:0:0:
428,332,107420,5,0,0:0:0:0:
472,340,107527,1,0,0:0:0:0:
492,380,107634,6,0,L|480:308,1,60
496,240,107848,2,0,P|496:280|488:304,1,60
472,224,108063,6,0,L|420:220,1,40
292,360,108277,2,0,P|316:356|352:336,1,40
316,224,108491,5,0,0:0:0:0:
292,252,108598,1,0,0:0:0:0:
296,288,108706,1,0,0:0:0:0:
328,308,108813,1,0,0:0:0:0:
372,260,108920,5,0,0:0:0:0:
404,248,109027,1,0,0:0:0:0:
384,272,109134,5,0,0:0:0:0:
416,276,109241,1,0,0:0:0:0:
392,288,109348,5,0,0:0:0:0:
424,308,109456,1,0,0:0:0:0:
396,308,109563,5,0,0:0:0:0:
420,336,109670,1,0,0:0:0:0:
384,344,109777,5,0,0:0:0:0:
512,320,109991,1,0,0:0:0:0:
320,384,110206,6,0,P|300:344|304:332,1,40
356,264,110420,2,0,L|364:212,1,40
336,368,110634,5,0,0:0:0:0:
360,284,110848,1,0,0:0:0:0:
284,220,111063,6,0,L|288:264,1,40
424,384,111277,2,0,P|428:344|444:320,1,40
364,368,111491,6,0,L|284:380,1,80
356,336,111813,1,0,0:0:0:0:
368,304,111920,2,0,P|384:284|420:272,1,40
300,256,112134,1,0,0:0:0:0:
284,288,112241,1,0,0:0:0:0:
284,324,112348,5,0,0:0:0:0:
512,364,112563,1,0,0:0:0:0:
304,320,112777,1,0,0:0:0:0:
468,224,112991,1,0,0:0:0:0:
468,224,113098,1,0,0:0:0:0:
488,160,113206,6,0,B|488:161|488:161|488:160|488:160|488:161|488:161|488:160|488:160|488:161|488:161|488:160|488:160|488:161|488:161|488:160|488:160|488:161|488:161|488:160|488:160|488:161|488:161|488:160|488:160|488:161|488:161|488:160|488:160|488:161|488:161|488:160|488:160|488:161|488:161|488:160|488:160|488:161|488:161|488:160|488:160|488:161|488:161|488:160|488:160|488:161|488:161|488:160|488:160|488:161|488:161|488:160|488:160|488:161|488:161|488:160|488:160|488:161|488:161|488:160|488:160|488:161|488:161|488:160|488:160|488:161|488:161|488:160|488:160|488:161|488:161|488:160|488:160|488:161|488:161|488:160|488:160|488:161|488:161|488:160|488:160|488:161|488:161|488:160|488:160|488:161|488:161|488:160|488:160|488:161|488:161|488:160|488:160|488:161|488:161|488:160|488:160|488:161|488:161|488:160|488:160|488:161|488:161|488:160|488:160|488:161|488:161|488:160|488:160|488:161|488:161|488:160|488:160|488:161|488:161|488:160|488:160|488:161|488:161|488:160|488:160|488:161|488:161|488:160|488:160|488:161|488:161|488:160|488:160|488:161|488:161|488:160|488:160|488:161|488:161|488:160|488:160|488:161|488:161|488:160|488:160|488:161|488:161|488:160|488:160|488:161|488:161|488:160|488:160|488:161|488:161|488:160|488:160|488:161|488:161|488:160|488:160|488:161|488:161|488:160|488:160|488:161|488:161|488:160|488:160|488:161|488:161|488:160|488:160|488:161|488:161|488:160|488:160|488:161|488:161|488:160|488:160|488:161|488:161|488:160|488:160|488:161|488:161|488:160|488:160|488:161|488:161|488:160|488:160|488:161|488:161|488:160|488:160|488:161|488:161|488:160|488:160|488:161|488:161|488:160|488:160|488:161|488:161|488:160|488:160|488:161|488:161|488:160|488:160|488:161|488:161|488:160|488:160|488:161|488:161|488:160|488:160|488:161|488:161|488:160|488:160|488:161|488:161|488:160|488:160|488:161|488:161|488:160|488:160|488:161|488:161|488:160|488:160|488:161|488:161|488:160|488:160|488:161|488:161|488:160|488:160|488:161|488:161|488:160|488:160|488:161|488:161|488:160|488:160|488:161|488:161|488:160|488:160|488:161|488:161|488:160|488:160|488:161|488:161|488:160|488:160|488:161|488:161|488:160|488:160|488:161|488:161|488:160|488:160|488:161|488:161|488:160|488:160|488:161|488:161|488:160|488:160|488:161|488:161|488:160|488:160|488:161|488:161|488:160|488:160|488:161|488:161|488:160|488:160|488:161|488:161|488:160|488:160|488:161|488:161|488:160|488:160|488:161|488:161|488:160|488:160|488:161|488:161|488:160|488:160|488:161|488:161|488:160|488:160|488:161|488:161|488:160|488:160|488:161|488:161|488:160|488:160|488:161|488:161|488:160|488:160|488:161|488:161|488:160|488:160|488:161|488:161|488:160|488:160|488:161|488:161|488:160|488:160|488:161|488:161|488:160|488:160|488:161|488:161|488:160|488:160|488:161|488:161|488:160|488:160|488:161|488:161|488:160|488:160|488:160,1,160
388,80,113420,2,0,L|428:80,1,40
428,160,113634,1,0,0:0:0:0:
408,160,113742,6,0,L|384:160,2,20
360,160,113956,1,0,0:0:0:0:
328,160,114062,6,0,B|328:161|328:161|328:160|328:160|328:161|328:161|328:160|328:160|328:161|328:161|328:160|328:160|328:161|328:161|328:160|328:160|328:161|328:161|328:160|328:160|328:161|328:161|328:160|328:160|328:161|328:161|328:160|328:160|328:161|328:161|328:160|328:160|328:161|328:161|328:160|328:160|328:161|328:161|328:160|328:160|328:161|328:161|328:160|328:160|328:161|328:161|328:160|328:160|328:161|328:161|328:160|328:160|328:161|328:161|328:160|328:160|328:161|328:161|328:160|328:160|328:161|328:161|328:160|328:160|328:161|328:161|328:160|328:160|328:161|328:161|328:160|328:160|328:161|328:161|328:160|328:160|328:161|328:161|328:160|328:160|328:161|328:161|328:160|328:160|328:161|328:161|328:160|328:160|328:161|328:161|328:160|328:160|328:161|328:161|328:160|328:160|328:161|328:161|328:160|328:160|328:161|328:161|328:160|328:160|328:161|328:161|328:160|328:160|328:161|328:161|328:160|328:160|328:161|328:161|328:160|328:160|328:161|328:161|328:160|328:160|328:161|328:161|328:160|328:160|328:161|328:161|328:160|328:160|328:161|328:161|328:160|328:160|328:161|328:161|328:160|328:160|328:161|328:161|328:160|328:160|328:161|328:161|328:160|328:160|328:161|328:161|328:160|328:160|328:161|328:161|328:160|328:160|328:161|328:161|328:160|328:160|328:161|328:161|328:160|328:160|328:161|328:161|328:160|328:160|328:161|328:161|328:160|328:160|328:161|328:161|328:160|328:160|328:161|328:161|328:160|328:160|328:161|328:161|328:160|328:160|328:161|328:161|328:160|328:160|328:161|328:161|328:160|328:160|328:161|328:161|328:160|328:160|328:161|328:161|328:160|328:160|328:161|328:161|328:160|328:160|328:161|328:161|328:160|328:160|328:161|328:161|328:160|328:160|328:161|328:161|328:160|328:160|328:161|328:161|328:160|328:160|328:161|328:161|328:160|328:160|328:161|328:161|328:160|328:160|328:161|328:161|328:160|328:160|328:161|328:161|328:160|328:160|328:161|328:161|328:160|328:160|328:161|328:161|328:160|328:160|328:161|328:161|328:160|328:160|328:161|328:161|328:160|328:160|328:161|328:161|328:160|328:160|328:161|328:161|328:160|328:160|328:161|328:161|328:160|328:160|328:161|328:161|328:160|328:160|328:161|328:161|328:160|328:160|328:161|328:161|328:160|328:160|328:161|328:161|328:160|328:160|328:161|328:161|328:160|328:160|328:161|328:161|328:160|328:160|328:161|328:161|328:160|328:160|328:161|328:161|328:160|328:160|328:161|328:161|328:160|328:160|328:161|328:161|328:160|328:160|328:161|328:161|328:160|328:160|328:161|328:161|328:160|328:160|328:161|328:161|328:160|328:160|328:161|328:161|328:160|328:160|328:161|328:161|328:160|328:160|328:161|328:161|328:160|328:160|328:161|328:161|328:160|328:160|328:161|328:161|328:160|328:160|328:161|328:161|328:160|328:160|328:161|328:161|328:160|328:160|328:161|328:161|328:160|328:160|328:161|328:161|328:160|328:160|328:160,1,160
288,160,114169,1,0,0:0:0:0:
288,120,114276,2,0,L|336:120,1,40
368,40,114490,5,0,0:0:0:0:
408,40,114597,1,0,0:0:0:0:
448,40,114704,2,0,L|488:40,1,40
328,0,114918,6,0,B|328:1|328:1|328:0|328:0|328:1|328:1|328:0|328:0|328:1|328:1|328:0|328:0|328:1|328:1|328:0|328:0|328:1|328:1|328:0|328:0|328:1|328:1|328:0|328:0|328:1|328:1|328:0|328:0|328:1|328:1|328:0|328:0|328:1|328:1|328:0|328:0|328:1|328:1|328:0|328:0|328:1|328:1|328:0|328:0|328:1|328:1|328:0|328:0|328:1|328:1|328:0|328:0|328:1|328:1|328:0|328:0|328:1|328:1|328:0|328:0|328:1|328:1|328:0|328:0|328:1|328:1|328:0|328:0|328:1|328:1|328:0|328:0|328:1|328:1|328:0|328:0|328:1|328:1|328:0|328:0|328:1|328:1|328:0|328:0|328:1|328:1|328:0|328:0|328:1|328:1|328:0|328:0|328:1|328:1|328:0|328:0|328:1|328:1|328:0|328:0|328:1|328:1|328:0|328:0|328:1|328:1|328:0|328:0|328:1|328:1|328:0|328:0|328:1|328:1|328:0|328:0|328:1|328:1|328:0|328:0|328:1|328:1|328:0|328:0|328:1|328:1|328:0|328:0|328:1|328:1|328:0|328:0|328:1|328:1|328:0|328:0|328:1|328:1|328:0|328:0|328:1|328:1|328:0|328:0|328:1|328:1|328:0|328:0|328:1|328:1|328:0|328:0|328:1|328:1|328:0|328:0|328:1|328:1|328:0|328:0|328:1|328:1|328:0|328:0|328:1|328:1|328:0|328:0|328:1|328:1|328:0|328:0|328:1|328:1|328:0|328:0|328:1|328:1|328:0|328:0|328:1|328:1|328:0|328:0|328:1|328:1|328:0|328:0|328:1|328:1|328:0|328:0|328:1|328:1|328:0|328:0|328:1|328:1|328:0|328:0|328:1|328:1|328:0|328:0|328:1|328:1|328:0|328:0|328:1|328:1|328:0|328:0|328:1|328:1|328:0|328:0|328:1|328:1|328:0|328:0|328:1|328:1|328:0|328:0|328:1|328:1|328:0|328:0|328:1|328:1|328:0|328:0|328:1|328:1|328:0|328:0|328:1|328:1|328:0|328:0|328:1|328:1|328:0|328:0|328:1|328:1|328:0|328:0|328:1|328:1|328:0|328:0|328:1|328:1|328:0|328:0|328:1|328:1|328:0|328:0|328:1|328:1|328:0|328:0|328:1|328:1|328:0|328:0|328:1|328:1|328:0|328:0|328:1|328:1|328:0|328:0|328:1|328:1|328:0|328:0|328:1|328:1|328:0|328:0|328:1|328:1|328:0|328:0|328:1|328:1|328:0|328:0|328:1|328:1|328:0|328:0|328:1|328:1|328:0|328:0|328:1|328:1|328:0|328:0|328:1|328:1|328:0|328:0|328:1|328:1|328:0|328:0|328:1|328:1|328:0|328:0|328:1|328:1|328:0|328:0|328:1|328:1|328:0|328:0|328:1|328:1|328:0|328:0|328:1|328:1|328:0|328:0|328:1|328:1|328:0|328:0|328:1|328:1|328:0|328:0|328:1|328:1|328:0|328:0|328:1|328:1|328:0|328:0|328:0,1,160
288,120,115133,1,0,0:0:0:0:
328,120,115240,1,0,0:0:0:0:
368,120,115347,2,0,L|416:120,1,40
408,100,115508,1,0,0:0:0:0:
408,80,115561,2,0,L|448:80,1,40
488,0,115775,6,0,B|488:1|488:1|488:0|488:0|488:1|488:1|488:0|488:0|488:1|488:1|488:0|488:0|488:1|488:1|488:0|488:0|488:1|488:1|488:0|488:0|488:1|488:1|488:0|488:0|488:1|488:1|488:0|488:0|488:1|488:1|488:0|488:0|488:1|488:1|488:0|488:0|488:1|488:1|488:0|488:0|488:1|488:1|488:0|488:0|488:1|488:1|488:0|488:0|488:1|488:1|488:0|488:0|488:1|488:1|488:0|488:0|488:1|488:1|488:0|488:0|488:1|488:1|488:0|488:0|488:1|488:1|488:0|488:0|488:1|488:1|488:0|488:0|488:1|488:1|488:0|488:0|488:1|488:1|488:0|488:0|488:1|488:1|488:0|488:0|488:1|488:1|488:0|488:0|488:1|488:1|488:0|488:0|488:1|488:1|488:0|488:0|488:1|488:1|488:0|488:0|488:1|488:1|488:0|488:0|488:1|488:1|488:0|488:0|488:1|488:1|488:0|488:0|488:1|488:1|488:0|488:0|488:1|488:1|488:0|488:0|488:1|488:1|488:0|488:0|488:1|488:1|488:0|488:0|488:1|488:1|488:0|488:0|488:1|488:1|488:0|488:0|488:1|488:1|488:0|488:0|488:1|488:1|488:0|488:0|488:1|488:1|488:0|488:0|488:1|488:1|488:0|488:0|488:1|488:1|488:0|488:0|488:1|488:1|488:0|488:0|488:1|488:1|488:0|488:0|488:1|488:1|488:0|488:0|488:1|488:1|488:0|488:0|488:1|488:1|488:0|488:0|488:1|488:1|488:0|488:0|488:1|488:1|488:0|488:0|488:1|488:1|488:0|488:0|488:1|488:1|488:0|488:0|488:1|488:1|488:0|488:0|488:1|488:1|488:0|488:0|488:1|488:1|488:0|488:0|488:1|488:1|488:0|488:0|488:1|488:1|488:0|488:0|488:1|488:1|488:0|488:0|488:1|488:1|488:0|488:0|488:1|488:1|488:0|488:0|488:1|488:1|488:0|488:0|488:1|488:1|488:0|488:0|488:1|488:1|488:0|488:0|488:1|488:1|488:0|488:0|488:1|488:1|488:0|488:0|488:1|488:1|488:0|488:0|488:1|488:1|488:0|488:0|488:1|488:1|488:0|488:0|488:1|488:1|488:0|488:0|488:1|488:1|488:0|488:0|488:1|488:1|488:0|488:0|488:1|488:1|488:0|488:0|488:1|488:1|488:0|488:0|488:1|488:1|488:0|488:0|488:1|488:1|488:0|488:0|488:1|488:1|488:0|488:0|488:1|488:1|488:0|488:0|488:1|488:1|488:0|488:0|488:1|488:1|488:0|488:0|488:1|488:1|488:0|488:0|488:1|488:1|488:0|488:0|488:1|488:1|488:0|488:0|488:1|488:1|488:0|488:0|488:1|488:1|488:0|488:0|488:1|488:1|488:0|488:0|488:1|488:1|488:0|488:0|488:1|488:1|488:0|488:0|488:1|488:1|488:0|488:0|488:1|488:1|488:0|488:0|488:1|488:1|488:0|488:0|488:1|488:1|488:0|488:0|488:0,1,160
488,40,115883,1,0,0:0:0:0:
488,80,115990,5,0,0:0:0:0:
448,80,116097,1,0,0:0:0:0:
448,40,116205,5,0,0:0:0:0:
488,40,116312,1,0,0:0:0:0:
488,80,116419,5,0,0:0:0:0:
488,120,116526,1,0,0:0:0:0:
448,120,116633,6,0,B|448:121|448:121|448:120|448:120|448:121|448:121|448:120|448:120|448:121|448:121|448:120|448:120|448:121|448:121|448:120|448:120|448:121|448:121|448:120|448:120|448:121|448:121|448:120|448:120|448:121|448:121|448:120|448:120|448:121|448:121|448:120|448:120|448:121|448:121|448:120|448:120|448:121|448:121|448:120|448:120|448:121|448:121|448:120|448:120|448:121|448:121|448:120|448:120|448:121|448:121|448:120|448:120|448:121|448:121|448:120|448:120|448:121|448:121|448:120|448:120|448:121|448:121|448:120|448:120|448:121|448:121|448:120|448:120|448:121|448:121|448:120|448:120|448:121|448:121|448:120|448:120|448:121|448:121|448:120|448:120|448:121|448:121|448:120|448:120|448:121|448:121|448:120|448:120|448:121|448:121|448:120|448:120|448:121|448:121|448:120|448:120|448:121|448:121|448:120|448:120|448:121|448:121|448:120|448:120|448:121|448:121|448:120|448:120|448:121|448:121|448:120|448:120|448:121|448:121|448:120|448:120|448:121|448:121|448:120|448:120|448:121|448:121|448:120|448:120|448:121|448:121|448:120|448:120|448:121|448:121|448:120|448:120|448:121|448:121|448:120|448:120|448:121|448:121|448:120|448:120|448:121|448:121|448:120|448:120|448:121|448:121|448:120|448:120|448:121|448:121|448:120|448:120|448:121|448:121|448:120|448:120|448:121|448:121|448:120|448:120|448:121|448:121|448:120|448:120|448:121|448:121|448:120|448:120|448:121|448:121|448:120|448:120|448:121|448:121|448:120|448:120|448:121|448:121|448:120|448:120|448:121|448:121|448:120|448:120|448:121|448:121|448:120|448:120|448:121|448:121|448:120|448:120|448:121|448:121|448:120|448:120|448:121|448:121|448:120|448:120|448:121|448:121|448:120|448:120|448:121|448:121|448:120|448:120|448:121|448:121|448:120|448:120|448:121|448:121|448:120|448:120|448:121|448:121|448:120|448:120|448:121|448:121|448:120|448:120|448:121|448:121|448:120|448:120|448:121|448:121|448:120|448:120|448:121|448:121|448:120|448:120|448:121|448:121|448:120|448:120|448:121|448:121|448:120|448:120|448:121|448:121|448:120|448:120|448:121|448:121|448:120|448:120|448:121|448:121|448:120|448:120|448:121|448:121|448:120|448:120|448:121|448:121|448:120|448:120|448:121|448:121|448:120|448:120|448:121|448:121|448:120|448:120|448:121|448:121|448:120|448:120|448:121|448:121|448:120|448:120|448:121|448:121|448:120|448:120|448:121|448:121|448:120|448:120|448:121|448:121|448:120|448:120|448:121|448:121|448:120|448:120|448:121|448:121|448:120|448:120|448:121|448:121|448:120|448:120|448:121|448:121|448:120|448:120|448:121|448:121|448:120|448:120|448:121|448:121|448:120|448:120|448:121|448:121|448:120|448:120|448:121|448:121|448:120|448:120|448:121|448:121|448:120|448:120|448:121|448:121|448:120|448:120|448:121|448:121|448:120|448:120|448:121|448:121|448:120|448:120|448:121|448:121|448:120|448:120|448:121|448:121|448:120|448:120|448:120,1,160
288,80,116954,1,0,0:0:0:0:
288,120,117062,6,0,L|328:120,1,40
448,40,117276,2,0,L|408:40,1,40
368,120,117489,6,0,B|368:121|368:121|368:120|368:120|368:121|368:121|368:120|368:120|368:121|368:121|368:120|368:120|368:121|368:121|368:120|368:120|368:121|368:121|368:120|368:120|368:121|368:121|368:120|368:120|368:121|368:121|368:120|368:120|368:121|368:121|368:120|368:120|368:121|368:121|368:120|368:120|368:121|368:121|368:120|368:120|368:121|368:121|368:120|368:120|368:121|368:121|368:120|368:120|368:121|368:121|368:120|368:120|368:121|368:121|368:120|368:120|368:121|368:121|368:120|368:120|368:121|368:121|368:120|368:120|368:121|368:121|368:120|368:120|368:121|368:121|368:120|368:120|368:121|368:121|368:120|368:120|368:121|368:121|368:120|368:120|368:121|368:121|368:120|368:120|368:121|368:121|368:120|368:120|368:121|368:121|368:120|368:120|368:121|368:121|368:120|368:120|368:121|368:121|368:120|368:120|368:121|368:121|368:120|368:120|368:121|368:121|368:120|368:120|368:121|368:121|368:120|368:120|368:121|368:121|368:120|368:120|368:121|368:121|368:120|368:120|368:121|368:121|368:120|368:120|368:121|368:121|368:120|368:120|368:121|368:121|368:120|368:120|368:121|368:121|368:120|368:120|368:121|368:121|368:120|368:120|368:121|368:121|368:120|368:120|368:121|368:121|368:120|368:120|368:121|368:121|368:120|368:120|368:121|368:121|368:120|368:120|368:121|368:121|368:120|368:120|368:121|368:121|368:120|368:120|368:121|368:121|368:120|368:120|368:121|368:121|368:120|368:120|368:121|368:121|368:120|368:120|368:121|368:121|368:120|368:120|368:121|368:121|368:120|368:120|368:121|368:121|368:120|368:120|368:121|368:121|368:120|368:120|368:121|368:121|368:120|368:120|368:121|368:121|368:120|368:120|368:121|368:121|368:120|368:120|368:121|368:121|368:120|368:120|368:121|368:121|368:120|368:120|368:121|368:121|368:120|368:120|368:121|368:121|368:120|368:120|368:121|368:121|368:120|368:120|368:121|368:121|368:120|368:120|368:121|368:121|368:120|368:120|368:121|368:121|368:120|368:120|368:121|368:121|368:120|368:120|368:121|368:121|368:120|368:120|368:121|368:121|368:120|368:120|368:121|368:121|368:120|368:120|368:121|368:121|368:120|368:120|368:121|368:121|368:120|368:120|368:121|368:121|368:120|368:120|368:121|368:121|368:120|368:120|368:121|368:121|368:120|368:120|368:121|368:121|368:120|368:120|368:121|368:121|368:120|368:120|368:121|368:121|368:120|368:120|368:121|368:121|368:120|368:120|368:121|368:121|368:120|368:120|368:121|368:121|368:120|368:120|368:121|368:121|368:120|368:120|368:121|368:121|368:120|368:120|368:121|368:121|368:120|368:120|368:121|368:121|368:120|368:120|368:121|368:121|368:120|368:120|368:121|368:121|368:120|368:120|368:121|368:121|368:120|368:120|368:121|368:121|368:120|368:120|368:121|368:121|368:120|368:120|368:121|368:121|368:120|368:120|368:121|368:121|368:120|368:120|368:121|368:121|368:120|368:120|368:121|368:121|368:120|368:120|368:120,1,160
328,120,117596,1,0,0:0:0:0:
328,80,117703,2,0,L|368:80,1,40
288,0,117917,6,0,L|328:0,1,40
488,80,118131,2,0,L|448:80,1,40
368,40,118345,6,0,B|368:41|368:41|368:40|368:40|368:41|368:41|368:40|368:40|368:41|368:41|368:40|368:40|368:41|368:41|368:40|368:40|368:41|368:41|368:40|368:40|368:41|368:41|368:40|368:40|368:41|368:41|368:40|368:40|368:41|368:41|368:40|368:40|368:41|368:41|368:40|368:40|368:41|368:41|368:40|368:40|368:41|368:41|368:40|368:40|368:41|368:41|368:40|368:40|368:41|368:41|368:40|368:40|368:41|368:41|368:40|368:40|368:41|368:41|368:40|368:40|368:41|368:41|368:40|368:40|368:41|368:41|368:40|368:40|368:41|368:41|368:40|368:40|368:41|368:41|368:40|368:40|368:41|368:41|368:40|368:40|368:41|368:41|368:40|368:40|368:41|368:41|368:40|368:40|368:41|368:41|368:40|368:40|368:41|368:41|368:40|368:40|368:41|368:41|368:40|368:40|368:41|368:41|368:40|368:40|368:41|368:41|368:40|368:40|368:41|368:41|368:40|368:40|368:41|368:41|368:40|368:40|368:41|368:41|368:40|368:40|368:41|368:41|368:40|368:40|368:41|368:41|368:40|368:40|368:41|368:41|368:40|368:40|368:41|368:41|368:40|368:40|368:41|368:41|368:40|368:40|368:41|368:41|368:40|368:40|368:41|368:41|368:40|368:40|368:41|368:41|368:40|368:40|368:41|368:41|368:40|368:40|368:41|368:41|368:40|368:40|368:41|368:41|368:40|368:40|368:41|368:41|368:40|368:40|368:41|368:41|368:40|368:40|368:41|368:41|368:40|368:40|368:41|368:41|368:40|368:40|368:41|368:41|368:40|368:40|368:41|368:41|368:40|368:40|368:41|368:41|368:40|368:40|368:41|368:41|368:40|368:40|368:41|368:41|368:40|368:40|368:41|368:41|368:40|368:40|368:41|368:41|368:40|368:40|368:41|368:41|368:40|368:40|368:41|368:41|368:40|368:40|368:41|368:41|368:40|368:40|368:41|368:41|368:40|368:40|368:41|368:41|368:40|368:40|368:41|368:41|368:40|368:40|368:41|368:41|368:40|368:40|368:41|368:41|368:40|368:40|368:41|368:41|368:40|368:40|368:41|368:41|368:40|368:40|368:41|368:41|368:40|368:40|368:41|368:41|368:40|368:40|368:41|368:41|368:40|368:40|368:41|368:41|368:40|368:40|368:41|368:41|368:40|368:40|368:41|368:41|368:40|368:40|368:41|368:41|368:40|368:40|368:41|368:41|368:40|368:40|368:41|368:41|368:40|368:40|368:41|368:41|368:40|368:40|368:41|368:41|368:40|368:40|368:41|368:41|368:40|368:40|368:41|368:41|368:40|368:40|368:41|368:41|368:40|368:40|368:41|368:41|368:40|368:40|368:41|368:41|368:40|368:40|368:41|368:41|368:40|368:40|368:41|368:41|368:40|368:40|368:41|368:41|368:40|368:40|368:41|368:41|368:40|368:40|368:41|368:41|368:40|368:40|368:41|368:41|368:40|368:40|368:41|368:41|368:40|368:40|368:41|368:41|368:40|368:40|368:41|368:41|368:40|368:40|368:40,1,160
488,160,118559,1,0,0:0:0:0:
368,160,118773,6,0,L|408:160,1,40
428,160,118934,1,0,0:0:0:0:
448,160,118987,2,0,L|488:160,1,40
448,40,119203,6,0,B|448:41|448:41|448:40|448:40|448:41|448:41|448:40|448:40|448:41|448:41|448:40|448:40|448:41|448:41|448:40|448:40|448:41|448:41|448:40|448:40|448:41|448:41|448:40|448:40|448:41|448:41|448:40|448:40|448:41|448:41|448:40|448:40|448:41|448:41|448:40|448:40|448:41|448:41|448:40|448:40|448:41|448:41|448:40|448:40|448:41|448:41|448:40|448:40|448:41|448:41|448:40|448:40|448:41|448:41|448:40|448:40|448:41|448:41|448:40|448:40|448:41|448:41|448:40|448:40|448:41|448:41|448:40|448:40|448:41|448:41|448:40|448:40|448:41|448:41|448:40|448:40|448:41|448:41|448:40|448:40|448:41|448:41|448:40|448:40|448:41|448:41|448:40|448:40|448:41|448:41|448:40|448:40|448:41|448:41|448:40|448:40|448:41|448:41|448:40|448:40|448:41|448:41|448:40|448:40|448:41|448:41|448:40|448:40|448:41|448:41|448:40|448:40|448:41|448:41|448:40|448:40|448:41|448:41|448:40|448:40|448:41|448:41|448:40|448:40|448:41|448:41|448:40|448:40|448:41|448:41|448:40|448:40|448:41|448:41|448:40|448:40|448:41|448:41|448:40|448:40|448:41|448:41|448:40|448:40|448:41|448:41|448:40|448:40|448:41|448:41|448:40|448:40|448:41|448:41|448:40|448:40|448:41|448:41|448:40|448:40|448:41|448:41|448:40|448:40|448:41|448:41|448:40|448:40|448:41|448:41|448:40|448:40|448:41|448:41|448:40|448:40|448:41|448:41|448:40|448:40|448:41|448:41|448:40|448:40|448:41|448:41|448:40|448:40|448:41|448:41|448:40|448:40|448:41|448:41|448:40|448:40|448:41|448:41|448:40|448:40|448:41|448:41|448:40|448:40|448:41|448:41|448:40|448:40|448:41|448:41|448:40|448:40|448:41|448:41|448:40|448:40|448:41|448:41|448:40|448:40|448:41|448:41|448:40|448:40|448:41|448:41|448:40|448:40|448:41|448:41|448:40|448:40|448:41|448:41|448:40|448:40|448:41|448:41|448:40|448:40|448:41|448:41|448:40|448:40|448:41|448:41|448:40|448:40|448:41|448:41|448:40|448:40|448:41|448:41|448:40|448:40|448:41|448:41|448:40|448:40|448:41|448:41|448:40|448:40|448:41|448:41|448:40|448:40|448:41|448:41|448:40|448:40|448:41|448:41|448:40|448:40|448:41|448:41|448:40|448:40|448:41|448:41|448:40|448:40|448:41|448:41|448:40|448:40|448:41|448:41|448:40|448:40|448:41|448:41|448:40|448:40|448:41|448:41|448:40|448:40|448:41|448:41|448:40|448:40|448:41|448:41|448:40|448:40|448:41|448:41|448:40|448:40|448:41|448:41|448:40|448:40|448:41|448:41|448:40|448:40|448:41|448:41|448:40|448:40|448:41|448:41|448:40|448:40|448:41|448:41|448:40|448:40|448:41|448:41|448:40|448:40|448:41|448:41|448:40|448:40|448:41|448:41|448:40|448:40|448:41|448:41|448:40|448:40|448:40,1,160
448,80,119311,1,0,0:0:0:0:
408,80,119418,2,0,L|368:80,1,40
288,160,119632,6,0,L|328:160,1,40
448,40,119846,2,0,L|468:40,2,20
224,40,120063,5,0,0:0:0:0:
224,160,120277,1,0,0:0:0:0:
24,160,120491,5,0,0:0:0:0:
24,120,120598,1,0,0:0:0:0:
104,120,120705,1,0,0:0:0:0:
104,160,120813,1,0,0:0:0:0:
184,160,120920,6,0,L|224:160,1,40
104,80,121134,2,0,L|124:80,2,20
64,160,121348,2,0,L|24:160,1,40
224,0,121563,2,0,L|184:0,1,40
104,0,121777,5,0,0:0:0:0:
104,40,121884,1,0,0:0:0:0:
104,160,122098,1,0,0:0:0:0:
104,160,122205,6,0,L|144:160,1,40
64,0,122420,2,0,L|24:0,1,40
224,160,122634,5,0,0:0:0:0:
224,160,122741,1,0,0:0:0:0:
104,120,122848,5,0,0:0:0:0:
104,120,122955,1,0,0:0:0:0:
184,160,123063,5,0,0:0:0:0:
184,160,123170,1,0,0:0:0:0:
64,120,123277,5,0,0:0:0:0:
64,120,123384,1,0,0:0:0:0:
144,160,123491,5,0,0:0:0:0:
24,120,123705,2,0,L|4:120,2,20
64,120,123920,6,0,L|104:120,1,40
64,160,124134,2,0,L|24:160,1,40
224,120,124348,5,0,0:0:0:0:
24,40,124563,2,0,L|4:40,2,20
64,40,124777,2,0,L|104:40,1,40
224,160,124991,2,0,L|184:160,1,40
24,0,125205,5,0,0:0:0:0:
224,120,125420,2,0,L|144:120,1,80
104,120,125741,2,0,L|64:120,1,40
144,40,125955,1,0,0:0:0:0:
104,40,126063,6,0,L|84:40,2,20
64,160,126277,2,0,L|24:160,1,40
24,0,126491,2,0,L|64:0,1,40
184,160,126705,2,0,L|224:160,1,40
488,160,126920,5,0,0:0:0:0:
388,80,127134,2,0,L|428:80,2,40
428,160,127455,6,0,L|452:160,2,20
388,160,127670,1,0,0:0:0:0:
328,160,127777,6,0,L|288:160,1,40
288,80,127991,2,0,L|336:80,1,40
368,80,128205,5,0,0:0:0:0:
408,80,128313,1,0,0:0:0:0:
448,80,128420,2,0,L|488:80,1,40
328,0,128634,6,0,L|348:0,2,20
288,80,128848,1,0,0:0:0:0:
328,80,128955,1,0,0:0:0:0:
368,80,129063,2,0,L|416:80,1,40
428,80,129223,1,0,0:0:0:0:
448,80,129277,2,0,L|488:80,1,40
488,0,129491,5,0,0:0:0:0:
448,0,129598,1,0,0:0:0:0:
408,0,129705,5,0,0:0:0:0:
408,44,129813,1,0,0:0:0:0:
408,80,129920,5,0,0:0:0:0:
408,120,130027,1,0,0:0:0:0:
408,160,130134,1,0,0:0:0:0:
448,160,130241,1,0,0:0:0:0:
448,120,130348,6,0,L|368:120,1,80
288,80,130670,1,0,0:0:0:0:
288,120,130777,6,0,L|328:120,1,40
488,80,130991,2,0,L|448:80,1,40
368,120,131205,6,0,L|388:120,2,20
288,120,131420,2,0,L|328:120,1,40
288,0,131634,6,0,L|328:0,1,40
488,80,131848,2,0,L|448:80,1,40
368,40,132063,5,0,0:0:0:0:
368,100,132277,5,0,0:0:0:0:
368,160,132491,6,0,L|408:160,1,40
428,160,132652,1,0,0:0:0:0:
448,160,132705,2,0,L|488:160,1,40
448,40,132920,5,0,0:0:0:0:
448,80,133027,1,0,0:0:0:0:
448,124,133134,2,0,L|408:124,1,40
288,160,133348,6,0,L|328:160,1,40
448,40,133563,2,0,L|468:40,2,20
224,40,133777,5,0,0:0:0:0:
256,192,133884,12,0,133991,0:0:0:0:
256,192,134152,12,0,134205,0:0:0:0:
256,192,134259,12,0,134312,0:0:0:0:
256,192,134366,12,0,134419,0:0:0:0:
256,192,134473,12,0,134526,0:0:0:0:
256,192,134581,12,0,134634,0:0:0:0:
256,192,134688,12,0,134741,0:0:0:0:
256,192,134795,12,0,134848,0:0:0:0:
256,192,134875,12,0,134902,0:0:0:0:
256,192,134955,12,0,135063,0:0:0:0:
256,192,135116,12,0,135169,0:0:0:0:
256,192,135223,12,0,135276,0:0:0:0:
256,192,135330,12,0,135383,0:0:0:0:
256,192,135438,12,0,135491,0:0:0:0:
256,192,135545,12,0,135598,0:0:0:0:
256,192,135625,12,0,135652,0:0:0:0:
256,192,135732,12,0,135813,0:0:0:0:
256,192,135813,12,0,135921,0:0:0:0:
256,192,135973,12,0,136026,0:0:0:0:
256,192,136080,12,0,136133,0:0:0:0:
256,192,136188,12,0,136241,0:0:0:0:
256,192,136295,12,0,136348,0:0:0:0:
256,192,136402,12,0,136455,0:0:0:0:
256,192,136509,12,0,136562,0:0:0:0:
256,192,136616,12,0,136669,0:0:0:0:
256,192,136670,12,0,136778,0:0:0:0:
256,192,136830,12,0,136883,0:0:0:0:
256,192,136938,12,0,136991,0:0:0:0:
256,192,137045,12,0,137098,0:0:0:0:
256,192,137152,12,0,137205,0:0:0:0:
256,192,137446,12,0,137472,0:0:0:0:
256,192,137500,12,0,137526,0:0:0:0:
256,192,137527,12,0,137635,0:0:0:0:
256,192,137688,12,0,137741,0:0:0:0:
256,192,137795,12,0,137848,0:0:0:0:
256,192,137902,12,0,137955,0:0:0:0:
256,192,138009,12,0,138062,0:0:0:0:
256,192,138250,12,0,138277,0:0:0:0:
256,192,138304,12,0,138331,0:0:0:0:
256,192,138330,12,0,138384,0:0:0:0:
256,192,138384,12,0,138491,0:0:0:0:
256,192,138545,12,0,138598,0:0:0:0:
256,192,138652,12,0,138705,0:0:0:0:
256,192,138760,12,0,138813,0:0:0:0:
256,192,138866,12,0,138919,0:0:0:0:
256,192,139027,12,0,139134,0:0:0:0:
256,192,139241,12,0,139348,0:0:0:0:
256,192,139375,12,0,139402,0:0:0:0:
256,192,139429,12,0,139456,0:0:0:0:
256,192,139455,12,0,139562,0:0:0:0:
256,192,139616,12,0,139669,0:0:0:0:
256,192,139723,12,0,139776,0:0:0:0:
256,192,139804,12,0,139831,0:0:0:0:
256,192,139857,12,0,139884,0:0:0:0:
256,192,139938,12,0,139991,0:0:0:0:
256,192,140045,12,0,140098,0:0:0:0:
256,192,140152,12,0,140205,0:0:0:0:
256,192,140259,12,0,140312,0:0:0:0:
256,192,140366,12,0,140419,0:0:0:0:
156,224,140634,6,0,P|88:240|52:280,1,120.000004577637
84,384,140955,1,0,0:0:0:0:
104,320,141063,2,0,L|88:252,1,60.0000022888184
148,372,141277,1,0,0:0:0:0:
112,356,141384,6,0,P|172:332|228:340,1,120.000004577637
224,268,141705,2,0,P|196:296|160:312,1,60.0000022888184
0,296,141920,6,0,L|76:308,1,60.0000022888184
8,280,142080,1,0,0:0:0:0:
16,264,142134,2,0,P|8:296|24:344,1,60.0000022888184
196,260,142348,6,0,B|188:252|188:252|180:264|180:264|156:244|120:236|88:244,1,120.000004577637
204,324,142670,1,0,0:0:0:0:
164,376,142777,2,0,L|197:255,1,120.000004577637
104,220,143098,1,0,0:0:0:0:
56,256,143205,6,0,P|92:248|136:252,1,60.0000022888184
60,324,143420,2,0,L|0:320,1,60.0000022888184
136,268,143634,6,0,L|144:340,1,60.0000022888184
212,220,143848,2,0,P|216:260|208:292,1,60.0000022888184
48,376,144063,6,0,P|40:304|84:312,1,120.000004577637
136,328,144384,1,0,0:0:0:0:
220,336,144491,6,0,P|193:343|148:344,1,60.0000022888184
0,368,144705,2,0,L|64:364,1,60.0000022888184
136,328,144920,5,0,0:0:0:0:
84,376,145027,1,0,0:0:0:0:
168,364,145134,2,0,L|164:292,1,60.0000022888184
36,228,145348,5,0,0:0:0:0:
0,292,145455,1,0,0:0:0:0:
60,248,145563,2,0,P|88:252|120:252,1,60.0000022888184
224,280,145777,5,0,0:0:0:0:
184,356,145991,5,0,0:0:0:0:
96,380,146205,6,0,P|132:372|152:360,1,60.0000022888184
200,284,146420,2,0,L|208:216,1,60.0000022888184
80,312,146634,5,0,0:0:0:0:
152,328,146741,1,0,0:0:0:0:
72,296,146848,5,0,0:0:0:0:
148,292,146955,1,0,0:0:0:0:
60,320,147063,5,0,0:0:0:0:
168,312,147170,1,0,0:0:0:0:
88,376,147277,6,0,P|156:368|216:220,1,240.000009155274
296,320,147920,5,0,0:0:0:0:
380,340,148027,1,0,0:0:0:0:
308,336,148241,6,0,L|428:324,1,120.000004577637
512,316,148563,1,0,0:0:0:0:
436,296,148670,1,0,0:0:0:0:
512,316,148777,1,0,0:0:0:0:
412,352,148884,1,0,0:0:0:0:
512,316,148991,2,0,P|480:264|488:216,1,60.0000022888184
456,368,149205,6,0,L|424:364,2,30.0000011444092
352,376,149420,1,0,0:0:0:0:
352,376,149527,1,0,0:0:0:0:
352,376,149634,5,0,0:0:0:0:
296,292,149848,2,0,P|304:252|304:224,1,60.0000022888184
288,312,150063,6,0,L|368:296,1,60.0000022888184
444,236,150277,2,0,P|472:244|524:244,1,60.0000022888184
332,384,150491,6,0,P|336:324|320:292,1,60.0000022888184
492,292,150705,2,0,L|480:220,1,60.0000022888184
392,228,150920,6,0,B|376:244|376:244|392:368,1,120.000004577637
480,304,151348,5,0,0:0:0:0:
512,312,151455,1,0,0:0:0:0:
408,344,151563,5,0,0:0:0:0:
424,364,151670,1,0,0:0:0:0:
316,356,151777,5,0,0:0:0:0:
388,360,151884,1,0,0:0:0:0:
324,316,151991,5,0,0:0:0:0:
392,336,152098,1,0,0:0:0:0:
344,280,152205,5,0,0:0:0:0:
404,316,152313,1,0,0:0:0:0:
372,252,152420,5,0,0:0:0:0:
420,304,152527,1,0,0:0:0:0:
408,232,152634,5,0,0:0:0:0:
288,280,152848,2,0,P|344:296|420:256,1,120.000004577637
484,296,153170,1,0,0:0:0:0:
419,317,153277,2,0,L|339:309,1,60.0000022888184
292,336,153491,5,0,0:0:0:0:
348,292,153598,1,0,0:0:0:0:
316,356,153705,5,0,0:0:0:0:
348,292,153813,1,0,0:0:0:0:
348,364,153920,5,0,0:0:0:0:
348,292,154027,1,0,0:0:0:0:
380,356,154134,6,0,P|416:316|392:236,1,120.000004577637
16,340,154777,5,0,0:0:0:0:
96,332,154884,1,0,0:0:0:0:
24,304,154991,1,0,0:0:0:0:
104,356,155098,6,0,P|160:340|180:340,1,60.0000022888184
224,368,155313,1,0,0:0:0:0:
192,308,155420,2,0,L|112:300,1,60.0000022888184
72,232,155634,2,0,L|-8:256,1,60.0000022888184
192,232,155848,2,0,P|208:288|208:308,1,60.0000022888184
76,360,156063,6,0,L|44:356,2,30.0000011444092
152,320,156277,1,0,0:0:0:0:
80,332,156384,1,0,0:0:0:0:
168,344,156491,6,0,P|208:356|244:384,1,60.0000022888184
160,300,156705,2,0,L|168:232,1,60.0000022888184
56,296,156920,5,0,0:0:0:0:
68,224,157027,1,0,0:0:0:0:
76,312,157134,5,0,0:0:0:0:
64,244,157241,1,0,0:0:0:0:
60,336,157348,5,0,0:0:0:0:
72,268,157455,1,0,0:0:0:0:
80,356,157563,5,0,0:0:0:0:
60,288,157670,1,0,0:0:0:0:
72,376,157777,5,0,0:0:0:0:
88,248,157991,2,0,P|136:244|168:232,1,60.0000022888184
40,308,158205,2,0,L|56:376,1,60.0000022888184
196,364,158420,1,0,0:0:0:0:
196,288,158527,1,0,0:0:0:0:
172,352,158634,5,0,0:0:0:0:
188,268,158741,1,0,0:0:0:0:
192,336,158848,1,0,0:0:0:0:
188,268,158955,1,0,0:0:0:0:
92,288,159063,5,0,0:0:0:0:
180,300,159170,1,0,0:0:0:0:
72,336,159277,1,0,0:0:0:0:
180,300,159384,1,0,0:0:0:0:
24,272,159491,5,0,0:0:0:0:
184,384,159705,2,0,P|184:324|228:280,1,120.000004577637
128,276,160027,1,0,0:0:0:0:
200,256,160134,2,0,L|136:244,1,60.0000022888184
48,260,160348,5,0,0:0:0:0:
128,276,160455,1,0,0:0:0:0:
24,272,160563,1,0,0:0:0:0:
128,276,160670,1,0,0:0:0:0:
99,231,160777,5,0,0:0:0:0:
136,312,160884,1,0,0:0:0:0:
168,224,160991,2,0,P|140:296|0:360,1,240.000009155274
312,264,161634,5,0,0:0:0:0:
292,328,161741,1,0,0:0:0:0:
388,256,161955,6,0,P|356:272|316:272,1,60.0000022888184
512,316,162170,1,0,0:0:0:0:
464,260,162277,2,0,L|396:252,1,60.0000022888184
352,348,162491,6,0,P|324:340|288:348,1,60.0000022888184
384,280,162705,2,0,L|364:212,1,60.0000022888184
384,368,162920,6,0,P|376:320|388:292,1,60.0000022888184
464,300,163134,1,0,0:0:0:0:
480,272,163241,1,0,0:0:0:0:
472,328,163348,6,0,L|344:332,1,120.000004577637
300,276,163670,1,0,0:0:0:0:
344,364,163777,5,0,0:0:0:0:
368,288,163884,1,0,0:0:0:0:
408,344,163991,5,0,0:0:0:0:
432,268,164098,1,0,0:0:0:0:
472,328,164179,5,0,0:0:0:0:
448,252,164286,1,0,0:0:0:0:
408,308,164393,5,0,0:0:0:0:
384,232,164500,1,0,0:0:0:0:
336,288,164634,6,0,P|432:260|492:264,1,120.000004577637
296,296,165063,5,0,0:0:0:0:
368,280,165170,1,0,0:0:0:0:
304,272,165277,5,0,0:0:0:0:
372,304,165384,1,0,0:0:0:0:
328,368,165491,6,0,L|336:284,1,60.0000022888184
476,304,165705,1,0,0:0:0:0:
404,300,165813,1,0,0:0:0:0:
468,328,165920,6,0,P|452:268|452:248,1,60.0000022888184
316,232,166134,1,0,0:0:0:0:
336,332,166241,1,0,0:0:0:0:
288,258,166348,5,0,0:0:0:0:
440,268,166563,2,0,L|372:284,1,60.0000022888184
288,384,166777,5,0,0:0:0:0:
336,332,166884,1,0,0:0:0:0:
404,308,166991,1,0,0:0:0:0:
404,308,167098,1,0,0:0:0:0:
360,252,167205,5,0,0:0:0:0:
404,308,167313,1,0,0:0:0:0:
404,308,167420,1,0,0:0:0:0:
404,308,167527,1,0,0:0:0:0:
464,264,167634,5,0,0:0:0:0:
404,308,167741,2,0,L|384:240,1,60.0000022888184
348,96,168063,5,0,0:0:0:0:
256,192,168438,12,0,168465,0:0:0:0:
404,308,168491,6,0,B|400:292|416:304|416:304|420:312|420:312|416:296|432:308|432:308|436:316|436:316|432:300|448:312|448:312|452:320|452:320|448:304|464:316|464:316|468:324|468:324|464:308|480:320|480:320|484:328|484:328|480:312|492:276|460:248|460:248|396:276|456:224|456:224|408:216|364:228|388:264|344:276|296:268|296:268|296:280|308:284|324:268|336:272|336:284|336:284|344:292|344:292|332:304|332:304|340:308|340:308|336:324|336:324|344:324|344:324|340:344|340:344|348:340|348:340|356:360|356:360|360:352|360:352|376:368|376:368|376:364|376:364|384:376|392:372|392:372|392:368|392:368|400:380|408:376|408:376|408:372|408:372|416:384|424:380|424:380|424:376|424:376|432:388|440:384|440:384|440:380|440:380|448:392|456:388|456:388|456:384|456:384|464:396|472:392|472:392|472:388|472:388|480:400|489:392|489:392|496:400|320:356|304:352|288:340|288:340|288:356|296:372|312:384,1,1120
328,160,168705,5,0,0:0:0:0:
328,160,168812,1,0,0:0:0:0:
328,160,168919,1,0,0:0:0:0:
392,144,169134,5,0,0:0:0:0:
392,144,169240,1,0,0:0:0:0:
256,192,169320,12,0,169347,0:0:0:0:
348,96,169455,5,0,0:0:0:0:
380,80,169562,5,0,0:0:0:0:
380,80,169615,1,0,0:0:0:0:
380,80,169669,1,0,0:0:0:0:
416,84,169776,5,0,0:0:0:0:
288,160,169990,1,0,0:0:0:0:
256,192,170151,12,0,170178,0:0:0:0:
320,0,170204,5,0,0:0:0:0:
356,156,170418,1,0,0:0:0:0:
320,100,170526,1,0,0:0:0:0:
386,96,170740,5,0,0:0:0:0:
386,96,170847,1,0,0:0:0:0:
386,96,170954,1,0,0:0:0:0:
386,96,171061,1,0,0:0:0:0:
256,192,171088,12,0,171115,0:0:0:0:
512,0,171276,5,0,0:0:0:0:
496,24,171383,1,0,0:0:0:0:
488,56,171490,1,0,0:0:0:0:
364,28,171704,5,0,0:0:0:0:
392,36,171811,1,0,0:0:0:0:
256,192,171865,12,0,171891,0:0:0:0:
420,36,171918,5,0,0:0:0:0:
420,36,172026,1,0,0:0:0:0:
436,108,172240,5,0,0:0:0:0:
480,160,172454,5,0,0:0:0:0:
436,108,172561,1,0,0:0:0:0:
500,92,172668,1,0,0:0:0:0:
256,192,172722,12,0,172749,0:0:0:0:
472,120,172776,5,0,0:0:0:0:
472,56,172883,1,0,0:0:0:0:
416,88,172990,1,0,0:0:0:0:
352,92,173097,1,0,0:0:0:0:
344,56,173204,5,0,0:0:0:0:
344,56,173258,1,0,0:0:0:0:
344,56,173311,1,0,0:0:0:0:
316,32,173418,5,0,0:0:0:0:
288,56,173526,1,0,0:0:0:0:
256,192,173579,12,0,173606,0:0:0:0:
288,88,173633,5,0,0:0:0:0:
296,124,173740,1,0,0:0:0:0:
328,152,173847,1,0,0:0:0:0:
372,152,173954,1,0,0:0:0:0:
360,120,174061,5,0,0:0:0:0:
384,140,174168,1,0,0:0:0:0:
392,120,174276,5,0,0:0:0:0:
428,124,174383,1,0,0:0:0:0:
256,192,174436,12,0,174463,0:0:0:0:
460,108,174490,5,0,0:0:0:0:
460,108,174543,1,0,0:0:0:0:
460,108,174597,1,0,0:0:0:0:
480,72,174704,5,0,0:0:0:0:
416,56,174811,1,0,0:0:0:0:
224,120,175134,6,0,L|224:160,2,40
256,192,175321,12,0,175348,0:0:0:0:
32,64,175562,5,0,0:0:0:0:
100,52,175670,1,0,0:0:0:0:
32,64,175777,2,0,L|32:104,1,40
128,152,175991,1,0,0:0:0:0:
64,160,176098,1,0,0:0:0:0:
64,160,176152,1,0,0:0:0:0:
256,192,176178,12,0,176205,0:0:0:0:
64,160,176205,6,0,L|64:120,1,40
168,40,176420,2,0,L|168:0,1,40
0,32,176634,5,0,0:0:0:0:
68,40,176741,1,0,0:0:0:0:
136,48,176848,2,0,L|136:128,1,80
256,192,177036,12,0,177063,0:0:0:0:
20,152,177170,5,0,0:0:0:0:
88,144,177277,1,0,0:0:0:0:
156,136,177384,1,0,0:0:0:0:
224,128,177491,6,0,L|224:48,1,80
68,40,177812,2,0,L|68:20,1,20
104,0,177920,6,0,L|104:160,1,160
256,192,178000,12,0,178027,0:0:0:0:
256,192,178107,12,0,178134,0:0:0:0:
256,192,178214,12,0,178241,0:0:0:0:
256,192,178322,12,0,178349,0:0:0:0:
208,16,178562,5,0,0:0:0:0:
140,24,178670,1,0,0:0:0:0:
256,192,178723,12,0,178750,0:0:0:0:
72,32,178777,5,0,0:0:0:0:
4,8,178884,2,0,L|4:88,2,80
36,112,179420,2,0,L|36:152,1,40
256,192,179607,12,0,179634,0:0:0:0:
68,60,179634,6,0,L|68:100,1,40
132,16,179848,2,0,L|132:56,1,40
184,144,180062,5,0,0:0:0:0:
184,144,180116,1,0,0:0:0:0:
184,144,180170,1,0,0:0:0:0:
116,160,180277,2,0,L|116:76,1,80
256,192,180464,12,0,180491,0:0:0:0:
132,16,180598,6,0,L|132:56,1,40
48,88,180812,1,0,0:0:0:0:
48,88,180866,1,0,0:0:0:0:
48,88,180920,5,0,0:0:0:0:
20,152,181027,1,0,0:0:0:0:
88,144,181134,1,0,0:0:0:0:
156,136,181241,1,0,0:0:0:0:
256,192,181295,12,0,181322,0:0:0:0:
224,128,181348,5,0,0:0:0:0:
224,128,181455,1,0,0:0:0:0:
224,128,181562,1,0,0:0:0:0:
224,128,181670,1,0,0:0:0:0:
292,120,181777,6,0,B|293:120|293:120|292:120|292:120|293:120|293:120|292:120|292:120|293:120|293:120|292:120|292:120|293:120|293:120|292:120|292:120|293:120|293:120|292:120|292:120|293:120|293:120|292:120|292:120|293:120|293:120|292:120|292:120|293:120|293:120|292:120|292:120|293:120|293:120|292:120|292:120|293:120|293:120|292:120|292:120|293:120|293:120|292:120|292:120|293:120|293:120|292:120|292:120|293:120|293:120|292:120|292:120|293:120|293:120|292:120|292:120|293:120|293:120|292:120|292:120|293:120|293:120|292:120|292:120|293:120|293:120|292:120|292:120|293:120|293:120|292:120|292:120|293:120|293:120|292:120|292:120|293:120|293:120|292:120|292:120|293:120|293:120|292:120|292:120|293:120|293:120|292:120|292:120|293:120|293:120|292:120|292:120|293:120|293:120|292:120|292:120|293:120|293:120|292:120|292:120|293:120|293:120|292:120|292:120|293:120|293:120|292:120|292:120|293:120|293:120|292:120|292:120|293:120|293:120|292:120|292:120|293:120|293:120|292:120|292:120|293:120|293:120|292:120|292:120|293:120|293:120|292:120|292:120|293:120|293:120|292:120|292:120|293:120|293:120|292:120|292:120|293:120|293:120|292:120|292:120|293:120|293:120|292:120|292:120|293:120|293:120|292:120|292:120|293:120|293:120|292:120|292:120|293:120|293:120|292:120|292:120|293:120|293:120|292:120|292:120|293:120|293:120|292:120|292:120|293:120|293:120|292:120|292:120|293:120|293:120|292:120|292:120|293:120|293:120|292:120|292:120|293:120|293:120|292:120|292:120|293:120|293:120|292:120|292:120|293:120|293:120|292:120|292:120|293:120|293:120|292:120|292:120|293:120|293:120|292:120|292:120|293:120|293:120|292:120|292:120|293:120|293:120|292:120|292:120|293:120|293:120|292:120|292:120|293:120|293:120|292:120|292:120|293:120|293:120|292:120|292:120|293:120|293:120|292:120|292:120|293:120|293:120|292:120|292:120|293:120|293:120|292:120|292:120|293:120|293:120|292:120|292:120|293:120|293:120|292:120|292:120|293:120|293:120|292:120|292:120|293:120|293:120|292:120|292:120|293:120|293:120|292:120|292:120|293:120|293:120|292:120|292:120|293:120|293:120|292:120|292:120|293:120|293:120|292:120|292:120|293:120|293:120|292:120|292:120|293:120|293:120|292:120|292:120|293:120|293:120|292:120|292:120|293:120|293:120|292:120|292:120|293:120|293:120|292:120|292:120|293:120|293:120|292:120|292:120|293:120|293:120|292:120|292:120|293:120|293:120|292:120|292:120|293:120|293:120|292:120|292:120|293:120|293:120|292:120|292:120|293:120|293:120|292:120|292:120|293:120|293:120|292:120|292:120|293:120|293:120|292:120|292:120|293:120|293:120|292:120|292:120|293:120|293:120|292:120|292:120|293:120|293:120|292:120|292:120|293:120|293:120|292:120|292:120|293:120|293:120|292:120|292:120|293:120|293:120|292:120|292:120|293:120|293:120|292:120|292:120|293:120|293:120|292:120|292:120|293:120|293:120|292:120|292:120|293:120|293:120|292:120|292:120|293:120|293:120|292:120|292:120|293:120|293:120|292:120|292:120|293:120|293:120|292:120|292:120|293:120|293:120|292:120|292:120|293:120|293:120|292:120|292:120|293:120|293:120|292:120|292:120|293:120|293:120|292:120|292:120|293:120|293:120|292:120|292:120|293:120|293:120|292:120|292:120|293:120|293:120|292:120|292:120|293:120|293:120|292:120|292:120|293:120|293:120|292:120|292:120|293:120|293:120|292:120|292:120|293:120|293:120|292:120|292:120|293:120|293:120|292:120|292:120|293:120|293:120|292:120|292:120|293:120|293:120|292:120|292:120|293:120|293:120|292:120|292:120|293:120|293:120|292:120|292:120|293:120|293:120|292:120|292:120|293:120|293:120|292:120|292:120|293:120|293:120|292:120|292:120|293:120|293:120|292:120|292:120|293:120|293:120|292:120|292:120|293:120|293:120|292:120|292:120|293:120|293:120|292:120|292:120|293:120|293:120|292:120|292:120|293:120|293:120|292:120|292:120|293:120|293:120|292:120|292:120|293:120|293:120|292:120|292:120|293:120|293:120|292:120|292:120|293:120|293:120|292:120|292:120|293:120|293:120|292:120|292:120|293:120|293:120|292:120|292:120|293:120|293:120|292:120|292:120|293:120|293:120|292:120|292:120|293:120|293:120|292:120|292:120|293:120|293:120|292:120|292:120|293:120|293:120|292:120|292:120|293:120|293:120|292:120|292:120|293:120|293:120|292:120|292:120|293:120|293:120|292:120|292:120|293:120|293:120|292:120|292:120|293:120|293:120|292:120|292:120|293:120|293:120|292:120|292:120|293:120|293:120|292:120|292:120|293:120|293:120|292:120|292:120|293:120|293:120|292:120|292:120|293:120|293:120|292:120|292:120|293:120|293:120|292:120|292:120|293:120|293:120|292:120|292:120|293:120|293:120|292:120|292:120|293:120|293:120|292:120|292:120|297:133|296:146|288:157|288:157|289:157|289:157|288:157|288:157|289:157|289:157|288:157|288:157|289:157|289:157|288:157|288:157|289:157|289:157|288:157|288:157|289:157|289:157|288:157|288:157|289:157|289:157|288:157|288:157|289:157|289:157|288:157|288:157|289:157|289:157|288:157|288:157|289:157|289:157|288:157|288:157|289:157|289:157|288:157|288:157|289:157|289:157|288:157|288:157|289:157|289:157|288:157|288:157|289:157|289:157|288:157|288:157|289:157|289:157|288:157|288:157|289:157|289:157|288:157|288:157|289:157|289:157|288:157|288:157|289:157|289:157|288:157|288:157|289:157|289:157|288:157|288:157|289:157|289:157|288:157|288:157|289:157|289:157|288:157|288:157|289:157|289:157|288:157|288:157|289:157|289:157|288:157|288:157|289:157|289:157|288:157|288:157|289:157|289:157|288:157|288:157|289:157|289:157|288:157|288:157|289:157|289:157|288:157|288:157|289:157|289:157|288:157|288:157|289:157|289:157|288:157|288:157|289:157|289:157|288:157|288:157|289:157|289:157|288:157|288:157|289:157|289:157|288:157|288:157|289:157|289:157|288:157|288:157|289:157|289:157|288:157|288:157|289:157|289:157|288:157|288:157|289:157|289:157|288:157|288:157|289:157|289:157|288:157|288:157|289:157|289:157|288:157|288:157|289:157|289:157|288:157|288:157|289:157|289:157|288:157|288:157|289:157|289:157|288:157|288:157|289:157|289:157|288:157|288:157|289:157|289:157|288:157|288:157|289:157|289:157|288:157|288:157|289:157|289:157|288:157|288:157|289:157|289:157|288:157|288:157|289:157|289:157|288:157|288:157|289:157|289:157|288:157|288:157|289:157|289:157|288:157|288:157|289:157|289:157|288:157|288:157|289:157|289:157|288:157|288:157|289:157|289:157|288:157|288:157|289:157|289:157|288:157|288:157|289:157|289:157|288:157|288:157|289:157|289:157|288:157|288:157|289:157|289:157|288:157|288:157|289:157|289:157|288:157|288:157|289:157|289:157|288:157|288:157|289:157|289:157|288:157|288:157|289:157|289:157|288:157|288:157|289:157|289:157|288:157|288:157|289:157|289:157|288:157|288:157|289:157|289:157|288:157|288:157|289:157|289:157|288:157|288:157|289:157|289:157|321:162|321:162|322:162|322:162|321:162|321:162|322:162|322:162|321:162|321:162|322:162|322:162|321:162|321:162|322:162|322:162|321:162|321:162|322:162|322:162|321:162|321:162|322:162|322:162|321:162|321:162|322:162|322:162|321:162|321:162|322:162|322:162|321:162|321:162|322:162|322:162|321:162|321:162|322:162|322:162|321:162|321:162|322:162|322:162|321:162|321:162|322:162|322:162|321:162|321:162|322:162|322:162|321:162|321:162|322:162|322:162|321:162|321:162|322:162|322:162|321:162|321:162|322:162|322:162|321:162|321:162|322:162|322:162|321:162|321:162|322:162|322:162|321:162|321:162|322:162|322:162|321:162|321:162|322:162|322:162|321:162|321:162|322:162|322:162|289:157|289:157|288:157|288:157|289:157|289:157|288:157|288:157|289:157|289:157|288:157|288:157|289:157|289:157|288:157|288:157|289:157|289:157|288:157|288:157|289:157|289:157|288:157|288:157|289:157|289:157|288:157|288:157|289:157|289:157|288:157|288:157|289:157|289:157|288:157|288:157|289:157|289:157|288:157|288:157|289:157|289:157|288:157|288:157|289:157|289:157|288:157|288:157|289:157|289:157|288:157|288:157|289:157|289:157|288:157|288:157|289:157|289:157|288:157|288:157|289:157|289:157|288:157|288:157|289:157|289:157|288:157|288:157|289:157|289:157|288:157|288:157|289:157|289:157|288:157|288:157|289:157|289:157|288:157|288:157|289:157|289:157|288:157|288:157|289:157|289:157|288:157|288:157|289:157|289:157|288:157|288:157|289:157|289:157|288:157|288:157|289:157|289:157|288:157|288:157|289:157|289:157|288:157|288:157|321:162|321:162|322:162|322:162|321:162|321:162|322:162|322:162|321:162|321:162|322:162|322:162|321:162|321:162|322:162|322:162|321:162|321:162|322:162|322:162|321:162|321:162|322:162|322:162|321:162|321:162|322:162|322:162|321:162|321:162|322:162|322:162|321:162|321:162|322:162|322:162|321:162|321:162|322:162|322:162|321:162|321:162|322:162|322:162|321:162|321:162|322:162|322:162|321:162|321:162|322:162|322:162|321:162|321:162|322:162|322:162|321:162|321:162|322:162|322:162|321:162|321:162|322:162|322:162|321:162|321:162|322:162|322:162|321:162|321:162|322:162|322:162|321:162|321:162|322:162|322:162|321:162|321:162|322:162|322:162|321:162|321:162|322:162|322:162|321:162|321:162|322:162|322:162|321:162|321:162|322:162|322:162|321:162|321:162|322:162|322:162|321:162|321:162|322:162|322:162|321:162|321:162|322:162|322:162|321:162|321:162|322:162|322:162|321:162|321:162|322:162|322:162|321:162|321:162|322:162|322:162|321:162|321:162|322:162|322:162|321:162|321:162|322:162|322:162|321:162|321:162|322:162|322:162|321:162|321:162|322:162|322:162|321:162|321:162|322:162|322:162|321:162|321:162|322:162|322:162|321:162|321:162|322:162|322:162|321:162|321:162|322:162|322:162|321:162|321:162|322:162|322:162|321:162|321:162|322:162|322:162|321:162|321:162|322:162|322:162|321:162|321:162|322:162|322:162|321:162|321:162|322:162|322:162|321:162|321:162|322:162|322:162|321:162|321:162|322:162|322:162|321:162|321:162|322:162|322:162|321:162|321:162|322:162|322:162|321:162|321:162|322:162|322:162|321:162|321:162|322:162|322:162|321:162|321:162|322:162|322:162|321:162|321:162|322:162|322:162|321:162|321:162|322:162|322:162|321:162|321:162|322:162|322:162|321:162|321:162|322:162|322:162|321:162|321:162|322:162|322:162|321:162|321:162|322:162|322:162|321:162|321:162|322:162|322:162|321:162|321:162|322:162|322:162|321:162|321:162|322:162|322:162|321:162|321:162|322:162|322:162|321:162|321:162|322:162|322:162|321:162|321:162|322:162|322:162|321:162|321:162|322:162|322:162|321:162|321:162|322:162|322:162|356:151|356:151|357:151|357:151|356:151|356:151|357:151|357:151|356:151|356:151|357:151|357:151|356:151|356:151|357:151|357:151|356:151|356:151|357:151|357:151|356:151|356:151|357:151|357:151|356:151|356:151|357:151|357:151|356:151|356:151|357:151|357:151|356:151|356:151|357:151|357:151|356:151|356:151|357:151|357:151|356:151|356:151|357:151|357:151|356:151|356:151|357:151|357:151|356:151|356:151|357:151|357:151|356:151|356:151|357:151|357:151|356:151|356:151|357:151|357:151|356:151|356:151|357:151|357:151|356:151|356:151|357:151|357:151|356:151|356:151|357:151|357:151|356:151|356:151|357:151|357:151|356:151|356:151|357:151|357:151|356:151|356:151|357:151|357:151|356:151|356:151|357:151|357:151|394:156|394:156|395:156|395:156|394:156|394:156|395:156|395:156|394:156|394:156|395:156|395:156|394:156|394:156|395:156|395:156|394:156|394:156|395:156|395:156|394:156|394:156|395:156|395:156|394:156|394:156|395:156|395:156|394:156|394:156|395:156|395:156|394:156|394:156|395:156|395:156|394:156|394:156|395:156|395:156|394:156|394:156|395:156|395:156|394:156|394:156|395:156|395:156|394:156|394:156|395:156|395:156|394:156|394:156|395:156|395:156|394:156|394:156|395:156|395:156|394:156|394:156|395:156|395:156|394:156|394:156|395:156|395:156|394:156|394:156|395:156|395:156|394:156|394:156|395:156|395:156|394:156|394:156|395:156|395:156|394:156|394:156|395:156|395:156|394:156|394:156|395:156|395:156|394:156|394:156|395:156|395:156|394:156|394:156|395:156|395:156|394:156|394:156|395:156|395:156|394:156|394:156|395:156|395:156|394:156|394:156|395:156|395:156|394:156|394:156|395:156|395:156|394:156|394:156|395:156|395:156|394:156|394:156|395:156|395:156|394:156|394:156|395:156|395:156|394:156|394:156|395:156|395:156|394:156|394:156|395:156|395:156|394:156|394:156|395:156|395:156|394:156|394:156|395:156|395:156|394:156|394:156|395:156|395:156|394:156|394:156|395:156|395:156|394:156|394:156|395:156|395:156|394:156|394:156|395:156|395:156|394:156|394:156|395:156|395:156|394:156|394:156|395:156|395:156|394:156|394:156|395:156|395:156|394:156|394:156|395:156|395:156|394:156|394:156|395:156|395:156|394:156|394:156|395:156|395:156|394:156|394:156|395:156|395:156|394:156|394:156|395:156|395:156|394:156|394:156|395:156|395:156|394:156|394:156|395:156|395:156|394:156|394:156|395:156|395:156|394:156|394:156|395:156|395:156|394:156|394:156|395:156|395:156|394:156|394:156|395:156|395:156|394:156|394:156|395:156|395:156|394:156|394:156|395:156|395:156|394:156|394:156|395:156|395:156|394:156|394:156|395:156|395:156|394:156|394:156|395:156|395:156|394:156|394:156|395:156|395:156|394:156|394:156|395:156|395:156|394:156|394:156|395:156|395:156|394:156|394:156|395:156|395:156|394:156|394:156|395:156|395:156|394:156|394:156|395:156|395:156|394:156|394:156|395:156|395:156|394:156|394:156|395:156|395:156|394:156|394:156|395:156|395:156|394:156|394:156|395:156|395:156|394:156|394:156|395:156|395:156|394:156|394:156|395:156|395:156|394:156|394:156|395:156|395:156|394:156|394:156|395:156|395:156|394:156|394:156|395:156|395:156|394:156|394:156|395:156|395:156|394:156|394:156|395:156|395:156|394:156|394:156|395:156|395:156|394:156|394:156|395:156|395:156|394:156|394:156|395:156|395:156|394:156|394:156|395:156|395:156|394:156|394:156|395:156|395:156|394:156|394:156|395:156|395:156|394:156|394:156|395:156|395:156|394:156|394:156|395:156|395:156|394:156|394:156|395:156|395:156|394:156|394:156|395:156|395:156|394:156|394:156|395:156|395:156|394:156|394:156|395:156|395:156|394:156|394:156|395:156|395:156|394:156|394:156|395:156|395:156|394:156|394:156|395:156|395:156|394:156|394:156|395:156|395:156|394:156|394:156|395:156|395:156|394:156|394:156|395:156|395:156|394:156|394:156|395:156|395:156|394:156|394:156|395:156|395:156|394:156|394:156|395:156|395:156|394:156|394:156|395:156|395:156|394:156|394:156|395:156|395:156|394:156|394:156|395:156|395:156|394:156|394:156|395:156|395:156|394:156|394:156|395:156|395:156|394:156|394:156|395:156|395:156|394:156|394:156|395:156|395:156|429:146|429:146|430:146|430:146|429:146|429:146|430:146|430:146|429:146|429:146|430:146|430:146|429:146|429:146|430:146|430:146|429:146|429:146|430:146|430:146|429:146|429:146|430:146|430:146|429:146|429:146|430:146|430:146|429:146|429:146|430:146|430:146|429:146|429:146|430:146|430:146|429:146|429:146|430:146|430:146|410:143|410:143|409:143|409:143|410:143|410:143|409:143|409:143|410:143|410:143|409:143|409:143|410:143|410:143|409:143|409:143|410:143|410:143|409:143|409:143|410:143|410:143|409:143|409:143|410:143|410:143|409:143|409:143|410:143|410:143|409:143|409:143|410:143|410:143|409:143|409:143|429:146|429:146|430:146|430:146|429:146|429:146|430:146|430:146|429:146|429:146|430:146|430:146|429:146|429:146|430:146|430:146|429:146|429:146|430:146|430:146|429:146|429:146|430:146|430:146|429:146|429:146|430:146|430:146|429:146|429:146|430:146|430:146|429:146|429:146|430:146|430:146|429:146|429:146|430:146|430:146|429:146|429:146|430:146|430:146|429:146|429:146|430:146|430:146|429:146|429:146|430:146|430:146|429:146|429:146|430:146|430:146|429:146|429:146|430:146|430:146|429:146|429:146|430:146|430:146|429:146|429:146|430:146|430:146|429:146|429:146|430:146|430:146|429:146|429:146|430:146|430:146|429:146|429:146|430:146|430:146|429:146|429:146|430:146|430:146|429:146|429:146|430:146|430:146|429:146|429:146|430:146|430:146|429:146|429:146|430:146|430:146|429:146|429:146|430:146|430:146|429:146|429:146|430:146|430:146|429:146|429:146|430:146|430:146|429:146|429:146|430:146|430:146|429:146|429:146|430:146|430:146|429:146|429:146|430:146|430:146|429:146|429:146|430:146|430:146|429:146|429:146|430:146|430:146|450:149|450:149|451:149|451:149|450:149|450:149|451:149|451:149|450:149|450:149|451:149|451:149|450:149|450:149|451:149|451:149|450:149|450:149|451:149|451:149|450:149|450:149|451:149|451:149|450:149|450:149|451:149|451:149|450:149|450:149|451:149|451:149|450:149|450:149|451:149|451:149|450:149|450:149|451:149|451:149|450:149|450:149|451:149|451:149|450:149|450:149|451:149|451:149|450:149|450:149|451:149|451:149|450:149|450:149|451:149|451:149|450:149|450:149|451:149|451:149|450:149|450:149|451:149|451:149|450:149|450:149|451:149|451:149|450:149|450:149|451:149|451:149|450:149|450:149|451:149|451:149|450:149|450:149|451:149|451:149|450:149|450:149|451:149|451:149|450:149|450:149|451:149|451:149|450:149|450:149|451:149|451:149|450:149|450:149|451:149|451:149|450:149|450:149|451:149|451:149|450:149|450:149|451:149|451:149|450:149|450:149|451:149|451:149|450:149|450:149|451:149|451:149|450:149|450:149|451:149|451:149|450:149|450:149|451:149|451:149|450:149|450:149|451:149|451:149|450:149|450:149|451:149|451:149|450:149|450:149|451:149|451:149|450:149|450:149|451:149|451:149|450:149|450:149|451:149|451:149|450:149|450:149|451:149|451:149|450:149|450:149|451:149|451:149|450:149|450:149|451:149|451:149|450:149|450:149|451:149|451:149|450:149|450:149|451:149|451:149|450:149|450:149|451:149|451:149|450:149|450:149|451:149|451:149|450:149|450:149|451:149|451:149|450:149|450:149|451:149|451:149|450:149|450:149|451:149|451:149|450:149|450:149|451:149|451:149|450:149|450:149|451:149|451:149|450:149|450:149|451:149|451:149|450:149|450:149|451:149|451:149|450:149|450:149|451:149|451:149|450:149|450:149|451:149|451:149|450:149|450:149|451:149|451:149|450:149|450:149|451:149|451:149|450:149|450:149|451:149|451:149|450:149|450:149|451:149|451:149|450:149|450:149|451:149|451:149|450:149|450:149|451:149|451:149|450:149|450:149|451:149|451:149|450:149|450:149|451:149|451:149|410:143|410:143|409:143|409:143|410:143|410:143|409:143|409:143|410:143|410:143|409:143|409:143|410:143|410:143|409:143|409:143|410:143|410:143|409:143|409:143|410:143|410:143|409:143|409:143|410:143|410:143|409:143|409:143|410:143|410:143|409:143|409:143|410:143|410:143|409:143|409:143|410:143|410:143|409:143|409:143|410:143|410:143|409:143|409:143|410:143|410:143|409:143|409:143|410:143|410:143|409:143|409:143|410:143|410:143|409:143|409:143|410:143|410:143|409:143|409:143|410:143|410:143|409:143|409:143|410:143|410:143|409:143|409:143|410:143|410:143|409:143|409:143|410:143|410:143|409:143|409:143|410:143|410:143|409:143|409:143|410:143|410:143|409:143|409:143|410:143|410:143|409:143|409:143|410:143|410:143|409:143|409:143|410:143|410:143|409:143|409:143|410:143|410:143|409:143|409:143|410:143|410:143|409:143|409:143|410:143|410:143|409:143|409:143|410:143|410:143|409:143|409:143|410:143|410:143|409:143|409:143|410:143|410:143|409:143|409:143|410:143|410:143|409:143|409:143|410:143|410:143|409:143|409:143|410:143|410:143|409:143|409:143|410:143|410:143|409:143|409:143|410:143|410:143|409:143|409:143|410:143|410:143|409:143|409:143|410:143|410:143|409:143|409:143|410:143|410:143|409:143|409:143|410:143|410:143|409:143|409:143|410:143|410:143|409:143|409:143|410:143|410:143|409:143|409:143|410:143|410:143|409:143|409:143|410:143|410:143|409:143|409:143|410:143|410:143|409:143|409:143|410:143|410:143|409:143|409:143|410:143|410:143|409:143|409:143|410:143|410:143|409:143|409:143|410:143|410:143|409:143|409:143|410:143|410:143|409:143|409:143|410:143|410:143|409:143|409:143|410:143|410:143|409:143|409:143|410:143|410:143|409:143|409:143|410:143|410:143|409:143|409:143|410:143|410:143|409:143|409:143|410:143|410:143|409:143|409:143|410:143|410:143|409:143|409:143|410:143|410:143|409:143|409:143|410:143|410:143|409:143|409:143|410:143|410:143|409:143|409:143|410:143|410:143|409:143|409:143|410:143|410:143|409:143|409:143|450:149|450:149|451:149|451:149|450:149|450:149|451:149|451:149|450:149|450:149|451:149|451:149|450:149|450:149|451:149|451:149|450:149|450:149|451:149|451:149|450:149|450:149|451:149|451:149|450:149|450:149|451:149|451:149|450:149|450:149|451:149|451:149|450:149|450:149|451:149|451:149|450:149|450:149|451:149|451:149|450:149|450:149|451:149|451:149|450:149|450:149|451:149|451:149|450:149|450:149|451:149|451:149|450:149|450:149|451:149|451:149|450:149|450:149|451:149|451:149|450:149|450:149|451:149|451:149|450:149|450:149|451:149|451:149|450:149|450:149|451:149|451:149|450:149|450:149|451:149|451:149|450:149|450:149|451:149|451:149|450:149|450:149|451:149|451:149|450:149|450:149|451:149|451:149|450:149|450:149|451:149|451:149|450:149|450:149|451:149|451:149|450:149|450:149|451:149|451:149|450:149|450:149|451:149|451:149|450:149|450:149|451:149|451:149|450:149|450:149|451:149|451:149|450:149|450:149|451:149|451:149|450:149|450:149|451:149|451:149|450:149|450:149|451:149|451:149|450:149|450:149|451:149|451:149|450:149|450:149|451:149|451:149|450:149|450:149|451:149|451:149|450:149|450:149|451:149|451:149|450:149|450:149|451:149|451:149|450:149|450:149|451:149|451:149|450:149|450:149|451:149|451:149|450:149|450:149|451:149|451:149|450:149|450:149|451:149|451:149|450:149|450:149|451:149|451:149|450:149|450:149|451:149|451:149|450:149|450:149|451:149|451:149|450:149|450:149|451:149|451:149|450:149|450:149|451:149|451:149|450:149|450:149|451:149|451:149|450:149|450:149|451:149|451:149|450:149|450:149|451:149|451:149|450:149|450:149|451:149|451:149|450:149|450:149|451:149|451:149|450:149|450:149|451:149|451:149|450:149|450:149|451:149|451:149|450:149|450:149|451:149|451:149|450:149|450:149|451:149|451:149|450:149|450:149|451:149|451:149|450:149|450:149|451:149|451:149|450:149|450:149|451:149|451:149|450:149|450:149|451:149|451:149|450:149|450:149|451:149|451:149|450:149|450:149|451:149|451:149|490:137|490:137|491:137|491:137|490:137|490:137|491:137|491:137|490:137|490:137|491:137|491:137|490:137|490:137|491:137|491:137|490:137|490:137|491:137|491:137|490:137|490:137|491:137|491:137|490:137|490:137|491:137|491:137|490:137|490:137|491:137|491:137|490:137|490:137|491:137|491:137|490:137|490:137|491:137|491:137|490:137|490:137|491:137|491:137|490:137|490:137|491:137|491:137|490:137|490:137|491:137|491:137|490:137|490:137|491:137|491:137|490:137|490:137|491:137|491:137|490:137|490:137|491:137|491:137|490:137|490:137|491:137|491:137|490:137|490:137|491:137|491:137|490:137|490:137|491:137|491:137|450:128|450:128|449:128|449:128|450:128|450:128|449:128|449:128|450:128|450:128|449:128|449:128|450:128|450:128|449:128|449:128|450:128|450:128|449:128|449:128|450:128|450:128|449:128|449:128|450:128|450:128|449:128|449:128|450:128|450:128|449:128|449:128|450:128|450:128|449:128|449:128|450:128|450:128|449:128|449:128|450:128|450:128|449:128|449:128|450:128|450:128|449:128|449:128|450:128|450:128|449:128|449:128|450:128|450:128|449:128|449:128|450:128|450:128|449:128|449:128|450:128|450:128|449:128|449:128|450:128|450:128|449:128|449:128|450:128|450:128|449:128|449:128|450:128|450:128|449:128|449:128|450:128|450:128|449:128|449:128|450:128|450:128|449:128|449:128|450:128|450:128|449:128|449:128|450:128|450:128|449:128|449:128|450:128|450:128|449:128|449:128|450:128|450:128|449:128|449:128|450:128|450:128|449:128|449:128|450:128|450:128|449:128|449:128|450:128|450:128|449:128|449:128|450:128|450:128|449:128|449:128|450:128|450:128|449:128|449:128|450:128|450:128|449:128|449:128|450:128|450:128|449:128|449:128|450:128|450:128|449:128|449:128|450:128|450:128|449:128|449:128|450:128|450:128|449:128|449:128|450:128|450:128|449:128|449:128|450:128|450:128|449:128|449:128|450:128|450:128|449:128|449:128|450:128|450:128|449:128|449:128|450:128|450:128|449:128|449:128|450:128|450:128|449:128|449:128|450:128|450:128|449:128|449:128|450:128|450:128|449:128|449:128|450:128|450:128|449:128|449:128|450:128|450:128|449:128|449:128|450:128|450:128|449:128|449:128|450:128|450:128|449:128|449:128|450:128|450:128|449:128|449:128|450:128|450:128|449:128|449:128|450:128|450:128|449:128|449:128|450:128|450:128|449:128|449:128|450:128|450:128|449:128|449:128|450:128|450:128|449:128|449:128|450:128|450:128|449:128|449:128|450:128|450:128|449:128|449:128|450:128|450:128|449:128|449:128|450:128|450:128|449:128|449:128|450:128|450:128|449:128|449:128|450:128|450:128|449:128|449:128|450:128|450:128|449:128|449:128|450:128|450:128|449:128|449:128|450:128|450:128|449:128|449:128|450:128|450:128|449:128|449:128|450:128|450:128|449:128|449:128|450:128|450:128|449:128|449:128|450:128|450:128|449:128|449:128|450:128|450:128|449:128|449:128|450:128|450:128|449:128|449:128|450:128|450:128|449:128|449:128|450:128|450:128|449:128|449:128|450:128|450:128|449:128|449:128|450:128|450:128|449:128|449:128|450:128|450:128|449:128|449:128|450:128|450:128|449:128|449:128|450:128|450:128|449:128|449:128|450:128|450:128|449:128|449:128|450:128|450:128|449:128|449:128|450:128|450:128|449:128|449:128|450:128|450:128|449:128|449:128|450:128|450:128|449:128|449:128|450:128|450:128|449:128|449:128|450:128|450:128|449:128|449:128|450:128|450:128|449:128|449:128|450:128|450:128|449:128|449:128|450:128|450:128|449:128|449:128|450:128|450:128|449:128|449:128|450:128|450:128|449:128|449:128|450:128|450:128|449:128|449:128|450:128|450:128|449:128|449:128|450:128|450:128|449:128|449:128|450:128|450:128|449:128|449:128|450:128|450:128|449:128|449:128|450:128|450:128|449:128|449:128|450:128|450:128|449:128|449:128|450:128|450:128|449:128|449:128|450:128|450:128|449:128|449:128|450:128|450:128|449:128|449:128|450:128|450:128|449:128|449:128|450:128|450:128|449:128|449:128|450:128|450:128|449:128|449:128|450:128|450:128|449:128|449:128|450:128|450:128|449:128|449:128|450:128|450:128|449:128|449:128|450:128|450:128|449:128|449:128|450:128|450:128|449:128|449:128|450:128|450:128|449:128|449:128|450:128|450:128|449:128|449:128|450:128|450:128|449:128|449:128|450:128|450:128|449:128|449:128|450:128|450:128|449:128|449:128|450:128|450:128|449:128|449:128|450:128|450:128|449:128|449:128|450:128|450:128|449:128|449:128|450:128|450:128|449:128|449:128|450:128|450:128|449:128|449:128|450:128|450:128|449:128|449:128|450:128|450:128|449:128|449:128|450:128|450:128|449:128|449:128|450:128|450:128|449:128|449:128|450:128|450:128|449:128|449:128|450:128|450:128|449:128|449:128|450:128|450:128|449:128|449:128|450:128|450:128|449:128|449:128|450:128|450:128|449:128|449:128|450:128|450:128|449:128|449:128|450:128|450:128|449:128|449:128|450:128|450:128|449:128|449:128|450:128|450:128|449:128|449:128|450:128|450:128|449:128|449:128|450:128|450:128|449:128|449:128|450:128|450:128|449:128|449:128|450:128|450:128|449:128|449:128|450:128|450:128|449:128|449:128|450:128|450:128|449:128|449:128|450:128|450:128|449:128|449:128|450:128|450:128|449:128|449:128|450:128|450:128|449:128|449:128|450:128|450:128|449:128|449:128|450:128|450:128|449:128|449:128|450:128|450:128|449:128|449:128|450:128|450:128|449:128|449:128|450:128|450:128|449:128|449:128|450:128|450:128|449:128|449:128|450:128|450:128|449:128|449:128|450:128|450:128|449:128|449:128|450:128|450:128|449:128|449:128|450:128|450:128|449:128|449:128|450:128|450:128|449:128|449:128|450:128|450:128|449:128|449:128|450:128|450:128|449:128|449:128|450:128|450:128|449:128|449:128|450:128|450:128|449:128|449:128|450:128|450:128|449:128|449:128|450:128|450:128|449:128|449:128|450:128|450:128|449:128|449:128|450:128|450:128|449:128|449:128|450:128|450:128|449:128|449:128|450:128|450:128|449:128|449:128|450:128|450:128|449:128|449:128|450:128|450:128|449:128|449:128|450:128|450:128|449:128|449:128|450:128|450:128|449:128|449:128|450:128|450:128|449:128|449:128|450:128|450:128|449:128|449:128|450:128|450:128|449:128|449:128|450:128|450:128|449:128|449:128|450:128|450:128|449:128|449:128|450:128|450:128|449:128|449:128|450:128|450:128|449:128|449:128|450:128|450:128|449:128|449:128|450:128|450:128|449:128|449:128|450:128|450:128|449:128|449:128|450:128|450:128|449:128|449:128|450:128|450:128|449:128|449:128|450:128|450:128|449:128|449:128|450:128|450:128|449:128|449:128|450:128|450:128|449:128|449:128|450:128|450:128|449:128|449:128|450:128|450:128|449:128|449:128|450:128|450:128|449:128|449:128|450:128|450:128|449:128|449:128|450:128|450:128|449:128|449:128|450:128|450:128|449:128|449:128|450:128|450:128|449:128|449:128|450:128|450:128|449:128|449:128|450:128|450:128|449:128|449:128|450:128|450:128|449:128|449:128|450:128|450:128|449:128|449:128|450:128|450:128|449:128|449:128|450:128|450:128|449:128|449:128|450:128|450:128|449:128|449:128|450:128|450:128|449:128|449:128|450:128|450:128|449:128|449:128|450:128|450:128|449:128|449:128|450:128|450:128|449:128|449:128|450:128|450:128|449:128|449:128|450:128|450:128|449:128|449:128|450:128|450:128|449:128|449:128|450:128|450:128|449:128|449:128|450:128|450:128|449:128|449:128|450:128|450:128|449:128|449:128|450:128|450:128|449:128|449:128|450:128|450:128|449:128|449:128|450:128|450:128|449:128|449:128|450:128|450:128|449:128|449:128|450:128|450:128|449:128|449:128|450:128|450:128|449:128|449:128|450:128|450:128|449:128|449:128|450:128|450:128|449:128|449:128|450:128|450:128|449:128|449:128|450:128|450:128|449:128|449:128|450:128|450:128|449:128|449:128|450:128|450:128|449:128|449:128|450:128|450:128|449:128|449:128|450:128|450:128|449:128|449:128|450:128|450:128|449:128|449:128|450:128|450:128|449:128|449:128|450:128|450:128|449:128|449:128|450:128|450:128|449:128|449:128|450:128|450:128|449:128|449:128|450:128|450:128|449:128|449:128|450:128|450:128|449:128|449:128|450:128|450:128|449:128|449:128|450:128|450:128|449:128|449:128|450:128|450:128|449:128|449:128|450:128|450:128|449:128|449:128|450:128|450:128|449:128|449:128|450:128|450:128|449:128|449:128|450:128|450:128|449:128|449:128|450:128|450:128|449:128|449:128|450:128|450:128|449:128|449:128|450:128|450:128|449:128|449:128|450:128|450:128|449:128|449:128|450:128|450:128|449:128|449:128|450:128|450:128|449:128|449:128|450:128|450:128|449:128|449:128|450:128|450:128|449:128|449:128|450:128|450:128|449:128|449:128|450:128|450:128|449:128|449:128|450:128|450:128|449:128|449:128|450:128|450:128|449:128|449:128|450:128|450:128|449:128|449:128|450:128|450:128|449:128|449:128|450:128|450:128|449:128|449:128|450:128|450:128|449:128|449:128|450:128|450:128|449:128|449:128|450:128|450:128|449:128|449:128|450:128|450:128|449:128|449:128|450:128|450:128|449:128|449:128|490:137|490:137|491:137|491:137|490:137|490:137|491:137|491:137|490:137|490:137|491:137|491:137|490:137|490:137|491:137|491:137|490:137|490:137|491:137|491:137|490:137|490:137|491:137|491:137|490:137|490:137|491:137|491:137|490:137|490:137|491:137|491:137|490:137|490:137|491:137|491:137|490:137|490:137|491:137|491:137|490:137|490:137|491:137|491:137|490:137|490:137|491:137|491:137|490:137|490:137|491:137|491:137|490:137|490:137|491:137|491:137|490:137|490:137|491:137|491:137|490:137|490:137|491:137|491:137|490:137|490:137|491:137|491:137|490:137|490:137|491:137|491:137|490:137|490:137|491:137|491:137|450:128|450:128|449:128|449:128|450:128|450:128|449:128|449:128|450:128|450:128|449:128|449:128|450:128|450:128|449:128|449:128|450:128|450:128|449:128|449:128|450:128|450:128|449:128|449:128|450:128|450:128|449:128|449:128|450:128|450:128|449:128|449:128|450:128|450:128|449:128|449:128|450:128|450:128|449:128|449:128|450:128|450:128|449:128|449:128|450:128|450:128|449:128|449:128|450:128|450:128|449:128|449:128|450:128|450:128|449:128|449:128|450:128|450:128|449:128|449:128|450:128|450:128|449:128|449:128|450:128|450:128|449:128|449:128|450:128|450:128|449:128|449:128|450:128|450:128|449:128|449:128|450:128|450:128|449:128|449:128|450:128|450:128|449:128|449:128|450:128|450:128|449:128|449:128|450:128|450:128|449:128|449:128|450:128|450:128|449:128|449:128|450:128|450:128|449:128|449:128|450:128|450:128|449:128|449:128|450:128|450:128|449:128|449:128|450:128|450:128|449:128|449:128|450:128|450:128|449:128|449:128|450:128|450:128|449:128|449:128|490:137|490:137|491:137|491:137|490:137|490:137|491:137|491:137|490:137|490:137|491:137|491:137|490:137|490:137|491:137|491:137|490:137|490:137|491:137|491:137|490:137|490:137|491:137|491:137|490:137|490:137|491:137|491:137|490:137|490:137|491:137|491:137|490:137|490:137|491:137|491:137|490:137|490:137|491:137|491:137|490:137|490:137|491:137|491:137|490:137|490:137|491:137|491:137|490:137|490:137|491:137|491:137|490:137|490:137|491:137|491:137|490:137|490:137|491:137|491:137|490:137|490:137|491:137|491:137|490:137|490:137|491:137|491:137|490:137|490:137|491:137|491:137|490:137|490:137|491:137|491:137|490:137|490:137|491:137|491:137|490:137|490:137|491:137|491:137|490:137|490:137|491:137|491:137|490:137|490:137|491:137|491:137|490:137|490:137|491:137|491:137|490:137|490:137|491:137|491:137|490:137|490:137|491:137|491:137|490:137|490:137|491:137|491:137|490:137|490:137|491:137|491:137|490:137|490:137|491:137|491:137|490:137|490:137|491:137|491:137|490:137|490:137|491:137|491:137|490:137|490:137|491:137|491:137|490:137|490:137|491:137|491:137|490:137|490:137|491:137|491:137|490:137|490:137|491:137|491:137|490:137|490:137|491:137|491:137|490:137|490:137|491:137|491:137|490:137|490:137|491:137|491:137|490:137|490:137|491:137|491:137|490:137|490:137|491:137|491:137|490:137|490:137|491:137|491:137|490:137|490:137|491:137|491:137|490:137|490:137|491:137|491:137|490:137|490:137|491:137|491:137|490:137|490:137|491:137|491:137|490:137|490:137|491:137|491:137|490:137|490:137|491:137|491:137|490:137|490:137|491:137|491:137|490:137|490:137|491:137|491:137|490:137|490:137|491:137|491:137|490:137|490:137|491:137|491:137|490:137|490:137|491:137|491:137|490:137|490:137|491:137|491:137|490:137|490:137|491:137|491:137|490:137|490:137|491:137|491:137|490:137|490:137|491:137|491:137|490:137|490:137|491:137|491:137|490:137|490:137|491:137|491:137|490:137|490:137|491:137|491:137|450:128|450:128|449:128|449:128|450:128|450:128|449:128|449:128|450:128|450:128|449:128|449:128|450:128|450:128|449:128|449:128|450:128|450:128|449:128|449:128|450:128|450:128|449:128|449:128|450:128|450:128|449:128|449:128|450:128|450:128|449:128|449:128|450:128|450:128|449:128|449:128|450:128|450:128|449:128|449:128|450:128|450:128|449:128|449:128|450:128|450:128|449:128|449:128|450:128|450:128|449:128|449:128|450:128|450:128|449:128|449:128|450:128|450:128|449:128|449:128|450:128|450:128|449:128|449:128|450:128|450:128|449:128|449:128|450:128|450:128|449:128|449:128|450:128|450:128|449:128|449:128|450:128|450:128|449:128|449:128|450:128|450:128|449:128|449:128|410:120|410:120|409:120|409:120|410:120|410:120|409:120|409:120|410:120|410:120|409:120|409:120|410:120|410:120|409:120|409:120|410:120|410:120|409:120|409:120|410:120|410:120|409:120|409:120|410:120|410:120|409:120|409:120|410:120|410:120|409:120|409:120|410:120|410:120|409:120|409:120|410:120|410:120|409:120|409:120|410:120|410:120|409:120|409:120|410:120|410:120|409:120|409:120|410:120|410:120|409:120|409:120|410:120|410:120|409:120|409:120|410:120|410:120|409:120|409:120|410:120|410:120|409:120|409:120|410:120|410:120|409:120|409:120|410:120|410:120|409:120|409:120|410:120|410:120|409:120|409:120|410:120|410:120|409:120|409:120|424:117|436:113|449:106|449:106|450:106|450:106|449:106|449:106|450:106|450:106|449:106|449:106|450:106|450:106|449:106|449:106|450:106|450:106|449:106|449:106|450:106|450:106|449:106|449:106|450:106|450:106|449:106|449:106|450:106|450:106|449:106|449:106|450:106|450:106|449:106|449:106|450:106|450:106|449:106|449:106|450:106|450:106|449:106|449:106|450:106|450:106|449:106|449:106|450:106|450:106|449:106|449:106|450:106|450:106|449:106|449:106|450:106|450:106|449:106|449:106|450:106|450:106|449:106|449:106|450:106|450:106|449:106|449:106|450:106|450:106|449:106|449:106|450:106|450:106|449:106|449:106|450:106|450:106|449:106|449:106|450:106|450:106|461:98|471:89|479:77|479:77|480:77|480:77|479:77|479:77|480:77|480:77|479:77|479:77|480:77|480:77|479:77|479:77|480:77|480:77|479:77|479:77|480:77|480:77|479:77|479:77|480:77|480:77|479:77|479:77|480:77|480:77|479:77|479:77|480:77|480:77|479:77|479:77|480:77|480:77|479:77|479:77|480:77|480:77|479:77|479:77|480:77|480:77|479:77|479:77|480:77|480:77|479:77|479:77|480:77|480:77|479:77|479:77|480:77|480:77|479:77|479:77|480:77|480:77|479:77|479:77|480:77|480:77|479:77|479:77|480:77|480:77|479:77|479:77|480:77|480:77|479:77|479:77|480:77|480:77|479:77|479:77|480:77|480:77|479:77|479:77|480:77|480:77|479:77|479:77|480:77|480:77|479:77|479:77|480:77|480:77|479:77|479:77|480:77|480:77|479:77|479:77|480:77|480:77|479:77|479:77|480:77|480:77|479:77|479:77|480:77|480:77|479:77|479:77|480:77|480:77|479:77|479:77|480:77|480:77|479:77|479:77|480:77|480:77|479:77|479:77|480:77|480:77|479:77|479:77|480:77|480:77|479:77|479:77|480:77|480:77|479:77|479:77|480:77|480:77|479:77|479:77|480:77|480:77|479:77|479:77|480:77|480:77|479:77|479:77|480:77|480:77|479:77|479:77|480:77|480:77|479:77|479:77|480:77|480:77|479:77|479:77|480:77|480:77|479:77|479:77|480:77|480:77|479:77|479:77|480:77|480:77|479:77|479:77|480:77|480:77|479:77|479:77|480:77|480:77|479:77|479:77|480:77|480:77|479:77|479:77|480:77|480:77|479:77|479:77|480:77|480:77|479:77|479:77|480:77|480:77|479:77|479:77|480:77|480:77|479:77|479:77|480:77|480:77|479:77|479:77|480:77|480:77|479:77|479:77|480:77|480:77|479:77|479:77|480:77|480:77|479:77|479:77|480:77|480:77|479:77|479:77|480:77|480:77|479:77|479:77|480:77|480:77|479:77|479:77|480:77|480:77|479:77|479:77|480:77|480:77|471:89|461:98|450:106|450:106|449:106|449:106|450:106|450:106|449:106|449:106|450:106|450:106|449:106|449:106|450:106|450:106|449:106|449:106|450:106|450:106|449:106|449:106|450:106|450:106|449:106|449:106|450:106|450:106|449:106|449:106|450:106|450:106|449:106|449:106|450:106|450:106|449:106|449:106|450:106|450:106|449:106|449:106|450:106|450:106|449:106|449:106|450:106|450:106|449:106|449:106|450:106|450:106|449:106|449:106|450:106|450:106|449:106|449:106|450:106|450:106|449:106|449:106|450:106|450:106|449:106|449:106|450:106|450:106|449:106|449:106|450:106|450:106|449:106|449:106|450:106|450:106|449:106|449:106|450:106|450:106|449:106|449:106|450:106|450:106|449:106|449:106|450:106|450:106|449:106|449:106|450:106|450:106|449:106|449:106|450:106|450:106|449:106|449:106|450:106|450:106|449:106|449:106|450:106|450:106|449:106|449:106|450:106|450:106|449:106|449:106|450:106|450:106|449:106|449:106|450:106|450:106|449:106|449:106|450:106|450:106|449:106|449:106|450:106|450:106|449:106|449:106|450:106|450:106|449:106|449:106|450:106|450:106|449:106|449:106|450:106|450:106|449:106|449:106|450:106|450:106|449:106|449:106|450:106|450:106|449:106|449:106|450:106|450:106|449:106|449:106|450:106|450:106|449:106|449:106|450:106|450:106|449:106|449:106|450:106|450:106|449:106|449:106|450:106|450:106|449:106|449:106|450:106|450:106|449:106|449:106|450:106|450:106|449:106|449:106|450:106|450:106|449:106|449:106|450:106|450:106|449:106|449:106|450:106|450:106|449:106|449:106|450:106|450:106|449:106|449:106|450:106|450:106|449:106|449:106|450:106|450:106|449:106|449:106|450:106|450:106|449:106|449:106|450:106|450:106|449:106|449:106|450:106|450:106|449:106|449:106|450:106|450:106|449:106|449:106|450:106|450:106|449:106|449:106|450:106|450:106|449:106|449:106|450:106|450:106|449:106|449:106|450:106|450:106|449:106|449:106|450:106|450:106|449:106|449:106|450:106|450:106|449:106|449:106|450:106|450:106|449:106|449:106|461:98|471:89|479:77|479:77|480:77|480:77|479:77|479:77|480:77|480:77|479:77|479:77|480:77|480:77|479:77|479:77|480:77|480:77|479:77|479:77|480:77|480:77|479:77|479:77|480:77|480:77|479:77|479:77|480:77|480:77|479:77|479:77|480:77|480:77|479:77|479:77|480:77|480:77|479:77|479:77|480:77|480:77|479:77|479:77|480:77|480:77|479:77|479:77|480:77|480:77|479:77|479:77|480:77|480:77|479:77|479:77|480:77|480:77|479:77|479:77|480:77|480:77|479:77|479:77|480:77|480:77|479:77|479:77|480:77|480:77|479:77|479:77|480:77|480:77|479:77|479:77|480:77|480:77|479:77|479:77|480:77|480:77|488:64|493:51|495:35|495:35|495:34|495:34|495:35|495:35|495:34|495:34|495:35|495:35|495:34|495:34|495:35|495:35|495:34|495:34|495:35|495:35|495:34|495:34|495:35|495:35|495:34|495:34|495:35|495:35|495:34|495:34|495:35|495:35|495:34|495:34|495:35|495:35|495:34|495:34|495:35|495:35|495:34|495:34|495:35|495:35|495:34|495:34|495:35|495:35|495:34|495:34|495:35|495:35|495:34|495:34|495:35|495:35|495:34|495:34|495:35|495:35|495:34|495:34|495:35|495:35|495:34|495:34|493:51|488:64|480:77|480:77|479:77|479:77|480:77|480:77|479:77|479:77|480:77|480:77|479:77|479:77|480:77|480:77|479:77|479:77|480:77|480:77|479:77|479:77|480:77|480:77|479:77|479:77|480:77|480:77|479:77|479:77|480:77|480:77|479:77|479:77|480:77|480:77|479:77|479:77|480:77|480:77|479:77|479:77|480:77|480:77|479:77|479:77|480:77|480:77|479:77|479:77|480:77|480:77|479:77|479:77|480:77|480:77|479:77|479:77|480:77|480:77|479:77|479:77|480:77|480:77|479:77|479:77|480:77|480:77|479:77|479:77|480:77|480:77|479:77|479:77|480:77|480:77|479:77|479:77|488:64|493:51|495:35|495:35|495:34|495:34|495:35|495:35|495:34|495:34|495:35|495:35|495:34|495:34|495:35|495:35|495:34|495:34|495:35|495:35|495:34|495:34|495:35|495:35|495:34|495:34|495:35|495:35|495:34|495:34|495:35|495:35|495:34|495:34|495:35|495:35|495:34|495:34|495:35|495:35|495:34|495:34|495:35|495:35|495:34|495:34|495:35|495:35|495:34|495:34|495:35|495:35|495:34|495:34|495:35|495:35|495:34|495:34|495:35|495:35|495:34|495:34|495:35|495:35|495:34|495:34|495:35|495:35|495:34|495:34|493:51|488:64|480:77|480:77|479:77|479:77|480:77|480:77|479:77|479:77|480:77|480:77|479:77|479:77|480:77|480:77|479:77|479:77|480:77|480:77|479:77|479:77|480:77|480:77|479:77|479:77|480:77|480:77|479:77|479:77|480:77|480:77|479:77|479:77|480:77|480:77|479:77|479:77|480:77|480:77|479:77|479:77|480:77|480:77|479:77|479:77|480:77|480:77|479:77|479:77|480:77|480:77|479:77|479:77|480:77|480:77|479:77|479:77|480:77|480:77|479:77|479:77|480:77|480:77|479:77|479:77|480:77|480:77|479:77|479:77|480:77|480:77|479:77|479:77|488:64|493:51|495:35|495:35|495:34|495:34|495:35|495:35|495:34|495:34|495:35|495:35|495:34|495:34|495:35|495:35|495:34|495:34|495:35|495:35|495:34|495:34|495:35|495:35|495:34|495:34|495:35|495:35|495:34|495:34|495:35|495:35|495:34|495:34|495:35|495:35|495:34|495:34|495:35|495:35|495:34|495:34|495:35|495:35|495:34|495:34|495:35|495:35|495:34|495:34|495:35|495:35|495:34|495:34|495:35|495:35|495:34|495:34|495:35|495:35|495:34|495:34|495:35|495:35|495:34|495:34|495:35|495:35|495:34|495:34|502:48|507:62|508:78|508:78|508:79|508:79|508:78|508:78|508:79|508:79|508:78|508:78|508:79|508:79|508:78|508:78|508:79|508:79|508:78|508:78|508:79|508:79|508:78|508:78|508:79|508:79|508:78|508:78|508:79|508:79|508:78|508:78|508:79|508:79|508:78|508:78|508:79|508:79|508:78|508:78|508:79|508:79|508:78|508:78|508:79|508:79|508:78|508:78|508:79|508:79|508:78|508:78|508:79|508:79|508:78|508:78|508:79|508:79|508:78|508:78|508:79|508:79|508:78|508:78|508:79|508:79|508:78|508:78|508:79|508:79|498:66|486:57|471:50|471:50|470:50|470:50|471:50|471:50|470:50|470:50|471:50|471:50|470:50|470:50|471:50|471:50|470:50|470:50|471:50|471:50|470:50|470:50|471:50|471:50|470:50|470:50|471:50|471:50|470:50|470:50|471:50|471:50|470:50|470:50|479:48|487:47|494:46|494:46|495:46|495:46|494:46|494:46|495:46|495:46|494:46|494:46|495:46|495:46|494:46|494:46|495:46|495:46|494:46|494:46|495:46|495:46|494:46|494:46|495:46|495:46|494:46|494:46|495:46|495:46|487:47|479:48|471:50|471:50|470:50|470:50|471:50|471:50|470:50|470:50|471:50|471:50|470:50|470:50|471:50|471:50|470:50|470:50|471:50|471:50|470:50|470:50|471:50|471:50|470:50|470:50|471:50|471:50|470:50|470:50|471:50|471:50|470:50|470:50|471:50|471:50|470:50|470:50|471:50|471:50|470:50|470:50|471:50|471:50|470:50|470:50|471:50|471:50|470:50|470:50|471:50|471:50|470:50|470:50|471:50|471:50|470:50|470:50|471:50|471:50|470:50|470:50|471:50|471:50|470:50|470:50|471:50|471:50|470:50|470:50|471:50|471:50|470:50|470:50|471:50|471:50|470:50|470:50|471:50|471:50|470:50|470:50|471:50|471:50|470:50|470:50|489:41|459:31|446:34|446:34|445:34|445:34|446:34|446:34|445:34|445:34|446:34|446:34|445:34|445:34|446:34|446:34|445:34|445:34|446:34|446:34|445:34|445:34|446:34|446:34|445:34|445:34|446:34|446:34|445:34|445:34|446:34|446:34|445:34|445:34|446:34|446:34|445:34|445:34|446:34|446:34|445:34|445:34|446:34|446:34|445:34|445:34|446:34|446:34|445:34|445:34|446:34|446:34|445:34|445:34|446:34|446:34|445:34|445:34|446:34|446:34|445:34|445:34|446:34|446:34|445:34|445:34|446:34|446:34|445:34|445:34|446:34|446:34|445:34|445:34|446:34|446:34|445:34|445:34|446:34|446:34|445:34|445:34|459:25|419:23|423:41|423:41|423:42|423:42|423:41|423:41|423:42|423:42|423:41|423:41|423:42|423:42|423:41|423:41|423:42|423:42|423:41|423:41|423:42|423:42|423:41|423:41|423:42|423:42|423:41|423:41|423:42|423:42|423:41|423:41|423:42|423:42|423:41|423:41|423:42|423:42|423:41|423:41|423:42|423:42|423:41|423:41|423:42|423:42|423:41|423:41|423:42|423:42|423:41|423:41|423:42|423:42|423:41|423:41|423:42|423:42|423:41|423:41|423:42|423:42|423:41|423:41|423:42|423:42|423:41|423:41|423:42|423:42|423:41|423:41|423:42|423:42|423:41|423:41|423:42|423:42|423:41|423:41|423:42|423:42|419:23|459:25|446:34|446:34|445:34|445:34|446:34|446:34|445:34|445:34|446:34|446:34|445:34|445:34|446:34|446:34|445:34|445:34|446:34|446:34|445:34|445:34|446:34|446:34|445:34|445:34|446:34|446:34|445:34|445:34|446:34|446:34|445:34|445:34|446:34|446:34|445:34|445:34|446:34|446:34|445:34|445:34|446:34|446:34|445:34|445:34|446:34|446:34|445:34|445:34|446:34|446:34|445:34|445:34|446:34|446:34|445:34|445:34|446:34|446:34|445:34|445:34|446:34|446:34|445:34|445:34|446:34|446:34|445:34|445:34|446:34|446:34|445:34|445:34|446:34|446:34|445:34|445:34|446:34|446:34|445:34|445:34|459:25|419:23|423:41|423:41|423:42|423:42|423:41|423:41|423:42|423:42|423:41|423:41|423:42|423:42|423:41|423:41|423:42|423:42|423:41|423:41|423:42|423:42|423:41|423:41|423:42|423:42|423:41|423:41|423:42|423:42|423:41|423:41|423:42|423:42|423:41|423:41|423:42|423:42|423:41|423:41|423:42|423:42|423:41|423:41|423:42|423:42|423:41|423:41|423:42|423:42|423:41|423:41|423:42|423:42|423:41|423:41|423:42|423:42|423:41|423:41|423:42|423:42|423:41|423:41|423:42|423:42|423:41|423:41|423:42|423:42|423:41|423:41|423:42|423:42|423:41|423:41|423:42|423:42|423:41|423:41|423:42|423:42|425:51|377:64|399:49|399:49|400:49|400:49|399:49|399:49|400:49|400:49|399:49|399:49|400:49|400:49|399:49|399:49|400:49|400:49|399:49|399:49|400:49|400:49|399:49|399:49|400:49|400:49|399:49|399:49|400:49|400:49|399:49|399:49|400:49|400:49|399:49|399:49|400:49|400:49|399:49|399:49|400:49|400:49|399:49|399:49|400:49|400:49|399:49|399:49|400:49|400:49|399:49|399:49|400:49|400:49|399:49|399:49|400:49|400:49|399:49|399:49|400:49|400:49|399:49|399:49|400:49|400:49|399:49|399:49|400:49|400:49|399:49|399:49|400:49|400:49|399:49|399:49|400:49|400:49|399:49|377:64|425:51|423:42|423:42|423:41|423:41|423:42|423:42|423:41|423:41|423:42|423:42|423:41|423:41|423:42|423:42|423:41|423:41|423:42|423:42|423:41|423:41|423:42|423:42|423:41|423:41|423:42|423:42|423:41|423:41|423:42|423:42|423:41|423:41|423:42|423:42|423:41|423:41|423:42|423:42|423:41|423:41|423:42|423:42|423:41|423:41|423:42|423:42|423:41|423:41|423:42|423:42|423:41|423:41|423:42|423:42|423:41|423:41|423:42|423:42|423:41|423:41|423:42|423:42|423:41|423:41|423:42|423:42|423:41|423:41|423:42|423:42|423:41|423:41|423:42|423:42|423:41|423:41|423:42|423:42|423:41|423:41|425:51|377:64|400:49|400:49|399:49|399:49|400:49|400:49|399:49|399:49|400:49|400:49|399:49|399:49|400:49|400:49|399:49|399:49|400:49|400:49|399:49|399:49|400:49|400:49|399:49|399:49|400:49|400:49|399:49|399:49|400:49|400:49|399:49|399:49|400:49|400:49|399:49|399:49|400:49|400:49|399:49|399:49|400:49|400:49|399:49|399:49|400:49|400:49|399:49|399:49|400:49|400:49|399:49|399:49|400:49|400:49|399:49|399:49|400:49|400:49|399:49|399:49|400:49|400:49|399:49|399:49|400:49|400:49|399:49|399:49|400:49|400:49|399:49|399:49|400:49|400:49|399:49|399:49|394:20|379:15|375:25|375:25|375:26|375:26|375:25|375:25|375:26|375:26|375:25|375:25|375:26|375:26|375:25|375:25|375:26|375:26|375:25|375:25|375:26|375:26|375:25|375:25|375:26|375:26|375:25|375:25|375:26|375:26|375:25|375:25|375:26|375:26|375:25|375:25|375:26|375:26|375:25|375:25|375:26|375:26|375:25|375:25|375:26|375:26|375:25|375:25|375:26|375:26|375:25|375:25|375:26|375:26|375:25|375:25|375:26|375:26|375:25|375:25|375:26|375:26|375:25|375:25|375:26|375:26|375:25|375:25|375:26|375:26|375:25|375:25|375:26|375:26|375:25|375:25|375:26|375:26|373:32|361:31|345:18|363:13|375:10|375:10|375:9|375:9|375:10|375:10|375:9|375:9|375:10|375:10|375:9|375:9|375:10|375:10|375:9|375:9|375:10|375:10|375:9|375:9|375:10|375:10|375:9|375:9|375:10|375:10|375:9|375:9|375:10|375:10|375:9|375:9|375:10|375:10|375:9|375:9|375:10|375:10|375:9|375:9|375:10|375:10|375:9|375:9|375:10|375:10|375:9|375:9|375:10|375:10|375:9|375:9|375:10|375:10|375:9|375:9|375:10|375:10|375:9|375:9|375:10|375:10|375:9|375:9|375:10|375:10|375:9|375:9|375:10|375:10|375:9|375:9|375:10|375:10|375:9|375:9|387:7|361:0|345:10|365:25|365:25|365:26|365:26|365:25|365:25|365:26|365:26|365:25|365:25|365:26|365:26|365:25|365:25|365:26|365:26|365:25|365:25|365:26|365:26|365:25|365:25|365:26|365:26|365:25|365:25|365:26|365:26|365:25|365:25|365:26|365:26|365:25|365:25|365:26|365:26|365:25|365:25|365:26|365:26|365:25|365:25|365:26|365:26|365:25|365:25|365:26|365:26|365:25|365:25|365:26|365:26|365:25|365:25|365:26|365:26|365:25|365:25|365:26|365:26|365:25|365:25|365:26|365:26|365:25|365:25|365:26|365:26|365:25|365:25|365:26|365:26|365:25|365:25|365:26|365:26|352:30|339:31|323:28|323:28|322:28|322:28|323:28|323:28|322:28|322:28|323:28|323:28|322:28|322:28|323:28|323:28|322:28|322:28|323:28|323:28|322:28|322:28|323:28|323:28|322:28|322:28|323:28|323:28|322:28|322:28|323:28|323:28|322:28|322:28|323:28|323:28|322:28|322:28|311:26|306:33|313:40|313:40|314:40|314:40|313:40|313:40|314:40|314:40|313:40|313:40|314:40|314:40|313:40|313:40|314:40|314:40|313:40|313:40|314:40|314:40|313:40|313:40|314:40|314:40|313:40|313:40|314:40|314:40|313:40|313:40|314:40|314:40|313:40|313:40|314:40|314:40|306:33|311:26|322:28|322:28|323:28|323:28|322:28|322:28|323:28|323:28|322:28|322:28|323:28|323:28|322:28|322:28|323:28|323:28|322:28|322:28|323:28|323:28|322:28|322:28|323:28|323:28|322:28|322:28|323:28|323:28|322:28|322:28|323:28|323:28|322:28|322:28|323:28|323:28|322:28|322:28|323:28|323:28|322:28|322:28|323:28|323:28|322:28|322:28|323:28|323:28|322:28|322:28|323:28|323:28|322:28|322:28|323:28|323:28|322:28|322:28|323:28|323:28|322:28|322:28|323:28|323:28|322:28|322:28|323:28|323:28|322:28|322:28|323:28|323:28|322:28|322:28|323:28|323:28|322:28|322:28|323:28|323:28|331:22|329:11|309:13|306:2|317:-3|317:-3|318:-3|318:-3|317:-3|317:-3|318:-3|318:-3|317:-3|317:-3|318:-3|318:-3|317:-3|317:-3|318:-3|318:-3|317:-3|317:-3|318:-3|318:-3|317:-3|317:-3|318:-3|318:-3|317:-3|317:-3|318:-3|318:-3|317:-3|317:-3|318:-3|318:-3|317:-3|317:-3|318:-3|318:-3|317:-3|317:-3|318:-3|318:-3|317:-3|317:-3|318:-3|318:-3|317:-3|317:-3|318:-3|318:-3|317:-3|317:-3|318:-3|318:-3|317:-3|317:-3|318:-3|318:-3|317:-3|317:-3|318:-3|318:-3|317:-3|317:-3|318:-3|318:-3|317:-3|317:-3|318:-3|318:-3|317:-3|317:-3|318:-3|318:-3|317:-3|317:-3|318:-3|318:-3|314:9|303:20|288:25,1,5040
256,192,182152,12,0,182178,0:0:0:0:
347,91,182205,6,0,B|346:145|322:108|321:162,1,80
256,192,183009,12,0,183035,0:0:0:0:
347,91,183062,6,0,B|386:99|386:99|389:139|389:139|428:146,1,120.000004577637
256,192,183866,12,0,183892,0:0:0:0:
347,91,183919,6,0,B|386:80|425:95|415:131|453:147|490:137,1,160
256,192,184723,12,0,184749,0:0:0:0:
347,92,184776,6,0,B|371:121|411:130|424:94|464:104|490:136,1,160
256,192,185580,12,0,185606,0:0:0:0:
347,92,185633,6,0,B|396:108|396:108|431:62|431:62|481:77,1,160
256,192,186437,12,0,186463,0:0:0:0:
347,92,186490,6,0,B|400:111|448:82|396:46|446:18|495:35,1,180.000006866455
256,192,187294,12,0,187320,0:0:0:0:
347,92,187347,6,0,B|359:95|359:95|388:46|388:46|399:49,1,80
256,192,188152,12,0,188178,0:0:0:0:
347,92,188205,6,0,B|351:66|343:43|322:49|314:25|317:-3,1,103.999995239258
195,0,188633,6,0,B|198:25|190:49|169:43|161:66|165:92,1,103.999995239258
151,158,188955,1,0,0:0:0:0:
133,153,189062,2,0,B|107:141|90:122|106:107|90:89|65:79,1,103.999995239258
107,0,189384,1,0,0:0:0:0:
125,0,189491,6,0,B|104:15|80:20|75:0|50:4|28:21,1,103.999995239258
27,21,189812,2,0,B|36:47|32:72|11:70|9:95|16:119,1,103.999995239258
17,120,190134,2,0,B|44:119|67:130|59:149|82:159|107:160,1,103.999995239258
111,143,190455,1,0,0:0:0:0:
109,160,190562,6,0,B|135:163|160:157|155:137|180:130|206:136,2,103.999995239258
33,123,191098,1,0,0:0:0:0:
16,120,191205,6,0,B|42:123|67:117|62:97|87:90|113:96,1,103.999995239258
170,133,191526,1,0,0:0:0:0:
170,133,191580,1,0,0:0:0:0:
170,133,191634,6,0,B|185:112|193:87|173:81|180:56|199:37,2,103.999995239258
114,96,192276,1,0,0:0:0:0:
114,96,192384,1,0,0:0:0:0:
114,96,192491,1,0,0:0:0:0:
114,96,192598,2,0,B|88:90|63:97|68:117|43:123|17:120,2,103.999995239258
170,133,193134,1,0,0:0:0:0:
109,160,193241,1,0,0:0:0:0:
126,92,193348,5,0,0:0:0:0:
182,129,193455,1,0,0:0:0:0:
121,156,193562,1,0,0:0:0:0:
138,88,193669,5,0,0:0:0:0:
194,125,193776,1,0,0:0:0:0:
194,125,193830,1,0,0:0:0:0:
194,125,193884,1,0,0:0:0:0:
133,152,193991,2,0,B|106:152|83:140|92:121|69:110|43:108,1,103.999995239258
82,51,194312,5,0,0:0:0:0:
138,88,194419,1,0,0:0:0:0:
194,125,194526,1,0,0:0:0:0:
194,125,194580,1,0,0:0:0:0:
194,125,194634,5,0,0:0:0:0:
133,152,194741,1,0,0:0:0:0:
138,88,194848,1,0,0:0:0:0:
182,129,194955,5,0,0:0:0:0:
121,156,195062,1,0,0:0:0:0:
126,92,195169,1,0,0:0:0:0:
170,133,195277,5,0,0:0:0:0:
109,160,195384,1,0,0:0:0:0:
104,224,195491,6,0,L|97:303,1,80
192,320,195919,1,0,0:0:0:0:
192,320,196026,1,0,0:0:0:0:
192,320,196134,1,0,0:0:0:0:
192,320,196241,1,0,0:0:0:0:
124,336,196348,6,0,L|130:256,1,80
104,224,196669,2,0,L|97:303,1,80
67,334,196991,2,0,L|71:278,1,40
11,373,197205,5,0,0:0:0:0:
11,373,197312,1,0,0:0:0:0:
48,368,197419,5,0,0:0:0:0:
48,368,197526,1,0,0:0:0:0:
67,334,197634,6,0,L|146:340,1,80
6,304,198062,5,0,0:0:0:0:
6,304,198169,1,0,0:0:0:0:
64,265,198276,5,0,0:0:0:0:
64,265,198383,1,0,0:0:0:0:
6,304,198491,5,0,0:0:0:0:
6,304,198598,1,0,0:0:0:0:
64,265,198705,5,0,0:0:0:0:
64,265,198812,1,0,0:0:0:0:
67,334,198919,5,0,0:0:0:0:
67,334,199134,2,0,L|146:340,1,80
204,304,199455,2,0,L|219:266,2,40
143,273,199776,2,0,L|108:255,2,40
147,340,200098,2,0,L|68:334,1,80
53,299,200419,1,0,0:0:0:0:
53,299,200526,1,0,0:0:0:0:
64,265,200634,5,0,0:0:0:0:
6,304,200741,1,0,0:0:0:0:
64,265,200848,5,0,0:0:0:0:
25,323,200955,1,0,0:0:0:0:
64,265,201062,5,0,0:0:0:0:
51,333,201169,1,0,0:0:0:0:
64,265,201276,5,0,0:0:0:0:
78,333,201383,1,0,0:0:0:0:
64,265,201491,5,0,0:0:0:0:
103,321,201598,1,0,0:0:0:0:
64,265,201705,5,0,0:0:0:0:
122,302,201812,1,0,0:0:0:0:
64,265,201919,5,0,0:0:0:0:
288,244,202348,6,0,L|336:240,1,40
400,352,202670,2,0,P|436:336|436:296,1,80
376,256,202991,1,0,0:0:0:0:
372,288,203098,1,0,0:0:0:0:
360,224,203205,5,0,0:0:0:0:
408,272,203312,1,0,0:0:0:0:
344,260,203419,5,0,0:0:0:0:
404,232,203526,2,0,P|420:268|460:268,1,80
472,352,203848,2,0,L|412:360,1,40
332,304,204062,6,0,P|296:320|296:360,2,80
408,360,204598,1,0,0:0:0:0:
472,352,204705,2,0,L|456:280,1,40
484,224,204920,5,0,0:0:0:0:
492,236,205027,1,0,0:0:0:0:
420,244,205134,5,0,0:0:0:0:
416,256,205241,1,0,0:0:0:0:
356,292,205348,5,0,0:0:0:0:
364,304,205455,1,0,0:0:0:0:
292,312,205562,5,0,0:0:0:0:
288,324,205669,1,0,0:0:0:0:
296,256,205777,6,0,L|356:264,1,40
380,368,205991,2,0,P|376:344|364:320,1,40
496,320,206205,6,0,P|468:312|432:312,1,40
296,352,206420,2,0,L|348:348,1,40
420,348,206634,5,0,0:0:0:0:
360,324,206741,1,0,0:0:0:0:
428,308,206848,5,0,0:0:0:0:
380,356,206955,1,0,0:0:0:0:
388,288,207062,5,0,0:0:0:0:
388,288,207277,2,0,L|376:232,1,40
472,380,207491,6,0,L|488:288,1,80
284,220,207920,2,0,L|296:312,1,80
360,296,208241,1,0,0:0:0:0:
328,324,208348,5,0,0:0:0:0:
328,324,208455,1,0,0:0:0:0:
328,324,208562,1,0,0:0:0:0:
328,324,208670,1,0,0:0:0:0:
420,332,208777,5,0,0:0:0:0:
216,384,209205,6,0,L|224:292,1,80
136,356,209527,1,0,0:0:0:0:
136,356,209634,2,0,P|108:364|76:360,1,40
184,232,209848,2,0,L|192:272,1,40
92,344,210062,6,0,L|28:328,1,40
160,244,210277,2,0,P|160:232|164:212,2,20
216,256,210491,2,0,L|128:276,1,80
0,360,210920,5,0,0:0:0:0:
16,352,211027,1,0,0:0:0:0:
68,308,211134,5,0,0:0:0:0:
80,308,211241,1,0,0:0:0:0:
144,324,211348,6,0,P|156:296|152:256,1,60
168,312,211562,2,0,L|164:244,1,60
80,232,211777,5,0,0:0:0:0:
72,256,211884,1,0,0:0:0:0:
56,220,211991,5,0,0:0:0:0:
48,244,212098,1,0,0:0:0:0:
92,288,212205,6,0,L|148:280,1,40
192,304,212420,2,0,P|168:304|152:300,1,40
0,368,212634,6,0,P|-4:332|8:284,1,80
96,356,212955,2,0,L|4:368,1,80
136,280,213277,1,0,0:0:0:0:
152,288,213384,1,0,0:0:0:0:
152,264,213491,6,0,L|112:260,1,40
220,236,213705,2,0,P|200:248|180:248,1,40
40,280,213920,6,0,P|48:244|68:228,1,40
96,328,214134,2,0,L|100:380,1,40
32,384,214348,5,0,0:0:0:0:
168,372,214562,1,0,0:0:0:0:
168,372,214670,1,0,0:0:0:0:
168,372,214777,1,0,0:0:0:0:
0,328,214991,1,0,0:0:0:0:
0,328,215098,1,0,0:0:0:0:
12,356,215205,5,0,0:0:0:0:
12,356,215312,1,0,0:0:0:0:
12,356,215420,1,0,0:0:0:0:
12,356,215527,1,0,0:0:0:0:
72,316,215634,5,0,0:0:0:0:
224,248,215848,1,0,0:0:0:0:
288,248,216062,5,0,0:0:0:0:
288,248,216170,2,0,L|340:241,1,40
476,240,216384,6,0,P|436:252|392:240,1,80
364,220,216705,2,0,L|372:268,1,40
404,368,216920,5,0,0:0:0:0:
404,368,217027,1,0,0:0:0:0:
452,356,217134,5,0,0:0:0:0:
492,380,217241,1,0,0:0:0:0:
492,380,217348,6,0,L|480:308,1,60
496,240,217562,2,0,P|496:280|488:304,1,60
472,224,217777,6,0,L|420:220,1,40
292,360,217991,2,0,P|316:356|352:336,1,40
316,224,218205,5,0,0:0:0:0:
292,252,218312,1,0,0:0:0:0:
296,288,218420,1,0,0:0:0:0:
328,308,218527,1,0,0:0:0:0:
372,260,218634,5,0,0:0:0:0:
404,248,218741,1,0,0:0:0:0:
380,240,218848,5,0,0:0:0:0:
412,244,218955,1,0,0:0:0:0:
396,224,219062,5,0,0:0:0:0:
428,244,219170,1,0,0:0:0:0:
428,224,219277,5,0,0:0:0:0:
452,252,219384,1,0,0:0:0:0:
472,280,219491,5,0,0:0:0:0:
312,356,219705,1,0,0:0:0:0:
320,384,219920,6,0,P|300:344|304:332,1,40
484,304,220134,2,0,L|492:252,1,40
336,368,220348,5,0,0:0:0:0:
492,336,220562,1,0,0:0:0:0:
324,300,220777,6,0,L|328:344,1,40
468,384,220991,2,0,P|472:344|488:320,1,40
364,368,221205,6,0,L|284:380,1,80
356,336,221527,1,0,0:0:0:0:
368,304,221634,2,0,P|384:284|420:272,1,40
300,256,221848,1,0,0:0:0:0:
284,288,221955,1,0,0:0:0:0:
284,324,222062,5,0,0:0:0:0:
512,364,222277,1,0,0:0:0:0:
304,320,222491,1,0,0:0:0:0:
468,224,222705,1,0,0:0:0:0:
468,224,222812,1,0,0:0:0:0:
256,192,222892,12,0,222919,0:0:0:0:
256,192,223080,12,0,223134,0:0:0:0:
256,192,223187,12,0,223241,0:0:0:0:
256,192,223294,12,0,223348,0:0:0:0:
256,192,223455,12,0,223562,0:0:0:0:
256,192,223669,12,0,223776,0:0:0:0:
256,192,223884,12,0,223991,0:0:0:0:
256,192,224151,12,0,224205,0:0:0:0:
256,192,224392,12,0,224419,0:0:0:0:
256,192,224526,12,0,224634,0:0:0:0:
256,192,224687,12,0,224741,0:0:0:0:
256,192,224794,12,0,224848,0:0:0:0:
256,192,224901,12,0,224955,0:0:0:0:
256,192,225009,12,0,225063,0:0:0:0:
256,192,225169,12,0,225276,0:0:0:0:
256,192,225330,12,0,225384,0:0:0:0:
256,192,225437,12,0,225491,0:0:0:0:
256,192,225678,12,0,225705,0:0:0:0:
256,192,225866,12,0,225919,0:0:0:0:
