osu file format v14

[General]
AudioFilename: armprim.mp3
AudioLeadIn: 0
PreviewTime: 65762
Countdown: 0
SampleSet: Soft
StackLeniency: 0.2
Mode: 0
LetterboxInBreaks: 1
WidescreenStoryboard: 1

[Editor]
DistanceSpacing: 1.1
BeatDivisor: 4
GridSize: 4
TimelineZoom: 1.7

[Metadata]
Title:Gyogyotto Ningyo Bakkon Bridal
TitleUnicode:ギョギョっと人魚♨爆婚ブライダル
Artist:Umi no Soko kara Mermaid Prim by ARM x Komso
ArtistUnicode:海の底からマーメイド♨Prim by ARM×狐夢想
Creator:fanzhen0019
Version:Beginner
Source:beatmania IIDX 23 copula
Tags:Hi-RESORT電波 Mystery Line Mayumi Morinaga IOSYS
BeatmapID:1391151
BeatmapSetID:651723

[Difficulty]
HPDrainRate:3
CircleSize:2.6
OverallDifficulty:2
ApproachRate:3
SliderMultiplier:0.8
SliderTickRate:1

[Events]
//Background and Video events
0,0,"Konachan.com - 194975 sample.jpg",0,0
//Break Periods
//Storyboard Layer 0 (Background)
//Storyboard Layer 1 (Fail)
//Storyboard Layer 2 (Pass)
//Storyboard Layer 3 (Foreground)
//Storyboard Sound Samples

[TimingPoints]
114,355.029585798817,4,2,0,70,1,0
65439,-83.3333333333333,4,2,0,70,0,1
76445,-50,4,2,0,70,0,0
76800,-83.3333333333333,4,2,0,70,0,1
90646,-50,4,2,0,70,0,1
91001,-100,4,2,0,70,0,0
110971,-100,4,2,0,5,0,0
111149,-100,4,2,0,15,0,0
111327,-100,4,2,0,25,0,0
111504,-100,4,2,0,35,0,0
111682,-100,4,2,0,45,0,0
111859,-100,4,2,0,55,0,0
112037,-100,4,2,0,65,0,0
112214,-100,4,2,0,75,0,0

[Colours]
Combo1 : 185,255,228
Combo2 : 255,166,166
Combo3 : 255,255,168
Combo4 : 205,255,179
Combo5 : 255,174,255
Combo6 : 151,214,255
Combo7 : 255,218,200

[HitObjects]
52,200,824,5,0,0:0:0:0:
124,168,1179,1,0,0:0:0:0:
196,204,1534,2,0,P|240:228|364:212,1,180
256,192,2599,12,0,4374,0:0:0:0:
392,316,5084,6,0,L|400:264,2,40,4|0|0,0:0|0:0|0:0,0:0:0:0:
292,344,5794,2,0,B|248:352|216:332|216:332|196:360|140:364,1,160,4|2,0:0|0:0,0:0:0:0:
72,304,6859,1,0,0:0:0:0:
44,220,7214,2,0,B|40:167|12:147|12:147|32:115|24:71,1,160,0|2,0:0|0:0,0:0:0:0:
104,32,8279,1,0,0:0:0:0:
192,24,8634,6,0,P|248:24|304:108,2,160,0|2|2,0:0|0:0|0:0,0:0:0:0:
88,164,10764,1,2,0:0:0:0:
168,208,11119,1,0,0:0:0:0:
260,196,11474,6,0,B|296:192|324:212|324:212|348:192|348:192|380:208|412:204,1,160,0|2,1:0|0:0,0:0:0:0:
452,280,12540,1,0,0:0:0:0:
500,356,12895,2,0,B|464:360|436:340|436:340|412:360|412:360|380:344|348:348,1,160,0|2,0:0|0:0,0:0:0:0:
172,352,14315,6,0,P|108:348|64:260,1,160,0|0,1:0|1:0,0:0:0:0:
128,212,15380,1,0,1:0:0:0:
192,152,15735,2,0,P|158:82|82:71,1,160,0|2,1:0|0:0,0:0:0:0:
256,44,17155,6,0,B|396:20|328:104|500:68,1,240,4|8,1:2|0:2,0:0:0:0:
412,116,18575,2,0,B|272:92|340:176|168:140,1,240,2|8,1:2|0:2,0:0:0:0:
252,196,19995,6,0,B|391:172|323:256|482:222,1,240,0|8,1:0|0:2,0:0:0:0:
416,280,21415,2,0,B|276:256|344:340|185:306,1,240,0|10,1:0|1:2,0:0:0:0:
124,368,22835,6,0,P|68:344|36:180,1,240,4|8,1:2|0:0,0:0:0:0:
96,120,24256,2,0,P|144:164|296:96,1,240,0|8,1:0|0:0,0:0:0:0:
368,68,25676,6,0,B|364:112|364:112|364:136|396:140|408:116|432:112|468:128|460:172|460:172|452:200|428:204|428:204|408:208|398:210|398:210|380:212,1,280,2|2,1:2|1:2,0:0:0:0:
292,212,27214,6,0,B|268:200|268:200|232:216|232:216|196:200|196:200|164:216,1,133.333333333333,0|2,1:3|1:3,0:0:0:0:
36,328,28516,6,0,P|92:228|72:96,1,240,4|0,0:1|0:0,0:0:0:0:
168,112,29936,2,0,P|228:111|296:44,1,160,2|2,0:0|0:0,0:0:0:0:
448,124,31356,6,0,P|488:172|396:296,1,240,2|0,0:0|0:0,0:0:0:0:
316,312,32776,2,0,L|144:312,1,160,2|4,0:0|0:3,0:0:0:0:
80,268,33841,1,4,0:2:0:0:
160,232,34196,6,0,P|208:212|160:72,1,240,4|0,0:1|0:0,0:0:0:0:
80,36,35616,2,0,L|252:20,1,160,2|4,0:0|0:3,0:0:0:0:
328,28,36682,1,2,0:3:0:0:
408,64,37037,6,0,P|444:128|356:256,1,240,2|0,0:0|0:0,0:0:0:0:
276,232,38457,2,0,P|216:228|196:240,2,80,2|0|0,0:0|0:0|1:0,0:0:0:0:
112,168,39877,6,0,P|92:128|92:88,1,80,4|8,0:0|0:0,0:0:0:0:
148,24,40587,2,0,P|188:16|228:28,1,80,0|0,0:0|0:0,0:0:0:0:
284,92,41297,2,0,P|348:128|428:100,1,160,0|0,0:0|0:0,0:0:0:0:
480,172,42362,1,8,0:0:0:0:
400,216,42717,6,0,P|420:256|420:296,1,80,0|8,1:0|0:0,0:0:0:0:
364,360,43427,2,0,P|324:368|284:356,1,80,0|0,1:0|1:0,0:0:0:0:
228,292,44137,2,0,P|164:256|84:284,1,160,0|0,1:0|1:0,0:0:0:0:
44,204,45202,1,2,0:0:0:0:
48,116,45557,5,4,1:2:0:0:
136,132,45912,1,8,0:0:0:0:
204,76,46267,1,2,0:0:0:0:
288,100,46622,1,0,0:0:0:0:
352,40,46977,2,0,P|424:56|468:136,1,160,2|2,0:0|0:0,0:0:0:0:
508,204,48042,1,4,0:0:0:0:
456,276,48398,5,6,3:2:0:0:
368,260,48753,1,0,0:0:0:0:
300,316,49108,1,6,3:2:0:0:
216,292,49463,1,0,0:0:0:0:
152,352,49818,2,0,P|96:324|56:228,1,160,2|2,1:2|1:2,0:0:0:0:
256,192,51238,12,0,55498,0:0:0:0:
80,344,56918,6,0,P|68:304|72:264,1,80,4|8,3:2|3:2,0:0:0:0:
132,204,57628,2,0,P|144:164|140:124,1,80,2|8,3:2|3:2,0:0:0:0:
196,56,58338,2,0,P|232:40|280:40,2,80,2|8|2,0:0|0:0|0:0,0:0:0:0:
360,120,59758,5,4,1:2:0:0:
152,264,61179,1,4,1:2:0:0:
424,280,62599,5,0,1:0:0:0:
248,280,63309,1,0,1:0:0:0:
72,280,64019,1,0,1:0:0:0:
128,212,64374,1,0,1:0:0:0:
68,148,64729,1,0,1:0:0:0:
4,88,65084,1,2,0:0:0:0:
72,28,65439,6,0,P|148:56|256:28,1,191.999994140625,4|2,0:0|0:0,0:0:0:0:
348,40,66504,1,0,0:0:0:0:
440,72,66859,2,0,P|452:128|440:184,2,95.9999970703126,0|8|2,0:0|0:0|0:0,0:0:0:0:
408,260,68279,6,0,P|364:236|308:236,1,95.9999970703126,4|8,0:0|0:0,0:0:0:0:
244,296,68989,2,0,P|200:320|144:320,1,95.9999970703126,2|8,0:0|0:0,0:0:0:0:
72,276,69699,1,2,0:0:0:0:
140,208,70054,1,8,0:0:0:0:
236,208,70409,1,2,0:0:0:0:
56,84,71119,6,0,B|160:92|140:40|248:48,1,191.999994140625,4|2,0:0|0:0,0:0:0:0:
324,96,72185,1,8,0:0:0:0:
400,36,72540,2,0,P|464:72|432:188,1,191.999994140625,0|2,0:0|0:0,0:0:0:0:
404,260,73605,1,8,0:0:0:0:
320,316,73960,6,0,L|224:320,1,95.9999970703126,4|8,1:2|1:2,0:0:0:0:
180,300,74492,2,0,P|108:300|48:260,1,143.999995605469,0|8,1:0|1:2,0:0:0:0:
16,172,75380,2,0,P|28:120|156:72,1,191.999994140625,2|0,1:2|3:0,0:0:0:0:
432,28,76800,6,0,P|356:56|248:28,1,191.999994140625,4|2,0:0|0:0,0:0:0:0:
156,28,77865,1,8,0:0:0:0:
72,72,78220,2,0,P|60:128|72:184,2,95.9999970703126,0|8|2,0:0|0:0|0:0,0:0:0:0:
104,260,79640,6,0,P|148:236|204:236,1,95.9999970703126,4|8,0:0|0:0,0:0:0:0:
268,296,80350,2,0,P|312:320|368:320,1,95.9999970703126,2|8,0:0|0:0,0:0:0:0:
440,356,81060,1,2,0:0:0:0:
496,284,81415,1,8,0:0:0:0:
424,224,81770,1,2,0:0:0:0:
388,144,82125,1,8,0:0:0:0:
456,84,82480,6,0,B|352:92|372:40|264:48,1,191.999994140625,4|2,0:0|0:0,0:0:0:0:
188,96,83546,1,8,0:0:0:0:
112,36,83901,2,0,P|48:72|80:188,1,191.999994140625,2|2,0:0|0:0,0:0:0:0:
108,260,84966,1,10,0:0:0:0:
192,304,85321,6,0,L|288:308,1,95.9999970703126,4|10,0:0|0:0,0:0:0:0:
360,244,86031,2,0,L|456:240,1,95.9999970703126,2|8,0:0|0:0,0:0:0:0:
416,152,86741,2,0,L|316:144,2,95.9999970703126,2|8|2,0:0|0:0|0:0,0:0:0:0:
468,72,87806,1,0,0:0:0:0:
376,40,88161,6,0,B|236:40|236:40|204:40|196:72,1,191.999994140625,4|4,1:2|1:2,0:0:0:0:
148,152,89226,1,0,0:0:0:0:
64,188,89581,2,0,B|156:188|156:188|204:188|204:224|168:220|168:252|212:252|212:252|316:252,1,287.999991210938,4|0,1:2|0:0,0:0:0:0:
256,340,91001,6,0,B|116:364|184:280|12:316,1,240,4|2,1:2|1:2,0:0:0:0:
100,268,92421,2,0,B|240:292|172:208|344:244,1,240,0|2,1:2|1:2,0:0:0:0:
260,188,93841,2,0,B|121:212|189:128|30:162,1,240,0|2,1:0|1:2,0:0:0:0:
96,104,95261,2,0,B|236:128|168:44|327:78,1,240,6|2,1:2|1:2,0:0:0:0:
388,16,96681,6,0,P|444:40|476:204,1,240,4|2,1:2|1:2,0:0:0:0:
416,264,98102,2,0,P|368:220|216:288,1,240,0|2,1:0|1:2,0:0:0:0:
180,360,99522,6,0,L|56:368,2,120,0|0|0,1:2|1:2|1:2,0:0:0:0:
276,352,100942,2,0,L|400:344,2,120,0|0|0,1:2|1:2|1:2,0:0:0:0:
212,280,102362,1,4,1:1:0:0:
364,188,103072,2,0,L|376:232,2,40
424,120,103782,5,2,0:0:0:0:
244,52,104492,1,2,0:0:0:0:
308,232,105202,1,2,0:0:0:0:
128,300,105912,1,2,0:0:0:0:
32,132,106622,1,2,0:0:0:0:
256,192,107332,12,0,109463,0:0:0:0:
344,276,110883,6,0,P|376:200|272:88,1,240,2|0,0:0|0:0,0:0:0:0:
208,144,112303,6,0,L|112:148,1,80,0|0,1:0|1:0,0:0:0:0:
84,232,113013,2,0,L|180:236,1,80,0|0,1:0|1:0,0:0:0:0:
228,308,113723,2,0,P|296:316|384:272,1,160,0|0,1:0|1:0,0:0:0:0:
412,188,114788,1,4,1:0:0:0:
