osu file format v14

[General]
AudioFilename: armprim.mp3
AudioLeadIn: 0
PreviewTime: 65762
Countdown: 0
SampleSet: Soft
StackLeniency: 0.2
Mode: 0
LetterboxInBreaks: 1
WidescreenStoryboard: 1

[Editor]
DistanceSpacing: 1.1
BeatDivisor: 8
GridSize: 4
TimelineZoom: 1.7

[Metadata]
Title:Gyogyotto Ningyo Bakkon Bridal
TitleUnicode:ギョギョっと人魚♨爆婚ブライダル
Artist:Umi no Soko kara Mermaid Prim by ARM x Komso
ArtistUnicode:海の底からマーメイド♨Prim by ARM×狐夢想
Creator:fanzhen0019
Version:Hyper
Source:beatmania IIDX 23 copula
Tags:Hi-RESORT電波 Mystery Line Mayumi Morinaga IOSYS
BeatmapID:1382058
BeatmapSetID:651723

[Difficulty]
HPDrainRate:5.5
CircleSize:4
OverallDifficulty:5.7
ApproachRate:8.1
SliderMultiplier:1.6
SliderTickRate:2

[Events]
//Background and Video events
0,0,"Konachan.com - 194975 sample.jpg",0,0
//Break Periods
//Storyboard Layer 0 (Background)
//Storyboard Layer 1 (Fail)
//Storyboard Layer 2 (Pass)
//Storyboard Layer 3 (Foreground)
//Storyboard Sound Samples

[TimingPoints]
114,355.029585798817,4,2,0,70,1,0
16800,-66.6666666666667,4,2,0,70,0,0
17155,-100,4,2,0,70,0,0
18220,-66.6666666666667,4,2,0,70,0,0
18575,-100,4,2,0,70,0,0
19640,-66.6666666666667,4,2,0,70,0,0
19995,-100,4,2,0,70,0,0
21060,-66.6666666666667,4,2,0,70,0,0
21415,-100,4,2,0,70,0,0
23900,-50,4,2,0,70,0,0
24256,-100,4,2,0,70,0,0
25321,-50,4,2,0,70,0,0
25676,-100,4,2,0,70,0,0
33841,-66.6666666666667,4,2,0,70,0,0
34196,-100,4,2,0,50,0,0
34285,-100,4,2,0,70,0,0
40898,-100,4,2,2,70,0,0
40986,-100,4,2,0,70,0,0
46578,-100,4,2,2,70,0,0
46667,-100,4,2,0,70,0,0
48042,-100,4,2,0,50,0,0
48131,-100,4,2,0,70,0,0
51238,-85.4700854700855,4,2,0,70,0,0
56208,-100,4,2,0,45,0,0
56918,-100,4,2,0,70,0,0
64019,-133.333333333333,4,2,0,70,0,0
64374,-66.6666666666667,4,2,0,70,0,0
64729,-50,4,2,0,70,0,0
65439,-83.3333333333333,4,2,0,70,0,1
66460,-83.3333333333333,4,2,2,70,0,1
66548,-83.3333333333333,4,2,0,70,0,1
72140,-83.3333333333333,4,2,2,70,0,1
72229,-83.3333333333333,4,2,0,70,0,1
73560,-83.3333333333333,4,2,2,70,0,1
73649,-83.3333333333333,4,2,0,70,0,1
76445,-50,4,2,0,70,0,0
76800,-83.3333333333333,4,2,0,70,0,1
77821,-83.3333333333333,4,2,2,70,0,1
77909,-83.3333333333333,4,2,0,70,0,1
80661,-83.3333333333333,4,2,2,70,0,1
80750,-83.3333333333333,4,2,0,70,0,1
90646,-50,4,2,0,70,0,1
91001,-100,4,2,0,70,0,0
110971,-100,4,2,0,5,0,0
111149,-100,4,2,0,15,0,0
111327,-100,4,2,0,25,0,0
111504,-100,4,2,0,35,0,0
111682,-100,4,2,0,45,0,0
111859,-100,4,2,0,55,0,0
112037,-100,4,2,0,65,0,0
112214,-100,4,2,0,75,0,0

[Colours]
Combo1 : 185,255,228
Combo2 : 255,166,166
Combo3 : 255,255,168
Combo4 : 205,255,179
Combo5 : 255,174,255
Combo6 : 151,214,255
Combo7 : 255,218,200

[HitObjects]
72,336,824,5,0,0:0:0:0:
156,356,1179,1,0,0:0:0:0:
216,292,1534,1,2,0:0:0:0:
392,256,2332,2,0,P|396:228|400:216,3,26.6666666666667,0|0|0|2,0:0|0:0|0:0|0:0,0:0:0:0:
256,192,2954,12,0,4374,1:0:0:0:
132,276,5084,6,0,P|120:248|120:224,3,40,0|0|0|0,0:0|0:0|0:0|0:0,0:0:0:0:
200,232,5439,1,4,0:0:0:0:
32,68,5794,6,0,L|112:80,1,80,4|2,0:0|0:0,0:0:0:0:
160,72,6060,2,0,L|236:36,1,80,2|2,0:0|0:0,0:0:0:0:
360,56,6415,2,0,P|400:60|440:40,2,80,0|2|2,0:0|0:0|0:0,0:0:0:0:
324,88,6859,2,0,P|316:128|340:168,1,80,2|2,0:0|0:0,0:0:0:0:
456,264,7214,6,0,L|376:276,1,80,0|2,0:0|0:0,0:0:0:0:
328,268,7480,2,0,L|252:232,1,80,2|2,0:0|0:0,0:0:0:0:
128,252,7835,2,0,P|88:256|44:236,2,80,0|2|2,0:0|0:0|0:0,0:0:0:0:
164,284,8279,2,0,P|172:324|148:364,1,80,2|2,0:0|0:0,0:0:0:0:
24,212,8634,6,0,P|12:172|20:132,1,80,0|2,0:0|0:0,0:0:0:0:
172,156,8989,2,0,L|224:164,1,40,0|2,0:0|0:0,0:0:0:0:
92,36,9256,2,0,P|88:80|112:120,2,80,0|2|2,0:0|0:0|0:0,0:0:0:0:
128,20,9699,2,0,L|216:32,1,80,2|2,0:0|0:0,0:0:0:0:
328,24,10054,5,2,0:0:0:0:
480,104,10232,1,2,0:0:0:0:
328,200,10409,1,0,0:0:0:0:
328,200,10498,2,0,P|336:136|368:112,1,80,2|2,0:0|0:0,0:0:0:0:
160,240,10942,5,0,0:0:0:0:
126,342,11119,1,2,0:0:0:0:
52,267,11297,1,2,0:0:0:0:
126,342,11474,6,0,L|212:348,1,80,0|0,1:0|3:0,0:0:0:0:
284,296,11829,1,2,0:0:0:0:
284,296,11918,1,2,0:0:0:0:
376,268,12096,2,0,L|464:256,2,80,2|2|2,0:0|0:0|0:0,0:0:0:0:
332,244,12540,2,0,P|312:200|324:168,1,80,2|2,0:0|0:0,0:0:0:0:
432,28,12895,6,0,L|346:22,1,80,0|0,0:0|0:0,0:0:0:0:
274,74,13250,1,2,0:0:0:0:
274,74,13339,1,2,0:0:0:0:
182,102,13517,2,0,L|94:114,2,80,2|2|2,0:0|0:0|0:0,0:0:0:0:
226,126,13961,2,0,P|246:170|234:202,1,80,2|2,0:0|0:0,0:0:0:0:
168,264,14315,5,0,1:0:0:0:
308,296,14581,1,0,1:0:0:0:
436,232,14847,1,0,1:0:0:0:
436,232,15025,5,0,1:0:0:0:
308,168,15291,1,0,1:0:0:0:
256,36,15557,1,0,1:0:0:0:
256,36,15735,6,0,L|204:44,7,40,0|0|0|0|0|0|0|0,1:0|1:0|1:0|1:0|1:0|1:0|0:0|0:0,0:0:0:0:
176,132,16445,5,0,1:0:0:0:
128,132,16534,1,0,1:0:0:0:
88,108,16622,1,0,1:0:0:0:
72,64,16711,1,0,0:0:0:0:
80,20,16800,2,0,P|112:100|64:200,1,180.000006866455,4|0,0:0|0:0,0:0:0:0:
20,248,17155,6,0,L|32:340,2,80,4|0|8,1:2|0:0|1:2,0:0:0:0:
116,256,17687,1,0,1:2:0:0:
116,256,17776,2,0,L|128:348,2,80,2|2|2,1:2|1:2|1:2,0:0:0:0:
180,220,18220,6,0,L|300:220,1,120.000004577637,8|0,0:2|0:0,0:0:0:0:
492,220,18575,6,0,L|480:312,2,80,2|0|8,1:2|0:0|1:2,0:0:0:0:
396,228,19107,1,0,1:2:0:0:
396,228,19196,2,0,L|384:320,2,80,2|2|2,1:2|1:2|1:2,0:0:0:0:
332,192,19640,6,0,L|212:192,1,120.000004577637,8|8,0:2|0:0,0:0:0:0:
132,136,19995,6,0,L|48:124,1,80,0|0,1:0|0:0,0:0:0:0:
124,36,20350,2,0,L|208:48,1,80,8|0,1:2|1:0,0:0:0:0:
203,47,20616,1,2,1:2:0:0:
316,60,20794,1,2,1:2:0:0:
428,76,20971,1,2,1:2:0:0:
428,76,21060,6,0,L|428:196,1,120.000004577637,8|0,0:2|0:0,0:0:0:0:
380,296,21415,6,0,P|336:312|296:308,1,80,0|0,1:0|1:0,0:0:0:0:
216,240,21770,1,8,1:2:0:0:
216,240,21859,2,0,P|260:224|300:228,1,80,0|0,1:0|1:0,0:0:0:0:
88,344,22303,5,2,1:2:0:0:
40,244,22480,1,10,1:2:0:0:
92,144,22658,1,2,1:2:0:0:
196,108,22835,6,0,L|188:20,2,80,4|0|8,1:2|3:0|1:2,0:0:0:0:
304,140,23368,1,0,0:0:0:0:
304,140,23457,2,0,L|296:228,2,80,2|2|2,1:2|1:2|1:2,0:0:0:0:
380,112,23900,6,0,P|408:160|360:252,1,160,8|0,0:0|0:0,0:0:0:0:
248,280,24256,6,0,L|256:368,2,80,0|0|8,1:0|3:0|1:2,0:0:0:0:
140,248,24789,1,0,0:0:0:0:
140,248,24878,2,0,L|148:160,2,80,2|0|0,1:2|0:0|0:0,0:0:0:0:
64,276,25321,6,0,P|36:228|84:136,1,160,8|0,0:0|0:0,0:0:0:0:
36,36,25676,5,2,1:2:0:0:
188,108,25942,1,2,1:2:0:0:
300,232,26208,1,2,1:2:0:0:
212,232,26386,5,2,1:2:0:0:
324,108,26652,1,2,1:2:0:0:
476,36,26918,1,2,1:2:0:0:
452,220,27214,6,0,L|444:288,5,53.3333333333333,0|2|0|2|0|0,1:3|1:3|1:3|1:3|1:3|0:0,0:0:0:0:
152,336,28516,6,0,P|88:332|16:356,2,120,4|0|0,0:1|0:0|0:0,0:0:0:0:
232,284,29226,2,0,P|296:288|368:264,2,120,2|0|0,0:0|0:0|0:0,0:0:0:0:
148,236,29936,1,2,0:0:0:0:
80,108,30202,1,0,0:0:0:0:
196,20,30469,1,0,0:0:0:0:
280,64,30646,5,2,0:0:0:0:
280,64,30912,1,0,0:3:0:0:
280,64,31179,1,0,0:0:0:0:
368,100,31356,6,0,P|432:104|504:80,2,120,2|0|0,0:0|0:0|0:0,0:0:0:0:
288,152,32066,2,0,P|224:148|152:172,2,120,2|0|0,0:0|0:0|0:0,0:0:0:0:
372,200,32776,1,2,0:0:0:0:
472,304,33042,1,2,0:0:0:0:
332,344,33309,1,2,0:0:0:0:
244,312,33486,2,0,P|204:304|160:308,1,80,2|0,0:3|0:0,0:0:0:0:
92,356,33841,6,0,P|128:296|40:240,1,180.000006866455,0|0,0:0|0:0,0:0:0:0:
55,235,34196,6,0,L|44:96,2,120,4|0|2,0:1|0:0|0:0,0:0:0:0:
120,48,34906,2,0,L|131:187,2,120,2|0|2,0:0|0:0|0:0,0:0:0:0:
216,200,35616,1,2,0:0:0:0:
360,220,35883,1,2,0:0:0:0:
464,120,36149,1,2,0:0:0:0:
464,120,36327,5,2,0:3:0:0:
392,56,36504,2,0,L|384:12,2,40,2|0|2,0:3|0:0|0:3,0:0:0:0:
448,240,37037,5,2,0:0:0:0:
316,300,37303,1,0,0:0:0:0:
212,200,37569,1,2,0:0:0:0:
300,184,37747,5,2,0:0:0:0:
196,84,38013,1,0,0:0:0:0:
64,144,38279,1,2,0:0:0:0:
32,236,38457,6,0,L|44:368,2,120,2|2|2,0:0|0:0|0:0,0:0:0:0:
124,268,39167,2,0,P|128:304|120:336,3,53.3333333333333,0|0|0|0,1:0|1:0|1:0|1:0,0:0:0:0:
316,340,39877,6,0,L|424:336,1,80,4|2,0:0|0:0,0:0:0:0:
444,256,40232,1,8,0:0:0:0:
444,256,40321,2,0,L|336:260,1,80,2|0,0:0|0:0,0:0:0:0:
320,236,40587,2,0,P|288:192|284:112,2,120,0|2|2,0:0|0:0|0:0,0:0:0:0:
392,156,41297,5,0,0:0:0:0:
480,116,41474,1,2,0:0:0:0:
396,68,41652,1,8,0:0:0:0:
396,68,41741,2,0,P|344:48|288:56,1,80,2|0,0:0|0:0,0:0:0:0:
272,56,42007,5,0,0:0:0:0:
168,104,42185,1,0,0:0:0:0:
100,16,42362,1,8,0:0:0:0:
28,228,42717,6,0,L|112:224,1,80,0|2,1:0|0:0,0:0:0:0:
176,316,43072,1,8,0:0:0:0:
176,316,43161,2,0,L|92:320,1,80,2|0,0:0|0:0,0:0:0:0:
56,300,43427,2,0,P|32:244|48:184,1,120,0|0,1:0|0:0,0:0:0:0:
84,112,43782,2,0,L|76:44,2,53.3333333333333,0|0|0,1:0|1:0|1:0,0:0:0:0:
148,176,44137,5,0,1:0:0:0:
148,176,44492,2,0,P|212:184|264:148,1,120,4|0,1:2|0:0,0:0:0:0:
284,120,44847,1,0,1:0:0:0:
284,120,44936,1,2,1:2:0:0:
224,56,45114,1,2,1:2:0:0:
312,40,45291,1,2,1:2:0:0:
400,24,45469,1,2,1:2:0:0:
400,24,45557,6,0,P|420:64|420:104,1,80,4|0,1:2|0:0,0:0:0:0:
368,212,45912,1,8,0:0:0:0:
368,212,46001,2,0,P|348:252|352:300,1,80,2|0,0:0|0:0,0:0:0:0:
376,328,46267,2,0,L|248:340,2,120,2|0|0,0:0|0:0|0:0,0:0:0:0:
272,200,46977,5,2,0:0:0:0:
176,248,47155,1,2,0:0:0:0:
120,160,47332,1,8,0:0:0:0:
120,160,47421,2,0,P|104:108|112:60,1,80,2|0,0:0|0:0,0:0:0:0:
136,52,47687,2,0,L|224:48,1,80,2|0,0:0|0:0,0:0:0:0:
312,16,48042,6,0,P|324:64|420:80,1,120,4|0,0:0|0:0,0:0:0:0:
460,72,48398,5,2,3:2:0:0:
440,204,48664,1,0,3:0:0:0:
420,336,48930,1,2,3:2:0:0:
348,284,49108,5,2,3:2:0:0:
256,188,49374,1,0,3:0:0:0:
164,284,49640,1,2,3:2:0:0:
92,336,49818,5,2,1:2:0:0:
72,204,50084,1,0,1:0:0:0:
52,72,50350,1,2,1:2:0:0:
52,72,50528,6,0,P|120:84|160:44,1,120,2|0,1:2|0:0,0:0:0:0:
224,84,50883,2,0,P|236:56|236:28,3,40,2|0|2|0,0:0|0:0|0:0|0:0,0:0:0:0:
308,88,51238,5,2,1:2:0:0:
452,108,51415,1,0,1:0:0:0:
308,88,51593,2,0,P|352:52|404:44,1,93.6000003570557,2|0,0:0|0:0,0:0:0:0:
452,108,51948,2,0,P|408:144|356:152,1,93.6000003570557,2|0,0:0|0:0,0:0:0:0:
300,80,52303,2,0,P|344:44|396:36,1,93.6000003570557,2|0,0:0|0:0,0:0:0:0:
228,176,52658,5,0,1:0:0:0:
84,196,52835,1,0,1:0:0:0:
228,176,53013,2,0,P|222:119|191:77,1,93.6000003570557,2|0,0:0|0:0,0:0:0:0:
84,196,53368,2,0,P|89:252|120:294,1,93.6000003570557,2|0,0:0|0:0,0:0:0:0:
239,176,53723,2,0,P|233:119|202:77,1,93.6000003570557,2|0,0:0|0:0,0:0:0:0:
276,272,54078,5,0,1:0:0:0:
420,292,54255,1,0,1:0:0:0:
276,272,54433,2,0,P|232:236|180:228,1,93.6000003570557,2|0,0:0|0:0,0:0:0:0:
420,292,54788,2,0,P|464:328|516:336,1,93.6000003570557,2|0,0:0|0:0,0:0:0:0:
276,264,55143,2,0,P|232:228|180:220,1,93.6000003570557,2|2,0:0|0:0,0:0:0:0:
92,220,55498,6,0,P|88:240|88:280,3,46.8000001785278,4|0|2|0,1:2|0:0|0:0|0:0,0:0:0:0:
12,296,55853,2,0,P|16:316|16:356,3,46.8000001785278,0|0|2|0,1:0|0:0|0:0|0:0,0:0:0:0:
88,372,56208,2,0,L|216:360,1,120,2|2,1:0|1:0,0:0:0:0:
252,368,56563,1,0,1:0:0:0:
252,368,56741,1,2,1:0:0:0:
332,332,56918,6,0,P|320:292|320:244,1,80,4|2,3:2|0:0,0:0:0:0:
372,88,57273,2,0,P|384:128|384:176,1,80,8|2,3:2|0:0,0:0:0:0:
232,192,57628,2,0,P|272:180|320:180,1,80,2|0,3:2|0:0,0:0:0:0:
476,228,57983,2,0,P|436:240|388:240,1,80,8|2,3:2|0:0,0:0:0:0:
216,288,58338,2,0,P|160:288|64:248,2,160,2|8|2,0:0|0:0|0:0,0:0:0:0:
272,220,59226,1,10,0:0:0:0:
220,148,59403,2,0,P|212:120|224:68,1,80,10|0,0:0|0:0,0:0:0:0:
304,40,59758,5,4,1:2:0:0:
384,124,59936,1,0,0:0:0:0:
304,40,60114,1,0,3:0:0:0:
428,20,60291,1,0,3:0:0:0:
428,20,60380,1,0,3:0:0:0:
368,208,60646,6,0,P|348:216|328:216,1,40,8|0,0:0|0:0,0:0:0:0:
256,176,60824,2,0,P|236:175|217:167,1,40,8|0,0:0|0:0,0:0:0:0:
56,344,61179,5,4,1:2:0:0:
136,260,61357,1,0,0:0:0:0:
56,344,61535,1,0,3:0:0:0:
180,364,61712,1,0,3:0:0:0:
180,364,61801,1,0,3:0:0:0:
217,167,62066,6,0,P|236:175|256:176,1,40,8|0,0:0|0:0,0:0:0:0:
329,216,62244,2,0,P|349:215|368:208,1,40,8|0,0:0|0:0,0:0:0:0:
484,44,62599,5,0,1:0:0:0:
352,60,62865,1,0,1:0:0:0:
220,76,63131,1,0,1:0:0:0:
152,132,63309,5,0,1:0:0:0:
284,148,63575,1,0,1:0:0:0:
416,164,63841,1,0,1:0:0:0:
476,236,64019,6,0,P|476:264|472:280,3,30.0000011444092,0|0|2|0,1:0|0:0|0:0|0:0,0:0:0:0:
400,312,64374,6,0,P|396:276|404:236,3,60.0000022888184,0|0|2|0,1:0|0:0|0:0|0:0,0:0:0:0:
322,272,64729,6,0,P|320:312|328:352,3,80,0|0|0|0,1:0|0:0|1:0|0:0,0:0:0:0:
312,348,65084,6,0,P|296:256|224:332,1,240,2|0,0:0|0:0,0:0:0:0:
232,340,65439,6,0,L|120:348,1,95.9999970703126,4|2,0:0|0:0,0:0:0:0:
48,260,65794,1,8,0:0:0:0:
48,260,65883,2,0,P|36:200|48:152,1,95.9999970703126,2|0,0:0|0:0,0:0:0:0:
88,124,66149,2,0,P|156:120|228:72,2,143.999995605469,2|2|2,0:0|0:0|0:0,0:0:0:0:
292,32,66859,6,0,L|404:24,1,95.9999970703126,0|2,0:0|0:0,0:0:0:0:
476,112,67214,1,8,0:0:0:0:
476,112,67303,2,0,P|488:172|476:220,1,95.9999970703126,2|0,0:0|0:0,0:0:0:0:
436,248,67569,2,0,P|368:252|296:300,1,143.999995605469,2|0,0:0|0:0,0:0:0:0:
268,344,67924,2,0,P|240:304|196:280,1,95.9999970703126,8|2,0:0|0:0,0:0:0:0:
88,312,68279,6,0,P|72:256|76:208,1,95.9999970703126,4|0,0:0|0:0,0:0:0:0:
176,164,68634,1,8,0:0:0:0:
176,164,68723,2,0,P|192:104|188:48,1,95.9999970703126,0|0,0:0|0:0,0:0:0:0:
156,24,68989,2,0,L|312:32,2,143.999995605469,2|0|2,0:0|0:0|0:0,0:0:0:0:
352,96,69699,6,0,P|364:104|396:112,3,47.9999985351563,6|0|0|0,0:0|0:0|0:0|0:0,0:0:0:0:
460,168,70054,2,0,P|448:176|416:184,3,47.9999985351563,14|0|0|0,0:0|0:0|0:0|0:0,0:0:0:0:
316,224,70409,2,0,P|328:232|360:240,3,47.9999985351563,6|0|2|0,0:0|0:0|0:0|0:0,0:0:0:0:
424,296,70764,2,0,P|412:304|380:312,3,47.9999985351563,12|2|0|2,0:0|0:0|0:0|0:0,0:0:0:0:
300,352,71119,6,0,P|264:320|216:304,1,95.9999970703126,4|0,0:0|0:0,0:0:0:0:
116,352,71474,1,8,0:0:0:0:
116,352,71563,2,0,L|104:216,1,95.9999970703126,2|0,0:0|0:0,0:0:0:0:
84,204,71829,2,0,P|92:152|148:68,2,143.999995605469,2|2|0,0:0|0:0|0:0,0:0:0:0:
212,32,72540,6,0,P|248:64|296:80,1,95.9999970703126,0|2,0:0|0:0,0:0:0:0:
396,32,72895,1,8,0:0:0:0:
396,32,72984,2,0,L|408:168,1,95.9999970703126,2|0,0:0|0:0,0:0:0:0:
428,180,73250,2,0,P|420:232|472:316,2,143.999995605469,2|2|2,0:0|0:0|0:0,0:0:0:0:
332,268,73960,5,4,1:2:0:0:
236,332,74137,1,0,0:0:0:0:
132,280,74315,1,8,1:2:0:0:
40,348,74492,1,0,1:0:0:0:
40,348,74581,1,0,1:0:0:0:
236,332,74847,5,0,1:0:0:0:
132,280,75025,1,0,1:0:0:0:
120,164,75202,1,0,1:0:0:0:
216,96,75380,2,0,P|164:96|64:52,2,143.999995605469,2|2|2,1:2|1:2|1:2,0:0:0:0:
312,28,76090,2,0,P|364:28|464:72,1,143.999995605469,0|0,3:0|0:0,0:0:0:0:
448,60,76445,2,0,P|384:80|476:128,1,240,4|0,0:0|0:0,0:0:0:0:
472,134,76800,6,0,P|472:192|448:248,1,95.9999970703126,4|2,0:0|0:0,0:0:0:0:
368,296,77155,1,8,0:0:0:0:
368,296,77244,2,0,P|354:250|354:202,1,95.9999970703126,2|0,0:0|0:0,0:0:0:0:
354,202,77510,2,0,L|200:192,2,143.999995605469,2|2|2,0:0|0:0|0:0,0:0:0:0:
204,272,78220,6,0,P|146:271|90:247,1,95.9999970703126,0|2,0:0|0:0,0:0:0:0:
42,168,78575,1,8,0:0:0:0:
42,168,78664,2,0,P|87:154|135:154,1,95.9999970703126,2|2,0:0|0:0,0:0:0:0:
135,154,78930,6,0,L|152:56,1,95.9999970703126,2|2,0:0|0:0,0:0:0:0:
252,144,79285,2,0,L|268:45,1,95.9999970703126,10|0,0:0|0:0,0:0:0:0:
384,32,79640,6,0,P|432:32|488:60,1,95.9999970703126,4|0,0:0|0:0,0:0:0:0:
500,164,79995,1,8,0:0:0:0:
500,164,80084,2,0,P|452:164|396:192,1,95.9999970703126,0|0,0:0|0:0,0:0:0:0:
384,236,80350,2,0,L|400:380,2,143.999995605469,2|0|2,0:0|0:0|0:0,0:0:0:0:
300,316,81060,6,0,P|252:312|200:304,1,95.9999970703126,4|2,0:0|0:0,0:0:0:0:
24,272,81415,6,0,P|72:268|124:260,1,95.9999970703126,12|0,0:0|0:0,0:0:0:0:
296,212,81770,6,0,P|248:208|196:200,1,95.9999970703126,4|2,0:0|0:0,0:0:0:0:
20,168,82125,6,0,P|68:164|120:156,1,95.9999970703126,12|2,0:0|0:0,0:0:0:0:
176,60,82480,6,0,B|236:56|264:96|264:96|272:48|328:32,1,191.999994140625,4|8,0:0|0:0,0:0:0:0:
420,24,83013,1,2,0:0:0:0:
480,100,83190,2,0,P|488:136|480:204,1,95.9999970703126,2|0,0:0|0:0,0:0:0:0:
396,156,83545,2,0,P|388:192|396:260,1,95.9999970703126,8|0,0:0|0:0,0:0:0:0:
336,324,83900,6,0,B|276:328|248:288|248:288|240:336|184:352,1,191.999994140625,2|8,0:0|0:0,0:0:0:0:
92,360,84433,1,2,0:0:0:0:
32,284,84610,2,0,P|24:248|32:180,1,95.9999970703126,2|2,0:0|0:0,0:0:0:0:
118,133,84965,2,0,P|124:180|116:228,1,95.9999970703126,10|2,0:0|0:0,0:0:0:0:
56,60,85321,5,4,0:0:0:0:
56,60,85498,1,2,0:0:0:0:
148,92,85676,1,10,0:0:0:0:
244,92,85853,1,0,0:0:0:0:
332,52,86031,1,2,0:0:0:0:
396,124,86208,1,2,0:0:0:0:
348,208,86386,1,8,0:0:0:0:
256,184,86563,1,2,0:0:0:0:
244,92,86741,6,0,P|196:80|144:96,1,95.9999970703126,2|2,0:0|0:0,0:0:0:0:
12,164,87096,2,0,P|60:176|112:160,1,95.9999970703126,8|2,0:0|0:0,0:0:0:0:
244,92,87451,2,0,P|304:88|388:36,1,143.999995605469,2|0,0:0|0:0,0:0:0:0:
376,48,87806,6,0,L|360:144,1,95.9999970703126,0|0,0:0|0:0,0:0:0:0:
296,216,88161,5,4,1:2:0:0:
424,280,88427,1,4,1:2:0:0:
300,352,88693,1,0,1:2:0:0:
212,352,88871,5,4,1:2:0:0:
88,280,89137,1,4,1:2:0:0:
216,216,89403,1,0,1:2:0:0:
256,144,89581,2,0,L|256:92,11,47.9999985351563,4|0|0|0|0|0|0|0|0|0|0|0,1:2|0:0|0:0|0:0|0:0|0:0|0:0|0:0|0:0|0:0|0:0|0:0,0:0:0:0:
220,136,90646,6,0,P|176:164|68:160,1,160,0|0,0:0|0:0,0:0:0:0:
32,316,91001,6,0,L|112:304,1,80,4|0,1:2|0:2,0:0:0:0:
160,312,91267,2,0,L|236:348,1,80,2|2,0:2|0:2,0:0:0:0:
360,328,91622,2,0,P|400:324|440:344,2,80,2|2|2,1:2|1:2|1:2,0:0:0:0:
324,296,92066,2,0,P|316:256|340:216,1,80,2|2,1:2|0:0,0:0:0:0:
456,120,92421,6,0,L|376:108,1,80,0|2,1:2|0:2,0:0:0:0:
328,116,92687,2,0,L|252:152,1,80,2|2,0:2|0:2,0:0:0:0:
128,132,93042,2,0,P|88:128|44:148,2,80,2|2|2,1:2|1:2|1:2,0:0:0:0:
164,100,93486,2,0,P|172:60|148:20,1,80,2|2,1:2|0:0,0:0:0:0:
24,172,93841,6,0,P|12:212|20:252,1,80,0|2,1:0|0:0,0:0:0:0:
188,228,94196,2,0,L|240:220,1,40,0|2,0:0|0:0,0:0:0:0:
92,348,94463,2,0,P|88:304|112:264,2,80,2|2|2,1:2|1:2|1:2,0:0:0:0:
128,364,94906,2,0,L|216:352,1,80,2|2,1:2|0:0,0:0:0:0:
328,360,95261,5,6,1:2:0:0:
480,280,95439,1,2,0:0:0:0:
328,184,95616,1,0,1:2:0:0:
328,184,95705,2,0,P|336:248|368:272,1,80,2|2,1:2|1:2,0:0:0:0:
160,144,96149,5,2,1:2:0:0:
126,42,96326,1,2,1:2:0:0:
52,117,96504,1,2,1:2:0:0:
126,42,96681,6,0,L|212:36,1,80,4|0,1:2|0:0,0:0:0:0:
284,88,97036,1,2,0:0:0:0:
284,88,97125,1,2,0:0:0:0:
376,116,97303,2,0,L|464:128,2,80,0|0|0,1:2|1:2|1:2,0:0:0:0:
332,140,97747,2,0,P|312:184|324:216,1,80,2|0,1:2|0:0,0:0:0:0:
432,356,98102,6,0,L|346:362,1,80,0|0,1:0|0:0,0:0:0:0:
274,310,98457,1,2,0:0:0:0:
274,310,98546,1,0,0:0:0:0:
182,282,98724,2,0,L|94:270,2,80,0|0|0,1:2|0:0|0:0,0:0:0:0:
226,258,99168,2,0,P|246:214|234:182,1,80,2|0,1:2|0:0,0:0:0:0:
164,156,99522,5,0,1:2:0:0:
56,28,99788,1,0,1:2:0:0:
56,156,100054,1,0,1:2:0:0:
164,28,100320,1,0,1:2:0:0:
304,104,100587,2,0,P|309:148|308:184,1,80,0|0,1:2|1:2,0:0:0:0:
392,304,100942,5,0,1:2:0:0:
500,176,101208,1,0,1:2:0:0:
500,304,101474,1,0,1:2:0:0:
392,176,101740,1,0,1:2:0:0:
252,252,102007,2,0,P|246:296|248:332,1,80,0|0,1:2|1:2,0:0:0:0:
144,188,102362,5,4,1:1:0:0:
436,316,103072,2,0,P|448:288|448:264,3,40,0|0|0|0,0:0|0:0|0:0|0:0,0:0:0:0:
368,272,103427,2,0,P|328:272|240:320,1,120,4|0,0:0|0:0,0:0:0:0:
232,336,103782,5,2,0:0:0:0:
48,288,104492,1,2,0:0:0:0:
160,224,104847,6,0,P|168:192|168:168,3,53.3333333333333,2|2|2|2,0:0|0:0|0:0|0:0,0:0:0:0:
276,192,105469,1,0,0:0:0:0:
368,244,105735,1,0,0:0:0:0:
368,244,105912,2,0,P|408:204|488:188,2,120,2|0|0,0:0|0:0|0:0,0:0:0:0:
328,324,106622,1,2,0:0:0:0:
256,192,106711,12,0,109108,0:0:0:0:
360,204,109463,6,2,B|391:169|436:172|465:224|445:276|397:311|351:303|291:343|291:343|262:277|219:260|196:205|207:150|258:121|299:142|307:188,1,600,2|0,0:0|0:0,0:0:0:0:
322,231,110883,6,0,L|310:279,15,40,2|2|0|0|0|0|0|0|0|0|0|0|0|0|0|0,0:0|0:0|0:0|0:0|0:0|0:0|0:0|0:0|0:0|0:0|0:0|0:0|0:0|0:0|0:0|0:0,0:0:0:0:
300,312,112303,6,0,L|212:312,1,53.3333333333333,0|0,1:0|1:0,0:0:0:0:
168,288,112540,2,0,L|80:288,1,53.3333333333333,0|0,1:0|1:0,0:0:0:0:
212,72,113013,6,0,L|300:72,1,53.3333333333333,0|0,1:0|1:0,0:0:0:0:
344,96,113250,2,0,L|432:96,1,53.3333333333333,0|0,1:0|1:0,0:0:0:0:
196,192,113723,6,0,L|144:204,2,53.3333333333333,0|0|0,1:0|1:0|1:0,0:0:0:0:
316,192,114078,2,0,L|368:204,2,53.3333333333333,0|0|0,1:0|1:0|1:0,0:0:0:0:
256,260,114433,2,0,L|256:96,1,160,0|4,1:0|1:0,0:0:0:0:
