osu file format v14

[General]
AudioFilename: armprim.mp3
AudioLeadIn: 0
PreviewTime: 65762
Countdown: 0
SampleSet: Soft
StackLeniency: 0.2
Mode: 0
LetterboxInBreaks: 1
WidescreenStoryboard: 1

[Editor]
DistanceSpacing: 1.2
BeatDivisor: 4
GridSize: 4
TimelineZoom: 1.7

[Metadata]
Title:Gyogyotto Ningyo Bakkon Bridal
TitleUnicode:ギョギョっと人魚♨爆婚ブライダル
Artist:Umi no Soko kara Mermaid Prim by ARM x Komso
ArtistUnicode:海の底からマーメイド♨Prim by ARM×狐夢想
Creator:fanzhen0019
Version:Another
Source:beatmania IIDX 23 copula
Tags:Hi-RESORT電波 Mystery Line Mayumi Morinaga IOSYS
BeatmapID:1382059
BeatmapSetID:651723

[Difficulty]
HPDrainRate:7
CircleSize:4.3
OverallDifficulty:8.5
ApproachRate:9
SliderMultiplier:1.6
SliderTickRate:2

[Events]
//Background and Video events
0,0,"Konachan.com - 194975 sample.jpg",0,0
//Break Periods
//Storyboard Layer 0 (Background)
//Storyboard Layer 1 (Fail)
//Storyboard Layer 2 (Pass)
//Storyboard Layer 3 (Foreground)
//Storyboard Sound Samples

[TimingPoints]
114,355.029585798817,4,2,0,70,1,0
16800,-66.6666666666667,4,2,0,70,0,0
17155,-100,4,2,0,70,0,0
18220,-66.6666666666667,4,2,0,70,0,0
18575,-100,4,2,0,70,0,0
19640,-66.6666666666667,4,2,0,70,0,0
19995,-100,4,2,0,70,0,0
21060,-66.6666666666667,4,2,0,70,0,0
21415,-100,4,2,0,70,0,0
23900,-50,4,2,0,70,0,0
24256,-100,4,2,0,70,0,0
25321,-50,4,2,0,70,0,0
25676,-100,4,2,0,70,0,0
33841,-66.6666666666667,4,2,0,70,0,0
34196,-100,4,2,0,50,0,0
34285,-100,4,2,0,70,0,0
40898,-100,4,2,2,70,0,0
40986,-100,4,2,0,70,0,0
46578,-100,4,2,2,70,0,0
46667,-100,4,2,0,70,0,0
48042,-100,4,2,0,50,0,0
48131,-100,4,2,0,70,0,0
51238,-66.6666666666667,4,2,0,70,0,0
56208,-100,4,2,0,45,0,0
56918,-100,4,2,0,70,0,0
64019,-133.333333333333,4,2,0,70,0,0
64374,-66.6666666666667,4,2,0,70,0,0
64729,-50,4,2,0,70,0,0
65439,-83.3333333333333,4,2,0,70,0,1
66460,-83.3333333333333,4,2,2,70,0,1
66548,-83.3333333333333,4,2,0,70,0,1
73560,-83.3333333333333,4,2,2,70,0,1
73649,-83.3333333333333,4,2,0,70,0,1
76445,-50,4,2,0,70,0,0
76800,-83.3333333333333,4,2,0,70,0,1
77821,-83.3333333333333,4,2,2,70,0,1
77909,-83.3333333333333,4,2,0,70,0,1
90646,-50,4,2,0,70,0,1
91001,-100,4,2,0,70,0,0
110705,-100,4,2,0,5,0,0
110883,-100,4,2,0,70,0,0
110971,-100,4,2,0,5,0,0
111149,-100,4,2,0,15,0,0
111327,-100,4,2,0,25,0,0
111504,-100,4,2,0,35,0,0
111682,-100,4,2,0,45,0,0
111859,-100,4,2,0,55,0,0
112037,-100,4,2,0,65,0,0
112214,-100,4,2,0,75,0,0

[Colours]
Combo1 : 185,255,228
Combo2 : 255,166,166
Combo3 : 255,255,168
Combo4 : 205,255,179
Combo5 : 255,174,255
Combo6 : 151,214,255
Combo7 : 255,218,200

[HitObjects]
16,320,824,5,0,0:0:0:0:
92,344,1179,1,0,0:0:0:0:
160,304,1534,1,2,0:0:0:0:
252,172,2332,6,0,L|260:144,3,26.6666666666667,0|2|2|0,0:0|0:0|0:0|0:0,0:0:0:0:
256,192,2954,12,0,4374,1:0:0:0:
480,268,5084,6,0,P|488:248|488:220,1,40
336,264,5261,2,0,P|346:281|361:294,1,40
408,232,5438,6,0,L|412:80,1,120,4|0,0:0|0:0,0:0:0:0:
416,32,5794,5,4,0:0:0:0:
312,24,5971,1,2,0:0:0:0:
312,24,6060,1,2,0:0:0:0:
208,20,6238,1,2,0:0:0:0:
64,112,6415,6,0,P|56:148|76:208,2,80,0|2|2,0:0|0:0|0:0,0:0:0:0:
140,88,6859,2,0,L|248:96,1,80,2|2,0:0|0:0,0:0:0:0:
132,192,7214,5,0,0:0:0:0:
236,184,7391,1,2,0:0:0:0:
236,184,7480,1,2,0:0:0:0:
340,180,7658,1,2,0:0:0:0:
484,272,7835,6,0,P|492:308|472:368,2,80,0|2|2,0:0|0:0|0:0,0:0:0:0:
408,248,8279,2,0,L|320:252,1,80,2|2,0:0|0:0,0:0:0:0:
216,304,8634,5,0,0:0:0:0:
112,348,8812,1,2,0:0:0:0:
112,348,8900,1,2,0:0:0:0:
36,264,9078,1,2,0:0:0:0:
80,172,9256,6,0,L|84:76,2,80,0|2|2,0:0|0:0|0:0,0:0:0:0:
107,242,9699,2,0,P|75:265|36:264,1,80,2|2,0:0|0:0,0:0:0:0:
156,180,10054,5,2,0:0:0:0:
264,236,10232,1,2,0:0:0:0:
384,208,10409,1,0,0:0:0:0:
384,208,10498,1,2,0:0:0:0:
444,112,10676,2,0,L|424:8,1,80,2|2,0:0|0:0,0:0:0:0:
512,68,10942,5,0,0:0:0:0:
356,168,11119,1,2,0:0:0:0:
280,16,11297,1,2,0:0:0:0:
200,188,11474,5,0,1:0:0:0:
200,188,11652,1,0,3:0:0:0:
152,324,11829,1,2,0:0:0:0:
152,324,11918,1,2,0:0:0:0:
68,208,12096,1,2,0:0:0:0:
68,208,12273,1,2,0:0:0:0:
68,208,12451,1,2,0:0:0:0:
4,172,12540,2,2,P|12:128|56:104,1,80
296,124,12895,5,0,0:0:0:0:
296,124,13073,1,0,0:0:0:0:
344,260,13250,1,2,0:0:0:0:
344,260,13339,1,2,0:0:0:0:
428,144,13517,1,2,0:0:0:0:
428,144,13694,1,2,0:0:0:0:
428,144,13872,1,2,0:0:0:0:
492,108,13961,2,0,P|484:64|440:40,1,80,2|2,0:0|0:0,0:0:0:0:
384,32,14315,5,0,1:0:0:0:
256,308,14581,1,0,1:0:0:0:
128,32,14847,1,0,1:0:0:0:
20,108,15025,5,0,1:0:0:0:
256,232,15291,1,0,1:0:0:0:
492,108,15557,1,0,1:0:0:0:
432,188,15735,5,0,1:0:0:0:
412,192,15824,1,0,1:0:0:0:
392,196,15912,1,0,1:0:0:0:
372,200,16001,1,0,1:0:0:0:
352,204,16090,1,0,1:0:0:0:
332,208,16179,1,0,1:0:0:0:
312,212,16267,2,0,P|284:216|264:208,1,40,0|0,1:0|1:0,0:0:0:0:
224,144,16445,6,2,P|220:132|221:122,6,20,0|0|0|0|0|0|0,1:0|1:0|1:0|1:0|1:0|1:0|1:0,1:0:0:0:
192,216,16800,6,2,B|172:236|132:220|128:200|128:200|124:180|124:180|104:168|104:168|80:176|76:216,1,180.000006866455,4|0,0:0|0:0,0:0:0:0:
76,308,17155,5,4,1:2:0:0:
172,304,17332,1,0,0:0:0:0:
268,300,17510,1,8,1:2:0:0:
364,296,17687,1,0,1:2:0:0:
368,308,17776,5,2,1:2:0:0:
436,324,17954,1,2,1:2:0:0:
504,336,18131,1,2,1:2:0:0:
480,272,18220,6,2,P|476:232|492:204,1,60.0000022888184,8|0,0:2|0:0,1:0:0:0:
376,176,18398,6,2,P|372:120|348:88,1,60.0000022888184,0|0,0:0|0:0,1:0:0:0:
508,20,18575,5,2,1:2:0:0:
404,28,18753,1,0,0:0:0:0:
300,36,18930,1,8,1:2:0:0:
196,44,19108,1,0,1:2:0:0:
192,56,19196,5,2,1:2:0:0:
124,52,19374,1,2,1:2:0:0:
60,48,19551,1,2,1:2:0:0:
12,92,19640,6,2,P|4:132|8:164,1,60.0000022888184,8|0,0:2|0:0,1:0:0:0:
216,196,19818,6,2,P|224:236|220:268,1,60.0000022888184,8|0,0:0|0:0,1:0:0:0:
56,344,19995,5,0,1:0:0:0:
24,244,20173,1,0,0:0:0:0:
124,212,20350,1,8,1:2:0:0:
160,312,20528,1,0,1:0:0:0:
172,320,20616,5,2,1:2:0:0:
248,324,20794,1,2,1:2:0:0:
324,328,20971,1,2,1:2:0:0:
384,360,21060,6,2,P|436:368|456:348,1,60.0000022888184,8|0,0:2|0:0,1:0:0:0:
512,184,21238,6,2,P|460:192|440:172,1,60.0000022888184,0|0,0:0|0:0,1:0:0:0:
256,84,21415,5,0,1:0:0:0:
384,20,21593,1,0,1:0:0:0:
376,148,21770,1,8,1:2:0:0:
380,160,21859,1,0,1:0:0:0:
252,236,22037,2,0,P|232:168|240:140,1,80,0|0,1:0|0:0,0:0:0:0:
256,84,22303,5,2,1:2:0:0:
120,248,22480,1,10,1:2:0:0:
44,48,22658,1,2,1:2:0:0:
136,140,22835,5,4,1:2:0:0:
136,140,23013,1,0,3:0:0:0:
28,208,23190,1,8,1:2:0:0:
28,208,23279,1,0,1:2:0:0:
136,276,23457,1,2,1:2:0:0:
136,276,23634,1,2,1:2:0:0:
136,276,23812,1,2,1:2:0:0:
176,328,23900,6,2,P|224:308|236:256,1,80,8|0,0:0|0:0,1:0:0:0:
320,188,24078,6,2,P|272:168|260:116,1,80,0|0,0:0|0:0,1:0:0:0:
388,52,24256,5,0,1:0:0:0:
388,52,24433,1,0,3:0:0:0:
512,128,24611,1,8,1:2:0:0:
512,128,24699,1,0,1:2:0:0:
388,188,24877,1,2,1:2:0:0:
388,188,25054,1,2,1:2:0:0:
388,188,25232,1,2,1:2:0:0:
320,188,25321,6,2,P|288:224|296:268,1,80,8|0,0:0|0:0,1:0:0:0:
148,288,25498,6,2,P|180:324|172:368,1,80,0|0,0:0|0:0,1:0:0:0:
0,256,25676,5,2,1:2:0:0:
196,64,25942,1,2,1:2:0:0:
304,304,26208,1,2,1:2:0:0:
208,304,26386,5,2,1:2:0:0:
316,64,26652,1,2,1:2:0:0:
512,256,26918,1,2,1:2:0:0:
340,208,27214,5,0,1:3:0:0:
284,168,27332,1,2,1:3:0:0:
256,104,27450,1,0,1:3:0:0:
256,104,27569,1,2,1:3:0:0:
228,168,27687,1,0,1:3:0:0:
172,208,27806,1,2,1:3:0:0:
24,176,28516,6,0,P|8:112|24:48,2,120,4|0|0,0:1|0:0|0:0,0:0:0:0:
96,252,29226,2,0,L|232:248,1,120,2|0,0:0|0:0,0:0:0:0:
372,244,29758,1,0,0:0:0:0:
380,140,29936,6,0,P|420:156|396:168,1,80,2|0,0:0|0:0,0:0:0:0:
300,148,30202,6,0,P|266:174|267:147,1,80
336,76,30469,6,0,P|329:33|352:48,1,80,0|2,0:0|0:0,0:0:0:0:
413,163,30912,1,0,0:3:0:0:
261,161,31179,1,0,0:0:0:0:
212,88,31356,6,0,P|168:76|88:100,2,120,2|0|0,0:0|0:0|0:0,0:0:0:0:
48,160,32066,2,0,P|45:219|72:280,1,120,2|2,0:0|0:0,0:0:0:0:
252,352,32599,1,0,0:0:0:0:
344,296,32776,6,0,P|360:260|388:276,1,80,2|0,0:0|0:0,0:0:0:0:
444,168,33042,6,0,P|467:199|439:216,1,80,2|0,0:0|0:0,0:0:0:0:
504,320,33309,6,0,P|464:324|464:291,1,80,2|2,0:0|0:3,0:0:0:0:
344,4,33841,6,2,B|340:32|347:27|347:27|344:56|351:51|351:51|347:80|355:75|355:75|351:104|359:98|359:98|357:126|362:122|362:122|360:149|366:146|366:146|362:171|369:165,1,180.000006866455,0|0,0:0|0:0,1:0:0:0:
300,208,34196,5,4,0:1:0:0:
100,256,34463,1,0,0:0:0:0:
160,64,34729,1,2,0:0:0:0:
188,168,34906,5,2,0:0:0:0:
188,168,35173,1,0,0:0:0:0:
188,168,35439,1,2,0:0:0:0:
180,272,35616,6,0,P|216:312|244:304,1,80,2|0,0:0|0:0,0:0:0:0:
308,284,35883,6,0,P|348:300|372:268,1,80,2|0,0:0|0:0,0:0:0:0:
444,288,36149,6,0,P|484:280|484:232,1,80,2|2,0:0|0:3,0:0:0:0:
376,128,36504,5,2,0:3:0:0:
376,128,36593,1,0,0:0:0:0:
376,128,36682,2,0,P|360:72|368:40,1,80,2|0,0:3|0:0,0:0:0:0:
488,144,37037,5,2,0:0:0:0:
308,212,37303,1,0,0:0:0:0:
208,40,37569,1,2,0:0:0:0:
304,40,37747,5,2,0:0:0:0:
204,212,38013,1,0,0:0:0:0:
24,144,38279,1,2,0:0:0:0:
84,96,38457,6,0,P|116:116|84:152,1,80,2|0,0:0|0:0,0:0:0:0:
64,216,38723,6,0,P|24:228|48:268,1,80,2|0,0:0|0:0,0:0:0:0:
80,320,38989,5,2,0:0:0:0:
184,352,39167,5,0,1:0:0:0:
264,348,39285,1,0,1:0:0:0:
344,344,39403,1,0,1:0:0:0:
424,340,39522,1,0,1:0:0:0:
484,72,39877,6,0,L|404:68,1,80,4|2,0:0|0:0,0:0:0:0:
216,168,40232,1,8,0:0:0:0:
232,160,40321,2,0,P|240:108|224:72,1,80,2|0,0:0|0:0,0:0:0:0:
188,24,40587,2,0,P|144:16|60:52,2,120,0|2|2,0:0|0:0|0:0,0:0:0:0:
24,112,41297,6,0,P|16:164|32:200,1,80,0|2,0:0|0:0,0:0:0:0:
96,312,41652,1,8,0:0:0:0:
104,300,41741,2,0,P|113:261|104:223,1,80,2|0,0:0|0:0,0:0:0:0:
96,212,42007,1,0,0:0:0:0:
216,100,42185,6,2,P|220:64|212:52,1,40,0|0,0:0|0:0,1:0:0:0:
152,24,42362,6,2,P|148:60|156:72,1,40,8|0,0:0|0:0,1:0:0:0:
303,291,42717,6,0,L|224:288,1,80,0|2,1:0|0:0,0:0:0:0:
392,344,43072,1,8,0:0:0:0:
404,348,43161,2,0,P|452:344|476:316,1,80,2|0,0:0|0:0,0:0:0:0:
504,252,43427,2,0,L|500:116,1,120,0|0,1:0|0:0,0:0:0:0:
392,160,43782,5,8,1:2:0:0:
332,212,43900,1,0,1:0:0:0:
408,236,44019,1,0,1:0:0:0:
494,211,44137,6,0,L|502:111,1,80,0|0,1:0|0:0,0:0:0:0:
424,8,44492,2,0,B|420:56|433:111|433:111|420:112|408:96,1,120,4|0,1:2|0:0,0:0:0:0:
308,88,44847,5,0,1:0:0:0:
300,100,44936,1,2,1:2:0:0:
188,148,45114,1,2,1:2:0:0:
76,108,45291,1,2,1:2:0:0:
20,4,45469,1,2,1:2:0:0:
28,16,45557,6,0,L|112:20,1,80,4|0,1:2|0:0,0:0:0:0:
416,56,45912,1,8,0:0:0:0:
408,64,46001,2,0,P|372:36|324:40,1,80,2|0,0:0|0:0,0:0:0:0:
272,80,46267,2,0,L|280:224,2,120,2|0|0,0:0|0:0|0:0,0:0:0:0:
456,136,46977,5,2,0:0:0:0:
272,216,47155,1,2,0:0:0:0:
424,324,47332,1,8,0:0:0:0:
412,316,47421,2,0,L|408:232,1,80,2|0,0:0|0:0,0:0:0:0:
328,284,47687,2,0,P|280:316|208:288,1,120,2|0,0:0|0:0,0:0:0:0:
108,308,48042,6,2,P|80:276|116:272,1,80,4|0,0:0|0:0,1:0:0:0:
222,302,48398,5,2,3:2:0:0:
412,352,48664,1,0,3:0:0:0:
460,156,48930,1,2,3:2:0:0:
460,156,49108,5,2,3:2:0:0:
264,244,49374,1,0,3:0:0:0:
52,228,49640,1,2,3:2:0:0:
52,228,49818,5,2,1:2:0:0:
100,32,50084,1,0,1:0:0:0:
289,81,50350,1,2,1:2:0:0:
289,81,50528,5,2,1:2:0:0:
256,192,50705,1,0,1:0:0:0:
184,152,50883,2,0,L|128:156,1,40,2|0,0:0|0:0,0:0:0:0:
364,120,51060,2,0,L|420:116,1,40,2|0,0:0|0:0,0:0:0:0:
480,184,51238,6,0,P|480:216|468:244,1,60.0000022888184,2|0,1:2|0:0,0:0:0:0:
376,336,51415,2,0,P|365:308|365:278,1,60.0000022888184,0|0,1:0|0:0,0:0:0:0:
480,184,51593,6,0,P|477:215|462:242,1,60.0000022888184,2|0,0:0|0:0,0:0:0:0:
376,336,51770,2,0,P|367:307|370:277,1,60.0000022888184
480,184,51948,6,0,P|474:215|457:241,1,60.0000022888184,2|0,0:0|0:0,0:0:0:0:
376,336,52125,2,0,P|370:306|375:277,1,60.0000022888184
480,184,52303,6,0,P|471:214|452:238,1,60.0000022888184,2|0,0:0|0:0,0:0:0:0:
376,336,52480,2,0,P|372:306|380:277,1,60.0000022888184
392,128,52658,6,0,P|380:88|348:60,1,60.0000022888184,0|0,1:0|0:0,0:0:0:0:
264,24,52835,2,0,P|224:16|184:24,1,60.0000022888184,0|0,1:0|0:0,0:0:0:0:
392,128,53013,6,0,P|383:87|354:56,1,60.0000022888184,2|0,0:0|0:0,0:0:0:0:
264,24,53190,2,0,P|224:12|184:17,1,60.0000022888184
392,128,53368,6,0,P|387:86|360:53,1,60.0000022888184,2|0,0:0|0:0,0:0:0:0:
264,24,53545,2,0,P|225:9|185:10,1,60.0000022888184
392,128,53723,6,0,P|390:86|367:50,1,60.0000022888184,2|0,0:0|0:0,0:0:0:0:
264,24,53900,2,0,P|227:5|186:3,1,60.0000022888184
32,44,54078,6,0,P|32:76|44:104,1,60.0000022888184,0|0,1:0|0:0,0:0:0:0:
136,196,54255,2,0,P|146:168|146:138,1,60.0000022888184,0|0,1:0|0:0,0:0:0:0:
32,44,54433,6,0,P|34:75|49:102,1,60.0000022888184,2|0,0:0|0:0,0:0:0:0:
136,196,54610,2,0,P|144:167|141:137,1,60.0000022888184
32,44,54788,6,0,P|37:75|54:101,1,60.0000022888184,2|0,0:0|0:0,0:0:0:0:
136,196,54965,2,0,P|141:166|136:137,1,60.0000022888184
32,44,55143,6,0,P|40:74|59:98,1,60.0000022888184,2|0,0:0|0:0,0:0:0:0:
136,196,55320,2,0,P|139:166|131:137,1,60.0000022888184,2|0,0:0|0:0,0:0:0:0:
251,52,55498,5,4,1:2:0:0:
242,76,55586,1,0,0:0:0:0:
239,101,55675,1,2,0:0:0:0:
243,127,55764,1,0,0:0:0:0:
251,151,55853,1,0,1:0:0:0:
265,172,55941,1,0,0:0:0:0:
284,190,56030,1,2,0:0:0:0:
306,203,56119,1,0,0:0:0:0:
333,211,56208,6,2,L|461:214,1,120.000004577637,2|2,1:0|1:0,1:0:0:0:
475,230,56563,1,0,1:0:0:0:
475,230,56741,1,2,1:0:0:0:
427,337,56918,6,0,P|378:349|352:330,1,80,4|2,3:2|0:0,0:0:0:0:
223,255,57273,2,0,P|187:271|151:257,1,80,8|2,3:2|0:0,0:0:0:0:
38,206,57628,6,0,L|47:295,1,80,2|0,3:2|0:0,0:0:0:0:
273,384,57983,2,0,L|281:304,1,80,8|2,3:2|0:0,0:0:0:0:
439,192,58338,6,0,P|458:132|415:34,2,160,2|8|2,0:0|0:0|0:0,0:0:0:0:
351,245,59226,1,10,0:0:0:0:
351,245,59315,1,0,0:0:0:0:
351,245,59403,2,0,L|265:236,1,80,10|0,0:0|0:0,0:0:0:0:
133,174,59758,5,4,1:2:0:0:
156,364,59936,1,0,0:0:0:0:
133,174,60114,1,0,3:0:0:0:
156,364,60291,1,0,3:0:0:0:
184,290,60380,1,0,3:0:0:0:
22,106,60646,6,0,P|26:77|20:58,1,40,8|0,0:0|0:0,0:0:0:0:
103,59,60824,2,0,P|92:33|76:18,1,40,8|0,0:0|0:0,0:0:0:0:
386,137,61179,5,4,1:2:0:0:
363,327,61357,1,0,0:0:0:0:
386,137,61535,1,0,3:0:0:0:
363,327,61712,1,0,3:0:0:0:
335,253,61801,1,0,3:0:0:0:
84,24,62066,6,0,P|96:40|103:59,1,40,8|0,0:0|0:0,0:0:0:0:
23,66,62244,2,0,P|26:86|22:106,1,40,8|0,0:0|0:0,0:0:0:0:
316,228,62599,6,0,P|352:200|360:232,1,80,0|0,1:0|0:0,0:0:0:0:
476,260,62865,2,0,P|453:220|433:246,1,80,0|0,1:0|0:0,0:0:0:0:
384,316,63131,1,0,1:0:0:0:
244,136,63309,6,0,P|208:108|200:140,1,80,0|0,1:0|0:0,0:0:0:0:
84,168,63575,2,0,P|106:128|126:154,1,80,0|0,1:0|0:0,0:0:0:0:
176,224,63841,1,0,1:0:0:0:
464,168,64019,6,0,P|472:140|468:124,3,30.0000011444092,0|0|2|0,1:0|0:0|0:0|0:0,0:0:0:0:
392,84,64374,6,0,P|396:108|392:148,3,60.0000022888184,0|0|2|0,1:0|0:0|0:0|0:0,0:0:0:0:
320,168,64729,6,2,P|316:112|300:80,1,80,0|0,1:0|0:0,1:0:0:0:
256,32,64906,2,2,P|220:12|172:12,1,80,0|0,1:0|0:0,1:0:0:0:
104,20,65084,6,2,P|84:24|56:24,6,40,2|2|2|2|2|2|2,0:0|0:0|0:0|0:0|0:0|0:0|0:0,1:1:0:0:
156,88,65439,5,4,0:0:0:0:
0,140,65616,1,2,0:0:0:0:
116,240,65794,1,8,0:0:0:0:
116,240,65883,2,0,P|117:190|80:200,1,95.9999970703126,2|0,0:0|0:0,0:0:0:0:
44,256,66149,2,0,P|36:292|96:376,2,143.999995605469,2|2|2,0:0|0:0|0:0,0:0:0:0:
140,280,66859,5,0,0:0:0:0:
292,292,67037,1,2,0:0:0:0:
196,340,67214,1,8,0:0:0:0:
228,344,67303,1,2,0:0:0:0:
392,240,67480,1,2,0:0:0:0:
360,244,67569,1,0,0:0:0:0:
492,344,67747,1,2,0:0:0:0:
464,360,67835,1,0,0:0:0:0:
432,368,67924,1,8,0:0:0:0:
348,356,68102,1,2,0:0:0:0:
292,292,68279,6,0,P|272:224|280:148,1,143.999995605469,4|0,0:0|0:0,0:0:0:0:
352,120,68634,2,0,P|372:144|400:100,1,95.9999970703126,8|2,0:0|0:0,0:0:0:0:
256,32,68989,5,2,0:0:0:0:
184,80,69167,1,0,0:0:0:0:
96,84,69344,1,8,0:0:0:0:
20,44,69522,1,2,0:0:0:0:
20,44,69699,6,0,B|24:84|8:92|8:92|28:100|32:128,1,95.9999970703126,6|0,0:0|0:0,0:0:0:0:
120,288,70054,6,0,B|124:248|108:240|108:240|128:232|132:204,1,95.9999970703126,14|0,0:0|0:0,0:0:0:0:
288,104,70409,5,6,0:0:0:0:
288,132,70498,1,0,0:0:0:0:
284,160,70587,1,2,0:0:0:0:
272,188,70676,1,0,0:0:0:0:
252,208,70764,6,0,P|228:216|208:208,1,47.9999985351563,12|2,0:0|0:0,0:0:0:0:
360,136,70942,2,0,P|384:144|404:136,1,47.9999985351563,0|2,0:0|0:0,0:0:0:0:
496,92,71119,5,4,0:0:0:0:
384,8,71297,1,0,0:0:0:0:
360,136,71474,1,8,0:0:0:0:
360,136,71563,2,0,P|328:172|308:128,1,95.9999970703126,2|0,0:0|0:0,0:0:0:0:
316,76,71829,2,0,P|260:48|176:68,1,143.999995605469,2|2,0:0|0:0,0:0:0:0:
116,100,72185,2,0,P|108:64|136:4,1,95.9999970703126,8|2,0:0|0:0,0:0:0:0:
208,188,72540,5,0,0:0:0:0:
16,176,72717,1,2,0:0:0:0:
168,128,72895,5,8,0:0:0:0:
164,100,72983,1,2,0:0:0:0:
64,236,73161,5,0,0:0:0:0:
68,264,73250,2,0,B|100:288|96:324|96:324|120:296|168:304,2,143.999995605469,2|2|2,0:0|0:0|0:0,0:0:0:0:
228,260,73960,6,0,P|240:296|220:360,1,95.9999970703126,4|0,1:2|0:0,0:0:0:0:
4,308,74315,2,0,P|-8:272|12:208,1,95.9999970703126,8|0,1:2|1:0,0:0:0:0:
68,176,74581,1,0,1:0:0:0:
256,40,74847,5,0,1:0:0:0:
256,40,75025,1,0,1:0:0:0:
256,40,75202,1,0,1:0:0:0:
188,72,75380,6,0,P|140:84|88:48,1,95.9999970703126,2|0,1:2|0:0,0:0:0:0:
324,72,75646,2,0,P|372:60|424:96,1,95.9999970703126,2|0,1:2|0:0,0:0:0:0:
456,144,75912,1,2,1:2:0:0:
336,208,76090,2,0,P|336:224|340:240,5,31.9999990234375,0|0|0|0|0|0,3:0|3:0|3:0|3:0|3:0|3:0,0:0:0:0:
292,304,76445,6,2,P|316:232|186:201,1,240,4|0,0:0|0:0,1:0:0:0:
244,248,76800,5,4,0:0:0:0:
216,64,76977,1,2,0:0:0:0:
72,184,77155,1,8,0:0:0:0:
72,184,77244,2,0,P|128:168|92:128,1,95.9999970703126,2|0,0:0|0:0,0:0:0:0:
56,108,77510,2,0,P|56:44|128:28,2,143.999995605469,2|2|2,0:0|0:0|0:0,0:0:0:0:
0,164,78220,5,0,0:0:0:0:
48,340,78398,1,2,0:0:0:0:
224,200,78575,1,8,0:0:0:0:
196,204,78664,1,2,0:0:0:0:
120,312,78841,5,2,0:0:0:0:
148,316,78930,2,0,P|168:328|192:316,1,47.9999985351563,2|0,0:0|0:0,0:0:0:0:
256,196,79108,2,0,P|276:184|300:196,1,47.9999985351563,2|0,0:0|0:0,0:0:0:0:
384,296,79285,2,0,P|436:308|472:280,1,95.9999970703126,10|0,0:0|0:0,0:0:0:0:
504,180,79640,6,0,L|512:32,1,143.999995605469,4|0,0:0|0:0,0:0:0:0:
488,20,79995,2,0,P|452:52|400:40,1,95.9999970703126,8|2,0:0|0:0,0:0:0:0:
288,116,80350,5,2,0:0:0:0:
208,84,80528,1,0,0:0:0:0:
124,96,80705,1,8,0:0:0:0:
60,156,80883,1,2,0:0:0:0:
40,240,81060,6,0,P|36:272|40:292,1,47.9999985351563,4|0,0:0|0:0,0:0:0:0:
56,256,81238,2,0,P|53:279|57:303,1,47.9999985351563,2|0,0:0|0:0,0:0:0:0:
152,220,81415,6,0,P|148:188|152:168,1,47.9999985351563,12|2,0:0|0:0,0:0:0:0:
168,204,81593,2,0,P|165:180|169:156,1,47.9999985351563,0|2,0:0|0:0,0:0:0:0:
272,304,81770,6,0,P|268:336|272:356,1,47.9999985351563,4|0,0:0|0:0,0:0:0:0:
288,320,81948,2,0,P|285:343|289:367,1,47.9999985351563,2|0,0:0|0:0,0:0:0:0:
404,180,82125,6,0,P|400:148|404:128,1,47.9999985351563,12|0,0:0|0:0,0:0:0:0:
420,164,82303,2,0,P|417:140|421:116,1,47.9999985351563,2|0,0:0|0:0,0:0:0:0:
496,40,82480,6,2,B|444:52|412:20|412:20|360:48|312:20,1,191.999994140625,4|8,0:0|0:0,0:1:0:0:
248,80,83013,1,2,0:0:0:0:
164,104,83190,2,2,B|144:100|120:116|120:116|100:96|72:96,1,95.9999970703126,2|0,0:0|0:0,0:1:0:0:
0,192,83545,2,2,B|20:188|44:204|44:204|64:184|92:184,1,95.9999970703126,8|0,0:0|0:0,0:1:0:0:
72,308,83900,6,2,B|88:253|138:245|138:245|183:268|179:326,1,191.999994140625,2|8,0:0|0:0,1:0:0:0:
256,364,84433,1,2,0:0:0:0:
328,312,84611,2,2,B|324:284|346:269|346:269|372:272|388:296,1,95.9999970703126,2|2,0:0|0:0,1:0:0:0:
488,220,84966,2,2,B|474:239|448:242|448:242|426:227|430:199,1,95.9999970703126,10|2,0:0|0:0,1:0:0:0:
352,64,85321,1,4,0:0:0:0:
376,0,85498,5,2,0:0:0:0:
400,120,85675,1,10,0:0:0:0:
284,81,85853,1,0,0:0:0:0:
208,76,86031,5,2,0:0:0:0:
180,80,86208,1,2,0:0:0:0:
156,96,86386,1,8,0:0:0:0:
140,120,86563,1,2,0:0:0:0:
128,204,86741,5,2,0:0:0:0:
117,357,86918,1,2,0:0:0:0:
215,239,87096,1,8,0:0:0:0:
65,276,87273,1,2,0:0:0:0:
209,333,87451,2,0,B|268:336|312:264|312:264|280:300|320:336|336:308|336:308|304:352|372:368|416:332,1,335.999989746094,2|0,0:0|0:0,0:0:0:0:
420,328,88161,5,4,1:2:0:0:
304,120,88427,1,4,1:2:0:0:
116,264,88693,1,0,1:2:0:0:
116,264,88871,5,4,1:2:0:0:
216,40,89137,1,4,1:2:0:0:
420,152,89403,1,0,1:2:0:0:
420,152,89581,2,2,B|404:140|404:128|408:120|416:116|428:112|436:112|448:116|456:120|464:132|472:144|468:168|464:184|448:192|416:200|408:200|396:196|376:188|368:176|360:160|352:136|356:120|364:104|372:96|384:68|404:56|432:56|464:60|484:72|500:88|512:108|524:132|524:152|516:184|500:220|468:240,1,527.999983886719,4|0,1:2|0:0,1:0:0:0:
444,240,90646,6,0,P|424:200|400:292,1,240
412,312,91001,5,4,1:2:0:0:
276,324,91179,1,0,0:2:0:0:
276,324,91267,1,2,0:2:0:0:
140,336,91445,1,2,0:2:0:0:
16,256,91622,2,0,P|0:204|12:168,2,80,2|2|2,1:2|1:2|1:2,0:0:0:0:
88,276,92066,1,2,1:2:0:0:
216,288,92243,1,2,0:0:0:0:
100,160,92421,5,0,1:2:0:0:
236,172,92599,1,2,0:2:0:0:
236,172,92687,1,2,0:2:0:0:
372,184,92865,1,2,0:2:0:0:
496,104,93042,2,0,P|512:52|500:16,2,80,2|2|2,1:2|1:2|1:2,0:0:0:0:
424,124,93486,1,2,1:2:0:0:
296,136,93663,1,2,0:0:0:0:
176,88,93841,5,0,1:0:0:0:
44,56,94019,1,2,0:0:0:0:
44,56,94108,1,2,0:0:0:0:
0,172,94285,1,2,0:0:0:0:
124,204,94463,2,0,P|132:244|120:288,2,80,2|2|2,1:2|1:2|1:2,0:0:0:0:
56,240,94906,1,2,1:2:0:0:
256,228,95084,1,2,0:0:0:0:
56,240,95261,5,6,1:2:0:0:
176,320,95439,1,2,0:0:0:0:
336,332,95616,1,0,1:2:0:0:
336,332,95705,1,2,1:2:0:0:
472,272,95883,2,0,P|488:232|492:192,1,80,2|0,1:2|0:0,0:0:0:0:
388,264,96149,5,2,1:2:0:0:
248,224,96327,1,2,1:2:0:0:
208,92,96504,1,2,1:2:0:0:
72,176,96682,5,4,1:2:0:0:
72,176,96859,1,0,0:0:0:0:
80,256,97037,1,2,0:0:0:0:
80,256,97125,1,2,0:0:0:0:
160,296,97303,1,0,1:2:0:0:
16,316,97480,1,0,1:2:0:0:
72,176,97658,1,0,1:2:0:0:
140,144,97747,2,0,P|156:104|148:60,1,80,2|0,1:2|0:0,0:0:0:0:
368,200,98102,5,0,1:0:0:0:
368,200,98279,1,0,0:0:0:0:
376,120,98457,1,2,0:0:0:0:
376,120,98545,1,0,0:0:0:0:
456,80,98723,1,0,1:2:0:0:
312,60,98900,1,0,1:2:0:0:
368,200,99078,1,0,1:2:0:0:
436,232,99167,2,0,P|452:272|444:316,1,80,2|0,1:2|0:0,0:0:0:0:
376,340,99522,5,0,1:2:0:0:
116,320,99788,1,0,1:2:0:0:
376,340,100054,1,0,1:2:0:0:
116,320,100320,1,0,1:2:0:0:
320,296,100587,1,0,1:2:0:0:
180,284,100764,1,0,1:2:0:0:
244,356,100942,5,0,1:2:0:0:
264,76,101208,1,0,1:2:0:0:
244,356,101474,1,0,1:2:0:0:
264,76,101740,1,0,1:2:0:0:
252,284,102007,1,0,1:2:0:0:
260,148,102185,1,0,1:2:0:0:
256,216,102362,5,4,1:1:0:0:
256,216,103072,6,0,P|276:208|296:212,1,40
444,324,103250,2,0,P|424:326|406:318,1,40
360,256,103427,2,0,L|368:120,1,120,4|0,0:0|0:0,0:0:0:0:
376,128,103782,5,2,0:0:0:0:
220,168,104492,1,2,0:0:0:0:
72,112,104847,1,2,0:0:0:0:
64,92,104966,1,2,0:0:0:0:
64,72,105084,1,2,0:0:0:0:
72,52,105202,5,2,0:0:0:0:
200,120,105469,1,0,0:0:0:0:
300,24,105735,1,0,0:0:0:0:
228,52,105912,5,2,0:0:0:0:
312,104,106179,1,0,0:0:0:0:
412,76,106445,1,0,0:0:0:0:
388,96,106622,5,2,0:0:0:0:
256,192,106711,12,0,109108,0:0:0:0:
72,200,109463,6,2,B|41:165|-4:168|-33:220|-13:272|35:307|81:299|141:339|141:339|170:273|213:256|236:201|225:146|174:117|133:138|125:184,1,600,2|0,0:0|0:0,0:0:0:0:
116,249,110883,6,0,L|125:281,30,20,2|2|2|2|2|2|2|2|2|2|2|2|2|2|2|2|2|2|2|2|2|2|2|2|2|2|2|2|2|2|2,0:0|0:0|0:0|0:0|0:0|0:0|0:0|0:0|0:0|0:0|0:0|0:0|0:0|0:0|0:0|0:0|0:0|0:0|0:0|0:0|0:0|0:0|0:0|0:0|0:0|0:0|0:0|0:0|0:0|0:0|0:0,0:0:0:0:
32,264,112303,5,0,1:0:0:0:
24,196,112421,1,0,1:0:0:0:
16,128,112540,1,0,1:0:0:0:
8,60,112658,1,0,1:0:0:0:
480,264,113013,5,0,1:0:0:0:
488,196,113131,1,0,1:0:0:0:
496,128,113250,1,0,1:0:0:0:
504,60,113368,1,0,1:0:0:0:
240,268,113723,5,0,1:0:0:0:
316,240,113841,1,0,1:0:0:0:
184,212,113960,1,0,1:0:0:0:
328,168,114078,1,0,1:0:0:0:
196,140,114196,1,0,1:0:0:0:
272,112,114315,1,0,1:0:0:0:
256,192,114433,5,0,1:0:0:0:
256,24,114788,5,4,1:0:0:0:
