osu file format v14

[General]
AudioFilename: pokerface.mp3
AudioLeadIn: 0
PreviewTime: 31667
Countdown: 0
SampleSet: Soft
StackLeniency: 0.3
Mode: 0
LetterboxInBreaks: 1
WidescreenStoryboard: 0

[Editor]
Bookmarks: 1350,2143,6746,10159,10238,11826,20397,21667,26905,28175,29286,31826,31984,32064,32143,32302,32461,32619,32699,32778,32937,33096,33254,33413,33572,33730,33889,34048,34365,34445,34524,34603,34683,34762,34842,34921,35000,35080,35159,35238,35318,35397,35476,35556,35635,35794,35953,36111,36270,36429,36588,36905,37857,38175,38492,38810,39127,39286,39445,40397,41826,43254,44842,53413,54683,59921,61191,62302,64842,65000,65080,65159,65318,65476,65635,65715,65794,65953,66111,66270,66429,66588,66746,66905,67064,67381,67461,67540,67619,67699,67778,67857,67937,68016,68096,68175,68254,68334,68413,68492,68572,68651,68810,68969,69127,69286,69445,69603,69921,70873,71191,71508,71826,72143,72302,72461,73254,74683,76270
DistanceSpacing: 1
BeatDivisor: 4
GridSize: 4
TimelineZoom: 2.3

[Metadata]
Title:Umi Sonoda Poker Face from Nico
TitleUnicode:Umi Sonoda Poker Face from Nico
Artist:Umi Sonoda
ArtistUnicode:Umi Sonoda
Creator:[ Same ]
Version:Distressful
Source:
Tags:pokerface love live! kotori
BeatmapID:1270199
BeatmapSetID:601236

[Difficulty]
HPDrainRate:7
CircleSize:4.3
OverallDifficulty:9
ApproachRate:9.2
SliderMultiplier:2.1
SliderTickRate:1

[Events]
//Background and Video events
0,0,"vlcsnap-2016-03-25-23h14m26s86.png",0,0
//Break Periods
//Storyboard Layer 0 (Background)
//Storyboard Layer 1 (Fail)
//Storyboard Layer 2 (Pass)
//Storyboard Layer 3 (Foreground)
//Storyboard Sound Samples

[TimingPoints]
1350,317.460317460317,4,2,0,80,1,0
1350,-100,4,2,1,60,0,0
2143,-100,4,2,1,60,0,0
2302,-100,4,2,1,60,0,0
2461,-100,4,2,1,60,0,0
2619,-100,4,2,1,60,0,0
3889,-100,4,2,4,60,0,0
3969,-100,4,2,1,60,0,0
6429,-100,4,2,1,60,0,0
6746,-100,4,2,1,70,0,0
7381,-100,4,2,2,80,0,0
8016,-100,4,2,1,70,0,0
8651,-100,4,2,2,80,0,0
9286,-100,4,2,1,70,0,0
9603,-100,4,2,2,80,0,0
9921,-76.9230769230769,4,2,1,70,0,0
10238,-100,4,2,3,90,0,0
10556,-100,4,2,3,90,0,0
10715,-100,4,2,3,90,0,0
10873,-100,4,2,3,90,0,0
11191,-100,4,2,3,90,0,0
11508,-100,4,2,0,60,0,0
11826,-100,4,2,1,70,0,0
12461,-100,4,2,2,80,0,0
13096,-100,4,2,1,70,0,0
13730,-100,4,2,2,80,0,0
14365,-100,4,2,1,70,0,0
15000,-100,4,2,2,80,0,0
15635,-100,4,2,1,70,0,0
15953,-100,4,2,1,70,0,0
16270,-100,4,2,2,70,0,0
16905,-100,4,2,1,70,0,0
17540,-100,4,2,2,80,0,0
18175,-100,4,2,1,70,0,0
18810,-100,4,2,2,80,0,0
19445,-100,4,2,1,70,0,0
20080,-100,4,2,2,80,0,0
20397,-100,4,2,3,90,0,0
20715,-100,4,2,3,90,0,0
20873,-100,4,2,3,90,0,0
21032,-83.3333333333333,4,2,3,90,0,0
21349,-76.9230769230769,4,2,3,90,0,0
21667,-100,4,2,0,60,0,0
21826,-100,4,2,1,70,0,0
21984,-100,4,2,1,5,0,0
22143,-100,4,2,1,70,0,0
22302,-100,4,2,1,5,0,0
22461,-100,4,2,1,70,0,0
22619,-100,4,2,1,5,0,0
22778,-100,4,2,2,80,0,0
22937,-100,4,2,2,5,0,0
23096,-100,4,2,1,70,0,0
23413,-100,4,2,1,70,0,0
23730,-100,4,2,1,70,0,0
24048,-100,4,2,1,70,0,0
24365,-100,4,2,1,70,0,0
24683,-100,4,2,1,70,0,0
25000,-100,4,2,1,70,0,0
25318,-100,4,2,2,80,0,0
25635,-100,4,2,1,70,0,0
25953,-100,4,2,1,70,0,0
26270,-100,4,2,1,70,0,0
26588,-100,4,2,1,70,0,0
26905,-100,4,3,3,90,0,0
27064,-100,4,3,3,90,0,0
27223,-100,4,3,3,90,0,0
27381,-100,4,3,3,90,0,0
27540,-200,4,3,0,95,0,0
28175,-100,4,3,3,90,0,0
28334,-100,4,3,3,90,0,0
28492,-100,4,3,3,90,0,0
28651,-100,4,3,3,90,0,0
29286,-100,4,1,0,50,0,0
30556,-100,4,1,0,20,0,0
30794,-100,4,1,0,5,0,0
30873,-83.3333333333333,4,1,0,40,0,0
31111,-100,4,1,0,5,0,0
31191,-71.4285714285714,4,1,0,60,0,0
31429,-100,4,1,0,5,0,0
31508,-62.5,4,1,0,80,0,0
31746,-83.3333333333333,4,1,0,5,0,0
31826,-100,4,1,1,70,0,1
32143,-100,4,1,2,80,0,1
32461,-100,4,1,1,70,0,1
32778,-100,4,1,2,80,0,1
33096,-83.3333333333333,4,2,1,70,0,1
33254,-100,4,2,1,70,0,1
33413,-66.6666666666667,4,2,3,90,0,1
33572,-83.3333333333333,4,2,1,70,0,1
33730,-66.6666666666667,4,2,3,90,0,1
33889,-100,4,2,1,70,0,1
34048,-100,4,2,1,70,0,1
34365,-100,4,1,1,70,0,1
34683,-100,4,1,1,70,0,1
35000,-100,4,1,1,70,0,1
35318,-100,4,1,1,70,0,1
35635,-83.3333333333333,4,2,1,70,0,1
35794,-90.9090909090909,4,2,1,70,0,1
35953,-66.6666666666667,4,2,3,90,0,1
36111,-83.3333333333333,4,2,1,70,0,1
36270,-66.6666666666667,4,2,3,90,0,1
36429,-100,4,2,1,70,0,1
36588,-100,4,2,1,70,0,1
36905,-100,4,1,0,60,0,1
37540,-100,4,1,3,90,0,1
37857,-66.6666666666667,4,1,2,90,0,1
38175,-83.3333333333333,4,2,3,90,0,1
38492,-100,4,1,1,70,0,1
38810,-100,4,1,3,90,0,1
39127,-100,4,1,1,70,0,1
39286,-100,4,1,2,80,0,1
39445,-66.6666666666667,4,1,3,90,0,0
40080,-100,4,1,0,60,0,0
41826,-100,4,2,0,60,0,0
41984,-100,4,2,0,60,0,0
42143,-100,4,2,0,60,0,0
42302,-100,4,2,0,60,0,0
43254,-100,4,2,3,90,0,0
43572,-100,4,2,3,90,0,0
43730,-100,4,2,3,90,0,0
43889,-100,4,2,3,90,0,0
44207,-100,4,2,3,90,0,0
44524,-100,4,2,0,60,0,0
44842,-83.3333333333333,4,2,1,70,0,0
45476,-83.3333333333333,4,2,2,80,0,0
46111,-83.3333333333333,4,2,1,70,0,0
46746,-83.3333333333333,4,2,2,80,0,0
47381,-83.3333333333333,4,2,1,70,0,0
48016,-83.3333333333333,4,2,2,80,0,0
48651,-83.3333333333333,4,2,1,70,0,0
48969,-83.3333333333333,4,2,2,80,0,0
49286,-83.3333333333333,4,2,1,70,0,0
49921,-83.3333333333333,4,2,2,80,0,0
50556,-83.3333333333333,4,2,1,70,0,0
51191,-83.3333333333333,4,2,2,80,0,0
51826,-83.3333333333333,4,2,1,70,0,0
52461,-83.3333333333333,4,2,2,80,0,0
53096,-83.3333333333333,4,2,1,70,0,0
53413,-83.3333333333333,4,2,3,90,0,0
53730,-83.3333333333333,4,2,3,90,0,0
53889,-83.3333333333333,4,2,3,90,0,0
54048,-83.3333333333333,4,2,3,90,0,0
54365,-83.3333333333333,4,2,3,90,0,0
54842,-83.3333333333333,4,2,1,70,0,0
55159,-83.3333333333333,4,2,1,70,0,0
55476,-83.3333333333333,4,2,1,70,0,0
55794,-83.3333333333333,4,2,2,80,0,0
56111,-83.3333333333333,4,2,1,70,0,0
56429,-83.3333333333333,4,2,1,70,0,0
56746,-83.3333333333333,4,2,1,70,0,0
57064,-83.3333333333333,4,2,1,70,0,0
57381,-83.3333333333333,4,2,1,70,0,0
57699,-83.3333333333333,4,2,1,70,0,0
58016,-83.3333333333333,4,2,1,70,0,0
58334,-83.3333333333333,4,2,2,80,0,0
58651,-83.3333333333333,4,2,1,70,0,0
58969,-83.3333333333333,4,2,1,70,0,0
59286,-83.3333333333333,4,2,1,70,0,0
59603,-83.3333333333333,4,2,1,70,0,0
59921,-83.3333333333333,4,3,3,90,0,0
60080,-83.3333333333333,4,3,3,90,0,0
60238,-83.3333333333333,4,3,3,90,0,0
60397,-83.3333333333333,4,3,3,90,0,0
60556,-83.3333333333333,4,3,0,91,0,0
61191,-83.3333333333333,4,3,3,90,0,0
61349,-83.3333333333333,4,3,3,90,0,0
61508,-83.3333333333333,4,3,3,90,0,0
61667,-83.3333333333333,4,3,3,90,0,0
62302,-83.3333333333333,4,1,0,60,0,0
63572,-68.9655172413793,4,1,0,20,0,0
63810,-68.9655172413793,4,1,0,5,0,0
63889,-60.6060606060606,4,1,0,40,0,0
64127,-60.6060606060606,4,1,0,5,0,0
64207,-54.054054054054,4,1,0,60,0,0
64445,-54.054054054054,4,1,0,5,0,0
64524,-52.6315789473684,4,1,0,80,0,0
64762,-52.6315789473684,4,1,0,5,0,0
64842,-71.4285714285714,4,1,1,70,0,1
65159,-71.4285714285714,4,1,2,80,0,1
65476,-71.4285714285714,4,1,1,70,0,1
65794,-71.4285714285714,4,1,2,80,0,1
66111,-166.666666666667,4,2,1,70,0,1
66270,-200,4,2,1,70,0,1
66429,-100,4,2,3,90,0,1
66588,-125,4,2,1,70,0,1
66746,-100,4,2,3,90,0,1
66905,-200,4,2,1,70,0,1
67064,-200,4,2,1,70,0,1
67381,-71.4285714285714,4,1,1,70,0,1
67699,-71.4285714285714,4,1,1,70,0,1
68016,-71.4285714285714,4,1,1,70,0,1
68334,-71.4285714285714,4,1,1,70,0,1
68651,-71.4285714285714,4,2,1,70,0,1
68810,-71.4285714285714,4,2,1,70,0,1
68969,-71.4285714285714,4,2,3,90,0,1
69127,-71.4285714285714,4,2,1,70,0,1
69286,-71.4285714285714,4,2,3,90,0,1
69445,-71.4285714285714,4,2,1,70,0,1
69603,-71.4285714285714,4,2,1,70,0,1
69921,-71.4285714285714,4,1,0,60,0,1
70556,-71.4285714285714,4,1,3,90,0,1
70873,-62.5,4,1,2,80,0,1
71191,-62.5,4,2,3,90,0,1
71508,-71.4285714285714,4,1,1,70,0,1
71826,-71.4285714285714,4,1,3,90,0,1
72143,-71.4285714285714,4,1,1,70,0,1
72302,-71.4285714285714,4,1,2,80,0,1
72461,-71.4285714285714,4,1,3,90,0,1
73254,-71.4285714285714,4,2,0,60,0,0
74683,-200,4,2,0,5,0,0

[HitObjects]
148,84,1350,6,0,B|200:104|204:176|204:176|232:108|308:100,1,210
376,144,1826,1,0,0:0:0:0:
432,308,1984,1,0,0:0:0:0:
224,336,2143,1,0,0:0:0:0:
400,228,2302,2,0,B|372:260|352:248|332:240|309:249|288:268,1,105
248,136,2619,6,0,B|276:120|284:84|284:84|308:148|288:192,1,157.5
272,212,2937,2,0,P|284:272|316:240,1,105
364,108,3254,1,0,0:0:0:0:
124,188,3413,1,0,0:0:0:0:
364,108,3572,6,0,P|324:160|280:184,1,105
104,52,3889,1,0,0:0:0:0:
220,204,4048,1,0,0:0:0:0:
212,20,4207,1,0,0:0:0:0:
120,208,4365,2,0,P|160:256|208:264,1,105
256,192,4603,12,0,6429,0:0:0:0:
184,68,6746,6,0,P|180:144|168:180,1,105
360,52,7223,1,0,0:0:0:0:
328,288,7381,2,0,B|352:260|356:232|344:212|344:212|356:216|356:216|352:184|360:144|408:104,1,210
128,72,8016,6,0,L|160:180,1,105
284,112,8334,1,0,0:0:0:0:
184,216,8492,1,0,0:0:0:0:
340,84,8651,2,0,B|376:112|420:104|436:64|436:64|392:72|360:44|320:48,1,210
184,248,9286,6,0,L|312:292,1,105
116,260,9603,2,0,L|332:328,1,210
360,300,10000,1,0,0:0:0:0:
340,236,10079,1,0,0:0:0:0:
280,208,10159,1,0,0:0:0:0:
260,144,10238,6,0,P|284:120|376:88,1,105
260,144,10556,2,0,P|304:108|344:96,1,52.5
260,144,10715,2,0,P|304:108|344:96,1,52.5
260,144,10873,2,0,P|208:204|164:212,1,105
104,56,11191,2,0,B|84:100|104:136|124:184|92:228,1,157.5
96,280,11508,2,0,P|144:240|204:240,1,105
456,168,11826,6,0,B|444:208|444:208|412:192|360:232,1,105
248,316,12143,1,0,0:0:0:0:
360,152,12302,1,0,0:0:0:0:
248,316,12461,2,0,L|392:288,1,105
368,88,12778,1,0,0:0:0:0:
348,216,12937,1,0,0:0:0:0:
256,40,13096,6,0,P|176:32|128:56,1,105
72,248,13413,1,0,0:0:0:0:
264,192,13572,1,0,0:0:0:0:
96,68,13730,2,0,B|120:136|120:136|112:172|112:172|136:196,1,105
88,324,14048,1,0,0:0:0:0:
292,320,14207,1,0,0:0:0:0:
188,132,14365,6,0,P|156:196|168:240,1,105
352,140,14683,1,0,0:0:0:0:
420,288,14842,1,0,0:0:0:0:
460,84,15000,2,0,P|372:60|320:68,1,105
248,184,15318,1,0,0:0:0:0:
300,24,15476,1,0,0:0:0:0:
108,64,15635,6,0,L|148:168,1,105
52,40,15953,2,0,L|100:160,1,105
120,320,16270,2,0,B|148:264|160:200|160:200|184:248|228:272,1,210
384,316,16746,1,0,0:0:0:0:
380,120,16905,2,0,P|376:188|352:216,1,105
288,48,17223,1,0,0:0:0:0:
448,60,17381,1,0,0:0:0:0:
288,48,17540,6,0,B|252:64|224:48|224:48|204:56|204:56|188:64|148:64|128:40|80:60,1,210
184,160,18016,1,0,0:0:0:0:
88,312,18175,2,0,L|52:196,1,105
232,248,18492,1,0,0:0:0:0:
112,176,18651,1,0,0:0:0:0:
156,332,18810,2,0,P|200:304|351:336,1,210
156,332,19286,1,0,0:0:0:0:
400,268,19445,6,0,L|292:300,1,105
400,168,19762,1,0,0:0:0:0:
372,48,19921,1,0,0:0:0:0:
264,200,20080,2,0,P|256:128|168:72,1,157.5
128,112,20397,6,0,P|112:176|96:212,1,105
208,256,20715,2,0,P|223:301|268:326,1,52.5
338,266,20873,2,0,P|363:250|388:195,1,52.5
278,135,21032,2,0,P|229:67|145:67,1,125.999996154785
392,264,21349,2,0,P|360:204|264:200,1,136.499993751526
96,140,21667,1,0,0:0:0:0:
168,308,21826,6,0,B|192:232|192:232|144:260,1,105
368,64,22143,2,0,B|411:130|411:130|420:75,1,105
296,348,22461,2,0,B|288:380|288:380|256:308,1,105
224,56,22778,2,0,P|168:48|196:120,1,157.5
228,144,23096,6,0,P|172:184|152:224,1,105
416,240,23413,2,0,P|380:184|316:156,1,105
155,214,23730,2,0,P|183:171|228:144,1,105
276,368,24048,2,0,P|184:328|172:308,1,105
448,280,24365,2,0,P|408:336|344:352,1,105
183,327,24683,2,0,P|224:359|276:368,1,105
96,148,25000,2,0,P|112:216|152:268,1,105
256,40,25318,6,0,B|188:56|188:56|232:88|296:92,1,157.5
448,112,25635,2,0,L|440:224,1,105
252,152,25953,2,0,L|264:32,1,105
432,248,26270,2,0,L|308:240,1,105
112,220,26588,2,0,L|260:236,1,105
348,92,26905,6,0,L|376:144,1,52.5
292,272,27064,2,0,L|240:252,1,52.5
160,132,27223,2,0,L|204:88,1,52.5
116,280,27381,2,0,P|164:332|124:268,1,210
256,188,28016,5,0,0:0:0:0:
352,80,28175,2,0,P|384:96|416:132,1,52.5
184,76,28334,2,0,P|160:86|139:102,1,52.5
192,264,28492,2,0,P|168:253|147:237,1,52.5
320,264,28651,2,0,P|343:253|396:188,1,105
256,88,29286,5,0,0:0:0:0:
224,192,29445,1,0,0:0:0:0:
164,80,29603,1,0,0:0:0:0:
336,84,29762,1,0,0:0:0:0:
164,80,29921,2,0,P|124:116|104:168,1,105
336,84,30238,1,0,0:0:0:0:
376,264,30397,1,0,0:0:0:0:
248,176,30556,6,0,P|304:132|336:44,1,157.5
381,71,30873,2,0,P|344:157|271:215,1,188.999994232178
296,256,31191,2,0,P|376:192|432:68,1,220.499993270874
472,104,31508,2,0,P|428:204|296:304,1,252
284,132,31826,5,0,0:0:0:0:
140,288,31984,1,0,0:0:0:0:
140,288,32064,1,0,0:0:0:0:
140,288,32143,1,0,0:0:0:0:
136,48,32302,1,0,0:0:0:0:
216,304,32461,1,0,0:0:0:0:
384,152,32619,1,0,0:0:0:0:
384,152,32699,1,0,0:0:0:0:
384,152,32778,1,0,0:0:0:0:
288,328,32937,5,0,0:0:0:0:
224,100,33096,1,0,0:0:0:0:
288,328,33254,1,0,0:0:0:0:
224,100,33413,1,0,0:0:0:0:
340,340,33572,1,0,0:0:0:0:
176,120,33730,1,0,0:0:0:0:
340,340,33889,1,0,0:0:0:0:
176,120,34048,1,0,0:0:0:0:
428,72,34366,5,0,0:0:0:0:
353,190,34524,1,0,0:0:0:0:
376,237,34603,1,0,0:0:0:0:
399,284,34682,1,0,0:0:0:0:
226,189,34842,1,0,0:0:0:0:
249,236,34921,1,0,0:0:0:0:
272,283,35000,1,0,0:0:0:0:
92,200,35159,1,0,0:0:0:0:
115,247,35238,1,0,0:0:0:0:
138,294,35317,1,0,0:0:0:0:
142,196,35476,5,0,0:0:0:0:
142,196,35556,2,0,L|112:124,1,52.5
188,48,35794,1,0,0:0:0:0:
208,224,35953,1,0,0:0:0:0:
448,40,36111,1,0,0:0:0:0:
276,248,36270,1,0,0:0:0:0:
472,108,36429,1,0,0:0:0:0:
184,160,36588,1,0,0:0:0:0:
396,184,36905,6,0,L|420:300,1,105
472,124,37223,2,0,L|376:40,1,105
208,60,37540,2,0,B|156:88|168:128|184:176|108:208,1,157.5
244,184,37857,2,0,P|284:176|232:168,1,157.500006008148
135,192,38175,2,0,P|171:220|123:212,1,125.999996154785
176,72,38492,1,0,0:0:0:0:
80,164,38651,1,0,0:0:0:0:
116,296,38810,6,0,P|180:276|240:284,1,105
240,88,39127,2,0,P|248:168|232:204,1,105
416,224,39445,2,0,B|392:260|388:308|388:308|328:212|364:184|392:172|332:64,1,315.000012016297
256,192,40080,1,0,0:0:0:0:
256,192,40238,12,0,41349,0:0:0:0:
300,144,41667,5,0,0:0:0:0:
196,304,41826,2,0,P|196:224|216:184,1,105
300,144,42143,1,0,0:0:0:0:
196,304,42302,1,0,0:0:0:0:
104,48,42619,1,0,0:0:0:0:
416,128,42937,1,0,0:0:0:0:
348,108,43016,5,0,0:0:0:0:
296,160,43096,1,0,0:0:0:0:
328,224,43175,1,0,0:0:0:0:
404,224,43254,2,0,P|424:160|388:72,1,157.5
256,40,43572,1,0,0:0:0:0:
160,212,43730,1,0,0:0:0:0:
256,40,43889,6,0,P|164:88|128:148,1,157.5
256,72,44207,2,0,P|269:174|313:229,1,157.5
296,52,44524,2,0,P|397:74|463:51,1,157.5
424,184,44842,6,0,P|400:236|408:316,1,125.999996154785
332,188,45159,1,0,0:0:0:0:
292,296,45318,1,0,0:0:0:0:
260,184,45476,2,0,B|192:176|144:136|144:136|196:92|268:92,1,251.999992309571
424,96,45953,1,0,0:0:0:0:
284,44,46111,6,0,P|236:36|152:56,1,125.999996154785
128,140,46429,1,0,0:0:0:0:
60,48,46588,1,0,0:0:0:0:
212,108,46746,2,0,B|240:132|240:132|208:248|208:248|236:272,1,188.999994232178
352,320,47064,2,0,B|256:352|256:352|184:328,1,125.999996154785
332,248,47381,6,0,B|400:224|400:224|428:176,1,125.999996154785
340,156,47699,1,0,0:0:0:0:
256,260,47857,1,0,0:0:0:0:
416,212,48016,2,0,B|424:176|448:152|448:152|440:88|376:72|336:112|340:160|364:176,1,251.999992309571
440,296,48492,1,0,0:0:0:0:
276,256,48651,6,0,B|196:232|196:232|160:180,1,125.999996154785
276,320,48969,2,0,B|196:344|196:344|171:378,1,125.999996154785
336,280,49286,2,0,B|372:256|416:256|416:256|392:196|418:175|446:157|396:80,1,251.999992309571
316,24,49762,1,0,0:0:0:0:
308,136,49921,6,0,P|248:152|192:124,1,125.999996154785
112,32,50238,1,0,0:0:0:0:
248,44,50397,1,0,0:0:0:0:
84,92,50556,2,0,B|104:137|84:172|84:172|94:197|94:197|104:217|104:267|73:292|99:353,1,251.999992309571
164,268,51032,1,0,0:0:0:0:
176,132,51191,6,0,P|192:64|268:32,1,125.999996154785
380,40,51508,1,0,0:0:0:0:
304,96,51667,1,0,0:0:0:0:
452,119,51826,2,0,B|464:192|438:254|438:254|370:254,1,188.999994232178,0|0,0:0|0:0,0:3:0:0:
314,312,52143,2,0,L|177:284,1,125.999996154785
49,249,52461,6,0,L|177:204,1,125.999996154785
319,160,52778,1,0,0:0:0:0:
136,150,52937,1,0,0:0:0:0:
285,88,53096,2,0,P|320:157|299:274,1,188.999994232178
194,233,53413,6,0,P|200:178|157:240,1,188.999994232178
140,229,53730,2,0,P|126:256|136:285,1,62.9999980773926
193,233,53889,2,0,P|204:261|188:287,1,62.9999980773926
140,229,54048,2,0,P|171:163|194:233,1,188.999994232178
193,233,54365,2,0,P|187:178|230:240,1,188.999994232178
337,232,54683,1,0,0:0:0:0:
183,85,54842,6,0,B|152:98|152:98|242:128,1,125.999996154785
419,195,55159,2,0,B|395:168|395:168|407:266,1,125.999996154785
165,218,55476,2,0,B|167:258|167:258|84:157,1,125.999996154785
296,141,55794,2,0,B|370:134|370:134|310:177|290:231,1,188.999994232178
255,331,56111,6,0,P|183:296|143:246,1,125.999996154785
449,264,56429,2,0,P|383:316|314:329,1,125.999996154785
152,262,56746,2,0,P|197:306|255:331,1,125.999996154785
141,50,57064,2,0,P|108:128|133:200,1,125.999996154785
322,120,57381,2,0,L|440:65,1,125.999996154785
226,157,57699,2,0,L|90:222,1,125.999996154785
324,179,58016,2,0,L|465:279,1,125.999996154785
214,106,58334,2,0,L|390:224,1,188.999994232178
272,237,58651,6,0,L|124:237,1,125.999996154785
146,111,58969,2,0,L|146:256,1,125.999996154785
272,111,59286,2,0,L|139:111,1,125.999996154785
272,237,59603,2,0,L|271:112,1,125.999996154785
149,235,59921,6,0,L|215:235,1,62.9999980773926
142,108,60080,2,0,L|142:186,1,62.9999980773926
270,111,60238,2,0,L|181:111,1,62.9999980773926
272,237,60397,2,0,L|272:107,1,125.999996154785
382,60,60715,2,0,L|382:193,1,125.999996154785
383,328,61032,1,0,0:0:0:0:
331,261,61191,6,0,L|234:244,1,62.9999980773926
148,157,61349,2,0,L|231:171,1,62.9999980773926
186,304,61508,2,0,L|116:292,1,62.9999980773926
60,199,61667,2,0,P|68:118|219:50,1,251.999992309571
272,95,62302,5,0,0:0:0:0:
350,178,62461,1,0,0:0:0:0:
283,266,62619,1,0,0:0:0:0:
176,227,62778,1,0,0:0:0:0:
172,124,62937,1,0,0:0:0:0:
272,95,63096,1,0,0:0:0:0:
350,178,63254,1,0,0:0:0:0:
283,266,63413,1,0,0:0:0:0:
176,227,63572,6,0,P|95:191|188:160,1,228.375006969452
241,228,63889,2,0,P|322:192|208:153,1,259.875002478361
176,227,64207,2,0,P|95:191|223:115,1,291.374998888493
241,228,64524,2,0,P|322:192|210:66,1,299.249992009163
252,142,64842,5,0,0:0:0:0:
419,221,65000,1,0,0:0:0:0:
400,289,65079,1,0,0:0:0:0:
337,321,65158,1,0,0:0:0:0:
174,204,65318,1,0,0:0:0:0:
360,175,65476,5,0,0:0:0:0:
315,53,65635,1,0,0:0:0:0:
243,35,65714,1,0,0:0:0:0:
170,39,65793,1,0,0:0:0:0:
52,147,65953,1,0,0:0:0:0:
274,142,66111,5,0,0:0:0:0:
99,301,66270,1,0,0:0:0:0:
326,204,66429,1,0,0:0:0:0:
44,237,66588,1,0,0:0:0:0:
331,299,66746,1,0,0:0:0:0:
39,142,66905,1,0,0:0:0:0:
260,368,67064,1,0,0:0:0:0:
394,171,67381,5,0,0:0:0:0:
264,81,67540,1,0,0:0:0:0:
215,67,67619,1,0,0:0:0:0:
165,54,67698,1,0,0:0:0:0:
181,154,67857,1,0,0:0:0:0:
132,171,67936,1,0,0:0:0:0:
83,189,68015,1,0,0:0:0:0:
243,222,68175,1,0,0:0:0:0:
213,265,68254,1,0,0:0:0:0:
183,307,68333,1,0,0:0:0:0:
343,222,68492,1,0,0:0:0:0:
344,275,68571,1,0,0:0:0:0:
343,326,68650,5,0,0:0:0:0:
112,129,68810,1,0,0:0:0:0:
432,202,68969,1,0,0:0:0:0:
238,336,69127,1,0,0:0:0:0:
326,45,69286,1,0,0:0:0:0:
417,340,69445,1,0,0:0:0:0:
102,288,69603,1,0,0:0:0:0:
323,229,69921,6,0,P|366:163|457:130,1,146.999995513916
285,42,70238,2,0,P|298:119|363:198,1,146.999995513916
199,113,70556,2,0,P|153:73|73:96,1,146.999995513916
103,227,70873,2,0,P|191:267|297:241,1,168
75,177,71191,2,0,P|141:253|226:264,1,168
55,128,71508,2,0,P|86:203|141:252,1,146.999995513916
35,67,71826,2,0,B|124:39|186:84|231:130|373:56,1,293.999991027832
448,42,72302,5,0,0:0:0:0:
405,207,72461,2,0,P|336:276|350:149,1,293.999991027832
165,139,72937,2,0,P|263:103|281:58,1,146.999995513916
256,192,73254,12,0,74365,0:0:0:0:
