osu file format v14

[General]
AudioFilename: audio.mp3
AudioLeadIn: 0
PreviewTime: 70641
Countdown: 0
SampleSet: Soft
StackLeniency: 0.7
Mode: 3
LetterboxInBreaks: 0
SpecialStyle: 0
WidescreenStoryboard: 1

[Editor]
DistanceSpacing: 0.8
BeatDivisor: 4
GridSize: 32
TimelineZoom: 2.2

[Metadata]
Title:Pico*2 Funkoter*
TitleUnicode:Pico*2 Funkoter☆
Artist:Umeboshi Chazuke vs. Morimori Atsushi
ArtistUnicode:梅干茶漬け vs. モリモリあつし
Creator:Murumoo
Version:Normal
Source:
Tags:japanese Chiptune NNRR-0011 Track 05 electronic Instrumental M3-2019秋 Autumn
BeatmapID:2227760
BeatmapSetID:1061110

[Difficulty]
HPDrainRate:7
CircleSize:4
OverallDifficulty:7
ApproachRate:5
SliderMultiplier:1.4
SliderTickRate:1

[Events]
//Background and Video events
0,0,"bg.png",0,0
//Break Periods
//Storyboard Layer 0 (Background)
//Storyboard Layer 1 (Fail)
//Storyboard Layer 2 (Pass)
//Storyboard Layer 3 (Foreground)
//Storyboard Layer 4 (Overlay)
//Storyboard Sound Samples
Sample,2914,0,"finish.wav",50
Sample,7763,0,"finish.wav",50
Sample,15490,0,"snare.wav",70
Sample,16096,0,"snare.wav",70
Sample,16702,0,"snare.wav",70
Sample,17308,0,"snare.wav",70
Sample,17914,0,"snare.wav",70
Sample,38520,0,"finish.wav",50
Sample,38823,0,"finish.wav",50
Sample,39126,0,"finish.wav",50
Sample,50945,0,"snare.wav",70
Sample,51248,0,"snare.wav",70
Sample,59126,0,"finish.wav",50
Sample,102308,0,"finish.wav",50
Sample,107157,0,"finish.wav",50
Sample,114884,0,"snare.wav",70
Sample,115490,0,"snare.wav",70
Sample,116096,0,"snare.wav",70
Sample,116702,0,"snare.wav",70
Sample,117308,0,"snare.wav",70
Sample,124278,0,"finish.wav",50
Sample,128520,0,"finish.wav",50
Sample,137914,0,"finish.wav",50
Sample,158520,0,"finish.wav",50
Sample,158823,0,"finish.wav",50
Sample,159126,0,"finish.wav",50
Sample,176248,0,"finish.wav",50
Sample,177611,0,"finish.wav",50
Sample,177763,0,"finish.wav",50
Sample,178217,0,"finish.wav",50
Sample,178369,0,"finish.wav",50
Sample,178823,0,"finish.wav",50
Sample,179126,0,"finish.wav",50
Sample,179732,0,"finish.wav",50
Sample,188823,0,"finish.wav",50
Sample,189126,0,"finish.wav",50
Sample,197157,0,"tom.wav",70
Sample,197460,0,"tom.wav",70
Sample,197763,0,"tom.wav",70
Sample,198066,0,"tom.wav",70
Sample,198369,0,"tom.wav",70
Sample,198672,0,"tom.wav",70
Sample,198975,0,"tom.wav",70
Sample,199278,0,"tom.wav",70

[TimingPoints]
642,303.030303030303,4,2,1,60,1,0
70945,-100,4,2,1,70,0,1
100035,-100,4,2,1,60,0,0
170338,-100,4,2,1,70,0,1
201854,-100,4,2,1,60,0,0

[HitObjects]
64,192,490,5,0,0:0:0:70:whistle.wav
320,192,642,1,0,0:0:0:70:whistle.wav
448,192,642,1,0,0:0:0:50:finish.wav
192,192,945,1,0,0:0:0:0:
64,192,1248,1,0,0:0:0:0:
448,192,1248,1,0,0:0:0:0:
320,192,1551,1,0,0:0:0:0:
64,192,1854,1,0,0:0:0:0:
192,192,1854,1,0,0:0:0:0:
448,192,2157,1,0,0:0:0:0:
64,192,2460,1,0,0:0:0:0:
320,192,2460,1,0,0:0:0:0:
192,192,2763,1,0,0:0:0:0:
64,192,2914,1,0,0:0:0:70:whistle.wav
320,192,3066,1,0,0:0:0:70:whistle.wav
448,192,3066,1,0,0:0:0:50:finish.wav
192,192,3369,1,0,0:0:0:0:
64,192,3672,1,0,0:0:0:0:
448,192,3672,1,0,0:0:0:0:
320,192,3975,1,0,0:0:0:0:
192,192,4278,1,0,0:0:0:0:
448,192,4278,1,0,0:0:0:0:
64,192,4581,1,0,0:0:0:0:
320,192,4884,1,0,0:0:0:0:
192,192,5035,1,0,0:0:0:70:whistle.wav
448,192,5035,1,0,0:0:0:50:finish.wav
192,192,5338,1,0,0:0:0:70:whistle.wav
64,192,5490,1,0,0:0:0:70:whistle.wav
320,192,5490,1,0,0:0:0:50:finish.wav
192,192,5793,1,0,0:0:0:0:
320,192,6096,1,0,0:0:0:0:
448,192,6096,1,0,0:0:0:0:
64,192,6399,1,0,0:0:0:0:
192,192,6702,1,0,0:0:0:0:
448,192,6702,1,0,0:0:0:0:
320,192,7005,1,0,0:0:0:0:
64,192,7308,1,0,0:0:0:0:
448,192,7308,1,0,0:0:0:0:
320,192,7611,1,0,0:0:0:0:
448,192,7763,1,0,0:0:0:70:whistle.wav
64,192,7914,1,0,0:0:0:70:whistle.wav
192,192,7914,1,0,0:0:0:50:finish.wav
320,192,8217,1,0,0:0:0:0:
192,192,8520,1,0,0:0:0:0:
448,192,8520,1,0,0:0:0:0:
64,192,8823,1,0,0:0:0:0:
320,192,9126,1,0,0:0:0:0:
448,192,9126,1,0,0:0:0:0:
192,192,9429,1,0,0:0:0:0:
320,192,9732,1,0,0:0:0:0:
64,192,9884,1,0,0:0:0:70:whistle.wav
448,192,9884,1,0,0:0:0:50:finish.wav
192,192,10035,1,0,0:0:0:0:
320,192,10187,1,0,0:0:0:70:whistle.wav
64,192,10338,1,0,0:0:0:70:whistle.wav
448,192,10338,1,0,0:0:0:50:finish.wav
192,192,10642,1,0,0:0:0:70:snare.wav
448,192,10642,1,0,0:0:0:0:
64,192,10945,1,0,0:0:0:70:whistle.wav
320,192,10945,1,0,0:0:0:0:
192,192,11248,1,0,0:0:0:70:snare.wav
320,192,11248,1,0,0:0:0:0:
192,192,11551,1,0,0:0:0:70:whistle.wav
448,192,11551,1,0,0:0:0:0:
64,192,11854,1,0,0:0:0:70:snare.wav
448,192,11854,1,0,0:0:0:0:
64,192,12157,1,0,0:0:0:70:whistle.wav
192,192,12157,1,0,0:0:0:0:
320,192,12460,1,0,0:0:0:70:snare.wav
192,192,12611,1,0,0:0:0:70:snare.wav
64,192,12763,1,0,0:0:0:70:whistle.wav
448,192,12763,1,0,0:0:0:0:
320,192,12914,1,0,0:0:0:0:
192,192,13066,1,0,0:0:0:70:snare.wav
320,192,13217,1,0,0:0:0:0:
64,192,13369,1,0,0:0:0:70:whistle.wav
448,192,13369,1,0,0:0:0:0:
192,192,13520,1,0,0:0:0:0:
320,192,13672,1,0,0:0:0:70:snare.wav
192,192,13823,1,0,0:0:0:0:
64,192,13975,1,0,0:0:0:70:whistle.wav
448,192,13975,1,0,0:0:0:0:
320,192,14126,1,0,0:0:0:0:
64,192,14278,1,0,0:0:0:70:snare.wav
192,192,14429,1,0,0:0:0:0:
320,192,14581,1,0,0:0:0:70:whistle.wav
448,192,14581,1,0,0:0:0:0:
64,192,14732,1,0,0:0:0:0:
192,192,14884,1,0,0:0:0:70:snare.wav
320,192,15035,1,0,0:0:0:70:snare.wav
64,192,15187,1,0,0:0:0:70:whistle.wav
448,192,15187,1,0,0:0:0:70:snare.wav
192,192,15338,1,0,0:0:0:70:snare.wav
448,192,15490,1,0,0:0:0:70:whistle.wav
320,192,15642,1,0,0:0:0:70:snare.wav
64,192,15793,1,0,0:0:0:70:whistle.wav
192,192,15793,1,0,0:0:0:70:snare.wav
320,192,15945,1,0,0:0:0:70:snare.wav
448,192,16096,1,0,0:0:0:70:whistle.wav
192,192,16248,1,0,0:0:0:70:snare.wav
64,192,16399,1,0,0:0:0:70:whistle.wav
320,192,16399,1,0,0:0:0:70:snare.wav
192,192,16551,1,0,0:0:0:70:snare.wav
448,192,16702,1,0,0:0:0:70:whistle.wav
320,192,16854,1,0,0:0:0:70:snare.wav
64,192,17005,1,0,0:0:0:70:whistle.wav
192,192,17005,1,0,0:0:0:70:snare.wav
448,192,17157,1,0,0:0:0:70:snare.wav
320,192,17308,1,0,0:0:0:70:whistle.wav
192,192,17460,1,0,0:0:0:70:snare.wav
64,192,17611,1,0,0:0:0:70:whistle.wav
448,192,17611,1,0,0:0:0:70:snare.wav
192,192,17763,1,0,0:0:0:70:snare.wav
448,192,17914,1,0,0:0:0:70:whistle.wav
320,192,18066,1,0,0:0:0:70:snare.wav
64,192,18217,128,0,18369:0:0:0:70:whistle.wav
192,192,18369,128,0,18520:0:0:0:70:snare.wav
320,192,18520,128,0,18672:0:0:0:70:whistle.wav
448,192,18672,128,0,18823:0:0:0:70:snare.wav
64,192,18823,1,0,0:0:0:0:
320,192,18975,128,0,19126:0:0:0:0:
192,192,19126,1,0,0:0:0:0:
448,192,19278,1,0,0:0:0:0:
320,192,19429,1,0,0:0:0:0:
192,192,19581,1,0,0:0:0:0:
320,192,19732,1,0,0:0:0:0:
64,192,19884,1,0,0:0:0:0:
192,192,20035,1,0,0:0:0:70:whistle.wav
448,192,20035,128,0,20338:0:0:0:50:finish.wav
64,192,20338,1,0,0:0:0:70:tom.wav
192,192,20490,1,0,0:0:0:70:whistle.wav
448,192,20642,1,0,0:0:0:0:
320,192,20793,1,0,0:0:0:70:whistle.wav
192,192,20945,1,0,0:0:0:70:tom.wav
320,192,21096,128,0,21399:0:0:0:0:
192,192,21399,1,0,0:0:0:0:
64,192,21551,1,0,0:0:0:70:tom.wav
448,192,21702,1,0,0:0:0:70:whistle.wav
192,192,21854,1,0,0:0:0:0:
64,192,22005,1,0,0:0:0:70:whistle.wav
320,192,22157,1,0,0:0:0:70:tom.wav
448,192,22308,1,0,0:0:0:0:
192,192,22460,128,0,22763:0:0:0:70:whistle.wav
320,192,22763,1,0,0:0:0:70:tom.wav
192,192,22914,1,0,0:0:0:70:whistle.wav
64,192,23066,1,0,0:0:0:0:
320,192,23217,1,0,0:0:0:70:whistle.wav
192,192,23369,1,0,0:0:0:70:tom.wav
448,192,23520,128,0,23823:0:0:0:0:
192,192,23823,1,0,0:0:0:0:
320,192,23975,1,0,0:0:0:70:tom.wav
64,192,24126,1,0,0:0:0:70:whistle.wav
192,192,24278,1,0,0:0:0:0:
448,192,24429,1,0,0:0:0:70:whistle.wav
320,192,24581,1,0,0:0:0:70:tom.wav
192,192,24732,1,0,0:0:0:0:
64,192,24884,128,0,25187:0:0:0:70:whistle.wav
448,192,25187,1,0,0:0:0:70:tom.wav
320,192,25338,1,0,0:0:0:70:whistle.wav
64,192,25490,1,0,0:0:0:0:
192,192,25642,1,0,0:0:0:70:whistle.wav
320,192,25793,1,0,0:0:0:70:tom.wav
192,192,25945,128,0,26248:0:0:0:0:
320,192,26248,1,0,0:0:0:0:
448,192,26399,1,0,0:0:0:70:tom.wav
64,192,26551,1,0,0:0:0:70:whistle.wav
320,192,26702,1,0,0:0:0:0:
448,192,26854,1,0,0:0:0:70:whistle.wav
192,192,27005,1,0,0:0:0:70:tom.wav
64,192,27157,1,0,0:0:0:0:
448,192,27308,128,0,27460:0:0:0:70:whistle.wav
320,192,27460,128,0,27611:0:0:0:0:
192,192,27611,128,0,27763:0:0:0:70:tom.wav
64,192,27763,128,0,27914:0:0:0:70:whistle.wav
448,192,27914,1,0,0:0:0:70:whistle.wav
320,192,28066,1,0,0:0:0:0:
192,192,28217,1,0,0:0:0:70:tom.wav
320,192,28369,1,0,0:0:0:70:whistle.wav
64,192,28520,1,0,0:0:0:70:whistle.wav
192,192,28520,1,0,0:0:0:50:finish.wav
448,192,28672,1,0,0:0:0:70:tom.wav
192,192,28823,1,0,0:0:0:70:tom.wav
320,192,28975,1,0,0:0:0:70:whistle.wav
64,192,29126,1,0,0:0:0:70:tom.wav
448,192,29278,1,0,0:0:0:70:whistle.wav
192,192,29429,1,0,0:0:0:70:tom.wav
320,192,29581,1,0,0:0:0:70:whistle.wav
64,192,29732,1,0,0:0:0:70:whistle.wav
448,192,29732,1,0,0:0:0:50:finish.wav
320,192,30035,1,0,0:0:0:70:tom.wav
448,192,30035,1,0,0:0:0:0:
192,192,30187,1,0,0:0:0:70:whistle.wav
64,192,30338,1,0,0:0:0:0:
320,192,30490,1,0,0:0:0:70:whistle.wav
448,192,30641,1,0,0:0:0:70:tom.wav
64,192,30793,1,0,0:0:0:0:
320,192,30945,1,0,0:0:0:70:whistle.wav
192,192,31096,1,0,0:0:0:0:
448,192,31248,1,0,0:0:0:70:tom.wav
64,192,31399,1,0,0:0:0:70:whistle.wav
320,192,31551,1,0,0:0:0:0:
192,192,31702,1,0,0:0:0:70:whistle.wav
448,192,31854,1,0,0:0:0:70:tom.wav
320,192,32005,1,0,0:0:0:0:
64,192,32157,128,0,32460:0:0:0:70:whistle.wav
320,192,32460,1,0,0:0:0:70:tom.wav
192,192,32611,1,0,0:0:0:70:whistle.wav
448,192,32763,1,0,0:0:0:0:
320,192,32914,1,0,0:0:0:70:whistle.wav
64,192,33066,1,0,0:0:0:70:tom.wav
192,192,33217,1,0,0:0:0:0:
320,192,33369,1,0,0:0:0:70:whistle.wav
192,192,33520,1,0,0:0:0:0:
448,192,33672,1,0,0:0:0:70:tom.wav
320,192,33823,1,0,0:0:0:70:whistle.wav
192,192,33975,1,0,0:0:0:0:
64,192,34126,1,0,0:0:0:70:whistle.wav
320,192,34278,1,0,0:0:0:70:tom.wav
192,192,34429,1,0,0:0:0:0:
448,192,34581,128,0,34884:0:0:0:70:whistle.wav
192,192,34884,1,0,0:0:0:70:tom.wav
320,192,35035,1,0,0:0:0:70:whistle.wav
64,192,35187,1,0,0:0:0:0:
192,192,35338,1,0,0:0:0:70:whistle.wav
448,192,35490,1,0,0:0:0:70:tom.wav
320,192,35641,1,0,0:0:0:0:
192,192,35793,1,0,0:0:0:70:whistle.wav
64,192,35945,1,0,0:0:0:0:
448,192,36096,1,0,0:0:0:70:tom.wav
320,192,36248,1,0,0:0:0:70:whistle.wav
64,192,36399,1,0,0:0:0:70:whistle.wav
192,192,36399,1,0,0:0:0:50:finish.wav
320,192,36551,128,0,36854:0:0:0:70:whistle.wav
448,192,36551,1,0,0:0:0:50:finish.wav
192,192,36854,1,0,0:0:0:70:whistle.wav
64,192,37005,1,0,0:0:0:70:whistle.wav
448,192,37005,1,0,0:0:0:50:finish.wav
320,192,37157,1,0,0:0:0:0:
192,192,37308,1,0,0:0:0:70:tom.wav
64,192,37460,1,0,0:0:0:0:
320,192,37611,1,0,0:0:0:70:whistle.wav
448,192,37611,1,0,0:0:0:50:finish.wav
192,192,37763,1,0,0:0:0:0:
320,192,37914,1,0,0:0:0:70:tom.wav
448,192,38066,1,0,0:0:0:70:whistle.wav
64,192,38217,1,0,0:0:0:70:whistle.wav
192,192,38217,1,0,0:0:0:50:finish.wav
320,192,38369,1,0,0:0:0:70:whistle.wav
64,192,38520,1,0,0:0:0:70:whistle.wav
192,192,38672,1,0,0:0:0:70:whistle.wav
448,192,38823,128,0,38975:0:0:0:70:whistle.wav
320,192,38975,128,0,39126:0:0:0:70:whistle.wav
64,192,39126,128,0,39278:0:0:0:70:whistle.wav
192,192,39278,128,0,39429:0:0:0:70:whistle.wav
320,192,39429,1,0,0:0:0:70:whistle.wav
448,192,39429,1,0,0:0:0:50:finish.wav
64,192,39732,1,0,0:0:0:0:
192,192,40035,1,0,0:0:0:70:whistle.wav
448,192,40035,1,0,0:0:0:50:finish.wav
320,192,40338,1,0,0:0:0:0:
64,192,40641,1,0,0:0:0:70:whistle.wav
192,192,40743,1,0,0:0:0:70:whistle.wav
320,192,40844,1,0,0:0:0:70:whistle.wav
448,192,40945,1,0,0:0:0:70:whistle.wav
64,192,41046,1,0,0:0:0:70:whistle.wav
192,192,41147,1,0,0:0:0:70:whistle.wav
320,192,41248,1,0,0:0:0:70:whistle.wav
448,192,41248,1,0,0:0:0:50:finish.wav
320,192,41551,128,0,41854:0:0:0:70:tom.wav
64,192,41854,1,0,0:0:0:70:whistle.wav
192,192,41854,1,0,0:0:0:50:finish.wav
320,192,42157,1,0,0:0:0:70:snare.wav
448,192,42157,1,0,0:0:0:0:
192,192,42308,1,0,0:0:0:70:whistle.wav
64,192,42611,1,0,0:0:0:70:whistle.wav
320,192,42763,1,0,0:0:0:70:snare.wav
448,192,42763,1,0,0:0:0:0:
64,192,43066,1,0,0:0:0:70:whistle.wav
320,192,43066,1,0,0:0:0:0:
192,192,43369,1,0,0:0:0:70:snare.wav
448,192,43369,1,0,0:0:0:0:
64,192,43520,1,0,0:0:0:70:whistle.wav
448,192,43823,1,0,0:0:0:70:whistle.wav
192,192,43975,1,0,0:0:0:70:snare.wav
320,192,43975,1,0,0:0:0:0:
64,192,44278,1,0,0:0:0:70:whistle.wav
448,192,44278,1,0,0:0:0:0:
64,192,44581,1,0,0:0:0:70:snare.wav
192,192,44581,1,0,0:0:0:0:
448,192,44732,1,0,0:0:0:70:whistle.wav
320,192,45035,1,0,0:0:0:70:whistle.wav
192,192,45187,1,0,0:0:0:70:snare.wav
448,192,45187,1,0,0:0:0:0:
64,192,45490,1,0,0:0:0:70:whistle.wav
320,192,45490,1,0,0:0:0:0:
192,192,45793,1,0,0:0:0:70:snare.wav
320,192,45793,1,0,0:0:0:0:
64,192,45945,1,0,0:0:0:70:whistle.wav
448,192,46248,1,0,0:0:0:70:whistle.wav
192,192,46399,1,0,0:0:0:70:snare.wav
320,192,46399,1,0,0:0:0:0:
320,192,46702,1,0,0:0:0:70:whistle.wav
448,192,46702,1,0,0:0:0:0:
64,192,47005,1,0,0:0:0:70:snare.wav
192,192,47005,1,0,0:0:0:0:
320,192,47157,1,0,0:0:0:70:whistle.wav
448,192,47460,1,0,0:0:0:70:whistle.wav
64,192,47611,1,0,0:0:0:70:snare.wav
192,192,47611,1,0,0:0:0:0:
192,192,47914,1,0,0:0:0:70:whistle.wav
448,192,47914,1,0,0:0:0:0:
64,192,48217,1,0,0:0:0:70:snare.wav
320,192,48217,1,0,0:0:0:0:
448,192,48369,1,0,0:0:0:70:whistle.wav
64,192,48672,1,0,0:0:0:70:whistle.wav
192,192,48823,1,0,0:0:0:70:snare.wav
320,192,48823,1,0,0:0:0:0:
64,192,49126,1,0,0:0:0:70:whistle.wav
448,192,49126,1,0,0:0:0:0:
320,192,49429,1,0,0:0:0:70:snare.wav
448,192,49429,1,0,0:0:0:0:
192,192,49581,1,0,0:0:0:70:whistle.wav
64,192,49732,1,0,0:0:0:70:whistle.wav
192,192,50035,1,0,0:0:0:70:snare.wav
448,192,50035,1,0,0:0:0:0:
320,192,50187,1,0,0:0:0:70:whistle.wav
64,192,50338,1,0,0:0:0:70:whistle.wav
448,192,50338,1,0,0:0:0:50:finish.wav
192,192,50490,1,0,0:0:0:70:snare.wav
320,192,50641,1,0,0:0:0:70:snare.wav
64,192,50793,1,0,0:0:0:70:whistle.wav
192,192,50945,128,0,51096:0:0:0:70:whistle.wav
320,192,51096,128,0,51248:0:0:0:70:whistle.wav
64,192,51248,128,0,51399:0:0:0:70:whistle.wav
192,192,51399,128,0,51551:0:0:0:70:whistle.wav
320,192,51551,1,0,0:0:0:70:whistle.wav
448,192,51551,1,0,0:0:0:50:finish.wav
64,192,51854,1,0,0:0:0:70:snare.wav
192,192,51854,1,0,0:0:0:0:
320,192,52005,1,0,0:0:0:70:whistle.wav
448,192,52308,1,0,0:0:0:70:whistle.wav
64,192,52460,1,0,0:0:0:70:snare.wav
192,192,52460,1,0,0:0:0:0:
192,192,52763,1,0,0:0:0:70:whistle.wav
448,192,52763,1,0,0:0:0:0:
64,192,53066,1,0,0:0:0:70:snare.wav
320,192,53066,1,0,0:0:0:0:
448,192,53217,1,0,0:0:0:70:whistle.wav
64,192,53520,1,0,0:0:0:70:whistle.wav
192,192,53672,1,0,0:0:0:70:snare.wav
320,192,53672,1,0,0:0:0:0:
64,192,53975,1,0,0:0:0:70:whistle.wav
448,192,53975,1,0,0:0:0:50:finish.wav
320,192,54278,1,0,0:0:0:70:snare.wav
448,192,54278,1,0,0:0:0:0:
64,192,54429,1,0,0:0:0:70:whistle.wav
192,192,54732,1,0,0:0:0:70:whistle.wav
64,192,54884,1,0,0:0:0:70:snare.wav
320,192,54884,1,0,0:0:0:0:
192,192,55187,1,0,0:0:0:70:whistle.wav
448,192,55187,1,0,0:0:0:0:
192,192,55490,1,0,0:0:0:70:snare.wav
320,192,55490,1,0,0:0:0:0:
448,192,55641,1,0,0:0:0:70:whistle.wav
64,192,55945,1,0,0:0:0:70:whistle.wav
192,192,56096,1,0,0:0:0:70:snare.wav
320,192,56096,1,0,0:0:0:0:
64,192,56399,1,0,0:0:0:70:whistle.wav
192,192,56399,1,0,0:0:0:50:finish.wav
320,192,56702,1,0,0:0:0:70:snare.wav
448,192,56702,1,0,0:0:0:0:
192,192,56854,1,0,0:0:0:70:whistle.wav
64,192,57157,1,0,0:0:0:70:whistle.wav
320,192,57308,1,0,0:0:0:70:snare.wav
448,192,57308,1,0,0:0:0:0:
64,192,57611,1,0,0:0:0:70:whistle.wav
320,192,57611,1,0,0:0:0:50:finish.wav
192,192,57914,1,0,0:0:0:70:snare.wav
448,192,57914,1,0,0:0:0:0:
320,192,58066,1,0,0:0:0:70:whistle.wav
64,192,58217,1,0,0:0:0:70:whistle.wav
192,192,58217,1,0,0:0:0:50:finish.wav
448,192,58369,1,0,0:0:0:0:
64,192,58520,1,0,0:0:0:70:snare.wav
192,192,58672,1,0,0:0:0:70:whistle.wav
320,192,58823,1,0,0:0:0:70:whistle.wav
448,192,58823,1,0,0:0:0:50:finish.wav
64,192,58975,1,0,0:0:0:70:whistle.wav
192,192,59126,1,0,0:0:0:70:whistle.wav
320,192,59278,1,0,0:0:0:70:whistle.wav
64,192,59429,1,0,0:0:0:70:whistle.wav
448,192,59429,128,0,59581:0:0:0:50:finish.wav
192,192,59581,128,0,59732:0:0:0:70:whistle.wav
64,192,59732,1,0,0:0:0:70:whistle.wav
320,192,59732,128,0,59884:0:0:0:50:finish.wav
448,192,59884,128,0,60035:0:0:0:70:whistle.wav
64,192,60035,1,0,0:0:0:70:whistle.wav
192,192,60035,1,0,0:0:0:50:finish.wav
320,192,60338,1,0,0:0:0:0:
448,192,60641,1,0,0:0:0:0:
320,192,60793,1,0,0:0:0:0:
64,192,60945,1,0,0:0:0:70:whistle.wav
192,192,61096,1,0,0:0:0:0:
320,192,61248,1,0,0:0:0:70:whistle.wav
448,192,61248,1,0,0:0:0:50:finish.wav
64,192,61551,1,0,0:0:0:70:whistle.wav
192,192,61702,1,0,0:0:0:0:
320,192,61854,1,0,0:0:0:70:snare.wav
448,192,62005,1,0,0:0:0:70:whistle.wav
192,192,62157,1,0,0:0:0:70:whistle.wav
320,192,62308,1,0,0:0:0:0:
64,192,62460,1,0,0:0:0:70:whistle.wav
192,192,62611,1,0,0:0:0:0:
448,192,62763,1,0,0:0:0:70:whistle.wav
320,192,62914,1,0,0:0:0:0:
192,192,63066,1,0,0:0:0:70:snare.wav
64,192,63217,1,0,0:0:0:70:whistle.wav
320,192,63369,1,0,0:0:0:70:whistle.wav
192,192,63520,1,0,0:0:0:0:
448,192,63672,1,0,0:0:0:70:whistle.wav
320,192,63823,1,0,0:0:0:0:
192,192,63975,1,0,0:0:0:70:whistle.wav
448,192,64126,1,0,0:0:0:0:
64,192,64278,1,0,0:0:0:70:snare.wav
192,192,64429,1,0,0:0:0:70:whistle.wav
320,192,64581,1,0,0:0:0:70:whistle.wav
448,192,64732,1,0,0:0:0:0:
64,192,64884,128,0,65035:0:0:0:70:whistle.wav
192,192,65035,128,0,65187:0:0:0:0:
448,192,65187,128,0,65338:0:0:0:70:whistle.wav
320,192,65338,128,0,65490:0:0:0:0:
64,192,65490,128,0,65641:0:0:0:70:snare.wav
192,192,65641,128,0,65793:0:0:0:70:whistle.wav
448,192,65793,128,0,65945:0:0:0:70:whistle.wav
320,192,65945,128,0,66096:0:0:0:0:
64,192,66096,1,0,0:0:0:70:whistle.wav
192,192,66096,1,0,0:0:0:50:finish.wav
320,192,66248,1,0,0:0:0:0:
448,192,66399,1,0,0:0:0:70:whistle.wav
192,192,66551,1,0,0:0:0:0:
64,192,66702,1,0,0:0:0:70:snare.wav
320,192,66854,1,0,0:0:0:70:whistle.wav
192,192,67005,1,0,0:0:0:70:whistle.wav
64,192,67157,1,0,0:0:0:0:
320,192,67308,1,0,0:0:0:70:whistle.wav
448,192,67308,1,0,0:0:0:50:finish.wav
192,192,67460,1,0,0:0:0:0:
64,192,67611,1,0,0:0:0:70:whistle.wav
320,192,67763,1,0,0:0:0:0:
448,192,67914,1,0,0:0:0:70:snare.wav
192,192,68066,1,0,0:0:0:70:whistle.wav
320,192,68217,1,0,0:0:0:70:whistle.wav
448,192,68369,1,0,0:0:0:0:
64,192,68520,1,0,0:0:0:70:whistle.wav
320,192,68520,1,0,0:0:0:50:finish.wav
192,192,68672,1,0,0:0:0:0:
448,192,68823,1,0,0:0:0:70:whistle.wav
64,192,68975,1,0,0:0:0:0:
192,192,69126,1,0,0:0:0:70:snare.wav
320,192,69278,1,0,0:0:0:70:whistle.wav
448,192,69429,1,0,0:0:0:70:whistle.wav
192,192,69581,1,0,0:0:0:0:
64,192,69732,1,0,0:0:0:70:whistle.wav
448,192,69732,1,0,0:0:0:0:
192,192,70641,1,0,0:0:0:0:
320,192,70793,1,0,0:0:0:0:
64,192,70945,1,0,0:0:0:70:whistle.wav
448,192,70945,1,0,0:0:0:50:finish.wav
192,192,71096,1,0,0:0:0:0:
320,192,71248,128,0,71551:0:0:0:70:tom.wav
448,192,71551,1,0,0:0:0:0:
320,192,71702,1,0,0:0:0:70:whistle.wav
192,192,71854,1,0,0:0:0:70:tom.wav
64,192,72005,128,0,72308:0:0:0:0:
320,192,72308,1,0,0:0:0:0:
192,192,72460,1,0,0:0:0:70:tom.wav
64,192,72611,1,0,0:0:0:70:whistle.wav
320,192,72763,1,0,0:0:0:0:
192,192,72914,1,0,0:0:0:70:whistle.wav
320,192,73066,128,0,73369:0:0:0:70:tom.wav
64,192,73369,1,0,0:0:0:70:whistle.wav
320,192,73520,1,0,0:0:0:0:
192,192,73672,128,0,73975:0:0:0:70:tom.wav
64,192,73975,1,0,0:0:0:0:
192,192,74126,1,0,0:0:0:70:whistle.wav
320,192,74278,1,0,0:0:0:70:tom.wav
448,192,74429,128,0,74732:0:0:0:0:
192,192,74732,1,0,0:0:0:0:
64,192,74884,1,0,0:0:0:70:tom.wav
320,192,75035,128,0,75490:0:0:0:70:whistle.wav
64,192,75490,1,0,0:0:0:70:tom.wav
192,192,75641,1,0,0:0:0:0:
320,192,75793,1,0,0:0:0:70:whistle.wav
192,192,75945,1,0,0:0:0:0:
448,192,76096,1,0,0:0:0:70:tom.wav
320,192,76248,1,0,0:0:0:70:whistle.wav
192,192,76399,1,0,0:0:0:0:
64,192,76551,1,0,0:0:0:70:whistle.wav
448,192,76702,1,0,0:0:0:70:tom.wav
192,192,76854,1,0,0:0:0:0:
320,192,77005,1,0,0:0:0:70:whistle.wav
64,192,77157,1,0,0:0:0:0:
192,192,77308,1,0,0:0:0:70:tom.wav
320,192,77460,128,0,77763:0:0:0:70:whistle.wav
64,192,77763,1,0,0:0:0:70:whistle.wav
192,192,77914,1,0,0:0:0:70:tom.wav
320,192,78066,1,0,0:0:0:0:
64,192,78217,1,0,0:0:0:70:whistle.wav
192,192,78369,1,0,0:0:0:0:
448,192,78520,1,0,0:0:0:70:tom.wav
320,192,78672,1,0,0:0:0:70:whistle.wav
192,192,78823,1,0,0:0:0:0:
64,192,78975,1,0,0:0:0:70:whistle.wav
320,192,79126,1,0,0:0:0:70:tom.wav
448,192,79278,1,0,0:0:0:0:
64,192,79429,1,0,0:0:0:70:whistle.wav
320,192,79581,1,0,0:0:0:70:tom.wav
192,192,79732,1,0,0:0:0:70:tom.wav
64,192,79884,1,0,0:0:0:70:whistle.wav
448,192,80035,1,0,0:0:0:70:tom.wav
320,192,80187,1,0,0:0:0:70:whistle.wav
192,192,80338,1,0,0:0:0:70:tom.wav
320,192,80490,1,0,0:0:0:70:whistle.wav
64,192,80641,1,0,0:0:0:70:whistle.wav
448,192,80641,1,0,0:0:0:50:finish.wav
192,192,80793,1,0,0:0:0:0:
320,192,80945,128,0,81248:0:0:0:70:tom.wav
448,192,81248,1,0,0:0:0:0:
320,192,81399,1,0,0:0:0:70:whistle.wav
192,192,81551,1,0,0:0:0:70:tom.wav
64,192,81702,128,0,82005:0:0:0:0:
320,192,82005,1,0,0:0:0:0:
192,192,82157,1,0,0:0:0:70:tom.wav
64,192,82308,1,0,0:0:0:70:whistle.wav
320,192,82460,1,0,0:0:0:0:
192,192,82611,1,0,0:0:0:70:whistle.wav
320,192,82763,128,0,83066:0:0:0:70:tom.wav
64,192,83066,1,0,0:0:0:70:whistle.wav
320,192,83217,1,0,0:0:0:0:
192,192,83369,128,0,83672:0:0:0:70:tom.wav
64,192,83672,1,0,0:0:0:0:
192,192,83823,1,0,0:0:0:70:whistle.wav
320,192,83975,1,0,0:0:0:70:tom.wav
448,192,84126,128,0,84429:0:0:0:0:
192,192,84429,1,0,0:0:0:0:
64,192,84581,1,0,0:0:0:70:tom.wav
320,192,84732,128,0,85035:0:0:0:70:whistle.wav
64,192,85035,1,0,0:0:0:70:whistle.wav
192,192,85187,1,0,0:0:0:70:tom.wav
320,192,85338,1,0,0:0:0:0:
64,192,85490,1,0,0:0:0:70:whistle.wav
448,192,85490,1,0,0:0:0:50:finish.wav
192,192,85641,1,0,0:0:0:0:
320,192,85793,1,0,0:0:0:70:tom.wav
192,192,85945,1,0,0:0:0:70:whistle.wav
448,192,86096,128,0,86248:0:0:0:0:
320,192,86248,128,0,86399:0:0:0:70:whistle.wav
192,192,86399,128,0,86551:0:0:0:70:tom.wav
64,192,86551,128,0,86702:0:0:0:0:
320,192,86702,1,0,0:0:0:70:whistle.wav
448,192,86702,1,0,0:0:0:50:finish.wav
192,192,86854,1,0,0:0:0:0:
64,192,87005,1,0,0:0:0:70:tom.wav
448,192,87157,1,0,0:0:0:70:whistle.wav
320,192,87308,128,0,87611:0:0:0:0:
192,192,87611,1,0,0:0:0:70:tom.wav
320,192,87763,1,0,0:0:0:0:
64,192,87914,1,0,0:0:0:70:whistle.wav
448,192,87914,1,0,0:0:0:50:finish.wav
320,192,88066,1,0,0:0:0:0:
192,192,88217,1,0,0:0:0:70:tom.wav
320,192,88369,1,0,0:0:0:70:whistle.wav
64,192,88520,1,0,0:0:0:50:finish.wav
448,192,88520,1,0,0:0:0:70:tom.wav
192,192,88672,1,0,0:0:0:0:
320,192,88823,1,0,0:0:0:70:tom.wav
64,192,88975,1,0,0:0:0:70:whistle.wav
192,192,89126,1,0,0:0:0:50:finish.wav
448,192,89126,1,0,0:0:0:70:tom.wav
320,192,89278,1,0,0:0:0:70:whistle.wav
192,192,89429,1,0,0:0:0:70:whistle.wav
64,192,89581,1,0,0:0:0:70:whistle.wav
320,192,89732,1,0,0:0:0:70:whistle.wav
192,192,89884,1,0,0:0:0:70:whistle.wav
448,192,90035,1,0,0:0:0:70:tom.wav
320,192,90187,1,0,0:0:0:70:whistle.wav
64,192,90338,1,0,0:0:0:50:finish.wav
192,192,90338,1,0,0:0:0:70:snare.wav
320,192,90490,1,0,0:0:0:0:
64,192,90641,1,0,0:0:0:70:snare.wav
448,192,90641,1,0,0:0:0:0:
192,192,90945,1,0,0:0:0:70:snare.wav
320,192,90945,1,0,0:0:0:0:
448,192,91096,1,0,0:0:0:0:
64,192,91248,1,0,0:0:0:70:snare.wav
192,192,91248,1,0,0:0:0:0:
320,192,91399,1,0,0:0:0:0:
64,192,91551,1,0,0:0:0:70:snare.wav
448,192,91551,1,0,0:0:0:0:
320,192,91778,1,0,0:0:0:0:
192,192,91854,1,0,0:0:0:70:snare.wav
448,192,92005,1,0,0:0:0:0:
192,192,92157,1,0,0:0:0:70:snare.wav
320,192,92232,1,0,0:0:0:0:
64,192,92460,1,0,0:0:0:70:snare.wav
448,192,92460,1,0,0:0:0:0:
320,192,92611,1,0,0:0:0:70:snare.wav
192,192,92763,1,0,0:0:0:70:snare.wav
448,192,92763,1,0,0:0:0:0:
64,192,92914,1,0,0:0:0:0:
320,192,93066,1,0,0:0:0:70:snare.wav
448,192,93066,1,0,0:0:0:0:
192,192,93217,1,0,0:0:0:0:
64,192,93369,1,0,0:0:0:70:snare.wav
448,192,93369,1,0,0:0:0:0:
192,192,93596,1,0,0:0:0:0:
320,192,93672,1,0,0:0:0:70:snare.wav
64,192,93823,1,0,0:0:0:0:
192,192,93975,1,0,0:0:0:70:snare.wav
448,192,93975,1,0,0:0:0:0:
320,192,94202,1,0,0:0:0:0:
64,192,94278,1,0,0:0:0:70:snare.wav
448,192,94429,1,0,0:0:0:0:
64,192,94581,1,0,0:0:0:70:snare.wav
320,192,94581,1,0,0:0:0:0:
192,192,94732,1,0,0:0:0:0:
64,192,94884,1,0,0:0:0:70:snare.wav
448,192,94884,1,0,0:0:0:0:
320,192,95035,1,0,0:0:0:70:snare.wav
64,192,95187,1,0,0:0:0:70:whistle.wav
192,192,95187,1,0,0:0:0:50:finish.wav
448,192,95338,1,0,0:0:0:70:tom.wav
320,192,95490,1,0,0:0:0:70:whistle.wav
192,192,95641,1,0,0:0:0:70:tom.wav
64,192,95793,1,0,0:0:0:70:whistle.wav
320,192,95945,1,0,0:0:0:70:tom.wav
192,192,96096,1,0,0:0:0:70:whistle.wav
448,192,96248,1,0,0:0:0:70:tom.wav
64,192,96399,1,0,0:0:0:70:whistle.wav
192,192,96551,1,0,0:0:0:70:tom.wav
320,192,96702,1,0,0:0:0:70:whistle.wav
448,192,96854,1,0,0:0:0:70:tom.wav
64,192,97005,1,0,0:0:0:70:whistle.wav
320,192,97157,1,0,0:0:0:70:tom.wav
192,192,97308,1,0,0:0:0:70:whistle.wav
64,192,97460,1,0,0:0:0:70:tom.wav
320,192,97611,128,0,97763:0:0:0:70:whistle.wav
448,192,97611,1,0,0:0:0:50:finish.wav
192,192,97763,128,0,97914:0:0:0:70:tom.wav
64,192,97914,128,0,98066:0:0:0:70:whistle.wav
320,192,98066,128,0,98217:0:0:0:70:tom.wav
192,192,98217,128,0,98369:0:0:0:70:whistle.wav
448,192,98217,1,0,0:0:0:50:finish.wav
320,192,98369,128,0,98520:0:0:0:70:tom.wav
448,192,98520,128,0,98672:0:0:0:70:whistle.wav
192,192,98672,128,0,98823:0:0:0:70:tom.wav
64,192,98823,1,0,0:0:0:70:whistle.wav
320,192,98823,1,0,0:0:0:50:finish.wav
192,192,99126,1,0,0:0:0:70:whistle.wav
448,192,99126,1,0,0:0:0:0:
64,192,99429,1,0,0:0:0:70:whistle.wav
320,192,99429,1,0,0:0:0:50:finish.wav
320,192,99732,1,0,0:0:0:70:whistle.wav
448,192,99732,1,0,0:0:0:0:
64,192,100035,1,0,0:0:0:70:whistle.wav
192,192,100035,1,0,0:0:0:50:finish.wav
320,192,100338,1,0,0:0:0:0:
64,192,100641,1,0,0:0:0:0:
448,192,100641,1,0,0:0:0:0:
192,192,100945,1,0,0:0:0:0:
320,192,101248,1,0,0:0:0:0:
448,192,101248,1,0,0:0:0:0:
64,192,101551,1,0,0:0:0:0:
192,192,101854,1,0,0:0:0:0:
448,192,101854,1,0,0:0:0:0:
320,192,102157,1,0,0:0:0:0:
448,192,102308,1,0,0:0:0:70:whistle.wav
64,192,102460,1,0,0:0:0:70:whistle.wav
192,192,102460,1,0,0:0:0:50:finish.wav
320,192,102763,1,0,0:0:0:0:
64,192,103066,1,0,0:0:0:0:
448,192,103066,1,0,0:0:0:0:
192,192,103369,1,0,0:0:0:0:
64,192,103672,1,0,0:0:0:0:
320,192,103672,1,0,0:0:0:0:
448,192,103975,1,0,0:0:0:0:
192,192,104278,1,0,0:0:0:0:
64,192,104429,1,0,0:0:0:70:whistle.wav
320,192,104429,1,0,0:0:0:50:finish.wav
320,192,104732,1,0,0:0:0:70:whistle.wav
192,192,104884,1,0,0:0:0:70:whistle.wav
448,192,104884,1,0,0:0:0:50:finish.wav
320,192,105187,1,0,0:0:0:0:
64,192,105490,1,0,0:0:0:0:
192,192,105490,1,0,0:0:0:0:
448,192,105793,1,0,0:0:0:0:
64,192,106096,1,0,0:0:0:0:
320,192,106096,1,0,0:0:0:0:
192,192,106399,1,0,0:0:0:0:
64,192,106702,1,0,0:0:0:0:
448,192,106702,1,0,0:0:0:0:
192,192,107005,1,0,0:0:0:0:
64,192,107157,1,0,0:0:0:70:whistle.wav
320,192,107308,1,0,0:0:0:70:whistle.wav
448,192,107308,1,0,0:0:0:50:finish.wav
192,192,107611,1,0,0:0:0:0:
64,192,107914,1,0,0:0:0:0:
320,192,107914,1,0,0:0:0:0:
448,192,108217,1,0,0:0:0:0:
64,192,108520,1,0,0:0:0:0:
192,192,108520,1,0,0:0:0:0:
320,192,108823,1,0,0:0:0:0:
192,192,109126,1,0,0:0:0:0:
64,192,109278,1,0,0:0:0:70:whistle.wav
448,192,109278,1,0,0:0:0:50:finish.wav
320,192,109429,1,0,0:0:0:0:
192,192,109581,1,0,0:0:0:70:whistle.wav
64,192,109732,1,0,0:0:0:70:whistle.wav
448,192,109732,1,0,0:0:0:50:finish.wav
64,192,110035,1,0,0:0:0:70:snare.wav
320,192,110035,1,0,0:0:0:0:
192,192,110338,1,0,0:0:0:70:whistle.wav
448,192,110338,1,0,0:0:0:0:
192,192,110641,1,0,0:0:0:70:snare.wav
320,192,110641,1,0,0:0:0:0:
64,192,110945,1,0,0:0:0:70:whistle.wav
320,192,110945,1,0,0:0:0:0:
64,192,111248,1,0,0:0:0:70:snare.wav
448,192,111248,1,0,0:0:0:0:
320,192,111551,1,0,0:0:0:70:whistle.wav
448,192,111551,1,0,0:0:0:0:
192,192,111854,1,0,0:0:0:70:snare.wav
320,192,112005,1,0,0:0:0:70:snare.wav
64,192,112157,1,0,0:0:0:70:whistle.wav
448,192,112157,1,0,0:0:0:0:
192,192,112308,1,0,0:0:0:0:
320,192,112460,1,0,0:0:0:70:snare.wav
192,192,112611,1,0,0:0:0:0:
64,192,112763,1,0,0:0:0:70:whistle.wav
448,192,112763,1,0,0:0:0:0:
320,192,112914,1,0,0:0:0:0:
192,192,113066,1,0,0:0:0:70:snare.wav
320,192,113217,1,0,0:0:0:0:
64,192,113369,1,0,0:0:0:70:whistle.wav
448,192,113369,1,0,0:0:0:0:
192,192,113520,1,0,0:0:0:0:
448,192,113672,1,0,0:0:0:70:snare.wav
320,192,113823,1,0,0:0:0:0:
64,192,113975,1,0,0:0:0:70:whistle.wav
192,192,113975,1,0,0:0:0:0:
448,192,114126,1,0,0:0:0:0:
320,192,114278,1,0,0:0:0:70:snare.wav
192,192,114429,1,0,0:0:0:70:snare.wav
64,192,114581,1,0,0:0:0:70:whistle.wav
448,192,114581,1,0,0:0:0:70:snare.wav
320,192,114732,1,0,0:0:0:70:snare.wav
64,192,114884,1,0,0:0:0:70:whistle.wav
192,192,115035,1,0,0:0:0:70:snare.wav
320,192,115187,1,0,0:0:0:70:whistle.wav
448,192,115187,1,0,0:0:0:70:snare.wav
192,192,115338,1,0,0:0:0:70:snare.wav
64,192,115490,1,0,0:0:0:70:whistle.wav
320,192,115641,1,0,0:0:0:70:snare.wav
192,192,115793,1,0,0:0:0:70:whistle.wav
448,192,115793,1,0,0:0:0:70:snare.wav
320,192,115945,1,0,0:0:0:70:snare.wav
64,192,116096,1,0,0:0:0:70:whistle.wav
192,192,116248,1,0,0:0:0:70:snare.wav
320,192,116399,1,0,0:0:0:70:whistle.wav
448,192,116399,1,0,0:0:0:70:snare.wav
64,192,116551,1,0,0:0:0:70:snare.wav
192,192,116702,1,0,0:0:0:70:whistle.wav
320,192,116854,1,0,0:0:0:70:snare.wav
64,192,117005,1,0,0:0:0:70:whistle.wav
448,192,117005,1,0,0:0:0:70:snare.wav
320,192,117157,1,0,0:0:0:70:snare.wav
64,192,117308,1,0,0:0:0:70:whistle.wav
192,192,117460,1,0,0:0:0:70:snare.wav
448,192,117611,128,0,117763:0:0:0:70:whistle.wav
320,192,117763,128,0,117914:0:0:0:70:snare.wav
192,192,117914,128,0,118066:0:0:0:70:whistle.wav
64,192,118066,128,0,118217:0:0:0:70:snare.wav
320,192,118217,1,0,0:0:0:70:whistle.wav
448,192,118217,128,0,118520:0:0:0:50:finish.wav
192,192,118520,128,0,118823:0:0:0:0:
320,192,118823,128,0,119126:0:0:0:0:
64,192,119126,128,0,119429:0:0:0:0:
192,192,119429,1,0,0:0:0:70:whistle.wav
448,192,119429,128,0,119732:0:0:0:50:finish.wav
64,192,119732,128,0,120035:0:0:0:70:whistle.wav
320,192,120035,128,0,120338:0:0:0:70:whistle.wav
192,192,120338,128,0,120641:0:0:0:70:whistle.wav
448,192,120641,128,0,120945:0:0:0:70:whistle.wav
320,192,120945,128,0,121248:0:0:0:70:whistle.wav
64,192,121248,128,0,121551:0:0:0:70:whistle.wav
320,192,121551,1,0,0:0:0:70:whistle.wav
448,192,121753,1,0,0:0:0:70:whistle.wav
64,192,121854,128,0,122157:0:0:0:70:whistle.wav
448,192,122157,128,0,122460:0:0:0:70:whistle.wav
192,192,122460,128,0,122763:0:0:0:70:whistle.wav
320,192,122763,128,0,123066:0:0:0:70:whistle.wav
64,192,123066,1,0,0:0:0:70:whistle.wav
320,192,123268,1,0,0:0:0:70:whistle.wav
192,192,123369,128,0,123672:0:0:0:70:whistle.wav
448,192,123672,128,0,123975:0:0:0:70:whistle.wav
64,192,123975,1,0,0:0:0:70:whistle.wav
192,192,124076,1,0,0:0:0:70:whistle.wav
320,192,124177,1,0,0:0:0:70:whistle.wav
448,192,124278,128,0,124581:0:0:0:70:whistle.wav
64,192,124581,1,0,0:0:0:70:whistle.wav
192,192,124682,1,0,0:0:0:0:
320,192,124783,1,0,0:0:0:0:
64,192,124884,1,0,0:0:0:70:whistle.wav
448,192,124985,1,0,0:0:0:0:
320,192,125086,1,0,0:0:0:0:
192,192,125187,128,0,125490:0:0:0:70:whistle.wav
448,192,125490,128,0,125793:0:0:0:70:whistle.wav
64,192,125793,128,0,126096:0:0:0:70:whistle.wav
320,192,126096,128,0,126399:0:0:0:70:whistle.wav
64,192,126399,1,0,0:0:0:70:whistle.wav
448,192,126601,1,0,0:0:0:70:whistle.wav
192,192,126702,1,0,0:0:0:70:whistle.wav
64,192,126904,1,0,0:0:0:70:whistle.wav
320,192,127005,1,0,0:0:0:70:whistle.wav
64,192,127207,1,0,0:0:0:0:
192,192,127308,1,0,0:0:0:70:whistle.wav
448,192,127510,1,0,0:0:0:0:
320,192,127611,1,0,0:0:0:70:whistle.wav
64,192,127813,1,0,0:0:0:70:whistle.wav
192,192,127914,1,0,0:0:0:70:whistle.wav
320,192,128015,1,0,0:0:0:70:whistle.wav
448,192,128116,1,0,0:0:0:70:whistle.wav
64,192,128217,1,0,0:0:0:70:whistle.wav
192,192,128318,1,0,0:0:0:70:whistle.wav
448,192,128419,1,0,0:0:0:70:whistle.wav
320,192,128520,1,0,0:0:0:70:whistle.wav
192,192,128823,1,0,0:0:0:70:tom.wav
448,192,128975,1,0,0:0:0:0:
64,192,129126,128,0,129429:0:0:0:70:whistle.wav
320,192,129126,1,0,0:0:0:50:finish.wav
448,192,129429,1,0,0:0:0:70:tom.wav
320,192,129581,1,0,0:0:0:70:whistle.wav
64,192,129732,1,0,0:0:0:0:
192,192,129884,1,0,0:0:0:70:whistle.wav
320,192,130035,1,0,0:0:0:70:tom.wav
192,192,130187,128,0,130490:0:0:0:0:
320,192,130490,1,0,0:0:0:0:
448,192,130641,1,0,0:0:0:70:tom.wav
64,192,130793,1,0,0:0:0:70:whistle.wav
320,192,130945,1,0,0:0:0:0:
448,192,131096,1,0,0:0:0:70:whistle.wav
192,192,131248,1,0,0:0:0:70:tom.wav
64,192,131399,1,0,0:0:0:0:
320,192,131551,128,0,131854:0:0:0:70:whistle.wav
192,192,131854,1,0,0:0:0:70:tom.wav
320,192,132005,1,0,0:0:0:70:whistle.wav
448,192,132157,1,0,0:0:0:0:
192,192,132308,1,0,0:0:0:70:whistle.wav
320,192,132460,1,0,0:0:0:70:tom.wav
64,192,132611,128,0,132914:0:0:0:0:
320,192,132914,1,0,0:0:0:0:
192,192,133066,1,0,0:0:0:70:tom.wav
448,192,133217,1,0,0:0:0:70:whistle.wav
320,192,133369,1,0,0:0:0:0:
64,192,133520,1,0,0:0:0:70:whistle.wav
192,192,133672,1,0,0:0:0:70:tom.wav
320,192,133823,1,0,0:0:0:0:
448,192,133975,128,0,134278:0:0:0:70:whistle.wav
64,192,134278,1,0,0:0:0:70:tom.wav
192,192,134429,1,0,0:0:0:70:whistle.wav
448,192,134581,1,0,0:0:0:0:
320,192,134732,1,0,0:0:0:70:whistle.wav
192,192,134884,1,0,0:0:0:70:tom.wav
448,192,135035,128,0,135338:0:0:0:0:
320,192,135338,1,0,0:0:0:0:
192,192,135490,1,0,0:0:0:70:tom.wav
64,192,135641,1,0,0:0:0:70:whistle.wav
320,192,135793,1,0,0:0:0:70:whistle.wav
448,192,135793,1,0,0:0:0:50:finish.wav
64,192,135945,1,0,0:0:0:70:whistle.wav
192,192,135945,128,0,136248:0:0:0:50:finish.wav
320,192,136248,1,0,0:0:0:70:whistle.wav
64,192,136399,1,0,0:0:0:70:whistle.wav
448,192,136399,1,0,0:0:0:50:finish.wav
192,192,136551,1,0,0:0:0:0:
320,192,136702,1,0,0:0:0:70:tom.wav
448,192,136854,1,0,0:0:0:0:
64,192,137005,1,0,0:0:0:70:whistle.wav
192,192,137005,1,0,0:0:0:50:finish.wav
320,192,137157,1,0,0:0:0:0:
192,192,137308,1,0,0:0:0:70:tom.wav
64,192,137460,1,0,0:0:0:70:whistle.wav
320,192,137611,1,0,0:0:0:70:whistle.wav
448,192,137611,1,0,0:0:0:50:finish.wav
192,192,137763,1,0,0:0:0:70:whistle.wav
448,192,137914,1,0,0:0:0:70:whistle.wav
320,192,138066,1,0,0:0:0:70:whistle.wav
64,192,138217,128,0,138369:0:0:0:70:whistle.wav
448,192,138217,1,0,0:0:0:50:finish.wav
192,192,138369,128,0,138520:0:0:0:70:whistle.wav
64,192,138520,1,0,0:0:0:70:whistle.wav
448,192,138520,128,0,138672:0:0:0:50:finish.wav
320,192,138672,128,0,138823:0:0:0:70:whistle.wav
64,192,138823,1,0,0:0:0:70:whistle.wav
192,192,138823,1,0,0:0:0:50:finish.wav
448,192,139126,1,0,0:0:0:0:
64,192,139429,1,0,0:0:0:70:whistle.wav
320,192,139429,1,0,0:0:0:50:finish.wav
192,192,139732,1,0,0:0:0:0:
448,192,140035,1,0,0:0:0:70:whistle.wav
320,192,140136,1,0,0:0:0:70:whistle.wav
192,192,140237,1,0,0:0:0:70:whistle.wav
64,192,140338,1,0,0:0:0:70:whistle.wav
448,192,140439,1,0,0:0:0:70:whistle.wav
320,192,140540,1,0,0:0:0:70:whistle.wav
64,192,140641,1,0,0:0:0:70:whistle.wav
192,192,140641,1,0,0:0:0:50:finish.wav
192,192,140945,128,0,141248:0:0:0:70:whistle.wav
320,192,141248,1,0,0:0:0:70:whistle.wav
448,192,141248,1,0,0:0:0:50:finish.wav
64,192,141551,1,0,0:0:0:70:snare.wav
192,192,141551,1,0,0:0:0:0:
320,192,141702,1,0,0:0:0:70:whistle.wav
192,192,141854,1,0,0:0:0:0:
64,192,142005,1,0,0:0:0:70:whistle.wav
320,192,142157,1,0,0:0:0:70:snare.wav
448,192,142157,1,0,0:0:0:0:
192,192,142460,1,0,0:0:0:70:whistle.wav
448,192,142460,1,0,0:0:0:0:
64,192,142763,1,0,0:0:0:70:snare.wav
320,192,142763,1,0,0:0:0:0:
448,192,142914,1,0,0:0:0:70:whistle.wav
64,192,143217,1,0,0:0:0:70:whistle.wav
192,192,143369,1,0,0:0:0:70:snare.wav
320,192,143369,1,0,0:0:0:0:
448,192,143520,1,0,0:0:0:0:
64,192,143672,1,0,0:0:0:70:whistle.wav
192,192,143672,1,0,0:0:0:0:
320,192,143975,1,0,0:0:0:70:snare.wav
448,192,143975,1,0,0:0:0:0:
64,192,144126,1,0,0:0:0:70:whistle.wav
448,192,144278,1,0,0:0:0:0:
192,192,144429,1,0,0:0:0:70:whistle.wav
64,192,144581,1,0,0:0:0:70:snare.wav
320,192,144581,1,0,0:0:0:0:
192,192,144884,1,0,0:0:0:70:whistle.wav
448,192,144884,1,0,0:0:0:0:
192,192,145187,1,0,0:0:0:70:snare.wav
320,192,145187,1,0,0:0:0:0:
448,192,145338,1,0,0:0:0:70:whistle.wav
64,192,145641,1,0,0:0:0:70:whistle.wav
192,192,145793,1,0,0:0:0:70:snare.wav
320,192,145793,1,0,0:0:0:0:
448,192,145945,1,0,0:0:0:0:
64,192,146096,1,0,0:0:0:70:whistle.wav
192,192,146096,1,0,0:0:0:0:
320,192,146399,1,0,0:0:0:70:snare.wav
448,192,146399,1,0,0:0:0:0:
192,192,146551,1,0,0:0:0:70:whistle.wav
64,192,146854,1,0,0:0:0:70:whistle.wav
320,192,147005,1,0,0:0:0:70:snare.wav
448,192,147005,1,0,0:0:0:0:
192,192,147157,1,0,0:0:0:0:
64,192,147308,1,0,0:0:0:70:whistle.wav
320,192,147308,1,0,0:0:0:0:
192,192,147611,1,0,0:0:0:70:snare.wav
448,192,147611,1,0,0:0:0:0:
64,192,147763,1,0,0:0:0:70:whistle.wav
448,192,148066,1,0,0:0:0:70:whistle.wav
192,192,148217,1,0,0:0:0:70:snare.wav
320,192,148217,1,0,0:0:0:0:
64,192,148369,1,0,0:0:0:0:
320,192,148520,1,0,0:0:0:70:whistle.wav
448,192,148520,1,0,0:0:0:0:
64,192,148823,1,0,0:0:0:70:snare.wav
192,192,148823,1,0,0:0:0:0:
320,192,148975,1,0,0:0:0:70:whistle.wav
448,192,149126,1,0,0:0:0:70:whistle.wav
192,192,149278,1,0,0:0:0:0:
320,192,149429,1,0,0:0:0:70:snare.wav
192,192,149581,1,0,0:0:0:70:whistle.wav
64,192,149732,1,0,0:0:0:70:whistle.wav
448,192,149732,1,0,0:0:0:50:finish.wav
320,192,149884,1,0,0:0:0:70:snare.wav
192,192,150035,1,0,0:0:0:70:snare.wav
448,192,150187,1,0,0:0:0:70:whistle.wav
64,192,150338,1,0,0:0:0:70:whistle.wav
320,192,150338,128,0,150490:0:0:0:70:snare.wav
192,192,150490,128,0,150641:0:0:0:70:whistle.wav
64,192,150641,1,0,0:0:0:70:whistle.wav
448,192,150641,128,0,150793:0:0:0:70:snare.wav
320,192,150793,128,0,150945:0:0:0:70:whistle.wav
64,192,150945,1,0,0:0:0:70:whistle.wav
192,192,150945,1,0,0:0:0:50:finish.wav
448,192,151248,1,0,0:0:0:70:snare.wav
192,192,151399,128,0,151702:0:0:0:70:whistle.wav
448,192,151702,1,0,0:0:0:70:whistle.wav
64,192,151854,1,0,0:0:0:70:snare.wav
320,192,152005,128,0,152308:0:0:0:0:
192,192,152308,1,0,0:0:0:0:
448,192,152460,1,0,0:0:0:70:snare.wav
64,192,152611,128,0,152914:0:0:0:70:whistle.wav
448,192,152914,1,0,0:0:0:70:whistle.wav
192,192,153066,1,0,0:0:0:70:snare.wav
64,192,153217,1,0,0:0:0:0:
320,192,153369,1,0,0:0:0:70:whistle.wav
448,192,153369,128,0,153672:0:0:0:50:finish.wav
64,192,153672,1,0,0:0:0:70:snare.wav
320,192,153823,128,0,154126:0:0:0:70:whistle.wav
64,192,154126,1,0,0:0:0:70:whistle.wav
448,192,154278,1,0,0:0:0:70:snare.wav
192,192,154429,128,0,154732:0:0:0:0:
448,192,154732,1,0,0:0:0:0:
320,192,154884,1,0,0:0:0:70:snare.wav
64,192,155035,128,0,155338:0:0:0:70:whistle.wav
448,192,155338,1,0,0:0:0:70:whistle.wav
320,192,155490,1,0,0:0:0:70:snare.wav
64,192,155641,1,0,0:0:0:0:
320,192,155793,128,0,155945:0:0:0:70:whistle.wav
448,192,155793,1,0,0:0:0:50:finish.wav
192,192,155945,128,0,156096:0:0:0:0:
64,192,156096,128,0,156248:0:0:0:70:snare.wav
320,192,156248,128,0,156551:0:0:0:70:whistle.wav
192,192,156551,1,0,0:0:0:70:whistle.wav
320,192,156702,1,0,0:0:0:70:snare.wav
448,192,156854,1,0,0:0:0:0:
64,192,157005,1,0,0:0:0:70:whistle.wav
192,192,157005,128,0,157157:0:0:0:50:finish.wav
320,192,157157,128,0,157308:0:0:0:0:
448,192,157308,128,0,157460:0:0:0:70:snare.wav
192,192,157460,128,0,157763:0:0:0:70:whistle.wav
320,192,157763,1,0,0:0:0:0:
192,192,157914,1,0,0:0:0:70:snare.wav
64,192,158066,1,0,0:0:0:70:whistle.wav
320,192,158217,1,0,0:0:0:70:whistle.wav
448,192,158217,1,0,0:0:0:50:finish.wav
64,192,158369,1,0,0:0:0:70:whistle.wav
192,192,158520,1,0,0:0:0:70:whistle.wav
320,192,158672,1,0,0:0:0:70:whistle.wav
64,192,158823,128,0,158975:0:0:0:70:whistle.wav
448,192,158975,128,0,159126:0:0:0:70:whistle.wav
320,192,159126,128,0,159278:0:0:0:70:whistle.wav
192,192,159278,128,0,159429:0:0:0:70:whistle.wav
64,192,159429,1,0,0:0:0:70:whistle.wav
448,192,159429,1,0,0:0:0:50:finish.wav
192,192,159732,1,0,0:0:0:0:
64,192,160035,1,0,0:0:0:0:
192,192,160187,1,0,0:0:0:0:
448,192,160338,1,0,0:0:0:70:whistle.wav
320,192,160490,1,0,0:0:0:0:
64,192,160641,1,0,0:0:0:70:whistle.wav
192,192,160641,1,0,0:0:0:50:finish.wav
448,192,160945,1,0,0:0:0:70:whistle.wav
320,192,161096,1,0,0:0:0:0:
192,192,161248,1,0,0:0:0:70:snare.wav
64,192,161399,1,0,0:0:0:70:whistle.wav
320,192,161551,1,0,0:0:0:70:whistle.wav
192,192,161702,1,0,0:0:0:0:
448,192,161854,1,0,0:0:0:70:whistle.wav
320,192,162005,1,0,0:0:0:0:
64,192,162157,1,0,0:0:0:70:whistle.wav
192,192,162308,1,0,0:0:0:0:
320,192,162460,1,0,0:0:0:70:snare.wav
448,192,162611,1,0,0:0:0:70:whistle.wav
192,192,162763,1,0,0:0:0:70:whistle.wav
320,192,162914,1,0,0:0:0:0:
64,192,163066,1,0,0:0:0:70:whistle.wav
192,192,163217,1,0,0:0:0:0:
320,192,163369,1,0,0:0:0:70:whistle.wav
64,192,163520,1,0,0:0:0:0:
448,192,163672,1,0,0:0:0:70:snare.wav
320,192,163823,1,0,0:0:0:70:whistle.wav
192,192,163975,1,0,0:0:0:70:whistle.wav
64,192,164126,1,0,0:0:0:0:
448,192,164278,128,0,164429:0:0:0:70:whistle.wav
320,192,164429,128,0,164581:0:0:0:0:
64,192,164581,128,0,164732:0:0:0:70:whistle.wav
192,192,164732,128,0,164884:0:0:0:0:
448,192,164884,128,0,165035:0:0:0:70:snare.wav
320,192,165035,128,0,165187:0:0:0:70:whistle.wav
64,192,165187,128,0,165338:0:0:0:70:whistle.wav
192,192,165338,128,0,165490:0:0:0:0:
320,192,165490,1,0,0:0:0:70:whistle.wav
448,192,165490,1,0,0:0:0:50:finish.wav
192,192,165641,1,0,0:0:0:0:
64,192,165793,1,0,0:0:0:70:whistle.wav
320,192,165945,1,0,0:0:0:0:
448,192,166096,1,0,0:0:0:70:snare.wav
192,192,166248,1,0,0:0:0:70:whistle.wav
320,192,166399,1,0,0:0:0:70:whistle.wav
448,192,166551,1,0,0:0:0:0:
64,192,166702,1,0,0:0:0:70:whistle.wav
192,192,166702,1,0,0:0:0:50:finish.wav
320,192,166854,1,0,0:0:0:0:
448,192,167005,1,0,0:0:0:70:whistle.wav
192,192,167157,1,0,0:0:0:0:
64,192,167308,1,0,0:0:0:70:snare.wav
320,192,167460,1,0,0:0:0:70:whistle.wav
192,192,167611,1,0,0:0:0:70:whistle.wav
64,192,167763,1,0,0:0:0:0:
192,192,167914,1,0,0:0:0:70:whistle.wav
448,192,167914,1,0,0:0:0:50:finish.wav
320,192,168066,1,0,0:0:0:0:
64,192,168217,1,0,0:0:0:70:whistle.wav
448,192,168369,1,0,0:0:0:0:
320,192,168520,1,0,0:0:0:70:snare.wav
192,192,168672,1,0,0:0:0:70:whistle.wav
64,192,168823,1,0,0:0:0:70:whistle.wav
320,192,168975,1,0,0:0:0:0:
64,192,169126,1,0,0:0:0:70:whistle.wav
448,192,169126,1,0,0:0:0:0:
192,192,170035,128,0,170338:0:0:0:0:
64,192,170338,1,0,0:0:0:70:whistle.wav
448,192,170338,1,0,0:0:0:50:finish.wav
192,192,170490,1,0,0:0:0:0:
320,192,170641,128,0,170945:0:0:0:0:
448,192,170945,1,0,0:0:0:0:
320,192,171096,1,0,0:0:0:0:
192,192,171248,1,0,0:0:0:0:
64,192,171399,128,0,171702:0:0:0:0:
320,192,171702,1,0,0:0:0:0:
448,192,171854,1,0,0:0:0:0:
64,192,172005,1,0,0:0:0:0:
320,192,172157,1,0,0:0:0:0:
192,192,172308,1,0,0:0:0:0:
320,192,172460,128,0,172763:0:0:0:0:
448,192,172763,1,0,0:0:0:0:
320,192,172914,1,0,0:0:0:0:
192,192,173066,128,0,173369:0:0:0:0:
64,192,173369,1,0,0:0:0:0:
192,192,173520,1,0,0:0:0:0:
320,192,173672,1,0,0:0:0:0:
448,192,173823,128,0,174126:0:0:0:0:
192,192,174126,1,0,0:0:0:0:
64,192,174278,1,0,0:0:0:0:
320,192,174429,128,0,174884:0:0:0:0:
192,192,174884,1,0,0:0:0:0:
320,192,175035,1,0,0:0:0:0:
64,192,175187,1,0,0:0:0:70:whistle.wav
448,192,175187,1,0,0:0:0:50:finish.wav
192,192,175338,1,0,0:0:0:0:
448,192,175490,1,0,0:0:0:0:
320,192,175641,1,0,0:0:0:0:
192,192,175793,1,0,0:0:0:0:
320,192,175945,1,0,0:0:0:0:
64,192,176096,1,0,0:0:0:0:
320,192,176248,1,0,0:0:0:70:whistle.wav
64,192,176399,1,0,0:0:0:70:whistle.wav
192,192,176399,1,0,0:0:0:50:finish.wav
448,192,176551,1,0,0:0:0:0:
320,192,176702,1,0,0:0:0:0:
64,192,176854,1,0,0:0:0:0:
192,192,177005,1,0,0:0:0:0:
448,192,177157,1,0,0:0:0:0:
320,192,177308,1,0,0:0:0:0:
192,192,177460,1,0,0:0:0:70:whistle.wav
320,192,177535,1,0,0:0:0:70:whistle.wav
448,192,177611,1,0,0:0:0:70:whistle.wav
64,192,177763,1,0,0:0:0:70:whistle.wav
448,192,177914,1,0,0:0:0:0:
320,192,178066,1,0,0:0:0:70:whistle.wav
192,192,178141,1,0,0:0:0:70:whistle.wav
64,192,178217,1,0,0:0:0:70:whistle.wav
448,192,178369,1,0,0:0:0:70:whistle.wav
64,192,178520,1,0,0:0:0:0:
192,192,178672,1,0,0:0:0:70:whistle.wav
320,192,178748,1,0,0:0:0:70:whistle.wav
448,192,178823,1,0,0:0:0:70:whistle.wav
64,192,178975,1,0,0:0:0:70:whistle.wav
320,192,179126,1,0,0:0:0:70:whistle.wav
192,192,179278,1,0,0:0:0:70:whistle.wav
64,192,179429,1,0,0:0:0:70:whistle.wav
448,192,179429,128,0,179581:0:0:0:50:finish.wav
320,192,179581,128,0,179732:0:0:0:70:whistle.wav
192,192,179732,128,0,179884:0:0:0:70:whistle.wav
320,192,179884,128,0,180035:0:0:0:70:whistle.wav
64,192,180035,1,0,0:0:0:70:whistle.wav
448,192,180035,1,0,0:0:0:50:finish.wav
64,192,180338,1,0,0:0:0:50:finish.wav
448,192,180338,1,0,0:0:0:70:tom.wav
192,192,180490,1,0,0:0:0:70:whistle.wav
320,192,180641,1,0,0:0:0:0:
64,192,180793,1,0,0:0:0:70:whistle.wav
192,192,180945,1,0,0:0:0:70:tom.wav
448,192,181096,1,0,0:0:0:0:
64,192,181248,1,0,0:0:0:70:whistle.wav
320,192,181248,1,0,0:0:0:0:
320,192,181551,1,0,0:0:0:70:tom.wav
448,192,181551,1,0,0:0:0:0:
64,192,181702,1,0,0:0:0:70:whistle.wav
192,192,181854,1,0,0:0:0:0:
320,192,182005,1,0,0:0:0:70:whistle.wav
192,192,182157,1,0,0:0:0:70:tom.wav
448,192,182308,1,0,0:0:0:0:
64,192,182460,1,0,0:0:0:70:whistle.wav
320,192,182611,1,0,0:0:0:0:
64,192,182763,1,0,0:0:0:70:tom.wav
448,192,182763,1,0,0:0:0:0:
192,192,182914,1,0,0:0:0:70:whistle.wav
320,192,183066,1,0,0:0:0:0:
64,192,183217,1,0,0:0:0:70:whistle.wav
192,192,183369,1,0,0:0:0:70:tom.wav
320,192,183520,128,0,183823:0:0:0:0:
448,192,183823,1,0,0:0:0:0:
320,192,183975,1,0,0:0:0:70:tom.wav
192,192,184126,128,0,184429:0:0:0:70:whistle.wav
64,192,184429,1,0,0:0:0:70:whistle.wav
192,192,184581,1,0,0:0:0:70:tom.wav
320,192,184732,1,0,0:0:0:0:
64,192,184884,1,0,0:0:0:70:whistle.wav
448,192,184884,1,0,0:0:0:50:finish.wav
320,192,185111,1,0,0:0:0:0:
192,192,185338,1,0,0:0:0:70:whistle.wav
448,192,185490,128,0,185641:0:0:0:0:
320,192,185641,128,0,185793:0:0:0:70:whistle.wav
192,192,185793,128,0,185945:0:0:0:70:tom.wav
320,192,185945,128,0,186096:0:0:0:0:
64,192,186096,1,0,0:0:0:70:whistle.wav
448,192,186096,1,0,0:0:0:50:finish.wav
192,192,186323,1,0,0:0:0:0:
320,192,186551,1,0,0:0:0:70:whistle.wav
448,192,186702,1,0,0:0:0:0:
64,192,186854,1,0,0:0:0:70:whistle.wav
192,192,187005,1,0,0:0:0:70:tom.wav
320,192,187157,1,0,0:0:0:0:
192,192,187308,1,0,0:0:0:70:whistle.wav
448,192,187308,1,0,0:0:0:50:finish.wav
64,192,187460,1,0,0:0:0:0:
320,192,187611,1,0,0:0:0:70:tom.wav
192,192,187763,1,0,0:0:0:70:whistle.wav
64,192,187914,1,0,0:0:0:70:whistle.wav
448,192,187914,1,0,0:0:0:50:finish.wav
320,192,188066,1,0,0:0:0:0:
192,192,188217,1,0,0:0:0:70:tom.wav
448,192,188369,1,0,0:0:0:70:whistle.wav
64,192,188520,1,0,0:0:0:70:whistle.wav
320,192,188520,1,0,0:0:0:50:finish.wav
192,192,188672,1,0,0:0:0:70:whistle.wav
320,192,188823,1,0,0:0:0:70:whistle.wav
448,192,188975,1,0,0:0:0:70:whistle.wav
192,192,189126,128,0,189278:0:0:0:70:whistle.wav
320,192,189278,128,0,189429:0:0:0:70:whistle.wav
64,192,189429,1,0,0:0:0:70:whistle.wav
448,192,189429,128,0,189581:0:0:0:50:finish.wav
192,192,189581,128,0,189732:0:0:0:70:whistle.wav
64,192,189732,1,0,0:0:0:50:finish.wav
448,192,189732,1,0,0:0:0:70:snare.wav
192,192,189884,1,0,0:0:0:0:
320,192,190035,1,0,0:0:0:70:snare.wav
448,192,190035,1,0,0:0:0:0:
192,192,190338,1,0,0:0:0:70:snare.wav
320,192,190338,1,0,0:0:0:0:
448,192,190490,1,0,0:0:0:0:
64,192,190641,1,0,0:0:0:70:snare.wav
192,192,190641,1,0,0:0:0:0:
320,192,190793,1,0,0:0:0:0:
64,192,190945,1,0,0:0:0:70:snare.wav
448,192,190945,1,0,0:0:0:0:
192,192,191172,1,0,0:0:0:0:
320,192,191248,1,0,0:0:0:70:snare.wav
64,192,191399,1,0,0:0:0:0:
320,192,191551,1,0,0:0:0:70:snare.wav
192,192,191626,1,0,0:0:0:0:
64,192,191854,1,0,0:0:0:70:snare.wav
448,192,191854,1,0,0:0:0:0:
192,192,192005,1,0,0:0:0:70:snare.wav
64,192,192157,1,0,0:0:0:70:snare.wav
320,192,192157,1,0,0:0:0:0:
448,192,192308,1,0,0:0:0:0:
64,192,192460,1,0,0:0:0:70:snare.wav
192,192,192460,1,0,0:0:0:0:
320,192,192611,1,0,0:0:0:0:
64,192,192763,1,0,0:0:0:70:snare.wav
448,192,192763,1,0,0:0:0:0:
320,192,192990,1,0,0:0:0:0:
192,192,193066,1,0,0:0:0:70:snare.wav
448,192,193217,1,0,0:0:0:0:
64,192,193369,1,0,0:0:0:70:snare.wav
320,192,193369,1,0,0:0:0:0:
192,192,193596,1,0,0:0:0:0:
448,192,193672,1,0,0:0:0:70:snare.wav
64,192,193823,1,0,0:0:0:0:
192,192,193975,1,0,0:0:0:70:snare.wav
448,192,193975,1,0,0:0:0:0:
320,192,194126,1,0,0:0:0:0:
64,192,194278,1,0,0:0:0:70:snare.wav
448,192,194278,1,0,0:0:0:0:
192,192,194429,1,0,0:0:0:70:snare.wav
320,192,194581,1,0,0:0:0:70:whistle.wav
448,192,194581,1,0,0:0:0:50:finish.wav
64,192,194732,1,0,0:0:0:70:tom.wav
192,192,194884,1,0,0:0:0:70:whistle.wav
320,192,195035,1,0,0:0:0:70:tom.wav
448,192,195187,1,0,0:0:0:70:whistle.wav
192,192,195338,1,0,0:0:0:70:tom.wav
320,192,195490,1,0,0:0:0:70:whistle.wav
64,192,195641,1,0,0:0:0:70:tom.wav
448,192,195793,1,0,0:0:0:70:whistle.wav
320,192,195945,1,0,0:0:0:70:tom.wav
192,192,196096,1,0,0:0:0:70:whistle.wav
64,192,196248,1,0,0:0:0:70:tom.wav
448,192,196399,1,0,0:0:0:70:whistle.wav
192,192,196551,1,0,0:0:0:70:tom.wav
320,192,196702,1,0,0:0:0:70:whistle.wav
448,192,196854,1,0,0:0:0:70:tom.wav
64,192,197005,1,0,0:0:0:70:whistle.wav
192,192,197005,1,0,0:0:0:50:finish.wav
320,192,197157,1,0,0:0:0:70:whistle.wav
192,192,197308,1,0,0:0:0:70:whistle.wav
64,192,197460,1,0,0:0:0:70:whistle.wav
320,192,197611,1,0,0:0:0:70:whistle.wav
448,192,197611,1,0,0:0:0:50:finish.wav
192,192,197763,1,0,0:0:0:70:whistle.wav
320,192,197914,1,0,0:0:0:70:whistle.wav
448,192,198066,1,0,0:0:0:70:whistle.wav
64,192,198217,1,0,0:0:0:70:whistle.wav
192,192,198217,1,0,0:0:0:50:finish.wav
320,192,198369,1,0,0:0:0:70:whistle.wav
448,192,198520,1,0,0:0:0:70:whistle.wav
192,192,198672,1,0,0:0:0:70:whistle.wav
64,192,198823,1,0,0:0:0:70:whistle.wav
320,192,198823,1,0,0:0:0:50:finish.wav
448,192,198975,1,0,0:0:0:70:whistle.wav
192,192,199126,1,0,0:0:0:70:whistle.wav
320,192,199278,1,0,0:0:0:70:whistle.wav
64,192,199429,1,0,0:0:0:70:whistle.wav
448,192,199429,1,0,0:0:0:50:finish.wav
192,192,199581,1,0,0:0:0:70:whistle.wav
64,192,199732,1,0,0:0:0:70:whistle.wav
320,192,199732,1,0,0:0:0:50:finish.wav
448,192,199884,1,0,0:0:0:70:whistle.wav
64,192,200035,1,0,0:0:0:70:whistle.wav
192,192,200035,1,0,0:0:0:50:finish.wav
320,192,200187,1,0,0:0:0:70:whistle.wav
192,192,200338,1,0,0:0:0:70:whistle.wav
448,192,200338,1,0,0:0:0:50:finish.wav
64,192,200490,1,0,0:0:0:70:whistle.wav
320,192,200641,1,0,0:0:0:70:whistle.wav
448,192,200641,1,0,0:0:0:50:finish.wav
64,192,200945,1,0,0:0:0:70:whistle.wav
320,192,200945,1,0,0:0:0:0:
64,192,201248,1,0,0:0:0:70:whistle.wav
448,192,201248,1,0,0:0:0:50:finish.wav
192,192,201551,1,0,0:0:0:70:whistle.wav
448,192,201551,1,0,0:0:0:0:
64,192,201854,1,0,0:0:0:70:whistle.wav
192,192,201854,1,0,0:0:0:50:finish.wav
320,192,202157,1,0,0:0:0:70:snare.wav
448,192,202157,1,0,0:0:0:0:
192,192,202308,1,0,0:0:0:70:whistle.wav
64,192,202460,1,0,0:0:0:0:
320,192,202611,1,0,0:0:0:70:whistle.wav
192,192,202763,1,0,0:0:0:70:snare.wav
448,192,202763,1,0,0:0:0:0:
64,192,203066,1,0,0:0:0:70:whistle.wav
448,192,203066,1,0,0:0:0:0:
64,192,203369,1,0,0:0:0:70:snare.wav
320,192,203369,1,0,0:0:0:0:
448,192,203520,1,0,0:0:0:70:whistle.wav
192,192,203672,1,0,0:0:0:0:
320,192,203823,1,0,0:0:0:70:whistle.wav
64,192,203975,1,0,0:0:0:70:snare.wav
448,192,203975,1,0,0:0:0:0:
192,192,204126,1,0,0:0:0:0:
64,192,204278,1,0,0:0:0:70:whistle.wav
320,192,204278,1,0,0:0:0:0:
192,192,204581,1,0,0:0:0:70:snare.wav
448,192,204581,1,0,0:0:0:0:
64,192,204732,1,0,0:0:0:70:whistle.wav
320,192,204884,1,0,0:0:0:0:
192,192,205035,1,0,0:0:0:70:whistle.wav
320,192,205187,1,0,0:0:0:70:snare.wav
448,192,205187,1,0,0:0:0:0:
64,192,205490,1,0,0:0:0:70:whistle.wav
192,192,205490,1,0,0:0:0:50:finish.wav
320,192,205641,1,0,0:0:0:70:snare.wav
64,192,205793,1,0,0:0:0:70:snare.wav
192,192,205945,1,0,0:0:0:70:snare.wav
448,192,206096,1,0,0:0:0:70:snare.wav
320,192,206248,1,0,0:0:0:70:whistle.wav
192,192,206399,1,0,0:0:0:70:snare.wav
320,192,206551,1,0,0:0:0:70:whistle.wav
64,192,206702,1,0,0:0:0:70:whistle.wav
448,192,206702,1,0,0:0:0:50:finish.wav
192,192,206854,1,0,0:0:0:0:
320,192,207005,1,0,0:0:0:70:snare.wav
64,192,207157,1,0,0:0:0:70:whistle.wav
448,192,207308,1,0,0:0:0:0:
320,192,207460,1,0,0:0:0:70:whistle.wav
192,192,207611,1,0,0:0:0:70:snare.wav
64,192,207763,1,0,0:0:0:0:
192,192,207914,1,0,0:0:0:70:whistle.wav
448,192,207914,1,0,0:0:0:50:finish.wav
320,192,208066,1,0,0:0:0:0:
192,192,208217,1,0,0:0:0:70:snare.wav
448,192,208369,1,0,0:0:0:70:whistle.wav
64,192,208520,1,0,0:0:0:70:whistle.wav
320,192,208520,1,0,0:0:0:50:finish.wav
192,192,208672,1,0,0:0:0:0:
320,192,208823,1,0,0:0:0:70:snare.wav
448,192,208975,1,0,0:0:0:70:whistle.wav
64,192,209126,1,0,0:0:0:70:whistle.wav
192,192,209126,128,0,209278:0:0:0:50:finish.wav
320,192,209278,128,0,209429:0:0:0:70:whistle.wav
64,192,209429,128,0,209581:0:0:0:70:whistle.wav
448,192,209429,1,0,0:0:0:50:finish.wav
192,192,209581,128,0,209732:0:0:0:70:whistle.wav
320,192,209732,1,0,0:0:0:70:whistle.wav
448,192,209732,128,0,209884:0:0:0:50:finish.wav
64,192,209884,128,0,210035:0:0:0:70:whistle.wav
192,192,210035,128,0,210187:0:0:0:70:whistle.wav
448,192,210035,1,0,0:0:0:50:finish.wav
320,192,210187,128,0,210338:0:0:0:70:whistle.wav
64,192,210338,1,0,0:0:0:70:whistle.wav
448,192,210338,1,0,0:0:0:0:
192,192,210490,1,0,0:0:0:70:snare.wav
64,192,210641,1,0,0:0:0:70:whistle.wav
320,192,210641,1,0,0:0:0:50:finish.wav
192,192,210945,1,0,0:0:0:70:whistle.wav
448,192,210945,1,0,0:0:0:50:finish.wav
