osu file format v14

[General]
AudioFilename: audio.mp3
AudioLeadIn: 0
PreviewTime: 70641
Countdown: 0
SampleSet: Soft
StackLeniency: 0.7
Mode: 3
LetterboxInBreaks: 0
SpecialStyle: 0
WidescreenStoryboard: 0

[Editor]
DistanceSpacing: 0.8
BeatDivisor: 4
GridSize: 32
TimelineZoom: 2.200001

[Metadata]
Title:Pico*2 Funkoter*
TitleUnicode:Pico*2 Funkoter☆
Artist:Umeboshi Chazuke vs. Morimori Atsushi
ArtistUnicode:梅干茶漬け vs. モリモリあつし
Creator:Murumoo
Version:Ice Cream
Source:
Tags:japanese Chiptune NNRR-0011 Track 05 electronic Instrumental M3-2019秋 Autumn
BeatmapID:2221566
BeatmapSetID:1061110

[Difficulty]
HPDrainRate:8
CircleSize:4
OverallDifficulty:8
ApproachRate:5
SliderMultiplier:1.4
SliderTickRate:1

[Events]
//Background and Video events
0,0,"bg.png",0,0
//Break Periods
//Storyboard Layer 0 (Background)
//Storyboard Layer 1 (Fail)
//Storyboard Layer 2 (Pass)
//Storyboard Layer 3 (Foreground)
//Storyboard Layer 4 (Overlay)
//Storyboard Sound Samples
Sample,87914,0,"finish.wav",50
Sample,88520,0,"tom.wav",70
Sample,89126,0,"tom.wav",70
Sample,157611,0,"finish.wav",50
Sample,188520,0,"finish.wav",50
Sample,189126,0,"finish.wav",50

[TimingPoints]
642,303.030303030303,4,2,1,60,1,0
70945,-100,4,2,1,70,0,1
100035,-100,4,2,1,60,0,0
170338,-100,4,2,1,70,0,1
201854,-100,4,2,1,60,0,0

[HitObjects]
64,192,490,5,0,0:0:0:70:whistle.wav
192,192,490,1,0,0:0:0:0:
64,192,642,1,0,0:0:0:70:whistle.wav
320,192,642,1,0,0:0:0:50:finish.wav
448,192,642,1,0,0:0:0:0:
320,192,793,1,0,0:0:0:0:
64,192,945,1,0,0:0:0:0:
192,192,945,1,0,0:0:0:0:
320,192,1096,1,0,0:0:0:0:
64,192,1248,1,0,0:0:0:0:
448,192,1248,1,0,0:0:0:0:
192,192,1399,1,0,0:0:0:0:
64,192,1551,1,0,0:0:0:0:
320,192,1551,1,0,0:0:0:0:
448,192,1702,1,0,0:0:0:0:
192,192,1854,1,0,0:0:0:0:
320,192,1854,1,0,0:0:0:0:
192,192,2005,1,0,0:0:0:0:
64,192,2157,1,0,0:0:0:0:
448,192,2157,1,0,0:0:0:0:
192,192,2308,1,0,0:0:0:0:
64,192,2460,1,0,0:0:0:0:
320,192,2460,1,0,0:0:0:0:
320,192,2611,1,0,0:0:0:0:
192,192,2763,1,0,0:0:0:0:
192,192,2914,1,0,0:0:0:70:whistle.wav
320,192,2914,1,0,0:0:0:50:finish.wav
448,192,2914,1,0,0:0:0:0:
64,192,3066,1,0,0:0:0:70:whistle.wav
320,192,3066,1,0,0:0:0:50:finish.wav
448,192,3066,1,0,0:0:0:0:
64,192,3217,1,0,0:0:0:0:
192,192,3369,1,0,0:0:0:0:
448,192,3369,1,0,0:0:0:0:
320,192,3520,1,0,0:0:0:0:
64,192,3672,1,0,0:0:0:0:
448,192,3672,1,0,0:0:0:0:
192,192,3823,1,0,0:0:0:0:
64,192,3975,1,0,0:0:0:0:
320,192,3975,1,0,0:0:0:0:
192,192,4126,1,0,0:0:0:0:
320,192,4278,1,0,0:0:0:0:
448,192,4278,1,0,0:0:0:0:
448,192,4429,1,0,0:0:0:0:
64,192,4581,1,0,0:0:0:0:
320,192,4581,1,0,0:0:0:0:
192,192,4732,1,0,0:0:0:0:
64,192,4884,1,0,0:0:0:0:
448,192,4884,1,0,0:0:0:0:
64,192,5035,1,0,0:0:0:70:whistle.wav
192,192,5035,1,0,0:0:0:50:finish.wav
320,192,5035,1,0,0:0:0:0:
192,192,5187,1,0,0:0:0:0:
320,192,5338,1,0,0:0:0:70:whistle.wav
448,192,5338,1,0,0:0:0:0:
64,192,5414,1,0,0:0:0:70:whistle.wav
192,192,5490,1,0,0:0:0:70:whistle.wav
320,192,5490,1,0,0:0:0:50:finish.wav
448,192,5490,1,0,0:0:0:0:
192,192,5641,1,0,0:0:0:0:
64,192,5793,1,0,0:0:0:0:
320,192,5793,1,0,0:0:0:0:
448,192,5945,1,0,0:0:0:0:
192,192,6096,1,0,0:0:0:0:
320,192,6096,1,0,0:0:0:0:
64,192,6248,1,0,0:0:0:0:
192,192,6399,1,0,0:0:0:0:
448,192,6399,1,0,0:0:0:0:
320,192,6551,1,0,0:0:0:0:
64,192,6702,1,0,0:0:0:0:
448,192,6702,1,0,0:0:0:0:
448,192,6854,1,0,0:0:0:0:
64,192,7005,1,0,0:0:0:0:
320,192,7005,1,0,0:0:0:0:
192,192,7157,1,0,0:0:0:0:
64,192,7308,1,0,0:0:0:0:
448,192,7308,1,0,0:0:0:0:
64,192,7460,1,0,0:0:0:0:
320,192,7611,1,0,0:0:0:0:
64,192,7763,1,0,0:0:0:70:whistle.wav
192,192,7763,1,0,0:0:0:50:finish.wav
320,192,7763,1,0,0:0:0:0:
64,192,7914,1,0,0:0:0:70:whistle.wav
192,192,7914,1,0,0:0:0:50:finish.wav
448,192,7914,1,0,0:0:0:0:
448,192,8066,1,0,0:0:0:0:
64,192,8217,1,0,0:0:0:0:
192,192,8217,1,0,0:0:0:0:
192,192,8369,1,0,0:0:0:0:
64,192,8520,1,0,0:0:0:0:
320,192,8520,1,0,0:0:0:0:
320,192,8672,1,0,0:0:0:0:
192,192,8823,1,0,0:0:0:0:
448,192,8823,1,0,0:0:0:0:
448,192,8975,1,0,0:0:0:0:
192,192,9126,1,0,0:0:0:0:
320,192,9126,1,0,0:0:0:0:
192,192,9278,1,0,0:0:0:0:
64,192,9429,1,0,0:0:0:0:
448,192,9429,1,0,0:0:0:0:
64,192,9581,1,0,0:0:0:0:
320,192,9732,1,0,0:0:0:0:
192,192,9808,1,0,0:0:0:0:
64,192,9884,1,0,0:0:0:70:whistle.wav
320,192,9884,1,0,0:0:0:50:finish.wav
448,192,9884,1,0,0:0:0:0:
192,192,9960,1,0,0:0:0:0:
320,192,10035,1,0,0:0:0:0:
448,192,10111,1,0,0:0:0:0:
64,192,10187,1,0,0:0:0:70:whistle.wav
192,192,10187,1,0,0:0:0:0:
320,192,10263,1,0,0:0:0:70:whistle.wav
448,192,10263,1,0,0:0:0:0:
64,192,10338,1,0,0:0:0:70:whistle.wav
192,192,10338,1,0,0:0:0:50:finish.wav
448,192,10338,1,0,0:0:0:0:
192,192,10490,1,0,0:0:0:0:
64,192,10642,1,0,0:0:0:70:snare.wav
320,192,10642,1,0,0:0:0:0:
448,192,10642,1,0,0:0:0:0:
448,192,10793,1,0,0:0:0:0:
64,192,10945,1,0,0:0:0:70:whistle.wav
192,192,10945,1,0,0:0:0:0:
320,192,10945,1,0,0:0:0:0:
64,192,11096,1,0,0:0:0:0:
192,192,11248,1,0,0:0:0:70:snare.wav
320,192,11248,1,0,0:0:0:0:
448,192,11248,1,0,0:0:0:0:
320,192,11399,1,0,0:0:0:0:
64,192,11551,1,0,0:0:0:70:whistle.wav
192,192,11551,1,0,0:0:0:0:
448,192,11551,1,0,0:0:0:0:
192,192,11702,1,0,0:0:0:0:
64,192,11854,1,0,0:0:0:70:snare.wav
320,192,11854,1,0,0:0:0:0:
448,192,11854,1,0,0:0:0:0:
448,192,12005,1,0,0:0:0:0:
64,192,12157,1,0,0:0:0:70:whistle.wav
192,192,12157,1,0,0:0:0:0:
320,192,12157,1,0,0:0:0:0:
192,192,12308,1,0,0:0:0:0:
64,192,12460,1,0,0:0:0:70:snare.wav
320,192,12460,1,0,0:0:0:0:
448,192,12460,1,0,0:0:0:0:
192,192,12611,1,0,0:0:0:70:snare.wav
320,192,12611,1,0,0:0:0:0:
64,192,12763,1,0,0:0:0:70:whistle.wav
192,192,12763,1,0,0:0:0:0:
448,192,12763,1,0,0:0:0:0:
320,192,12838,1,0,0:0:0:0:
192,192,12914,1,0,0:0:0:0:
448,192,12990,1,0,0:0:0:0:
64,192,13066,1,0,0:0:0:70:snare.wav
320,192,13066,1,0,0:0:0:0:
192,192,13142,1,0,0:0:0:0:
320,192,13217,1,0,0:0:0:0:
448,192,13293,1,0,0:0:0:0:
64,192,13369,1,0,0:0:0:70:whistle.wav
192,192,13369,1,0,0:0:0:0:
320,192,13445,1,0,0:0:0:0:
448,192,13520,1,0,0:0:0:0:
192,192,13596,1,0,0:0:0:0:
64,192,13672,1,0,0:0:0:70:snare.wav
320,192,13672,1,0,0:0:0:0:
448,192,13748,1,0,0:0:0:0:
192,192,13823,1,0,0:0:0:0:
320,192,13899,1,0,0:0:0:0:
64,192,13975,1,0,0:0:0:70:whistle.wav
448,192,13975,1,0,0:0:0:0:
320,192,14051,1,0,0:0:0:0:
192,192,14126,1,0,0:0:0:0:
64,192,14202,1,0,0:0:0:0:
320,192,14278,1,0,0:0:0:70:snare.wav
448,192,14278,1,0,0:0:0:0:
192,192,14354,1,0,0:0:0:0:
320,192,14429,1,0,0:0:0:0:
448,192,14505,1,0,0:0:0:0:
64,192,14581,1,0,0:0:0:70:whistle.wav
192,192,14581,1,0,0:0:0:0:
320,192,14657,1,0,0:0:0:0:
192,192,14732,1,0,0:0:0:0:
64,192,14808,1,0,0:0:0:0:
320,192,14884,1,0,0:0:0:70:snare.wav
448,192,14884,1,0,0:0:0:0:
192,192,14960,1,0,0:0:0:0:
64,192,15035,1,0,0:0:0:70:snare.wav
448,192,15035,1,0,0:0:0:0:
320,192,15111,1,0,0:0:0:0:
192,192,15187,1,0,0:0:0:70:whistle.wav
448,192,15187,1,0,0:0:0:70:snare.wav
320,192,15263,1,0,0:0:0:0:
64,192,15338,1,0,0:0:0:70:snare.wav
192,192,15338,1,0,0:0:0:0:
448,192,15414,1,0,0:0:0:0:
64,192,15490,1,0,0:0:0:70:whistle.wav
320,192,15490,1,0,0:0:0:70:snare.wav
192,192,15566,1,0,0:0:0:0:
320,192,15642,1,0,0:0:0:70:snare.wav
448,192,15717,1,0,0:0:0:0:
64,192,15793,1,0,0:0:0:70:whistle.wav
192,192,15793,1,0,0:0:0:70:snare.wav
320,192,15869,1,0,0:0:0:0:
192,192,15945,1,0,0:0:0:70:snare.wav
448,192,15945,1,0,0:0:0:0:
64,192,16020,1,0,0:0:0:0:
320,192,16096,1,0,0:0:0:70:whistle.wav
448,192,16096,1,0,0:0:0:70:snare.wav
192,192,16172,1,0,0:0:0:0:
64,192,16248,1,0,0:0:0:70:snare.wav
320,192,16323,1,0,0:0:0:0:
192,192,16399,1,0,0:0:0:70:whistle.wav
448,192,16399,1,0,0:0:0:70:snare.wav
64,192,16475,1,0,0:0:0:0:
320,192,16551,1,0,0:0:0:70:snare.wav
448,192,16551,1,0,0:0:0:0:
192,192,16626,1,0,0:0:0:0:
64,192,16702,1,0,0:0:0:70:whistle.wav
320,192,16702,1,0,0:0:0:70:snare.wav
448,192,16778,1,0,0:0:0:0:
192,192,16854,1,0,0:0:0:70:snare.wav
320,192,16929,1,0,0:0:0:0:
64,192,17005,1,0,0:0:0:70:whistle.wav
448,192,17005,1,0,0:0:0:70:snare.wav
192,192,17081,1,0,0:0:0:0:
64,192,17157,1,0,0:0:0:70:snare.wav
320,192,17157,1,0,0:0:0:0:
448,192,17232,1,0,0:0:0:0:
64,192,17308,1,0,0:0:0:70:whistle.wav
192,192,17308,1,0,0:0:0:70:snare.wav
448,192,17384,1,0,0:0:0:0:
320,192,17460,1,0,0:0:0:70:snare.wav
192,192,17535,1,0,0:0:0:0:
64,192,17611,1,0,0:0:0:70:whistle.wav
448,192,17611,1,0,0:0:0:70:snare.wav
320,192,17687,1,0,0:0:0:0:
192,192,17763,1,0,0:0:0:70:snare.wav
448,192,17763,1,0,0:0:0:0:
64,192,17838,1,0,0:0:0:0:
320,192,17914,1,0,0:0:0:70:whistle.wav
448,192,17914,1,0,0:0:0:70:snare.wav
64,192,17990,1,0,0:0:0:0:
192,192,18066,1,0,0:0:0:70:snare.wav
448,192,18066,1,0,0:0:0:0:
320,192,18142,1,0,0:0:0:0:
64,192,18217,1,0,0:0:0:70:whistle.wav
192,192,18217,1,0,0:0:0:0:
320,192,18293,1,0,0:0:0:0:
448,192,18293,1,0,0:0:0:0:
64,192,18369,1,0,0:0:0:70:snare.wav
192,192,18369,1,0,0:0:0:0:
320,192,18445,1,0,0:0:0:0:
448,192,18445,1,0,0:0:0:0:
64,192,18520,1,0,0:0:0:70:whistle.wav
192,192,18520,1,0,0:0:0:0:
320,192,18596,1,0,0:0:0:0:
448,192,18596,1,0,0:0:0:0:
64,192,18672,1,0,0:0:0:70:snare.wav
192,192,18672,1,0,0:0:0:0:
320,192,18748,1,0,0:0:0:0:
448,192,18748,1,0,0:0:0:0:
64,192,18823,1,0,0:0:0:0:
320,192,18975,1,0,0:0:0:0:
192,192,19051,1,0,0:0:0:0:
448,192,19126,1,0,0:0:0:0:
64,192,19278,1,0,0:0:0:0:
320,192,19429,1,0,0:0:0:0:
64,192,19581,1,0,0:0:0:0:
192,192,19631,1,0,0:0:0:0:
320,192,19682,1,0,0:0:0:0:
448,192,19732,128,0,19808:0:0:0:0:
320,192,19808,128,0,19884:0:0:0:0:
64,192,19884,128,0,19960:0:0:0:0:
192,192,19960,128,0,20035:0:0:0:0:
64,192,20035,1,0,0:0:0:70:whistle.wav
320,192,20035,1,0,0:0:0:50:finish.wav
448,192,20035,128,0,20338:0:0:0:0:
192,192,20187,1,0,0:0:0:0:
64,192,20338,1,0,0:0:0:70:tom.wav
320,192,20338,1,0,0:0:0:0:
192,192,20490,128,0,20566:0:0:0:70:whistle.wav
448,192,20490,1,0,0:0:0:0:
320,192,20566,128,0,20642:0:0:0:0:
64,192,20642,128,0,20793:0:0:0:0:
192,192,20793,128,0,20945:0:0:0:70:whistle.wav
448,192,20793,1,0,0:0:0:0:
64,192,20945,1,0,0:0:0:70:tom.wav
448,192,20945,128,0,21096:0:0:0:0:
320,192,21096,128,0,21399:0:0:0:0:
64,192,21248,1,0,0:0:0:70:whistle.wav
448,192,21248,1,0,0:0:0:0:
192,192,21399,128,0,21475:0:0:0:0:
320,192,21475,128,0,21551:0:0:0:0:
64,192,21551,1,0,0:0:0:70:tom.wav
448,192,21551,128,0,21702:0:0:0:0:
64,192,21702,128,0,21778:0:0:0:70:whistle.wav
320,192,21702,1,0,0:0:0:0:
192,192,21778,128,0,21854:0:0:0:0:
320,192,21854,128,0,22005:0:0:0:0:
64,192,22005,128,0,22056:0:0:0:70:whistle.wav
192,192,22056,128,0,22106:0:0:0:0:
320,192,22106,128,0,22157:0:0:0:0:
64,192,22157,1,0,0:0:0:70:tom.wav
448,192,22157,128,0,22308:0:0:0:0:
64,192,22308,128,0,22460:0:0:0:0:
192,192,22460,128,0,22763:0:0:0:70:whistle.wav
448,192,22460,1,0,0:0:0:0:
320,192,22611,1,0,0:0:0:0:
64,192,22763,1,0,0:0:0:70:tom.wav
448,192,22763,1,0,0:0:0:0:
64,192,22914,1,0,0:0:0:70:whistle.wav
320,192,22914,128,0,22990:0:0:0:0:
192,192,22990,128,0,23066:0:0:0:0:
448,192,23066,128,0,23217:0:0:0:0:
64,192,23217,128,0,23369:0:0:0:70:whistle.wav
320,192,23217,1,0,0:0:0:0:
192,192,23369,128,0,23520:0:0:0:70:tom.wav
320,192,23369,1,0,0:0:0:0:
448,192,23520,128,0,23823:0:0:0:0:
64,192,23672,1,0,0:0:0:70:whistle.wav
320,192,23672,1,0,0:0:0:0:
192,192,23823,128,0,23899:0:0:0:0:
320,192,23899,128,0,23975:0:0:0:0:
64,192,23975,128,0,24126:0:0:0:70:tom.wav
448,192,23975,1,0,0:0:0:0:
192,192,24126,1,0,0:0:0:70:whistle.wav
448,192,24126,128,0,24278:0:0:0:0:
320,192,24278,128,0,24429:0:0:0:0:
64,192,24429,1,0,0:0:0:70:whistle.wav
192,192,24429,128,0,24581:0:0:0:0:
320,192,24581,1,0,0:0:0:70:tom.wav
448,192,24581,128,0,24732:0:0:0:0:
64,192,24732,128,0,24884:0:0:0:0:
192,192,24884,128,0,25187:0:0:0:70:whistle.wav
448,192,24884,1,0,0:0:0:0:
320,192,25035,1,0,0:0:0:0:
64,192,25187,1,0,0:0:0:70:tom.wav
448,192,25187,1,0,0:0:0:0:
64,192,25338,1,0,0:0:0:70:whistle.wav
320,192,25338,128,0,25414:0:0:0:0:
192,192,25414,128,0,25490:0:0:0:0:
448,192,25490,128,0,25641:0:0:0:0:
64,192,25642,1,0,0:0:0:70:whistle.wav
320,192,25642,128,0,25793:0:0:0:0:
64,192,25793,128,0,25945:0:0:0:70:tom.wav
448,192,25793,1,0,0:0:0:0:
192,192,25945,128,0,26248:0:0:0:0:
64,192,26096,1,0,0:0:0:70:whistle.wav
448,192,26096,1,0,0:0:0:0:
320,192,26248,128,0,26323:0:0:0:0:
192,192,26323,128,0,26399:0:0:0:0:
64,192,26399,128,0,26551:0:0:0:70:tom.wav
448,192,26399,1,0,0:0:0:0:
192,192,26551,1,0,0:0:0:70:whistle.wav
448,192,26551,128,0,26626:0:0:0:0:
320,192,26626,128,0,26702:0:0:0:0:
192,192,26702,128,0,26854:0:0:0:0:
448,192,26854,128,0,26904:0:0:0:70:whistle.wav
320,192,26904,128,0,26955:0:0:0:0:
192,192,26955,128,0,27005:0:0:0:0:
64,192,27005,128,0,27157:0:0:0:70:tom.wav
448,192,27005,1,0,0:0:0:0:
448,192,27157,128,0,27308:0:0:0:0:
64,192,27308,1,0,0:0:0:70:whistle.wav
192,192,27308,128,0,27460:0:0:0:0:
320,192,27460,128,0,27611:0:0:0:0:
64,192,27611,128,0,27763:0:0:0:70:tom.wav
448,192,27611,1,0,0:0:0:0:
192,192,27763,128,0,27914:0:0:0:70:whistle.wav
320,192,27763,1,0,0:0:0:0:
64,192,27838,128,0,27914:0:0:0:0:
448,192,27914,1,0,0:0:0:70:whistle.wav
320,192,27952,1,0,0:0:0:0:
64,192,27990,1,0,0:0:0:0:
192,192,28028,1,0,0:0:0:0:
448,192,28066,128,0,28217:0:0:0:0:
64,192,28217,1,0,0:0:0:70:tom.wav
320,192,28217,128,0,28520:0:0:0:0:
448,192,28369,128,0,28520:0:0:0:70:whistle.wav
64,192,28520,1,0,0:0:0:70:whistle.wav
192,192,28520,1,0,0:0:0:50:finish.wav
64,192,28672,1,0,0:0:0:70:tom.wav
192,192,28722,1,0,0:0:0:70:tom.wav
320,192,28773,1,0,0:0:0:70:tom.wav
64,192,28823,1,0,0:0:0:70:tom.wav
448,192,28823,1,0,0:0:0:0:
192,192,28899,1,0,0:0:0:0:
320,192,28975,1,0,0:0:0:70:whistle.wav
448,192,28975,1,0,0:0:0:0:
192,192,29051,1,0,0:0:0:0:
64,192,29126,1,0,0:0:0:70:tom.wav
448,192,29126,1,0,0:0:0:0:
320,192,29278,1,0,0:0:0:70:whistle.wav
64,192,29429,1,0,0:0:0:70:tom.wav
320,192,29429,1,0,0:0:0:0:
448,192,29429,1,0,0:0:0:0:
192,192,29581,1,0,0:0:0:70:whistle.wav
320,192,29657,1,0,0:0:0:0:
64,192,29732,1,0,0:0:0:70:whistle.wav
192,192,29732,1,0,0:0:0:50:finish.wav
448,192,29732,1,0,0:0:0:0:
320,192,29884,1,0,0:0:0:0:
64,192,30035,1,0,0:0:0:70:tom.wav
320,192,30035,1,0,0:0:0:0:
448,192,30035,1,0,0:0:0:0:
64,192,30187,1,0,0:0:0:70:whistle.wav
192,192,30187,1,0,0:0:0:0:
320,192,30263,1,0,0:0:0:0:
192,192,30338,1,0,0:0:0:0:
448,192,30338,1,0,0:0:0:0:
64,192,30490,1,0,0:0:0:70:whistle.wav
320,192,30490,1,0,0:0:0:0:
192,192,30641,1,0,0:0:0:70:tom.wav
320,192,30641,1,0,0:0:0:0:
448,192,30641,1,0,0:0:0:0:
64,192,30793,1,0,0:0:0:0:
64,192,30945,1,0,0:0:0:70:whistle.wav
192,192,30945,1,0,0:0:0:0:
448,192,30945,1,0,0:0:0:0:
320,192,31096,1,0,0:0:0:0:
448,192,31096,1,0,0:0:0:0:
64,192,31172,1,0,0:0:0:0:
192,192,31248,1,0,0:0:0:70:tom.wav
448,192,31248,1,0,0:0:0:0:
64,192,31399,1,0,0:0:0:70:whistle.wav
320,192,31399,1,0,0:0:0:0:
192,192,31475,1,0,0:0:0:0:
320,192,31551,1,0,0:0:0:0:
448,192,31551,1,0,0:0:0:0:
64,192,31702,1,0,0:0:0:70:whistle.wav
192,192,31753,1,0,0:0:0:0:
320,192,31803,1,0,0:0:0:0:
64,192,31854,1,0,0:0:0:70:tom.wav
448,192,31854,1,0,0:0:0:0:
192,192,32005,1,0,0:0:0:0:
448,192,32005,1,0,0:0:0:0:
64,192,32157,1,0,0:0:0:70:whistle.wav
192,192,32157,1,0,0:0:0:0:
320,192,32157,1,0,0:0:0:0:
448,192,32308,1,0,0:0:0:0:
64,192,32460,1,0,0:0:0:70:tom.wav
320,192,32460,1,0,0:0:0:0:
448,192,32460,1,0,0:0:0:0:
192,192,32611,1,0,0:0:0:70:whistle.wav
320,192,32611,1,0,0:0:0:0:
448,192,32687,1,0,0:0:0:0:
64,192,32763,1,0,0:0:0:0:
192,192,32763,1,0,0:0:0:0:
320,192,32914,1,0,0:0:0:70:whistle.wav
448,192,32914,1,0,0:0:0:0:
64,192,33066,1,0,0:0:0:70:tom.wav
192,192,33066,1,0,0:0:0:0:
448,192,33066,1,0,0:0:0:0:
320,192,33217,1,0,0:0:0:0:
192,192,33369,1,0,0:0:0:70:whistle.wav
320,192,33369,1,0,0:0:0:0:
448,192,33369,1,0,0:0:0:0:
64,192,33520,1,0,0:0:0:0:
448,192,33520,1,0,0:0:0:0:
192,192,33596,1,0,0:0:0:0:
64,192,33672,1,0,0:0:0:70:tom.wav
320,192,33672,1,0,0:0:0:0:
192,192,33823,1,0,0:0:0:70:whistle.wav
320,192,33823,1,0,0:0:0:0:
192,192,33975,1,0,0:0:0:0:
448,192,33975,1,0,0:0:0:0:
64,192,34126,1,0,0:0:0:70:whistle.wav
320,192,34126,1,0,0:0:0:0:
192,192,34278,1,0,0:0:0:70:tom.wav
320,192,34278,1,0,0:0:0:0:
448,192,34278,1,0,0:0:0:0:
64,192,34429,1,0,0:0:0:0:
64,192,34581,1,0,0:0:0:70:whistle.wav
192,192,34581,128,0,34884:0:0:0:0:
320,192,34581,1,0,0:0:0:0:
448,192,34732,1,0,0:0:0:0:
64,192,34884,1,0,0:0:0:70:tom.wav
320,192,34884,1,0,0:0:0:0:
448,192,34884,1,0,0:0:0:0:
64,192,35035,1,0,0:0:0:70:whistle.wav
192,192,35035,1,0,0:0:0:0:
448,192,35111,1,0,0:0:0:0:
64,192,35187,128,0,35338:0:0:0:0:
320,192,35187,1,0,0:0:0:0:
192,192,35338,1,0,0:0:0:70:whistle.wav
448,192,35338,128,0,35490:0:0:0:0:
64,192,35490,1,0,0:0:0:70:tom.wav
192,192,35490,128,0,35641:0:0:0:0:
320,192,35490,1,0,0:0:0:0:
320,192,35641,128,0,35793:0:0:0:0:
64,192,35793,1,0,0:0:0:70:whistle.wav
192,192,35793,1,0,0:0:0:0:
448,192,35793,1,0,0:0:0:0:
320,192,35945,1,0,0:0:0:0:
448,192,35945,1,0,0:0:0:0:
64,192,36020,1,0,0:0:0:0:
192,192,36096,1,0,0:0:0:70:tom.wav
448,192,36096,128,0,36248:0:0:0:0:
64,192,36248,1,0,0:0:0:70:whistle.wav
192,192,36323,1,0,0:0:0:0:
64,192,36399,1,0,0:0:0:70:whistle.wav
320,192,36399,128,0,36475:0:0:0:50:finish.wav
448,192,36399,128,0,36475:0:0:0:0:
64,192,36551,128,0,36854:0:0:0:70:whistle.wav
192,192,36551,128,0,36854:0:0:0:50:finish.wav
448,192,36551,1,0,0:0:0:0:
320,192,36854,1,0,0:0:0:70:whistle.wav
448,192,36854,1,0,0:0:0:0:
192,192,36929,1,0,0:0:0:70:whistle.wav
64,192,37005,1,0,0:0:0:70:whistle.wav
320,192,37005,1,0,0:0:0:50:finish.wav
448,192,37005,1,0,0:0:0:0:
192,192,37081,1,0,0:0:0:0:
320,192,37157,1,0,0:0:0:0:
192,192,37232,1,0,0:0:0:0:
64,192,37308,1,0,0:0:0:70:tom.wav
448,192,37308,1,0,0:0:0:0:
320,192,37384,1,0,0:0:0:0:
192,192,37460,1,0,0:0:0:0:
448,192,37460,1,0,0:0:0:0:
64,192,37535,1,0,0:0:0:0:
192,192,37611,1,0,0:0:0:70:whistle.wav
320,192,37611,1,0,0:0:0:50:finish.wav
448,192,37611,1,0,0:0:0:0:
64,192,37687,1,0,0:0:0:0:
320,192,37763,1,0,0:0:0:0:
448,192,37838,1,0,0:0:0:0:
64,192,37914,1,0,0:0:0:70:tom.wav
320,192,37914,1,0,0:0:0:0:
192,192,37990,1,0,0:0:0:0:
64,192,38066,1,0,0:0:0:70:whistle.wav
448,192,38066,1,0,0:0:0:0:
320,192,38141,1,0,0:0:0:0:
192,192,38179,1,0,0:0:0:0:
64,192,38217,1,0,0:0:0:70:whistle.wav
448,192,38217,128,0,38369:0:0:0:50:finish.wav
192,192,38369,1,0,0:0:0:70:whistle.wav
320,192,38369,1,0,0:0:0:0:
448,192,38445,1,0,0:0:0:0:
64,192,38520,1,0,0:0:0:70:whistle.wav
192,192,38520,128,0,38672:0:0:0:50:finish.wav
320,192,38672,128,0,38823:0:0:0:70:whistle.wav
448,192,38672,1,0,0:0:0:0:
64,192,38823,1,0,0:0:0:70:whistle.wav
448,192,38823,1,0,0:0:0:50:finish.wav
192,192,38899,1,0,0:0:0:70:whistle.wav
320,192,38899,1,0,0:0:0:0:
64,192,38975,1,0,0:0:0:70:whistle.wav
448,192,38975,1,0,0:0:0:0:
192,192,39051,1,0,0:0:0:70:whistle.wav
320,192,39051,1,0,0:0:0:0:
64,192,39126,1,0,0:0:0:70:whistle.wav
448,192,39126,1,0,0:0:0:50:finish.wav
192,192,39202,1,0,0:0:0:70:whistle.wav
320,192,39202,1,0,0:0:0:0:
64,192,39278,1,0,0:0:0:70:whistle.wav
448,192,39278,1,0,0:0:0:0:
192,192,39354,1,0,0:0:0:70:whistle.wav
64,192,39429,1,0,0:0:0:70:whistle.wav
320,192,39429,1,0,0:0:0:50:finish.wav
448,192,39429,1,0,0:0:0:0:
320,192,39732,1,0,0:0:0:0:
64,192,40035,1,0,0:0:0:70:whistle.wav
192,192,40035,1,0,0:0:0:50:finish.wav
448,192,40035,1,0,0:0:0:0:
192,192,40338,1,0,0:0:0:0:
64,192,40641,1,0,0:0:0:70:whistle.wav
320,192,40641,1,0,0:0:0:0:
448,192,40641,1,0,0:0:0:0:
320,192,40743,1,0,0:0:0:70:whistle.wav
448,192,40743,1,0,0:0:0:0:
64,192,40844,1,0,0:0:0:70:whistle.wav
192,192,40844,1,0,0:0:0:0:
64,192,40945,1,0,0:0:0:70:whistle.wav
192,192,40945,1,0,0:0:0:0:
320,192,41046,1,0,0:0:0:70:whistle.wav
448,192,41046,1,0,0:0:0:0:
320,192,41147,1,0,0:0:0:70:whistle.wav
448,192,41147,1,0,0:0:0:0:
64,192,41248,1,0,0:0:0:70:whistle.wav
192,192,41248,1,0,0:0:0:50:finish.wav
448,192,41248,1,0,0:0:0:0:
64,192,41551,128,0,41778:0:0:0:70:tom.wav
448,192,41551,128,0,41778:0:0:0:0:
192,192,41702,128,0,41778:0:0:0:0:
320,192,41702,128,0,41778:0:0:0:0:
64,192,41854,1,0,0:0:0:70:whistle.wav
192,192,41854,1,0,0:0:0:50:finish.wav
320,192,41854,1,0,0:0:0:0:
448,192,41854,1,0,0:0:0:0:
192,192,42005,1,0,0:0:0:0:
64,192,42157,1,0,0:0:0:70:snare.wav
320,192,42157,1,0,0:0:0:0:
448,192,42157,1,0,0:0:0:0:
192,192,42308,1,0,0:0:0:70:whistle.wav
448,192,42308,1,0,0:0:0:0:
320,192,42460,1,0,0:0:0:0:
64,192,42611,1,0,0:0:0:70:whistle.wav
192,192,42611,1,0,0:0:0:0:
64,192,42763,1,0,0:0:0:70:snare.wav
320,192,42763,1,0,0:0:0:0:
448,192,42763,1,0,0:0:0:0:
192,192,42914,1,0,0:0:0:0:
64,192,43066,1,0,0:0:0:70:whistle.wav
320,192,43066,1,0,0:0:0:0:
448,192,43066,1,0,0:0:0:0:
320,192,43217,1,0,0:0:0:0:
64,192,43369,1,0,0:0:0:70:snare.wav
192,192,43369,1,0,0:0:0:0:
448,192,43369,1,0,0:0:0:0:
64,192,43520,1,0,0:0:0:70:whistle.wav
320,192,43520,1,0,0:0:0:0:
192,192,43672,1,0,0:0:0:0:
320,192,43823,1,0,0:0:0:70:whistle.wav
448,192,43823,1,0,0:0:0:0:
64,192,43975,1,0,0:0:0:70:snare.wav
192,192,43975,1,0,0:0:0:0:
448,192,43975,1,0,0:0:0:0:
320,192,44126,1,0,0:0:0:0:
64,192,44278,1,0,0:0:0:70:whistle.wav
320,192,44278,1,0,0:0:0:0:
448,192,44278,1,0,0:0:0:0:
192,192,44429,1,0,0:0:0:0:
64,192,44581,1,0,0:0:0:70:snare.wav
320,192,44581,1,0,0:0:0:0:
448,192,44581,1,0,0:0:0:0:
64,192,44732,1,0,0:0:0:70:whistle.wav
192,192,44732,1,0,0:0:0:0:
320,192,44884,1,0,0:0:0:0:
192,192,45035,1,0,0:0:0:70:whistle.wav
448,192,45035,1,0,0:0:0:0:
192,192,45187,1,0,0:0:0:70:snare.wav
320,192,45187,1,0,0:0:0:0:
448,192,45187,1,0,0:0:0:0:
320,192,45338,1,0,0:0:0:0:
64,192,45490,1,0,0:0:0:70:whistle.wav
192,192,45490,1,0,0:0:0:0:
448,192,45490,1,0,0:0:0:0:
448,192,45641,1,0,0:0:0:0:
64,192,45793,1,0,0:0:0:70:snare.wav
192,192,45793,1,0,0:0:0:0:
320,192,45793,1,0,0:0:0:0:
64,192,45945,1,0,0:0:0:70:whistle.wav
320,192,45945,1,0,0:0:0:0:
448,192,46096,1,0,0:0:0:0:
64,192,46248,1,0,0:0:0:70:whistle.wav
320,192,46248,1,0,0:0:0:0:
64,192,46399,1,0,0:0:0:70:snare.wav
192,192,46399,1,0,0:0:0:0:
448,192,46399,1,0,0:0:0:0:
192,192,46551,1,0,0:0:0:0:
64,192,46702,1,0,0:0:0:70:whistle.wav
320,192,46702,1,0,0:0:0:0:
448,192,46702,1,0,0:0:0:0:
320,192,46854,1,0,0:0:0:0:
64,192,47005,1,0,0:0:0:70:snare.wav
192,192,47005,1,0,0:0:0:0:
448,192,47005,1,0,0:0:0:0:
64,192,47157,1,0,0:0:0:70:whistle.wav
320,192,47157,1,0,0:0:0:0:
192,192,47308,1,0,0:0:0:0:
320,192,47460,1,0,0:0:0:70:whistle.wav
448,192,47460,1,0,0:0:0:0:
64,192,47611,1,0,0:0:0:70:snare.wav
192,192,47611,1,0,0:0:0:0:
448,192,47611,1,0,0:0:0:0:
320,192,47763,1,0,0:0:0:0:
64,192,47914,1,0,0:0:0:70:whistle.wav
192,192,47914,1,0,0:0:0:0:
448,192,47914,1,0,0:0:0:0:
192,192,48066,1,0,0:0:0:0:
64,192,48217,1,0,0:0:0:70:snare.wav
320,192,48217,1,0,0:0:0:0:
448,192,48217,1,0,0:0:0:0:
192,192,48369,1,0,0:0:0:70:whistle.wav
448,192,48369,1,0,0:0:0:0:
320,192,48520,1,0,0:0:0:0:
64,192,48672,1,0,0:0:0:70:whistle.wav
192,192,48672,1,0,0:0:0:0:
64,192,48823,1,0,0:0:0:70:snare.wav
320,192,48823,1,0,0:0:0:0:
448,192,48823,1,0,0:0:0:0:
192,192,48975,1,0,0:0:0:0:
64,192,49126,1,0,0:0:0:70:whistle.wav
192,192,49126,1,0,0:0:0:0:
448,192,49126,1,0,0:0:0:0:
320,192,49278,1,0,0:0:0:0:
64,192,49429,1,0,0:0:0:70:snare.wav
192,192,49429,1,0,0:0:0:0:
448,192,49429,1,0,0:0:0:0:
320,192,49581,1,0,0:0:0:70:whistle.wav
448,192,49581,1,0,0:0:0:0:
64,192,49732,1,0,0:0:0:70:whistle.wav
192,192,49732,1,0,0:0:0:0:
320,192,49884,1,0,0:0:0:0:
64,192,50035,1,0,0:0:0:70:snare.wav
192,192,50035,1,0,0:0:0:0:
448,192,50035,1,0,0:0:0:0:
192,192,50187,1,0,0:0:0:70:whistle.wav
320,192,50187,1,0,0:0:0:0:
64,192,50338,1,0,0:0:0:70:whistle.wav
320,192,50338,1,0,0:0:0:50:finish.wav
448,192,50338,1,0,0:0:0:0:
192,192,50490,1,0,0:0:0:70:snare.wav
448,192,50490,1,0,0:0:0:0:
64,192,50641,1,0,0:0:0:70:snare.wav
192,192,50641,1,0,0:0:0:0:
320,192,50641,1,0,0:0:0:0:
64,192,50793,1,0,0:0:0:70:whistle.wav
448,192,50793,1,0,0:0:0:0:
320,192,50945,1,0,0:0:0:70:whistle.wav
448,192,50945,1,0,0:0:0:70:snare.wav
64,192,51020,1,0,0:0:0:70:whistle.wav
192,192,51020,1,0,0:0:0:0:
320,192,51096,1,0,0:0:0:70:whistle.wav
448,192,51096,1,0,0:0:0:0:
64,192,51172,1,0,0:0:0:70:whistle.wav
192,192,51172,1,0,0:0:0:0:
320,192,51248,1,0,0:0:0:70:whistle.wav
448,192,51248,1,0,0:0:0:70:snare.wav
64,192,51323,1,0,0:0:0:70:whistle.wav
192,192,51323,1,0,0:0:0:0:
320,192,51399,1,0,0:0:0:70:whistle.wav
448,192,51399,1,0,0:0:0:0:
192,192,51475,1,0,0:0:0:70:whistle.wav
64,192,51551,1,0,0:0:0:70:whistle.wav
320,192,51551,1,0,0:0:0:50:finish.wav
448,192,51551,1,0,0:0:0:0:
192,192,51702,1,0,0:0:0:0:
64,192,51854,1,0,0:0:0:70:snare.wav
192,192,51854,1,0,0:0:0:0:
448,192,51854,1,0,0:0:0:0:
64,192,52005,1,0,0:0:0:70:whistle.wav
320,192,52005,1,0,0:0:0:0:
320,192,52157,1,0,0:0:0:0:
64,192,52308,1,0,0:0:0:70:whistle.wav
192,192,52308,1,0,0:0:0:0:
64,192,52460,1,0,0:0:0:70:snare.wav
320,192,52460,1,0,0:0:0:0:
448,192,52460,1,0,0:0:0:0:
192,192,52611,1,0,0:0:0:0:
64,192,52763,1,0,0:0:0:70:whistle.wav
192,192,52763,1,0,0:0:0:0:
448,192,52763,1,0,0:0:0:0:
320,192,52914,1,0,0:0:0:0:
64,192,53066,1,0,0:0:0:70:snare.wav
320,192,53066,1,0,0:0:0:0:
448,192,53066,1,0,0:0:0:0:
192,192,53217,1,0,0:0:0:70:whistle.wav
448,192,53217,1,0,0:0:0:0:
192,192,53369,1,0,0:0:0:0:
320,192,53520,1,0,0:0:0:70:whistle.wav
448,192,53520,1,0,0:0:0:0:
64,192,53672,1,0,0:0:0:70:snare.wav
192,192,53672,1,0,0:0:0:0:
448,192,53672,1,0,0:0:0:0:
320,192,53823,1,0,0:0:0:0:
64,192,53975,1,0,0:0:0:70:whistle.wav
320,192,53975,1,0,0:0:0:50:finish.wav
448,192,53975,1,0,0:0:0:0:
192,192,54126,1,0,0:0:0:0:
64,192,54278,1,0,0:0:0:70:snare.wav
192,192,54278,1,0,0:0:0:0:
448,192,54278,1,0,0:0:0:0:
64,192,54429,1,0,0:0:0:70:whistle.wav
320,192,54429,1,0,0:0:0:0:
320,192,54581,1,0,0:0:0:0:
192,192,54732,1,0,0:0:0:70:whistle.wav
448,192,54732,1,0,0:0:0:0:
64,192,54884,1,0,0:0:0:70:snare.wav
320,192,54884,1,0,0:0:0:0:
448,192,54884,1,0,0:0:0:0:
320,192,55035,1,0,0:0:0:0:
64,192,55187,1,0,0:0:0:70:whistle.wav
192,192,55187,1,0,0:0:0:0:
448,192,55187,1,0,0:0:0:0:
448,192,55338,1,0,0:0:0:0:
64,192,55490,1,0,0:0:0:70:snare.wav
192,192,55490,1,0,0:0:0:0:
320,192,55490,1,0,0:0:0:0:
64,192,55641,1,0,0:0:0:70:whistle.wav
448,192,55641,1,0,0:0:0:0:
192,192,55793,1,0,0:0:0:0:
192,192,55945,1,0,0:0:0:70:whistle.wav
448,192,55945,1,0,0:0:0:0:
64,192,56096,1,0,0:0:0:70:snare.wav
320,192,56096,1,0,0:0:0:0:
448,192,56096,1,0,0:0:0:0:
320,192,56248,1,0,0:0:0:0:
64,192,56399,1,0,0:0:0:70:whistle.wav
192,192,56399,1,0,0:0:0:50:finish.wav
448,192,56399,1,0,0:0:0:0:
192,192,56551,1,0,0:0:0:0:
64,192,56702,1,0,0:0:0:70:snare.wav
320,192,56702,1,0,0:0:0:0:
448,192,56702,1,0,0:0:0:0:
192,192,56854,1,0,0:0:0:70:whistle.wav
448,192,56854,1,0,0:0:0:0:
320,192,57005,1,0,0:0:0:0:
64,192,57157,1,0,0:0:0:70:whistle.wav
320,192,57157,1,0,0:0:0:0:
64,192,57308,1,0,0:0:0:70:snare.wav
192,192,57308,1,0,0:0:0:0:
448,192,57308,1,0,0:0:0:0:
320,192,57460,1,0,0:0:0:0:
64,192,57611,1,0,0:0:0:70:whistle.wav
320,192,57611,1,0,0:0:0:50:finish.wav
448,192,57611,1,0,0:0:0:0:
192,192,57763,1,0,0:0:0:0:
64,192,57914,1,0,0:0:0:70:snare.wav
320,192,57914,1,0,0:0:0:0:
448,192,57914,1,0,0:0:0:0:
192,192,58066,1,0,0:0:0:70:whistle.wav
320,192,58066,1,0,0:0:0:0:
64,192,58217,1,0,0:0:0:70:whistle.wav
192,192,58217,1,0,0:0:0:50:finish.wav
448,192,58217,1,0,0:0:0:0:
320,192,58369,1,0,0:0:0:0:
64,192,58520,1,0,0:0:0:70:snare.wav
192,192,58520,1,0,0:0:0:0:
448,192,58520,1,0,0:0:0:0:
192,192,58672,1,0,0:0:0:70:whistle.wav
320,192,58672,1,0,0:0:0:0:
64,192,58823,1,0,0:0:0:70:whistle.wav
320,192,58823,1,0,0:0:0:50:finish.wav
448,192,58823,1,0,0:0:0:0:
64,192,58975,1,0,0:0:0:70:whistle.wav
192,192,58975,1,0,0:0:0:0:
448,192,58975,1,0,0:0:0:0:
64,192,59126,1,0,0:0:0:70:whistle.wav
320,192,59126,1,0,0:0:0:50:finish.wav
448,192,59126,1,0,0:0:0:0:
64,192,59278,1,0,0:0:0:70:whistle.wav
192,192,59278,1,0,0:0:0:0:
448,192,59278,1,0,0:0:0:0:
320,192,59429,1,0,0:0:0:70:whistle.wav
448,192,59429,1,0,0:0:0:50:finish.wav
64,192,59505,1,0,0:0:0:70:whistle.wav
192,192,59505,1,0,0:0:0:0:
320,192,59581,1,0,0:0:0:70:whistle.wav
448,192,59581,1,0,0:0:0:0:
64,192,59657,1,0,0:0:0:70:whistle.wav
192,192,59657,1,0,0:0:0:0:
320,192,59732,1,0,0:0:0:70:whistle.wav
448,192,59732,1,0,0:0:0:50:finish.wav
64,192,59808,1,0,0:0:0:70:whistle.wav
192,192,59808,1,0,0:0:0:0:
320,192,59884,1,0,0:0:0:70:whistle.wav
448,192,59884,1,0,0:0:0:0:
192,192,59960,1,0,0:0:0:70:whistle.wav
64,192,60035,1,0,0:0:0:70:whistle.wav
320,192,60035,1,0,0:0:0:50:finish.wav
448,192,60035,1,0,0:0:0:0:
192,192,60111,1,0,0:0:0:0:
320,192,60187,1,0,0:0:0:0:
448,192,60263,1,0,0:0:0:0:
192,192,60338,1,0,0:0:0:0:
320,192,60414,1,0,0:0:0:0:
64,192,60490,1,0,0:0:0:0:
192,192,60566,1,0,0:0:0:0:
320,192,60641,1,0,0:0:0:0:
448,192,60641,1,0,0:0:0:0:
192,192,60717,1,0,0:0:0:0:
64,192,60793,1,0,0:0:0:0:
320,192,60869,1,0,0:0:0:0:
192,192,60945,1,0,0:0:0:70:whistle.wav
448,192,60945,1,0,0:0:0:0:
64,192,61020,1,0,0:0:0:0:
192,192,61096,1,0,0:0:0:0:
320,192,61172,1,0,0:0:0:0:
64,192,61248,1,0,0:0:0:70:whistle.wav
192,192,61248,1,0,0:0:0:50:finish.wav
448,192,61248,1,0,0:0:0:0:
320,192,61551,1,0,0:0:0:70:whistle.wav
448,192,61551,128,0,61702:0:0:0:0:
192,192,61702,1,0,0:0:0:0:
64,192,61778,1,0,0:0:0:70:whistle.wav
320,192,61854,1,0,0:0:0:70:snare.wav
192,192,61929,1,0,0:0:0:0:
448,192,62005,1,0,0:0:0:70:whistle.wav
320,192,62081,1,0,0:0:0:0:
64,192,62157,1,0,0:0:0:70:whistle.wav
192,192,62157,1,0,0:0:0:0:
320,192,62232,1,0,0:0:0:0:
448,192,62308,1,0,0:0:0:0:
192,192,62384,1,0,0:0:0:0:
320,192,62460,1,0,0:0:0:70:whistle.wav
64,192,62535,1,0,0:0:0:0:
192,192,62611,1,0,0:0:0:0:
320,192,62687,1,0,0:0:0:0:
64,192,62763,1,0,0:0:0:70:whistle.wav
448,192,62763,1,0,0:0:0:0:
192,192,62838,1,0,0:0:0:0:
320,192,62914,1,0,0:0:0:0:
64,192,62990,1,0,0:0:0:70:whistle.wav
448,192,63066,1,0,0:0:0:70:snare.wav
320,192,63141,1,0,0:0:0:70:whistle.wav
192,192,63217,1,0,0:0:0:70:whistle.wav
448,192,63293,1,0,0:0:0:0:
64,192,63369,1,0,0:0:0:70:whistle.wav
320,192,63369,1,0,0:0:0:0:
192,192,63445,1,0,0:0:0:0:
320,192,63520,1,0,0:0:0:0:
64,192,63596,1,0,0:0:0:0:
192,192,63672,1,0,0:0:0:70:whistle.wav
448,192,63672,1,0,0:0:0:0:
320,192,63748,1,0,0:0:0:0:
64,192,63823,1,0,0:0:0:0:
192,192,63899,1,0,0:0:0:0:
320,192,63975,1,0,0:0:0:70:whistle.wav
448,192,63975,1,0,0:0:0:0:
192,192,64051,1,0,0:0:0:0:
64,192,64126,1,0,0:0:0:0:
320,192,64202,1,0,0:0:0:70:whistle.wav
192,192,64278,1,0,0:0:0:70:snare.wav
448,192,64354,1,0,0:0:0:0:
320,192,64429,1,0,0:0:0:70:whistle.wav
192,192,64505,1,0,0:0:0:0:
64,192,64581,1,0,0:0:0:70:whistle.wav
448,192,64581,1,0,0:0:0:0:
192,192,64657,1,0,0:0:0:0:
320,192,64732,1,0,0:0:0:0:
448,192,64808,1,0,0:0:0:0:
64,192,64884,1,0,0:0:0:70:whistle.wav
192,192,64934,1,0,0:0:0:0:
320,192,64985,1,0,0:0:0:0:
448,192,65035,1,0,0:0:0:0:
64,192,65111,1,0,0:0:0:0:
448,192,65187,1,0,0:0:0:70:whistle.wav
320,192,65237,1,0,0:0:0:0:
192,192,65288,1,0,0:0:0:0:
64,192,65338,1,0,0:0:0:0:
448,192,65414,1,0,0:0:0:70:whistle.wav
64,192,65490,1,0,0:0:0:70:snare.wav
192,192,65540,1,0,0:0:0:0:
320,192,65591,1,0,0:0:0:0:
448,192,65641,1,0,0:0:0:70:whistle.wav
64,192,65717,1,0,0:0:0:0:
448,192,65793,1,0,0:0:0:70:whistle.wav
320,192,65844,1,0,0:0:0:0:
192,192,65894,1,0,0:0:0:0:
64,192,65945,1,0,0:0:0:0:
448,192,66020,1,0,0:0:0:0:
64,192,66096,128,0,67308:0:0:0:70:whistle.wav
320,192,66096,1,0,0:0:0:50:finish.wav
192,192,66172,1,0,0:0:0:0:
448,192,66248,1,0,0:0:0:0:
320,192,66323,1,0,0:0:0:0:
192,192,66399,1,0,0:0:0:70:whistle.wav
320,192,66475,1,0,0:0:0:0:
448,192,66551,1,0,0:0:0:0:
192,192,66626,1,0,0:0:0:70:whistle.wav
320,192,66702,1,0,0:0:0:70:snare.wav
448,192,66778,1,0,0:0:0:0:
192,192,66854,1,0,0:0:0:70:whistle.wav
320,192,66929,1,0,0:0:0:0:
448,192,67005,1,0,0:0:0:70:whistle.wav
320,192,67081,1,0,0:0:0:0:
192,192,67157,1,0,0:0:0:0:
448,192,67232,1,0,0:0:0:0:
192,192,67308,128,0,68520:0:0:0:70:whistle.wav
320,192,67308,1,0,0:0:0:50:finish.wav
64,192,67384,1,0,0:0:0:0:
320,192,67460,1,0,0:0:0:0:
448,192,67535,1,0,0:0:0:0:
64,192,67611,1,0,0:0:0:70:whistle.wav
320,192,67687,1,0,0:0:0:0:
448,192,67763,1,0,0:0:0:0:
64,192,67838,1,0,0:0:0:70:whistle.wav
320,192,67914,1,0,0:0:0:70:snare.wav
448,192,67990,1,0,0:0:0:70:whistle.wav
320,192,68066,1,0,0:0:0:70:whistle.wav
64,192,68141,1,0,0:0:0:0:
448,192,68217,1,0,0:0:0:70:whistle.wav
320,192,68293,1,0,0:0:0:0:
64,192,68369,1,0,0:0:0:0:
448,192,68445,1,0,0:0:0:0:
64,192,68520,1,0,0:0:0:70:whistle.wav
320,192,68520,128,0,69732:0:0:0:50:finish.wav
192,192,68596,1,0,0:0:0:0:
448,192,68672,1,0,0:0:0:0:
64,192,68748,1,0,0:0:0:0:
192,192,68823,1,0,0:0:0:70:whistle.wav
448,192,68899,1,0,0:0:0:0:
64,192,68975,1,0,0:0:0:0:
192,192,69051,1,0,0:0:0:70:whistle.wav
448,192,69126,1,0,0:0:0:70:snare.wav
192,192,69202,1,0,0:0:0:0:
64,192,69278,1,0,0:0:0:70:whistle.wav
448,192,69354,1,0,0:0:0:0:
192,192,69429,1,0,0:0:0:70:whistle.wav
64,192,69505,1,0,0:0:0:0:
448,192,69581,1,0,0:0:0:0:
192,192,69657,1,0,0:0:0:0:
64,192,69732,1,0,0:0:0:70:whistle.wav
448,192,69732,1,0,0:0:0:0:
192,192,70641,1,0,0:0:0:0:
320,192,70717,1,0,0:0:0:0:
192,192,70793,1,0,0:0:0:0:
320,192,70869,1,0,0:0:0:0:
64,192,70945,1,0,0:0:0:70:whistle.wav
192,192,70945,1,0,0:0:0:50:finish.wav
448,192,70945,1,0,0:0:0:0:
320,192,71096,1,0,0:0:0:0:
192,192,71172,1,0,0:0:0:0:
64,192,71248,1,0,0:0:0:70:tom.wav
320,192,71248,128,0,71551:0:0:0:0:
448,192,71248,1,0,0:0:0:0:
192,192,71399,1,0,0:0:0:70:whistle.wav
64,192,71551,1,0,0:0:0:0:
448,192,71551,1,0,0:0:0:0:
192,192,71702,1,0,0:0:0:70:whistle.wav
320,192,71778,1,0,0:0:0:0:
64,192,71854,1,0,0:0:0:70:tom.wav
192,192,71854,128,0,72005:0:0:0:0:
448,192,71854,1,0,0:0:0:0:
320,192,72005,1,0,0:0:0:0:
448,192,72005,128,0,72308:0:0:0:0:
64,192,72157,1,0,0:0:0:70:whistle.wav
192,192,72157,1,0,0:0:0:0:
320,192,72308,1,0,0:0:0:0:
192,192,72384,1,0,0:0:0:0:
64,192,72460,128,0,72611:0:0:0:70:tom.wav
320,192,72460,1,0,0:0:0:0:
448,192,72460,1,0,0:0:0:0:
192,192,72611,128,0,72763:0:0:0:70:whistle.wav
64,192,72763,1,0,0:0:0:0:
448,192,72763,1,0,0:0:0:0:
192,192,72914,1,0,0:0:0:70:whistle.wav
320,192,72990,1,0,0:0:0:0:
64,192,73066,128,0,73369:0:0:0:70:tom.wav
192,192,73066,1,0,0:0:0:0:
448,192,73066,1,0,0:0:0:0:
320,192,73217,1,0,0:0:0:0:
320,192,73369,1,0,0:0:0:70:whistle.wav
448,192,73369,1,0,0:0:0:0:
192,192,73520,1,0,0:0:0:0:
320,192,73596,1,0,0:0:0:0:
64,192,73672,1,0,0:0:0:70:tom.wav
192,192,73672,128,0,73975:0:0:0:0:
448,192,73672,1,0,0:0:0:0:
320,192,73823,1,0,0:0:0:70:whistle.wav
64,192,73975,1,0,0:0:0:0:
448,192,73975,1,0,0:0:0:0:
320,192,74126,1,0,0:0:0:70:whistle.wav
192,192,74202,1,0,0:0:0:0:
64,192,74278,1,0,0:0:0:70:tom.wav
320,192,74278,128,0,74429:0:0:0:0:
448,192,74278,1,0,0:0:0:0:
192,192,74429,128,0,74732:0:0:0:0:
64,192,74581,1,0,0:0:0:70:whistle.wav
448,192,74581,1,0,0:0:0:0:
320,192,74732,1,0,0:0:0:0:
192,192,74808,1,0,0:0:0:0:
64,192,74884,128,0,75035:0:0:0:70:tom.wav
320,192,74884,1,0,0:0:0:0:
448,192,74884,1,0,0:0:0:0:
320,192,75035,128,0,75490:0:0:0:70:whistle.wav
64,192,75187,1,0,0:0:0:0:
448,192,75187,1,0,0:0:0:0:
192,192,75338,128,0,75490:0:0:0:70:whistle.wav
64,192,75490,1,0,0:0:0:70:tom.wav
448,192,75490,1,0,0:0:0:0:
320,192,75566,1,0,0:0:0:0:
192,192,75641,1,0,0:0:0:0:
64,192,75717,1,0,0:0:0:0:
320,192,75793,128,0,75945:0:0:0:70:whistle.wav
448,192,75793,1,0,0:0:0:0:
192,192,75945,1,0,0:0:0:0:
320,192,76020,1,0,0:0:0:0:
64,192,76096,1,0,0:0:0:70:tom.wav
192,192,76134,1,0,0:0:0:0:
320,192,76172,1,0,0:0:0:0:
448,192,76210,1,0,0:0:0:0:
64,192,76248,1,0,0:0:0:70:whistle.wav
320,192,76323,1,0,0:0:0:0:
192,192,76399,128,0,76551:0:0:0:0:
64,192,76551,1,0,0:0:0:70:whistle.wav
320,192,76551,1,0,0:0:0:0:
192,192,76626,1,0,0:0:0:0:
448,192,76702,1,0,0:0:0:70:tom.wav
320,192,76740,1,0,0:0:0:0:
192,192,76778,1,0,0:0:0:0:
64,192,76816,1,0,0:0:0:0:
448,192,76854,1,0,0:0:0:0:
192,192,76929,1,0,0:0:0:0:
64,192,77005,1,0,0:0:0:70:whistle.wav
320,192,77005,128,0,77157:0:0:0:0:
192,192,77157,1,0,0:0:0:0:
320,192,77232,1,0,0:0:0:0:
64,192,77308,1,0,0:0:0:70:tom.wav
192,192,77346,1,0,0:0:0:0:
320,192,77384,1,0,0:0:0:0:
448,192,77422,1,0,0:0:0:0:
64,192,77460,128,0,77763:0:0:0:70:whistle.wav
320,192,77535,1,0,0:0:0:0:
192,192,77611,128,0,77763:0:0:0:0:
320,192,77763,1,0,0:0:0:70:whistle.wav
448,192,77763,1,0,0:0:0:0:
192,192,77838,1,0,0:0:0:0:
64,192,77914,1,0,0:0:0:70:tom.wav
320,192,77914,1,0,0:0:0:0:
448,192,77914,1,0,0:0:0:0:
192,192,78066,1,0,0:0:0:0:
64,192,78217,1,0,0:0:0:70:whistle.wav
192,192,78217,1,0,0:0:0:0:
448,192,78217,1,0,0:0:0:0:
320,192,78369,1,0,0:0:0:0:
192,192,78445,1,0,0:0:0:0:
64,192,78520,1,0,0:0:0:70:tom.wav
320,192,78520,1,0,0:0:0:0:
448,192,78520,1,0,0:0:0:0:
192,192,78672,1,0,0:0:0:70:whistle.wav
320,192,78748,1,0,0:0:0:0:
64,192,78823,1,0,0:0:0:0:
448,192,78823,1,0,0:0:0:0:
320,192,78975,1,0,0:0:0:70:whistle.wav
192,192,79051,1,0,0:0:0:0:
64,192,79126,1,0,0:0:0:70:tom.wav
320,192,79126,1,0,0:0:0:0:
448,192,79126,1,0,0:0:0:0:
192,192,79278,1,0,0:0:0:0:
320,192,79354,1,0,0:0:0:0:
64,192,79429,1,0,0:0:0:70:whistle.wav
448,192,79429,1,0,0:0:0:0:
192,192,79505,1,0,0:0:0:0:
448,192,79581,1,0,0:0:0:70:tom.wav
320,192,79631,1,0,0:0:0:70:tom.wav
192,192,79682,1,0,0:0:0:70:tom.wav
64,192,79732,1,0,0:0:0:70:tom.wav
320,192,79808,1,0,0:0:0:0:
192,192,79884,1,0,0:0:0:70:whistle.wav
448,192,79884,1,0,0:0:0:0:
64,192,79960,1,0,0:0:0:0:
320,192,80035,1,0,0:0:0:70:tom.wav
448,192,80035,1,0,0:0:0:0:
64,192,80111,1,0,0:0:0:0:
192,192,80187,1,0,0:0:0:70:whistle.wav
448,192,80187,1,0,0:0:0:0:
320,192,80263,1,0,0:0:0:0:
64,192,80338,1,0,0:0:0:70:tom.wav
192,192,80338,1,0,0:0:0:0:
448,192,80414,1,0,0:0:0:0:
64,192,80490,1,0,0:0:0:70:whistle.wav
320,192,80490,1,0,0:0:0:0:
192,192,80566,1,0,0:0:0:0:
64,192,80641,1,0,0:0:0:70:whistle.wav
320,192,80641,1,0,0:0:0:50:finish.wav
448,192,80641,1,0,0:0:0:0:
192,192,80793,1,0,0:0:0:0:
320,192,80869,1,0,0:0:0:0:
64,192,80945,1,0,0:0:0:70:tom.wav
192,192,80945,128,0,81248:0:0:0:0:
448,192,80945,1,0,0:0:0:0:
320,192,81096,1,0,0:0:0:70:whistle.wav
64,192,81248,1,0,0:0:0:0:
448,192,81248,1,0,0:0:0:0:
320,192,81399,1,0,0:0:0:70:whistle.wav
192,192,81475,1,0,0:0:0:0:
64,192,81551,1,0,0:0:0:70:tom.wav
320,192,81551,128,0,81702:0:0:0:0:
448,192,81551,1,0,0:0:0:0:
64,192,81702,128,0,82005:0:0:0:0:
192,192,81702,1,0,0:0:0:0:
320,192,81854,1,0,0:0:0:70:whistle.wav
448,192,81854,1,0,0:0:0:0:
192,192,82005,1,0,0:0:0:0:
320,192,82081,1,0,0:0:0:0:
64,192,82157,1,0,0:0:0:70:tom.wav
192,192,82157,1,0,0:0:0:0:
448,192,82157,128,0,82308:0:0:0:0:
320,192,82308,128,0,82460:0:0:0:70:whistle.wav
64,192,82460,1,0,0:0:0:0:
448,192,82460,1,0,0:0:0:0:
320,192,82611,1,0,0:0:0:70:whistle.wav
192,192,82687,1,0,0:0:0:0:
64,192,82763,1,0,0:0:0:70:tom.wav
320,192,82763,1,0,0:0:0:0:
448,192,82763,128,0,83066:0:0:0:0:
192,192,82914,1,0,0:0:0:0:
64,192,83066,1,0,0:0:0:70:whistle.wav
192,192,83066,1,0,0:0:0:0:
320,192,83217,1,0,0:0:0:0:
192,192,83293,1,0,0:0:0:0:
64,192,83369,1,0,0:0:0:70:tom.wav
320,192,83369,128,0,83672:0:0:0:0:
448,192,83369,1,0,0:0:0:0:
192,192,83520,1,0,0:0:0:70:whistle.wav
64,192,83672,1,0,0:0:0:0:
448,192,83672,1,0,0:0:0:0:
192,192,83823,1,0,0:0:0:70:whistle.wav
320,192,83899,1,0,0:0:0:0:
64,192,83975,1,0,0:0:0:70:tom.wav
192,192,83975,128,0,84126:0:0:0:0:
448,192,83975,1,0,0:0:0:0:
320,192,84126,128,0,84429:0:0:0:0:
64,192,84278,1,0,0:0:0:70:whistle.wav
448,192,84278,1,0,0:0:0:0:
192,192,84429,1,0,0:0:0:0:
320,192,84505,1,0,0:0:0:0:
64,192,84581,1,0,0:0:0:70:tom.wav
192,192,84581,1,0,0:0:0:0:
448,192,84581,1,0,0:0:0:0:
64,192,84732,1,0,0:0:0:70:whistle.wav
192,192,84770,1,0,0:0:0:0:
320,192,84808,1,0,0:0:0:0:
448,192,84846,1,0,0:0:0:0:
64,192,84884,1,0,0:0:0:0:
192,192,84922,1,0,0:0:0:0:
320,192,84960,1,0,0:0:0:0:
448,192,84998,1,0,0:0:0:0:
64,192,85035,1,0,0:0:0:70:whistle.wav
192,192,85073,1,0,0:0:0:0:
448,192,85111,1,0,0:0:0:0:
320,192,85149,1,0,0:0:0:0:
64,192,85187,1,0,0:0:0:70:tom.wav
192,192,85187,1,0,0:0:0:0:
448,192,85263,1,0,0:0:0:0:
320,192,85338,1,0,0:0:0:0:
192,192,85414,1,0,0:0:0:0:
64,192,85490,1,0,0:0:0:70:whistle.wav
320,192,85490,1,0,0:0:0:50:finish.wav
448,192,85490,1,0,0:0:0:0:
192,192,85641,1,0,0:0:0:0:
320,192,85717,1,0,0:0:0:0:
64,192,85793,1,0,0:0:0:70:tom.wav
448,192,85793,1,0,0:0:0:0:
192,192,85869,1,0,0:0:0:0:
64,192,85945,1,0,0:0:0:70:whistle.wav
320,192,85945,1,0,0:0:0:0:
448,192,85945,1,0,0:0:0:0:
192,192,86096,128,0,86172:0:0:0:0:
320,192,86172,128,0,86248:0:0:0:0:
64,192,86248,128,0,86323:0:0:0:70:whistle.wav
448,192,86248,1,0,0:0:0:0:
192,192,86323,128,0,86399:0:0:0:0:
64,192,86399,1,0,0:0:0:70:tom.wav
448,192,86399,128,0,86475:0:0:0:0:
320,192,86475,128,0,86551:0:0:0:0:
64,192,86551,128,0,86626:0:0:0:0:
448,192,86551,1,0,0:0:0:0:
192,192,86626,128,0,86702:0:0:0:0:
64,192,86702,1,0,0:0:0:70:whistle.wav
320,192,86702,1,0,0:0:0:50:finish.wav
448,192,86702,1,0,0:0:0:0:
192,192,86854,1,0,0:0:0:0:
320,192,86929,1,0,0:0:0:0:
64,192,87005,1,0,0:0:0:70:tom.wav
448,192,87005,1,0,0:0:0:0:
320,192,87081,1,0,0:0:0:0:
64,192,87157,1,0,0:0:0:70:whistle.wav
192,192,87157,1,0,0:0:0:0:
448,192,87232,1,0,0:0:0:0:
320,192,87308,128,0,87611:0:0:0:0:
64,192,87460,1,0,0:0:0:70:whistle.wav
448,192,87460,1,0,0:0:0:0:
64,192,87611,1,0,0:0:0:70:tom.wav
192,192,87687,1,0,0:0:0:0:
320,192,87763,1,0,0:0:0:0:
448,192,87838,1,0,0:0:0:0:
64,192,87914,1,0,0:0:0:70:whistle.wav
192,192,87952,1,0,0:0:0:0:
320,192,87990,1,0,0:0:0:0:
448,192,88028,1,0,0:0:0:0:
64,192,88066,1,0,0:0:0:0:
192,192,88141,1,0,0:0:0:0:
448,192,88217,1,0,0:0:0:70:tom.wav
320,192,88255,1,0,0:0:0:0:
192,192,88293,1,0,0:0:0:0:
64,192,88331,1,0,0:0:0:0:
448,192,88369,1,0,0:0:0:70:whistle.wav
320,192,88445,1,0,0:0:0:0:
64,192,88520,1,0,0:0:0:50:finish.wav
192,192,88558,1,0,0:0:0:0:
320,192,88596,1,0,0:0:0:0:
448,192,88634,1,0,0:0:0:0:
64,192,88672,1,0,0:0:0:0:
192,192,88748,1,0,0:0:0:0:
448,192,88823,1,0,0:0:0:70:tom.wav
320,192,88861,1,0,0:0:0:0:
192,192,88899,1,0,0:0:0:0:
64,192,88937,1,0,0:0:0:0:
448,192,88975,1,0,0:0:0:70:whistle.wav
320,192,89051,1,0,0:0:0:0:
64,192,89126,1,0,0:0:0:50:finish.wav
192,192,89164,1,0,0:0:0:0:
320,192,89202,1,0,0:0:0:0:
448,192,89240,1,0,0:0:0:0:
64,192,89278,1,0,0:0:0:70:whistle.wav
192,192,89316,1,0,0:0:0:70:whistle.wav
448,192,89354,1,0,0:0:0:70:whistle.wav
320,192,89391,1,0,0:0:0:70:whistle.wav
64,192,89429,1,0,0:0:0:70:whistle.wav
192,192,89429,1,0,0:0:0:0:
448,192,89505,1,0,0:0:0:0:
320,192,89505,1,0,0:0:0:70:whistle.wav
64,192,89581,1,0,0:0:0:70:whistle.wav
192,192,89581,1,0,0:0:0:0:
64,192,89732,1,0,0:0:0:70:whistle.wav
320,192,89732,1,0,0:0:0:0:
448,192,89732,1,0,0:0:0:0:
192,192,89884,1,0,0:0:0:70:whistle.wav
320,192,89884,1,0,0:0:0:0:
448,192,89884,1,0,0:0:0:0:
64,192,90035,1,0,0:0:0:70:tom.wav
448,192,90035,1,0,0:0:0:0:
192,192,90111,1,0,0:0:0:0:
64,192,90187,1,0,0:0:0:70:whistle.wav
320,192,90187,1,0,0:0:0:0:
448,192,90263,1,0,0:0:0:0:
64,192,90338,128,0,90490:0:0:0:50:finish.wav
192,192,90338,1,0,0:0:0:70:snare.wav
320,192,90490,1,0,0:0:0:0:
448,192,90490,1,0,0:0:0:0:
192,192,90566,1,0,0:0:0:0:
64,192,90641,1,0,0:0:0:70:snare.wav
448,192,90641,128,0,90793:0:0:0:0:
192,192,90793,128,0,90945:0:0:0:0:
320,192,90793,1,0,0:0:0:0:
64,192,90945,1,0,0:0:0:70:snare.wav
448,192,90945,1,0,0:0:0:0:
320,192,91020,1,0,0:0:0:0:
64,192,91096,128,0,91248:0:0:0:0:
192,192,91096,1,0,0:0:0:0:
320,192,91248,128,0,91399:0:0:0:70:snare.wav
448,192,91248,1,0,0:0:0:0:
192,192,91399,128,0,91551:0:0:0:0:
64,192,91399,1,0,0:0:0:0:
320,192,91551,1,0,0:0:0:70:snare.wav
448,192,91551,128,0,91702:0:0:0:0:
192,192,91702,1,0,0:0:0:0:
64,192,91702,1,0,0:0:0:0:
320,192,91778,128,0,91929:0:0:0:0:
64,192,91854,1,0,0:0:0:70:snare.wav
448,192,91854,1,0,0:0:0:0:
192,192,92005,128,0,92157:0:0:0:0:
64,192,92005,1,0,0:0:0:0:
320,192,92157,1,0,0:0:0:70:snare.wav
448,192,92157,1,0,0:0:0:0:
64,192,92232,128,0,92384:0:0:0:0:
320,192,92308,1,0,0:0:0:0:
192,192,92308,1,0,0:0:0:0:
64,192,92460,1,0,0:0:0:70:snare.wav
448,192,92460,1,0,0:0:0:0:
192,192,92611,1,0,0:0:0:70:snare.wav
320,192,92611,1,0,0:0:0:0:
64,192,92763,1,0,0:0:0:70:snare.wav
448,192,92763,128,0,92914:0:0:0:0:
192,192,92914,128,0,93066:0:0:0:0:
320,192,92914,1,0,0:0:0:0:
448,192,93066,1,0,0:0:0:70:snare.wav
64,192,93066,1,0,0:0:0:0:
192,192,93141,1,0,0:0:0:0:
448,192,93217,128,0,93369:0:0:0:0:
320,192,93217,1,0,0:0:0:0:
64,192,93369,128,0,93520:0:0:0:70:snare.wav
192,192,93369,1,0,0:0:0:0:
320,192,93520,1,0,0:0:0:0:
448,192,93520,1,0,0:0:0:0:
192,192,93596,128,0,93748:0:0:0:0:
64,192,93672,1,0,0:0:0:70:snare.wav
448,192,93672,1,0,0:0:0:0:
320,192,93823,128,0,93975:0:0:0:0:
192,192,93823,1,0,0:0:0:0:
64,192,93975,128,0,94126:0:0:0:70:snare.wav
448,192,93975,1,0,0:0:0:0:
320,192,94126,1,0,0:0:0:0:
192,192,94126,1,0,0:0:0:0:
448,192,94202,128,0,94354:0:0:0:0:
64,192,94278,1,0,0:0:0:70:snare.wav
192,192,94278,1,0,0:0:0:0:
320,192,94429,128,0,94581:0:0:0:0:
448,192,94429,1,0,0:0:0:0:
64,192,94581,128,0,94884:0:0:0:70:snare.wav
192,192,94581,1,0,0:0:0:0:
448,192,94732,1,0,0:0:0:0:
192,192,94732,1,0,0:0:0:0:
448,192,94884,128,0,95035:0:0:0:70:snare.wav
320,192,94884,1,0,0:0:0:0:
192,192,95035,1,0,0:0:0:70:snare.wav
64,192,95035,1,0,0:0:0:0:
320,192,95111,1,0,0:0:0:70:snare.wav
64,192,95187,1,0,0:0:0:70:whistle.wav
192,192,95187,1,0,0:0:0:50:finish.wav
448,192,95187,1,0,0:0:0:0:
320,192,95338,1,0,0:0:0:70:tom.wav
448,192,95338,1,0,0:0:0:0:
64,192,95490,1,0,0:0:0:70:whistle.wav
192,192,95490,1,0,0:0:0:0:
320,192,95490,1,0,0:0:0:0:
64,192,95641,1,0,0:0:0:70:tom.wav
448,192,95641,1,0,0:0:0:0:
192,192,95793,1,0,0:0:0:70:whistle.wav
320,192,95793,1,0,0:0:0:0:
448,192,95793,1,0,0:0:0:0:
64,192,95945,1,0,0:0:0:70:tom.wav
320,192,95945,1,0,0:0:0:0:
64,192,96096,1,0,0:0:0:70:whistle.wav
192,192,96096,1,0,0:0:0:0:
448,192,96096,1,0,0:0:0:0:
320,192,96248,1,0,0:0:0:70:tom.wav
448,192,96248,1,0,0:0:0:0:
64,192,96399,1,0,0:0:0:70:whistle.wav
192,192,96399,1,0,0:0:0:0:
320,192,96399,1,0,0:0:0:0:
192,192,96551,1,0,0:0:0:70:tom.wav
448,192,96551,1,0,0:0:0:0:
64,192,96702,1,0,0:0:0:70:whistle.wav
320,192,96702,1,0,0:0:0:0:
448,192,96702,1,0,0:0:0:0:
64,192,96854,1,0,0:0:0:70:tom.wav
192,192,96854,1,0,0:0:0:0:
192,192,97005,1,0,0:0:0:70:whistle.wav
320,192,97005,1,0,0:0:0:0:
448,192,97005,1,0,0:0:0:0:
64,192,97157,1,0,0:0:0:70:tom.wav
448,192,97157,1,0,0:0:0:0:
64,192,97308,1,0,0:0:0:70:whistle.wav
192,192,97308,1,0,0:0:0:0:
320,192,97308,1,0,0:0:0:0:
320,192,97460,1,0,0:0:0:70:tom.wav
448,192,97460,1,0,0:0:0:0:
64,192,97611,1,0,0:0:0:70:whistle.wav
192,192,97611,1,0,0:0:0:50:finish.wav
448,192,97611,1,0,0:0:0:0:
64,192,97763,1,0,0:0:0:70:tom.wav
320,192,97763,1,0,0:0:0:0:
192,192,97838,1,0,0:0:0:0:
64,192,97914,1,0,0:0:0:70:whistle.wav
320,192,97914,1,0,0:0:0:0:
448,192,97914,1,0,0:0:0:0:
192,192,97990,1,0,0:0:0:0:
320,192,98066,1,0,0:0:0:70:tom.wav
448,192,98066,1,0,0:0:0:0:
64,192,98217,1,0,0:0:0:70:whistle.wav
320,192,98217,1,0,0:0:0:50:finish.wav
448,192,98217,1,0,0:0:0:0:
192,192,98369,1,0,0:0:0:70:tom.wav
448,192,98369,1,0,0:0:0:0:
320,192,98445,1,0,0:0:0:0:
64,192,98520,1,0,0:0:0:70:whistle.wav
192,192,98520,1,0,0:0:0:0:
448,192,98520,1,0,0:0:0:0:
320,192,98596,1,0,0:0:0:0:
64,192,98672,1,0,0:0:0:70:tom.wav
192,192,98672,1,0,0:0:0:0:
64,192,98823,1,0,0:0:0:70:whistle.wav
192,192,98823,1,0,0:0:0:50:finish.wav
448,192,98823,1,0,0:0:0:0:
320,192,98975,1,0,0:0:0:0:
192,192,99051,1,0,0:0:0:0:
64,192,99126,1,0,0:0:0:70:whistle.wav
320,192,99126,1,0,0:0:0:0:
448,192,99126,1,0,0:0:0:0:
192,192,99202,1,0,0:0:0:0:
320,192,99278,1,0,0:0:0:0:
64,192,99429,1,0,0:0:0:70:whistle.wav
320,192,99429,1,0,0:0:0:50:finish.wav
448,192,99429,1,0,0:0:0:0:
192,192,99581,1,0,0:0:0:0:
320,192,99657,1,0,0:0:0:0:
64,192,99732,1,0,0:0:0:70:whistle.wav
192,192,99732,1,0,0:0:0:0:
448,192,99732,1,0,0:0:0:0:
320,192,99808,1,0,0:0:0:0:
192,192,99884,1,0,0:0:0:0:
64,192,100035,1,0,0:0:0:70:whistle.wav
192,192,100035,1,0,0:0:0:50:finish.wav
448,192,100035,1,0,0:0:0:0:
64,192,100187,1,0,0:0:0:0:
320,192,100338,1,0,0:0:0:0:
448,192,100338,1,0,0:0:0:0:
192,192,100490,1,0,0:0:0:0:
64,192,100641,1,0,0:0:0:0:
448,192,100641,1,0,0:0:0:0:
320,192,100793,1,0,0:0:0:0:
192,192,100945,1,0,0:0:0:0:
448,192,100945,1,0,0:0:0:0:
64,192,101096,1,0,0:0:0:0:
192,192,101248,1,0,0:0:0:0:
320,192,101248,1,0,0:0:0:0:
320,192,101399,1,0,0:0:0:0:
64,192,101551,1,0,0:0:0:0:
448,192,101551,1,0,0:0:0:0:
320,192,101702,1,0,0:0:0:0:
192,192,101854,1,0,0:0:0:0:
448,192,101854,1,0,0:0:0:0:
192,192,102005,1,0,0:0:0:0:
320,192,102157,1,0,0:0:0:0:
64,192,102308,1,0,0:0:0:70:whistle.wav
192,192,102308,1,0,0:0:0:50:finish.wav
320,192,102308,1,0,0:0:0:0:
64,192,102460,1,0,0:0:0:70:whistle.wav
192,192,102460,1,0,0:0:0:50:finish.wav
448,192,102460,1,0,0:0:0:0:
448,192,102611,1,0,0:0:0:0:
64,192,102763,1,0,0:0:0:0:
320,192,102763,1,0,0:0:0:0:
192,192,102914,1,0,0:0:0:0:
64,192,103066,1,0,0:0:0:0:
448,192,103066,1,0,0:0:0:0:
320,192,103217,1,0,0:0:0:0:
192,192,103369,1,0,0:0:0:0:
448,192,103369,1,0,0:0:0:0:
320,192,103520,1,0,0:0:0:0:
64,192,103672,1,0,0:0:0:0:
192,192,103672,1,0,0:0:0:0:
64,192,103823,1,0,0:0:0:0:
192,192,103975,1,0,0:0:0:0:
448,192,103975,1,0,0:0:0:0:
320,192,104126,1,0,0:0:0:0:
64,192,104278,1,0,0:0:0:0:
448,192,104278,1,0,0:0:0:0:
192,192,104429,1,0,0:0:0:70:whistle.wav
320,192,104429,1,0,0:0:0:50:finish.wav
448,192,104429,1,0,0:0:0:0:
320,192,104581,1,0,0:0:0:0:
64,192,104732,1,0,0:0:0:70:whistle.wav
192,192,104732,1,0,0:0:0:0:
448,192,104808,1,0,0:0:0:70:whistle.wav
64,192,104884,1,0,0:0:0:70:whistle.wav
192,192,104884,1,0,0:0:0:50:finish.wav
320,192,104884,1,0,0:0:0:0:
320,192,105035,1,0,0:0:0:0:
192,192,105187,1,0,0:0:0:0:
448,192,105187,1,0,0:0:0:0:
64,192,105338,1,0,0:0:0:0:
192,192,105490,1,0,0:0:0:0:
320,192,105490,1,0,0:0:0:0:
448,192,105641,1,0,0:0:0:0:
64,192,105793,1,0,0:0:0:0:
320,192,105793,1,0,0:0:0:0:
192,192,105945,1,0,0:0:0:0:
64,192,106096,1,0,0:0:0:0:
448,192,106096,1,0,0:0:0:0:
64,192,106248,1,0,0:0:0:0:
192,192,106399,1,0,0:0:0:0:
448,192,106399,1,0,0:0:0:0:
320,192,106551,1,0,0:0:0:0:
64,192,106702,1,0,0:0:0:0:
448,192,106702,1,0,0:0:0:0:
448,192,106854,1,0,0:0:0:0:
192,192,107005,1,0,0:0:0:0:
192,192,107157,1,0,0:0:0:70:whistle.wav
320,192,107157,1,0,0:0:0:50:finish.wav
448,192,107157,1,0,0:0:0:0:
64,192,107308,1,0,0:0:0:70:whistle.wav
320,192,107308,1,0,0:0:0:50:finish.wav
448,192,107308,1,0,0:0:0:0:
64,192,107460,1,0,0:0:0:0:
320,192,107611,1,0,0:0:0:0:
448,192,107611,1,0,0:0:0:0:
320,192,107763,1,0,0:0:0:0:
192,192,107914,1,0,0:0:0:0:
448,192,107914,1,0,0:0:0:0:
192,192,108066,1,0,0:0:0:0:
64,192,108217,1,0,0:0:0:0:
320,192,108217,1,0,0:0:0:0:
64,192,108369,1,0,0:0:0:0:
192,192,108520,1,0,0:0:0:0:
320,192,108520,1,0,0:0:0:0:
320,192,108672,1,0,0:0:0:0:
64,192,108823,1,0,0:0:0:0:
448,192,108823,1,0,0:0:0:0:
448,192,108975,1,0,0:0:0:0:
192,192,109126,1,0,0:0:0:0:
320,192,109202,1,0,0:0:0:0:
64,192,109278,1,0,0:0:0:70:whistle.wav
192,192,109278,1,0,0:0:0:50:finish.wav
448,192,109278,1,0,0:0:0:0:
320,192,109354,1,0,0:0:0:0:
192,192,109429,1,0,0:0:0:0:
64,192,109505,1,0,0:0:0:0:
320,192,109581,1,0,0:0:0:70:whistle.wav
448,192,109581,1,0,0:0:0:0:
64,192,109657,1,0,0:0:0:70:whistle.wav
192,192,109657,1,0,0:0:0:0:
64,192,109732,1,0,0:0:0:70:whistle.wav
320,192,109732,1,0,0:0:0:50:finish.wav
448,192,109732,1,0,0:0:0:0:
320,192,109884,1,0,0:0:0:0:
64,192,110035,1,0,0:0:0:70:snare.wav
192,192,110035,1,0,0:0:0:0:
448,192,110035,1,0,0:0:0:0:
64,192,110187,1,0,0:0:0:0:
192,192,110338,1,0,0:0:0:70:whistle.wav
320,192,110338,1,0,0:0:0:0:
448,192,110338,1,0,0:0:0:0:
448,192,110490,1,0,0:0:0:0:
64,192,110641,1,0,0:0:0:70:snare.wav
192,192,110641,1,0,0:0:0:0:
320,192,110641,1,0,0:0:0:0:
192,192,110793,1,0,0:0:0:0:
64,192,110945,1,0,0:0:0:70:whistle.wav
320,192,110945,1,0,0:0:0:0:
448,192,110945,1,0,0:0:0:0:
320,192,111096,1,0,0:0:0:0:
64,192,111248,1,0,0:0:0:70:snare.wav
192,192,111248,1,0,0:0:0:0:
448,192,111248,1,0,0:0:0:0:
64,192,111399,1,0,0:0:0:0:
192,192,111551,1,0,0:0:0:70:whistle.wav
320,192,111551,1,0,0:0:0:0:
448,192,111551,1,0,0:0:0:0:
320,192,111702,1,0,0:0:0:0:
64,192,111854,1,0,0:0:0:70:snare.wav
192,192,111854,1,0,0:0:0:0:
448,192,111854,1,0,0:0:0:0:
192,192,112005,1,0,0:0:0:70:snare.wav
320,192,112005,1,0,0:0:0:0:
64,192,112157,1,0,0:0:0:70:whistle.wav
320,192,112157,1,0,0:0:0:0:
448,192,112157,1,0,0:0:0:0:
192,192,112232,1,0,0:0:0:0:
320,192,112308,1,0,0:0:0:0:
64,192,112384,1,0,0:0:0:0:
192,192,112460,1,0,0:0:0:70:snare.wav
448,192,112460,1,0,0:0:0:0:
320,192,112535,1,0,0:0:0:0:
192,192,112611,1,0,0:0:0:0:
64,192,112687,1,0,0:0:0:0:
320,192,112763,1,0,0:0:0:70:whistle.wav
448,192,112763,1,0,0:0:0:0:
192,192,112838,1,0,0:0:0:0:
64,192,112914,1,0,0:0:0:0:
320,192,112990,1,0,0:0:0:0:
192,192,113066,1,0,0:0:0:70:snare.wav
448,192,113066,1,0,0:0:0:0:
64,192,113141,1,0,0:0:0:0:
320,192,113217,1,0,0:0:0:0:
192,192,113293,1,0,0:0:0:0:
64,192,113369,1,0,0:0:0:70:whistle.wav
448,192,113369,1,0,0:0:0:0:
192,192,113445,1,0,0:0:0:0:
320,192,113520,1,0,0:0:0:0:
448,192,113596,1,0,0:0:0:0:
64,192,113672,1,0,0:0:0:70:snare.wav
192,192,113672,1,0,0:0:0:0:
320,192,113748,1,0,0:0:0:0:
192,192,113823,1,0,0:0:0:0:
64,192,113899,1,0,0:0:0:0:
320,192,113975,1,0,0:0:0:70:whistle.wav
448,192,113975,1,0,0:0:0:0:
192,192,114051,1,0,0:0:0:0:
320,192,114126,1,0,0:0:0:0:
448,192,114202,1,0,0:0:0:0:
64,192,114278,1,0,0:0:0:70:snare.wav
192,192,114278,1,0,0:0:0:0:
320,192,114354,1,0,0:0:0:0:
64,192,114429,1,0,0:0:0:70:snare.wav
448,192,114429,1,0,0:0:0:0:
192,192,114505,1,0,0:0:0:0:
64,192,114581,1,0,0:0:0:70:whistle.wav
320,192,114581,1,0,0:0:0:70:snare.wav
192,192,114657,1,0,0:0:0:0:
320,192,114732,1,0,0:0:0:70:snare.wav
448,192,114732,1,0,0:0:0:0:
64,192,114808,1,0,0:0:0:0:
192,192,114884,1,0,0:0:0:70:whistle.wav
448,192,114884,1,0,0:0:0:70:snare.wav
320,192,114960,1,0,0:0:0:0:
192,192,115035,1,0,0:0:0:70:snare.wav
64,192,115111,1,0,0:0:0:0:
320,192,115187,1,0,0:0:0:70:whistle.wav
448,192,115187,1,0,0:0:0:70:snare.wav
192,192,115263,1,0,0:0:0:0:
64,192,115338,1,0,0:0:0:70:snare.wav
320,192,115338,1,0,0:0:0:0:
448,192,115414,1,0,0:0:0:0:
64,192,115490,1,0,0:0:0:70:whistle.wav
192,192,115490,1,0,0:0:0:70:snare.wav
320,192,115566,1,0,0:0:0:0:
448,192,115641,1,0,0:0:0:70:snare.wav
192,192,115717,1,0,0:0:0:0:
64,192,115793,1,0,0:0:0:70:whistle.wav
320,192,115793,1,0,0:0:0:70:snare.wav
448,192,115869,1,0,0:0:0:0:
64,192,115945,1,0,0:0:0:70:snare.wav
192,192,115945,1,0,0:0:0:0:
320,192,116020,1,0,0:0:0:0:
192,192,116096,1,0,0:0:0:70:whistle.wav
448,192,116096,1,0,0:0:0:70:snare.wav
64,192,116172,1,0,0:0:0:0:
320,192,116248,1,0,0:0:0:70:snare.wav
192,192,116323,1,0,0:0:0:0:
64,192,116399,1,0,0:0:0:70:whistle.wav
448,192,116399,1,0,0:0:0:70:snare.wav
320,192,116475,1,0,0:0:0:0:
192,192,116551,1,0,0:0:0:70:snare.wav
448,192,116551,1,0,0:0:0:0:
64,192,116626,1,0,0:0:0:0:
320,192,116702,1,0,0:0:0:70:whistle.wav
448,192,116702,1,0,0:0:0:70:snare.wav
64,192,116778,1,0,0:0:0:0:
192,192,116854,1,0,0:0:0:70:snare.wav
320,192,116929,1,0,0:0:0:0:
64,192,117005,1,0,0:0:0:70:whistle.wav
448,192,117005,1,0,0:0:0:70:snare.wav
192,192,117081,1,0,0:0:0:0:
64,192,117157,1,0,0:0:0:70:snare.wav
320,192,117157,1,0,0:0:0:0:
448,192,117232,1,0,0:0:0:0:
64,192,117308,1,0,0:0:0:70:whistle.wav
192,192,117308,1,0,0:0:0:70:snare.wav
448,192,117384,1,0,0:0:0:0:
64,192,117460,1,0,0:0:0:70:snare.wav
320,192,117460,1,0,0:0:0:0:
192,192,117535,1,0,0:0:0:0:
320,192,117611,1,0,0:0:0:70:whistle.wav
448,192,117611,1,0,0:0:0:0:
64,192,117687,1,0,0:0:0:0:
192,192,117687,1,0,0:0:0:0:
320,192,117763,1,0,0:0:0:70:snare.wav
448,192,117763,1,0,0:0:0:0:
64,192,117838,1,0,0:0:0:0:
192,192,117838,1,0,0:0:0:0:
320,192,117914,1,0,0:0:0:70:whistle.wav
448,192,117914,1,0,0:0:0:0:
64,192,117990,1,0,0:0:0:0:
192,192,117990,1,0,0:0:0:0:
320,192,118066,1,0,0:0:0:70:snare.wav
448,192,118066,1,0,0:0:0:0:
192,192,118141,1,0,0:0:0:0:
64,192,118217,128,0,118369:0:0:0:70:whistle.wav
320,192,118217,1,0,0:0:0:50:finish.wav
448,192,118217,1,0,0:0:0:0:
192,192,118369,1,0,0:0:0:0:
320,192,118445,1,0,0:0:0:0:
64,192,118520,128,0,118672:0:0:0:0:
448,192,118520,1,0,0:0:0:0:
448,192,118672,128,0,118823:0:0:0:0:
64,192,118823,128,0,119126:0:0:0:0:
192,192,118975,128,0,119126:0:0:0:0:
320,192,119126,1,0,0:0:0:0:
192,192,119202,1,0,0:0:0:0:
320,192,119278,1,0,0:0:0:0:
192,192,119354,1,0,0:0:0:0:
320,192,119429,128,0,119732:0:0:0:70:whistle.wav
448,192,119429,128,0,119732:0:0:0:50:finish.wav
64,192,119429,1,0,0:0:0:0:
64,192,119732,128,0,119884:0:0:0:70:whistle.wav
192,192,119732,128,0,119884:0:0:0:0:
320,192,119934,1,0,0:0:0:0:
192,192,119985,1,0,0:0:0:0:
64,192,120035,128,0,120187:0:0:0:70:whistle.wav
448,192,120035,128,0,120187:0:0:0:0:
320,192,120237,1,0,0:0:0:0:
448,192,120288,1,0,0:0:0:0:
64,192,120338,128,0,120490:0:0:0:70:whistle.wav
192,192,120338,128,0,120490:0:0:0:0:
320,192,120540,1,0,0:0:0:0:
192,192,120591,1,0,0:0:0:0:
320,192,120641,128,0,120793:0:0:0:70:whistle.wav
448,192,120641,128,0,120793:0:0:0:0:
192,192,120844,1,0,0:0:0:0:
320,192,120894,1,0,0:0:0:0:
64,192,120945,128,0,121096:0:0:0:70:whistle.wav
192,192,120945,128,0,121096:0:0:0:0:
320,192,121147,1,0,0:0:0:0:
64,192,121197,1,0,0:0:0:0:
192,192,121248,128,0,121399:0:0:0:70:whistle.wav
448,192,121248,128,0,121399:0:0:0:0:
320,192,121450,1,0,0:0:0:0:
192,192,121500,1,0,0:0:0:0:
64,192,121551,128,0,121702:0:0:0:70:whistle.wav
448,192,121551,128,0,121702:0:0:0:0:
192,192,121753,1,0,0:0:0:70:whistle.wav
448,192,121803,1,0,0:0:0:0:
64,192,121854,128,0,122081:0:0:0:70:whistle.wav
320,192,121854,128,0,122081:0:0:0:0:
64,192,122157,128,0,122308:0:0:0:70:whistle.wav
448,192,122157,128,0,122308:0:0:0:0:
192,192,122359,1,0,0:0:0:0:
64,192,122409,1,0,0:0:0:0:
320,192,122460,128,0,122611:0:0:0:70:whistle.wav
448,192,122460,128,0,122611:0:0:0:0:
192,192,122662,1,0,0:0:0:0:
320,192,122712,1,0,0:0:0:0:
64,192,122763,128,0,122914:0:0:0:70:whistle.wav
192,192,122763,128,0,122914:0:0:0:0:
320,192,122965,1,0,0:0:0:0:
192,192,123015,1,0,0:0:0:0:
320,192,123066,128,0,123217:0:0:0:70:whistle.wav
448,192,123066,128,0,123217:0:0:0:0:
192,192,123268,1,0,0:0:0:70:whistle.wav
448,192,123318,1,0,0:0:0:0:
64,192,123369,128,0,123520:0:0:0:70:whistle.wav
320,192,123369,128,0,123520:0:0:0:0:
192,192,123571,1,0,0:0:0:0:
320,192,123621,1,0,0:0:0:0:
64,192,123672,128,0,123823:0:0:0:70:whistle.wav
448,192,123672,128,0,123823:0:0:0:0:
192,192,123874,1,0,0:0:0:0:
320,192,123924,1,0,0:0:0:0:
64,192,123975,1,0,0:0:0:70:whistle.wav
448,192,123975,1,0,0:0:0:0:
192,192,124076,1,0,0:0:0:70:whistle.wav
448,192,124076,1,0,0:0:0:0:
64,192,124177,1,0,0:0:0:70:whistle.wav
320,192,124177,1,0,0:0:0:0:
64,192,124278,128,0,124581:0:0:0:70:whistle.wav
192,192,124278,128,0,124581:0:0:0:50:finish.wav
448,192,124278,1,0,0:0:0:0:
320,192,124581,1,0,0:0:0:70:whistle.wav
448,192,124581,1,0,0:0:0:0:
64,192,124682,1,0,0:0:0:0:
192,192,124682,1,0,0:0:0:0:
64,192,124783,1,0,0:0:0:0:
448,192,124783,1,0,0:0:0:0:
320,192,124884,1,0,0:0:0:70:whistle.wav
448,192,124884,1,0,0:0:0:0:
64,192,124985,1,0,0:0:0:0:
192,192,124985,1,0,0:0:0:0:
64,192,125086,1,0,0:0:0:0:
320,192,125086,1,0,0:0:0:0:
192,192,125187,128,0,125338:0:0:0:70:whistle.wav
448,192,125187,128,0,125338:0:0:0:0:
320,192,125389,1,0,0:0:0:0:
192,192,125439,1,0,0:0:0:0:
64,192,125490,128,0,125641:0:0:0:70:whistle.wav
448,192,125490,128,0,125641:0:0:0:0:
192,192,125692,1,0,0:0:0:0:
64,192,125743,1,0,0:0:0:0:
320,192,125793,128,0,125945:0:0:0:70:whistle.wav
448,192,125793,128,0,125945:0:0:0:0:
192,192,125995,1,0,0:0:0:0:
320,192,126046,1,0,0:0:0:0:
64,192,126096,128,0,126248:0:0:0:70:whistle.wav
448,192,126096,128,0,126248:0:0:0:0:
320,192,126298,1,0,0:0:0:0:
448,192,126349,1,0,0:0:0:0:
64,192,126399,128,0,126551:0:0:0:70:whistle.wav
192,192,126399,128,0,126551:0:0:0:0:
320,192,126601,1,0,0:0:0:70:whistle.wav
64,192,126652,1,0,0:0:0:0:
192,192,126702,128,0,126854:0:0:0:70:whistle.wav
448,192,126702,128,0,126854:0:0:0:0:
64,192,126904,1,0,0:0:0:70:whistle.wav
192,192,126955,1,0,0:0:0:0:
320,192,127005,128,0,127157:0:0:0:70:whistle.wav
448,192,127005,128,0,127157:0:0:0:0:
192,192,127207,1,0,0:0:0:0:
448,192,127258,1,0,0:0:0:0:
64,192,127308,128,0,127460:0:0:0:70:whistle.wav
320,192,127308,128,0,127460:0:0:0:0:
192,192,127510,1,0,0:0:0:0:
320,192,127561,1,0,0:0:0:0:
192,192,127611,128,0,127763:0:0:0:70:whistle.wav
448,192,127611,128,0,127763:0:0:0:0:
64,192,127813,1,0,0:0:0:70:whistle.wav
192,192,127864,1,0,0:0:0:0:
320,192,127914,1,0,0:0:0:70:whistle.wav
448,192,127914,1,0,0:0:0:0:
320,192,128015,1,0,0:0:0:70:whistle.wav
448,192,128015,1,0,0:0:0:0:
320,192,128116,1,0,0:0:0:70:whistle.wav
448,192,128116,1,0,0:0:0:0:
64,192,128217,1,0,0:0:0:70:whistle.wav
192,192,128217,1,0,0:0:0:0:
320,192,128318,1,0,0:0:0:70:whistle.wav
192,192,128318,1,0,0:0:0:0:
320,192,128419,1,0,0:0:0:70:whistle.wav
448,192,128419,1,0,0:0:0:0:
64,192,128520,1,0,0:0:0:70:whistle.wav
192,192,128520,1,0,0:0:0:50:finish.wav
448,192,128520,1,0,0:0:0:0:
320,192,128672,1,0,0:0:0:70:whistle.wav
64,192,128748,1,0,0:0:0:70:whistle.wav
320,192,128823,128,0,128899:0:0:0:70:tom.wav
448,192,128823,1,0,0:0:0:0:
192,192,128899,128,0,128975:0:0:0:0:
448,192,128975,128,0,129051:0:0:0:0:
320,192,129051,128,0,129126:0:0:0:0:
64,192,129126,128,0,129429:0:0:0:70:whistle.wav
192,192,129126,1,0,0:0:0:50:finish.wav
448,192,129126,1,0,0:0:0:0:
320,192,129278,1,0,0:0:0:0:
192,192,129429,1,0,0:0:0:70:tom.wav
448,192,129429,1,0,0:0:0:0:
64,192,129581,1,0,0:0:0:70:whistle.wav
320,192,129581,128,0,129657:0:0:0:0:
192,192,129657,128,0,129732:0:0:0:0:
448,192,129732,128,0,129884:0:0:0:0:
192,192,129884,1,0,0:0:0:70:whistle.wav
320,192,129884,128,0,130035:0:0:0:0:
64,192,130035,128,0,130187:0:0:0:70:tom.wav
448,192,130035,1,0,0:0:0:0:
192,192,130187,128,0,130490:0:0:0:0:
64,192,130338,1,0,0:0:0:70:whistle.wav
448,192,130338,1,0,0:0:0:0:
320,192,130490,128,0,130566:0:0:0:0:
192,192,130566,128,0,130641:0:0:0:0:
64,192,130641,1,0,0:0:0:70:tom.wav
448,192,130641,128,0,130793:0:0:0:0:
64,192,130793,128,0,130869:0:0:0:70:whistle.wav
320,192,130793,1,0,0:0:0:0:
192,192,130869,128,0,130945:0:0:0:0:
320,192,130945,128,0,131096:0:0:0:0:
64,192,131096,128,0,131147:0:0:0:70:whistle.wav
192,192,131147,128,0,131197:0:0:0:0:
320,192,131197,128,0,131248:0:0:0:0:
64,192,131248,1,0,0:0:0:70:tom.wav
448,192,131248,128,0,131399:0:0:0:0:
192,192,131399,128,0,131551:0:0:0:0:
64,192,131551,1,0,0:0:0:70:whistle.wav
320,192,131551,128,0,131854:0:0:0:0:
192,192,131702,1,0,0:0:0:0:
64,192,131854,1,0,0:0:0:70:tom.wav
448,192,131854,1,0,0:0:0:0:
192,192,132005,128,0,132081:0:0:0:70:whistle.wav
448,192,132005,1,0,0:0:0:0:
320,192,132081,128,0,132157:0:0:0:0:
64,192,132157,128,0,132308:0:0:0:0:
192,192,132308,1,0,0:0:0:70:whistle.wav
448,192,132308,128,0,132460:0:0:0:0:
192,192,132460,1,0,0:0:0:70:tom.wav
320,192,132460,128,0,132611:0:0:0:0:
64,192,132611,128,0,132914:0:0:0:0:
192,192,132763,1,0,0:0:0:70:whistle.wav
448,192,132763,1,0,0:0:0:0:
320,192,132914,128,0,132990:0:0:0:0:
192,192,132990,128,0,133066:0:0:0:0:
64,192,133066,1,0,0:0:0:70:tom.wav
448,192,133066,128,0,133217:0:0:0:0:
64,192,133217,128,0,133369:0:0:0:70:whistle.wav
320,192,133217,1,0,0:0:0:0:
192,192,133369,128,0,133520:0:0:0:0:
320,192,133520,128,0,133672:0:0:0:70:whistle.wav
448,192,133520,1,0,0:0:0:0:
64,192,133672,128,0,133823:0:0:0:70:tom.wav
192,192,133672,1,0,0:0:0:0:
448,192,133823,128,0,133975:0:0:0:0:
64,192,133975,1,0,0:0:0:70:whistle.wav
320,192,133975,128,0,134278:0:0:0:0:
192,192,134126,1,0,0:0:0:0:
64,192,134278,1,0,0:0:0:70:tom.wav
448,192,134278,1,0,0:0:0:0:
192,192,134429,128,0,134505:0:0:0:70:whistle.wav
448,192,134429,1,0,0:0:0:0:
320,192,134505,128,0,134581:0:0:0:0:
64,192,134581,128,0,134732:0:0:0:0:
192,192,134732,128,0,134884:0:0:0:70:whistle.wav
320,192,134732,1,0,0:0:0:0:
64,192,134884,1,0,0:0:0:70:tom.wav
448,192,134884,128,0,135035:0:0:0:0:
320,192,135035,128,0,135338:0:0:0:0:
64,192,135187,1,0,0:0:0:70:whistle.wav
448,192,135187,1,0,0:0:0:0:
192,192,135338,128,0,135414:0:0:0:0:
448,192,135414,128,0,135490:0:0:0:0:
64,192,135490,128,0,135641:0:0:0:70:tom.wav
320,192,135490,1,0,0:0:0:0:
448,192,135641,128,0,135717:0:0:0:70:whistle.wav
320,192,135717,128,0,135793:0:0:0:0:
192,192,135793,128,0,135869:0:0:0:50:finish.wav
448,192,135793,1,0,0:0:0:0:
64,192,135793,128,0,135869:0:0:0:70:whistle.wav
64,192,135945,1,0,0:0:0:70:whistle.wav
320,192,135945,128,0,136248:0:0:0:50:finish.wav
448,192,135945,128,0,136248:0:0:0:0:
64,192,136248,1,0,0:0:0:70:whistle.wav
192,192,136248,1,0,0:0:0:0:
320,192,136323,1,0,0:0:0:70:whistle.wav
64,192,136399,1,0,0:0:0:70:whistle.wav
192,192,136399,1,0,0:0:0:50:finish.wav
448,192,136399,1,0,0:0:0:0:
320,192,136475,1,0,0:0:0:0:
192,192,136551,1,0,0:0:0:0:
320,192,136626,1,0,0:0:0:0:
64,192,136702,1,0,0:0:0:70:tom.wav
448,192,136702,1,0,0:0:0:0:
192,192,136778,1,0,0:0:0:0:
64,192,136854,1,0,0:0:0:0:
320,192,136854,1,0,0:0:0:0:
448,192,136929,1,0,0:0:0:0:
64,192,137005,1,0,0:0:0:70:whistle.wav
192,192,137005,1,0,0:0:0:50:finish.wav
320,192,137005,1,0,0:0:0:0:
448,192,137081,1,0,0:0:0:0:
192,192,137157,1,0,0:0:0:0:
64,192,137232,1,0,0:0:0:0:
192,192,137308,1,0,0:0:0:70:tom.wav
448,192,137308,1,0,0:0:0:0:
320,192,137384,1,0,0:0:0:0:
64,192,137460,1,0,0:0:0:70:whistle.wav
448,192,137460,1,0,0:0:0:0:
192,192,137535,1,0,0:0:0:0:
320,192,137573,1,0,0:0:0:0:
64,192,137611,128,0,137763:0:0:0:70:whistle.wav
448,192,137611,1,0,0:0:0:50:finish.wav
192,192,137763,1,0,0:0:0:70:whistle.wav
320,192,137763,1,0,0:0:0:0:
64,192,137838,1,0,0:0:0:0:
320,192,137914,128,0,138066:0:0:0:70:whistle.wav
448,192,137914,1,0,0:0:0:50:finish.wav
64,192,138066,1,0,0:0:0:70:whistle.wav
192,192,138066,128,0,138217:0:0:0:0:
64,192,138217,1,0,0:0:0:70:whistle.wav
448,192,138217,1,0,0:0:0:50:finish.wav
192,192,138293,1,0,0:0:0:70:whistle.wav
320,192,138293,1,0,0:0:0:0:
64,192,138369,1,0,0:0:0:70:whistle.wav
448,192,138369,1,0,0:0:0:0:
192,192,138445,1,0,0:0:0:70:whistle.wav
320,192,138445,1,0,0:0:0:0:
64,192,138520,1,0,0:0:0:70:whistle.wav
448,192,138520,1,0,0:0:0:50:finish.wav
192,192,138596,1,0,0:0:0:70:whistle.wav
320,192,138596,1,0,0:0:0:0:
64,192,138672,1,0,0:0:0:70:whistle.wav
448,192,138672,1,0,0:0:0:0:
320,192,138748,1,0,0:0:0:70:whistle.wav
64,192,138823,1,0,0:0:0:70:whistle.wav
192,192,138823,1,0,0:0:0:50:finish.wav
448,192,138823,1,0,0:0:0:0:
192,192,139126,1,0,0:0:0:0:
64,192,139429,1,0,0:0:0:70:whistle.wav
320,192,139429,1,0,0:0:0:50:finish.wav
448,192,139429,1,0,0:0:0:0:
320,192,139732,1,0,0:0:0:0:
64,192,140035,1,0,0:0:0:70:whistle.wav
192,192,140035,1,0,0:0:0:0:
448,192,140035,1,0,0:0:0:0:
64,192,140136,1,0,0:0:0:70:whistle.wav
192,192,140136,1,0,0:0:0:0:
320,192,140237,1,0,0:0:0:70:whistle.wav
448,192,140237,1,0,0:0:0:0:
320,192,140338,1,0,0:0:0:70:whistle.wav
448,192,140338,1,0,0:0:0:0:
64,192,140439,1,0,0:0:0:70:whistle.wav
192,192,140439,1,0,0:0:0:0:
64,192,140540,1,0,0:0:0:70:whistle.wav
192,192,140540,1,0,0:0:0:0:
64,192,140641,1,0,0:0:0:70:whistle.wav
320,192,140641,1,0,0:0:0:50:finish.wav
448,192,140641,1,0,0:0:0:0:
192,192,140793,1,0,0:0:0:70:whistle.wav
320,192,140844,1,0,0:0:0:70:whistle.wav
448,192,140894,1,0,0:0:0:70:whistle.wav
64,192,140945,1,0,0:0:0:70:whistle.wav
192,192,140945,1,0,0:0:0:0:
320,192,141020,1,0,0:0:0:0:
64,192,141096,1,0,0:0:0:70:whistle.wav
448,192,141096,1,0,0:0:0:0:
192,192,141172,1,0,0:0:0:0:
64,192,141248,1,0,0:0:0:70:whistle.wav
320,192,141248,1,0,0:0:0:50:finish.wav
448,192,141248,1,0,0:0:0:0:
320,192,141399,1,0,0:0:0:0:
192,192,141551,1,0,0:0:0:70:snare.wav
448,192,141551,1,0,0:0:0:0:
64,192,141702,1,0,0:0:0:70:whistle.wav
448,192,141702,1,0,0:0:0:0:
192,192,141778,1,0,0:0:0:0:
448,192,141854,1,0,0:0:0:0:
320,192,141929,1,0,0:0:0:0:
64,192,142005,1,0,0:0:0:70:whistle.wav
192,192,142005,1,0,0:0:0:0:
320,192,142081,1,0,0:0:0:0:
64,192,142157,1,0,0:0:0:70:snare.wav
448,192,142157,1,0,0:0:0:0:
192,192,142232,1,0,0:0:0:0:
320,192,142308,1,0,0:0:0:0:
64,192,142384,1,0,0:0:0:0:
192,192,142460,1,0,0:0:0:70:whistle.wav
320,192,142460,1,0,0:0:0:0:
448,192,142460,1,0,0:0:0:0:
320,192,142611,1,0,0:0:0:0:
64,192,142763,1,0,0:0:0:70:snare.wav
192,192,142763,1,0,0:0:0:0:
448,192,142763,1,0,0:0:0:0:
64,192,142914,1,0,0:0:0:70:whistle.wav
320,192,142914,1,0,0:0:0:0:
192,192,143066,1,0,0:0:0:0:
64,192,143217,1,0,0:0:0:70:whistle.wav
448,192,143217,1,0,0:0:0:0:
320,192,143293,1,0,0:0:0:0:
64,192,143369,1,0,0:0:0:70:snare.wav
192,192,143369,1,0,0:0:0:0:
448,192,143445,1,0,0:0:0:0:
320,192,143520,1,0,0:0:0:0:
192,192,143596,1,0,0:0:0:0:
64,192,143672,1,0,0:0:0:70:whistle.wav
320,192,143672,1,0,0:0:0:0:
448,192,143672,1,0,0:0:0:0:
448,192,143823,1,0,0:0:0:0:
64,192,143975,1,0,0:0:0:70:snare.wav
320,192,143975,1,0,0:0:0:0:
192,192,143975,1,0,0:0:0:0:
192,192,144126,1,0,0:0:0:70:whistle.wav
448,192,144126,1,0,0:0:0:0:
320,192,144278,1,0,0:0:0:0:
64,192,144429,1,0,0:0:0:70:whistle.wav
448,192,144429,1,0,0:0:0:0:
192,192,144505,1,0,0:0:0:0:
320,192,144581,1,0,0:0:0:70:snare.wav
448,192,144581,1,0,0:0:0:0:
64,192,144657,1,0,0:0:0:0:
320,192,144732,1,0,0:0:0:0:
64,192,144884,1,0,0:0:0:70:whistle.wav
192,192,144884,1,0,0:0:0:0:
448,192,144884,1,0,0:0:0:0:
192,192,145035,1,0,0:0:0:0:
64,192,145187,1,0,0:0:0:70:snare.wav
448,192,145187,1,0,0:0:0:0:
320,192,145187,1,0,0:0:0:0:
192,192,145338,1,0,0:0:0:70:whistle.wav
64,192,145338,1,0,0:0:0:0:
448,192,145490,1,0,0:0:0:0:
64,192,145641,1,0,0:0:0:70:whistle.wav
320,192,145641,1,0,0:0:0:0:
192,192,145717,1,0,0:0:0:0:
64,192,145793,1,0,0:0:0:70:snare.wav
448,192,145793,1,0,0:0:0:0:
320,192,145869,1,0,0:0:0:0:
192,192,145945,1,0,0:0:0:0:
448,192,146020,1,0,0:0:0:0:
64,192,146096,1,0,0:0:0:70:whistle.wav
192,192,146096,1,0,0:0:0:0:
320,192,146096,1,0,0:0:0:0:
320,192,146248,1,0,0:0:0:0:
64,192,146399,1,0,0:0:0:70:snare.wav
192,192,146399,1,0,0:0:0:0:
448,192,146399,1,0,0:0:0:0:
64,192,146551,1,0,0:0:0:70:whistle.wav
320,192,146551,1,0,0:0:0:0:
192,192,146702,1,0,0:0:0:0:
64,192,146854,1,0,0:0:0:70:whistle.wav
320,192,146854,1,0,0:0:0:0:
448,192,146929,1,0,0:0:0:0:
64,192,147005,1,0,0:0:0:70:snare.wav
192,192,147005,1,0,0:0:0:0:
320,192,147081,1,0,0:0:0:0:
64,192,147157,1,0,0:0:0:0:
192,192,147232,1,0,0:0:0:0:
64,192,147308,1,0,0:0:0:70:whistle.wav
320,192,147308,1,0,0:0:0:0:
448,192,147308,1,0,0:0:0:0:
448,192,147460,1,0,0:0:0:0:
64,192,147611,1,0,0:0:0:70:snare.wav
192,192,147611,1,0,0:0:0:0:
320,192,147611,1,0,0:0:0:0:
64,192,147763,1,0,0:0:0:70:whistle.wav
448,192,147763,1,0,0:0:0:0:
192,192,147914,1,0,0:0:0:0:
64,192,148066,1,0,0:0:0:70:whistle.wav
448,192,148066,1,0,0:0:0:0:
192,192,148141,1,0,0:0:0:0:
320,192,148217,1,0,0:0:0:70:snare.wav
448,192,148217,1,0,0:0:0:0:
64,192,148293,1,0,0:0:0:0:
192,192,148369,1,0,0:0:0:0:
320,192,148445,1,0,0:0:0:0:
64,192,148520,1,0,0:0:0:70:whistle.wav
192,192,148520,1,0,0:0:0:0:
448,192,148520,1,0,0:0:0:0:
192,192,148672,1,0,0:0:0:0:
64,192,148823,1,0,0:0:0:70:snare.wav
320,192,148823,1,0,0:0:0:0:
448,192,148823,1,0,0:0:0:0:
192,192,148975,1,0,0:0:0:70:whistle.wav
448,192,148975,1,0,0:0:0:0:
320,192,149051,1,0,0:0:0:0:
64,192,149126,1,0,0:0:0:70:whistle.wav
192,192,149126,1,0,0:0:0:0:
448,192,149126,1,0,0:0:0:0:
320,192,149278,1,0,0:0:0:0:
192,192,149354,1,0,0:0:0:0:
64,192,149429,1,0,0:0:0:70:snare.wav
320,192,149429,1,0,0:0:0:0:
448,192,149429,1,0,0:0:0:0:
192,192,149581,1,0,0:0:0:70:whistle.wav
320,192,149581,1,0,0:0:0:0:
64,192,149732,1,0,0:0:0:70:whistle.wav
320,192,149732,1,0,0:0:0:50:finish.wav
448,192,149732,1,0,0:0:0:0:
64,192,149884,1,0,0:0:0:70:snare.wav
192,192,149884,1,0,0:0:0:0:
192,192,150035,1,0,0:0:0:70:snare.wav
320,192,150035,1,0,0:0:0:0:
448,192,150035,1,0,0:0:0:0:
64,192,150187,1,0,0:0:0:70:whistle.wav
448,192,150187,1,0,0:0:0:0:
192,192,150263,1,0,0:0:0:70:whistle.wav
320,192,150338,1,0,0:0:0:70:whistle.wav
448,192,150338,1,0,0:0:0:70:snare.wav
64,192,150414,1,0,0:0:0:70:whistle.wav
192,192,150490,1,0,0:0:0:70:whistle.wav
320,192,150490,1,0,0:0:0:0:
448,192,150566,1,0,0:0:0:70:whistle.wav
64,192,150641,1,0,0:0:0:70:whistle.wav
192,192,150641,1,0,0:0:0:70:snare.wav
320,192,150717,1,0,0:0:0:70:whistle.wav
448,192,150717,1,0,0:0:0:0:
64,192,150793,1,0,0:0:0:70:whistle.wav
192,192,150793,1,0,0:0:0:0:
320,192,150869,1,0,0:0:0:70:whistle.wav
64,192,150945,1,0,0:0:0:70:whistle.wav
192,192,150945,1,0,0:0:0:50:finish.wav
448,192,150945,128,0,151096:0:0:0:0:
320,192,151096,1,0,0:0:0:0:
192,192,151172,1,0,0:0:0:0:
64,192,151248,1,0,0:0:0:70:snare.wav
320,192,151248,1,0,0:0:0:0:
448,192,151248,1,0,0:0:0:0:
192,192,151399,1,0,0:0:0:70:whistle.wav
320,192,151399,128,0,151702:0:0:0:0:
448,192,151551,1,0,0:0:0:0:
64,192,151702,1,0,0:0:0:70:whistle.wav
192,192,151702,1,0,0:0:0:0:
448,192,151778,1,0,0:0:0:0:
64,192,151854,1,0,0:0:0:70:snare.wav
192,192,151854,1,0,0:0:0:0:
320,192,151854,1,0,0:0:0:0:
192,192,152005,128,0,152308:0:0:0:0:
64,192,152157,1,0,0:0:0:70:whistle.wav
448,192,152157,1,0,0:0:0:0:
320,192,152308,128,0,152460:0:0:0:0:
64,192,152460,1,0,0:0:0:70:snare.wav
192,192,152460,128,0,152611:0:0:0:0:
448,192,152460,1,0,0:0:0:0:
320,192,152611,1,0,0:0:0:70:whistle.wav
448,192,152611,128,0,152914:0:0:0:0:
192,192,152763,1,0,0:0:0:0:
64,192,152914,1,0,0:0:0:70:whistle.wav
320,192,152914,1,0,0:0:0:0:
448,192,152990,1,0,0:0:0:0:
64,192,153066,1,0,0:0:0:70:snare.wav
192,192,153066,128,0,153217:0:0:0:0:
320,192,153217,1,0,0:0:0:0:
192,192,153293,1,0,0:0:0:0:
64,192,153369,128,0,153520:0:0:0:70:whistle.wav
320,192,153369,1,0,0:0:0:50:finish.wav
448,192,153369,1,0,0:0:0:0:
320,192,153520,128,0,153672:0:0:0:0:
64,192,153672,1,0,0:0:0:70:snare.wav
192,192,153672,128,0,153823:0:0:0:0:
448,192,153672,1,0,0:0:0:0:
64,192,153823,1,0,0:0:0:70:whistle.wav
320,192,153823,128,0,154126:0:0:0:0:
448,192,153975,1,0,0:0:0:0:
64,192,154126,1,0,0:0:0:70:whistle.wav
192,192,154126,1,0,0:0:0:0:
320,192,154202,1,0,0:0:0:0:
64,192,154278,1,0,0:0:0:70:snare.wav
192,192,154278,1,0,0:0:0:0:
448,192,154278,1,0,0:0:0:0:
192,192,154429,128,0,154732:0:0:0:0:
64,192,154581,1,0,0:0:0:70:whistle.wav
448,192,154581,1,0,0:0:0:0:
320,192,154732,128,0,154884:0:0:0:0:
192,192,154884,128,0,155035:0:0:0:70:snare.wav
448,192,154884,1,0,0:0:0:0:
64,192,154884,1,0,0:0:0:0:
320,192,155035,1,0,0:0:0:70:whistle.wav
448,192,155035,128,0,155338:0:0:0:0:
192,192,155187,1,0,0:0:0:0:
64,192,155338,1,0,0:0:0:70:whistle.wav
320,192,155338,1,0,0:0:0:0:
192,192,155414,1,0,0:0:0:0:
64,192,155490,1,0,0:0:0:70:snare.wav
320,192,155490,1,0,0:0:0:0:
448,192,155490,1,0,0:0:0:0:
192,192,155641,1,0,0:0:0:0:
448,192,155717,1,0,0:0:0:0:
192,192,155793,1,0,0:0:0:70:whistle.wav
320,192,155793,1,0,0:0:0:50:finish.wav
64,192,155869,1,0,0:0:0:0:
320,192,155945,1,0,0:0:0:0:
192,192,156020,1,0,0:0:0:0:
64,192,156096,1,0,0:0:0:70:snare.wav
448,192,156096,1,0,0:0:0:0:
320,192,156172,1,0,0:0:0:0:
64,192,156248,128,0,156551:0:0:0:70:whistle.wav
192,192,156248,1,0,0:0:0:0:
320,192,156399,1,0,0:0:0:0:
192,192,156551,1,0,0:0:0:70:whistle.wav
448,192,156551,1,0,0:0:0:0:
320,192,156626,1,0,0:0:0:0:
64,192,156702,1,0,0:0:0:70:snare.wav
192,192,156702,1,0,0:0:0:0:
448,192,156702,1,0,0:0:0:0:
320,192,156854,1,0,0:0:0:0:
64,192,156929,1,0,0:0:0:0:
192,192,157005,1,0,0:0:0:70:whistle.wav
320,192,157005,1,0,0:0:0:50:finish.wav
448,192,157081,1,0,0:0:0:0:
192,192,157157,1,0,0:0:0:0:
320,192,157232,1,0,0:0:0:0:
64,192,157308,1,0,0:0:0:70:snare.wav
448,192,157308,1,0,0:0:0:0:
192,192,157384,1,0,0:0:0:0:
320,192,157460,1,0,0:0:0:70:whistle.wav
448,192,157460,128,0,157763:0:0:0:0:
192,192,157611,1,0,0:0:0:70:whistle.wav
64,192,157763,1,0,0:0:0:0:
320,192,157763,1,0,0:0:0:0:
192,192,157838,1,0,0:0:0:0:
320,192,157914,1,0,0:0:0:70:snare.wav
448,192,157914,1,0,0:0:0:0:
64,192,157990,1,0,0:0:0:0:
192,192,158066,1,0,0:0:0:70:whistle.wav
448,192,158066,1,0,0:0:0:0:
320,192,158141,1,0,0:0:0:0:
64,192,158217,1,0,0:0:0:70:whistle.wav
192,192,158217,1,0,0:0:0:50:finish.wav
448,192,158217,1,0,0:0:0:0:
64,192,158369,1,0,0:0:0:70:whistle.wav
320,192,158369,1,0,0:0:0:0:
448,192,158369,1,0,0:0:0:0:
64,192,158520,1,0,0:0:0:70:whistle.wav
192,192,158520,1,0,0:0:0:50:finish.wav
448,192,158520,1,0,0:0:0:0:
64,192,158672,1,0,0:0:0:70:whistle.wav
320,192,158672,1,0,0:0:0:0:
448,192,158672,1,0,0:0:0:0:
64,192,158823,1,0,0:0:0:70:whistle.wav
192,192,158823,1,0,0:0:0:50:finish.wav
320,192,158899,1,0,0:0:0:70:whistle.wav
448,192,158899,1,0,0:0:0:0:
64,192,158975,1,0,0:0:0:70:whistle.wav
192,192,158975,1,0,0:0:0:0:
320,192,159051,1,0,0:0:0:70:whistle.wav
448,192,159051,1,0,0:0:0:0:
64,192,159126,1,0,0:0:0:70:whistle.wav
192,192,159126,1,0,0:0:0:50:finish.wav
320,192,159202,1,0,0:0:0:70:whistle.wav
448,192,159202,1,0,0:0:0:0:
64,192,159278,1,0,0:0:0:70:whistle.wav
192,192,159278,1,0,0:0:0:0:
320,192,159354,1,0,0:0:0:70:whistle.wav
64,192,159429,1,0,0:0:0:70:whistle.wav
192,192,159429,1,0,0:0:0:50:finish.wav
448,192,159429,128,0,159581:0:0:0:0:
320,192,159581,128,0,159732:0:0:0:0:
64,192,159732,128,0,159884:0:0:0:0:
448,192,159732,1,0,0:0:0:0:
192,192,159884,128,0,160035:0:0:0:0:
320,192,160035,1,0,0:0:0:0:
448,192,160035,1,0,0:0:0:0:
64,192,160111,1,0,0:0:0:0:
192,192,160187,1,0,0:0:0:0:
448,192,160187,1,0,0:0:0:0:
320,192,160263,1,0,0:0:0:0:
64,192,160338,1,0,0:0:0:70:whistle.wav
192,192,160338,1,0,0:0:0:0:
448,192,160414,1,0,0:0:0:0:
64,192,160490,1,0,0:0:0:0:
320,192,160490,1,0,0:0:0:0:
192,192,160566,1,0,0:0:0:0:
64,192,160641,1,0,0:0:0:70:whistle.wav
320,192,160641,1,0,0:0:0:50:finish.wav
448,192,160641,1,0,0:0:0:0:
64,192,160945,128,0,161096:0:0:0:70:whistle.wav
192,192,160945,1,0,0:0:0:0:
320,192,161096,1,0,0:0:0:0:
448,192,161172,1,0,0:0:0:70:whistle.wav
192,192,161248,1,0,0:0:0:70:snare.wav
320,192,161323,1,0,0:0:0:0:
64,192,161399,1,0,0:0:0:70:whistle.wav
192,192,161475,1,0,0:0:0:0:
320,192,161551,1,0,0:0:0:70:whistle.wav
448,192,161551,1,0,0:0:0:0:
192,192,161626,1,0,0:0:0:0:
64,192,161702,1,0,0:0:0:0:
320,192,161778,1,0,0:0:0:0:
192,192,161854,1,0,0:0:0:70:whistle.wav
448,192,161929,1,0,0:0:0:0:
320,192,162005,1,0,0:0:0:0:
192,192,162081,1,0,0:0:0:0:
64,192,162157,1,0,0:0:0:70:whistle.wav
448,192,162157,1,0,0:0:0:0:
320,192,162232,1,0,0:0:0:0:
192,192,162308,1,0,0:0:0:0:
448,192,162384,1,0,0:0:0:70:whistle.wav
64,192,162460,1,0,0:0:0:70:snare.wav
192,192,162535,1,0,0:0:0:70:whistle.wav
320,192,162611,1,0,0:0:0:70:whistle.wav
64,192,162687,1,0,0:0:0:0:
192,192,162763,1,0,0:0:0:70:whistle.wav
448,192,162763,1,0,0:0:0:0:
320,192,162838,1,0,0:0:0:0:
192,192,162914,1,0,0:0:0:0:
448,192,162990,1,0,0:0:0:0:
64,192,163066,1,0,0:0:0:70:whistle.wav
320,192,163066,1,0,0:0:0:0:
192,192,163141,1,0,0:0:0:0:
448,192,163217,1,0,0:0:0:0:
320,192,163293,1,0,0:0:0:0:
64,192,163369,1,0,0:0:0:70:whistle.wav
192,192,163369,1,0,0:0:0:0:
320,192,163445,1,0,0:0:0:0:
448,192,163520,1,0,0:0:0:0:
192,192,163596,1,0,0:0:0:70:whistle.wav
320,192,163672,1,0,0:0:0:70:snare.wav
64,192,163748,1,0,0:0:0:0:
192,192,163823,1,0,0:0:0:70:whistle.wav
320,192,163899,1,0,0:0:0:0:
64,192,163975,1,0,0:0:0:70:whistle.wav
448,192,163975,1,0,0:0:0:0:
320,192,164051,1,0,0:0:0:0:
192,192,164126,1,0,0:0:0:0:
64,192,164202,1,0,0:0:0:0:
448,192,164278,1,0,0:0:0:70:whistle.wav
320,192,164328,1,0,0:0:0:0:
192,192,164379,1,0,0:0:0:0:
64,192,164429,1,0,0:0:0:0:
448,192,164505,1,0,0:0:0:0:
64,192,164581,1,0,0:0:0:70:whistle.wav
192,192,164631,1,0,0:0:0:0:
320,192,164682,1,0,0:0:0:0:
448,192,164732,1,0,0:0:0:0:
64,192,164808,1,0,0:0:0:70:whistle.wav
448,192,164884,1,0,0:0:0:70:snare.wav
320,192,164934,1,0,0:0:0:0:
192,192,164985,1,0,0:0:0:0:
64,192,165035,1,0,0:0:0:70:whistle.wav
448,192,165111,1,0,0:0:0:0:
64,192,165187,1,0,0:0:0:70:whistle.wav
192,192,165237,1,0,0:0:0:0:
320,192,165288,1,0,0:0:0:0:
448,192,165338,1,0,0:0:0:0:
64,192,165414,1,0,0:0:0:0:
192,192,165490,1,0,0:0:0:70:whistle.wav
448,192,165490,128,0,166702:0:0:0:50:finish.wav
320,192,165566,1,0,0:0:0:0:
64,192,165641,1,0,0:0:0:0:
192,192,165717,1,0,0:0:0:0:
320,192,165793,1,0,0:0:0:70:whistle.wav
192,192,165869,1,0,0:0:0:0:
64,192,165945,1,0,0:0:0:0:
320,192,166020,1,0,0:0:0:70:whistle.wav
192,192,166096,1,0,0:0:0:70:snare.wav
64,192,166172,1,0,0:0:0:0:
320,192,166248,1,0,0:0:0:70:whistle.wav
192,192,166323,1,0,0:0:0:0:
64,192,166399,1,0,0:0:0:70:whistle.wav
192,192,166475,1,0,0:0:0:0:
320,192,166551,1,0,0:0:0:0:
64,192,166626,1,0,0:0:0:0:
192,192,166702,1,0,0:0:0:70:whistle.wav
320,192,166702,128,0,167914:0:0:0:50:finish.wav
448,192,166778,1,0,0:0:0:0:
192,192,166854,1,0,0:0:0:0:
64,192,166929,1,0,0:0:0:0:
448,192,167005,1,0,0:0:0:70:whistle.wav
192,192,167081,1,0,0:0:0:0:
64,192,167157,1,0,0:0:0:0:
448,192,167232,1,0,0:0:0:70:whistle.wav
192,192,167308,1,0,0:0:0:70:snare.wav
64,192,167384,1,0,0:0:0:70:whistle.wav
192,192,167460,1,0,0:0:0:70:whistle.wav
448,192,167535,1,0,0:0:0:0:
64,192,167611,1,0,0:0:0:70:whistle.wav
192,192,167687,1,0,0:0:0:0:
448,192,167763,1,0,0:0:0:0:
64,192,167838,1,0,0:0:0:0:
192,192,167914,128,0,169126:0:0:0:70:whistle.wav
448,192,167914,1,0,0:0:0:50:finish.wav
320,192,167990,1,0,0:0:0:0:
64,192,168066,1,0,0:0:0:0:
448,192,168141,1,0,0:0:0:0:
320,192,168217,1,0,0:0:0:70:whistle.wav
64,192,168293,1,0,0:0:0:0:
448,192,168369,1,0,0:0:0:0:
320,192,168445,1,0,0:0:0:70:whistle.wav
64,192,168520,1,0,0:0:0:70:snare.wav
320,192,168596,1,0,0:0:0:0:
448,192,168672,1,0,0:0:0:70:whistle.wav
64,192,168748,1,0,0:0:0:0:
320,192,168823,1,0,0:0:0:70:whistle.wav
448,192,168899,1,0,0:0:0:0:
64,192,168975,1,0,0:0:0:0:
320,192,169051,1,0,0:0:0:0:
64,192,169126,1,0,0:0:0:70:whistle.wav
448,192,169126,1,0,0:0:0:0:
320,192,170035,1,0,0:0:0:0:
192,192,170111,1,0,0:0:0:0:
320,192,170187,1,0,0:0:0:0:
192,192,170263,1,0,0:0:0:0:
64,192,170338,128,0,170490:0:0:0:70:whistle.wav
320,192,170338,1,0,0:0:0:50:finish.wav
448,192,170338,1,0,0:0:0:0:
192,192,170490,128,0,170566:0:0:0:0:
320,192,170566,128,0,170641:0:0:0:0:
64,192,170641,128,0,170793:0:0:0:0:
448,192,170793,128,0,170869:0:0:0:0:
320,192,170869,128,0,170945:0:0:0:0:
192,192,170945,128,0,171096:0:0:0:0:
64,192,171096,128,0,171172:0:0:0:0:
192,192,171172,128,0,171248:0:0:0:0:
320,192,171248,128,0,171399:0:0:0:0:
64,192,171399,128,0,171475:0:0:0:0:
448,192,171475,128,0,171551:0:0:0:0:
192,192,171551,128,0,171702:0:0:0:0:
448,192,171702,128,0,171778:0:0:0:0:
320,192,171778,128,0,171854:0:0:0:0:
192,192,171854,128,0,172005:0:0:0:0:
448,192,172005,128,0,172308:0:0:0:0:
320,192,172157,128,0,172308:0:0:0:0:
192,192,172308,128,0,172384:0:0:0:0:
320,192,172384,128,0,172460:0:0:0:0:
64,192,172460,128,0,172611:0:0:0:0:
320,192,172611,128,0,172687:0:0:0:0:
192,192,172687,128,0,172763:0:0:0:0:
448,192,172763,128,0,172914:0:0:0:0:
64,192,172914,128,0,172990:0:0:0:0:
192,192,172990,128,0,173066:0:0:0:0:
320,192,173066,128,0,173217:0:0:0:0:
64,192,173217,128,0,173293:0:0:0:0:
448,192,173293,128,0,173369:0:0:0:0:
192,192,173369,128,0,173520:0:0:0:0:
320,192,173520,128,0,173596:0:0:0:0:
192,192,173596,128,0,173672:0:0:0:0:
64,192,173672,128,0,173823:0:0:0:0:
448,192,173823,128,0,174126:0:0:0:0:
320,192,173899,128,0,174126:0:0:0:0:
64,192,174126,128,0,174202:0:0:0:0:
192,192,174202,128,0,174278:0:0:0:0:
320,192,174278,128,0,174429:0:0:0:0:
192,192,174429,128,0,174884:0:0:0:0:
64,192,174581,128,0,174884:0:0:0:0:
320,192,174732,128,0,174884:0:0:0:0:
448,192,174884,1,0,0:0:0:0:
320,192,174960,1,0,0:0:0:0:
64,192,175035,1,0,0:0:0:0:
192,192,175111,1,0,0:0:0:0:
64,192,175187,1,0,0:0:0:70:whistle.wav
320,192,175187,128,0,175338:0:0:0:50:finish.wav
448,192,175187,1,0,0:0:0:0:
192,192,175338,1,0,0:0:0:0:
320,192,175414,1,0,0:0:0:0:
64,192,175490,1,0,0:0:0:0:
192,192,175528,1,0,0:0:0:0:
320,192,175566,1,0,0:0:0:0:
448,192,175604,1,0,0:0:0:0:
64,192,175641,1,0,0:0:0:0:
320,192,175717,1,0,0:0:0:0:
192,192,175793,128,0,175945:0:0:0:0:
320,192,175945,1,0,0:0:0:0:
192,192,176020,1,0,0:0:0:0:
448,192,176096,1,0,0:0:0:0:
320,192,176134,1,0,0:0:0:0:
192,192,176172,1,0,0:0:0:0:
64,192,176210,1,0,0:0:0:0:
320,192,176248,1,0,0:0:0:70:whistle.wav
448,192,176248,1,0,0:0:0:50:finish.wav
192,192,176323,1,0,0:0:0:0:
64,192,176399,1,0,0:0:0:70:whistle.wav
320,192,176399,128,0,176551:0:0:0:50:finish.wav
448,192,176399,1,0,0:0:0:0:
192,192,176551,1,0,0:0:0:0:
320,192,176626,1,0,0:0:0:0:
64,192,176702,1,0,0:0:0:0:
192,192,176740,1,0,0:0:0:0:
320,192,176778,1,0,0:0:0:0:
448,192,176816,1,0,0:0:0:0:
64,192,176854,128,0,177157:0:0:0:0:
320,192,176929,1,0,0:0:0:0:
192,192,177005,128,0,177157:0:0:0:0:
320,192,177157,1,0,0:0:0:0:
448,192,177157,1,0,0:0:0:0:
64,192,177232,1,0,0:0:0:0:
192,192,177308,1,0,0:0:0:0:
320,192,177384,1,0,0:0:0:0:
64,192,177460,1,0,0:0:0:70:whistle.wav
448,192,177460,1,0,0:0:0:0:
320,192,177535,1,0,0:0:0:70:whistle.wav
64,192,177611,1,0,0:0:0:70:whistle.wav
192,192,177611,1,0,0:0:0:50:finish.wav
448,192,177611,1,0,0:0:0:0:
320,192,177687,1,0,0:0:0:0:
64,192,177763,1,0,0:0:0:70:whistle.wav
192,192,177763,1,0,0:0:0:50:finish.wav
320,192,177838,1,0,0:0:0:0:
448,192,177914,1,0,0:0:0:0:
192,192,177990,1,0,0:0:0:0:
64,192,178066,1,0,0:0:0:70:whistle.wav
320,192,178066,1,0,0:0:0:0:
192,192,178141,1,0,0:0:0:70:whistle.wav
448,192,178141,1,0,0:0:0:0:
64,192,178217,1,0,0:0:0:70:whistle.wav
320,192,178217,1,0,0:0:0:50:finish.wav
192,192,178293,1,0,0:0:0:0:
64,192,178369,1,0,0:0:0:70:whistle.wav
448,192,178369,1,0,0:0:0:50:finish.wav
320,192,178445,1,0,0:0:0:0:
192,192,178520,1,0,0:0:0:0:
320,192,178596,1,0,0:0:0:0:
64,192,178672,1,0,0:0:0:70:whistle.wav
448,192,178672,1,0,0:0:0:0:
192,192,178748,1,0,0:0:0:70:whistle.wav
320,192,178748,1,0,0:0:0:0:
64,192,178823,1,0,0:0:0:70:whistle.wav
448,192,178823,1,0,0:0:0:50:finish.wav
320,192,178899,1,0,0:0:0:0:
64,192,178975,1,0,0:0:0:70:whistle.wav
192,192,178975,1,0,0:0:0:0:
448,192,178975,1,0,0:0:0:0:
320,192,179051,1,0,0:0:0:0:
64,192,179126,1,0,0:0:0:70:whistle.wav
448,192,179126,1,0,0:0:0:50:finish.wav
192,192,179202,1,0,0:0:0:0:
64,192,179278,1,0,0:0:0:70:whistle.wav
320,192,179278,1,0,0:0:0:0:
448,192,179278,1,0,0:0:0:0:
192,192,179354,1,0,0:0:0:0:
320,192,179429,1,0,0:0:0:70:whistle.wav
448,192,179429,1,0,0:0:0:50:finish.wav
64,192,179505,1,0,0:0:0:70:whistle.wav
192,192,179505,1,0,0:0:0:0:
320,192,179581,1,0,0:0:0:70:whistle.wav
448,192,179581,1,0,0:0:0:0:
64,192,179657,1,0,0:0:0:70:whistle.wav
192,192,179657,1,0,0:0:0:0:
320,192,179732,1,0,0:0:0:70:whistle.wav
448,192,179732,1,0,0:0:0:50:finish.wav
64,192,179808,1,0,0:0:0:70:whistle.wav
192,192,179808,1,0,0:0:0:0:
320,192,179884,1,0,0:0:0:70:whistle.wav
448,192,179884,1,0,0:0:0:0:
192,192,179960,1,0,0:0:0:70:whistle.wav
64,192,180035,1,0,0:0:0:70:whistle.wav
320,192,180035,1,0,0:0:0:50:finish.wav
448,192,180035,1,0,0:0:0:0:
192,192,180187,1,0,0:0:0:0:
320,192,180263,1,0,0:0:0:0:
64,192,180338,1,0,0:0:0:50:finish.wav
192,192,180338,1,0,0:0:0:70:tom.wav
448,192,180338,1,0,0:0:0:0:
320,192,180414,1,0,0:0:0:0:
64,192,180490,1,0,0:0:0:70:whistle.wav
448,192,180490,1,0,0:0:0:0:
320,192,180566,1,0,0:0:0:0:
192,192,180641,1,0,0:0:0:0:
448,192,180717,1,0,0:0:0:0:
64,192,180793,1,0,0:0:0:70:whistle.wav
320,192,180793,1,0,0:0:0:0:
192,192,180869,1,0,0:0:0:0:
320,192,180945,1,0,0:0:0:70:tom.wav
448,192,180945,1,0,0:0:0:0:
64,192,181020,1,0,0:0:0:0:
192,192,181096,1,0,0:0:0:0:
448,192,181096,1,0,0:0:0:0:
320,192,181172,1,0,0:0:0:0:
64,192,181248,1,0,0:0:0:70:whistle.wav
192,192,181248,1,0,0:0:0:0:
320,192,181399,1,0,0:0:0:0:
192,192,181475,1,0,0:0:0:0:
64,192,181551,1,0,0:0:0:70:tom.wav
448,192,181551,1,0,0:0:0:0:
320,192,181626,1,0,0:0:0:0:
64,192,181702,1,0,0:0:0:70:whistle.wav
192,192,181702,1,0,0:0:0:0:
320,192,181778,1,0,0:0:0:0:
448,192,181854,1,0,0:0:0:0:
192,192,181929,1,0,0:0:0:0:
64,192,182005,1,0,0:0:0:70:whistle.wav
320,192,182005,1,0,0:0:0:0:
192,192,182081,1,0,0:0:0:0:
64,192,182157,1,0,0:0:0:70:tom.wav
448,192,182157,1,0,0:0:0:0:
320,192,182232,1,0,0:0:0:0:
192,192,182308,1,0,0:0:0:0:
320,192,182384,1,0,0:0:0:0:
64,192,182460,1,0,0:0:0:70:whistle.wav
448,192,182460,1,0,0:0:0:0:
192,192,182498,1,0,0:0:0:0:
320,192,182535,1,0,0:0:0:0:
64,192,182611,1,0,0:0:0:0:
192,192,182687,1,0,0:0:0:0:
320,192,182763,1,0,0:0:0:70:tom.wav
448,192,182763,1,0,0:0:0:0:
64,192,182838,1,0,0:0:0:0:
192,192,182914,1,0,0:0:0:70:whistle.wav
448,192,182914,1,0,0:0:0:0:
320,192,182990,1,0,0:0:0:0:
192,192,183066,1,0,0:0:0:0:
64,192,183141,1,0,0:0:0:0:
320,192,183217,1,0,0:0:0:70:whistle.wav
448,192,183217,1,0,0:0:0:0:
192,192,183293,1,0,0:0:0:0:
64,192,183369,1,0,0:0:0:70:tom.wav
448,192,183369,1,0,0:0:0:0:
448,192,183520,128,0,183823:0:0:0:0:
64,192,183672,1,0,0:0:0:70:whistle.wav
192,192,183672,1,0,0:0:0:0:
320,192,183823,1,0,0:0:0:0:
192,192,183899,1,0,0:0:0:0:
64,192,183975,1,0,0:0:0:70:tom.wav
448,192,183975,1,0,0:0:0:0:
320,192,184126,128,0,184278:0:0:0:70:whistle.wav
448,192,184126,1,0,0:0:0:0:
64,192,184278,1,0,0:0:0:0:
192,192,184328,1,0,0:0:0:0:
320,192,184379,1,0,0:0:0:0:
64,192,184429,1,0,0:0:0:70:whistle.wav
448,192,184429,1,0,0:0:0:0:
64,192,184581,1,0,0:0:0:70:tom.wav
320,192,184581,1,0,0:0:0:0:
192,192,184657,1,0,0:0:0:0:
448,192,184732,1,0,0:0:0:0:
320,192,184808,1,0,0:0:0:0:
64,192,184884,128,0,185035:0:0:0:70:whistle.wav
192,192,184884,1,0,0:0:0:50:finish.wav
448,192,184884,1,0,0:0:0:0:
320,192,185035,1,0,0:0:0:0:
192,192,185111,128,0,185263:0:0:0:0:
64,192,185187,1,0,0:0:0:70:tom.wav
448,192,185187,1,0,0:0:0:0:
320,192,185263,1,0,0:0:0:0:
192,192,185338,1,0,0:0:0:70:whistle.wav
448,192,185338,128,0,185490:0:0:0:0:
192,192,185490,128,0,185566:0:0:0:0:
320,192,185566,128,0,185641:0:0:0:0:
64,192,185641,128,0,185717:0:0:0:70:whistle.wav
448,192,185641,1,0,0:0:0:0:
192,192,185717,128,0,185793:0:0:0:0:
64,192,185793,1,0,0:0:0:70:tom.wav
448,192,185793,128,0,185869:0:0:0:0:
320,192,185869,128,0,185945:0:0:0:0:
64,192,185945,128,0,186020:0:0:0:0:
448,192,185945,1,0,0:0:0:0:
192,192,186020,128,0,186096:0:0:0:0:
64,192,186096,1,0,0:0:0:70:whistle.wav
320,192,186096,1,0,0:0:0:50:finish.wav
448,192,186096,128,0,186248:0:0:0:0:
192,192,186248,1,0,0:0:0:0:
320,192,186323,128,0,186475:0:0:0:0:
64,192,186399,1,0,0:0:0:70:tom.wav
448,192,186399,1,0,0:0:0:0:
192,192,186551,128,0,186626:0:0:0:70:whistle.wav
448,192,186551,1,0,0:0:0:0:
320,192,186626,128,0,186702:0:0:0:0:
64,192,186702,128,0,186854:0:0:0:0:
448,192,186854,1,0,0:0:0:70:whistle.wav
320,192,186891,1,0,0:0:0:0:
192,192,186929,1,0,0:0:0:0:
64,192,186967,1,0,0:0:0:0:
448,192,187005,1,0,0:0:0:70:tom.wav
320,192,187081,1,0,0:0:0:0:
64,192,187157,1,0,0:0:0:0:
192,192,187232,1,0,0:0:0:0:
64,192,187308,1,0,0:0:0:70:whistle.wav
320,192,187308,1,0,0:0:0:50:finish.wav
448,192,187384,1,0,0:0:0:0:
64,192,187460,1,0,0:0:0:0:
192,192,187460,1,0,0:0:0:0:
320,192,187535,1,0,0:0:0:0:
192,192,187611,1,0,0:0:0:70:tom.wav
448,192,187611,1,0,0:0:0:0:
64,192,187687,1,0,0:0:0:0:
320,192,187763,1,0,0:0:0:70:whistle.wav
448,192,187763,1,0,0:0:0:0:
64,192,187838,1,0,0:0:0:0:
192,192,187914,1,0,0:0:0:70:whistle.wav
448,192,187914,1,0,0:0:0:50:finish.wav
320,192,187990,1,0,0:0:0:0:
64,192,188066,1,0,0:0:0:0:
192,192,188066,1,0,0:0:0:0:
448,192,188141,1,0,0:0:0:0:
64,192,188217,1,0,0:0:0:70:tom.wav
192,192,188217,1,0,0:0:0:0:
320,192,188293,1,0,0:0:0:0:
64,192,188369,1,0,0:0:0:70:whistle.wav
448,192,188369,1,0,0:0:0:0:
192,192,188445,1,0,0:0:0:0:
448,192,188520,1,0,0:0:0:70:whistle.wav
320,192,188571,1,0,0:0:0:0:
192,192,188621,1,0,0:0:0:0:
64,192,188672,1,0,0:0:0:70:whistle.wav
448,192,188672,1,0,0:0:0:0:
192,192,188748,1,0,0:0:0:70:whistle.wav
320,192,188748,1,0,0:0:0:0:
64,192,188823,1,0,0:0:0:70:whistle.wav
448,192,188823,1,0,0:0:0:50:finish.wav
192,192,188899,1,0,0:0:0:70:whistle.wav
64,192,188975,1,0,0:0:0:70:whistle.wav
320,192,188975,1,0,0:0:0:0:
192,192,189051,1,0,0:0:0:0:
448,192,189126,1,0,0:0:0:70:whistle.wav
320,192,189164,1,0,0:0:0:0:
192,192,189202,1,0,0:0:0:0:
64,192,189240,1,0,0:0:0:0:
448,192,189278,1,0,0:0:0:70:whistle.wav
320,192,189316,1,0,0:0:0:0:
64,192,189354,1,0,0:0:0:0:
192,192,189391,1,0,0:0:0:0:
320,192,189429,1,0,0:0:0:70:whistle.wav
448,192,189429,1,0,0:0:0:50:finish.wav
192,192,189480,1,0,0:0:0:0:
64,192,189530,1,0,0:0:0:0:
448,192,189581,1,0,0:0:0:70:whistle.wav
320,192,189619,1,0,0:0:0:0:
192,192,189657,1,0,0:0:0:0:
64,192,189695,1,0,0:0:0:0:
448,192,189732,128,0,189884:0:0:0:50:finish.wav
320,192,189732,1,0,0:0:0:70:snare.wav
192,192,189884,1,0,0:0:0:0:
64,192,189884,1,0,0:0:0:0:
320,192,189960,1,0,0:0:0:0:
448,192,190035,1,0,0:0:0:70:snare.wav
64,192,190035,128,0,190187:0:0:0:0:
320,192,190187,128,0,190338:0:0:0:0:
192,192,190187,1,0,0:0:0:0:
448,192,190338,1,0,0:0:0:70:snare.wav
64,192,190338,1,0,0:0:0:0:
192,192,190414,1,0,0:0:0:0:
448,192,190490,128,0,190641:0:0:0:0:
320,192,190490,1,0,0:0:0:0:
192,192,190641,128,0,190793:0:0:0:70:snare.wav
64,192,190641,1,0,0:0:0:0:
320,192,190793,128,0,190945:0:0:0:0:
448,192,190793,1,0,0:0:0:0:
192,192,190945,1,0,0:0:0:70:snare.wav
64,192,190945,128,0,191096:0:0:0:0:
320,192,191096,1,0,0:0:0:0:
448,192,191096,1,0,0:0:0:0:
192,192,191172,128,0,191323:0:0:0:0:
448,192,191248,1,0,0:0:0:70:snare.wav
64,192,191248,1,0,0:0:0:0:
320,192,191399,128,0,191551:0:0:0:0:
448,192,191399,1,0,0:0:0:0:
192,192,191551,1,0,0:0:0:70:snare.wav
64,192,191551,1,0,0:0:0:0:
448,192,191626,128,0,191778:0:0:0:0:
192,192,191702,1,0,0:0:0:0:
320,192,191702,1,0,0:0:0:0:
448,192,191854,1,0,0:0:0:70:snare.wav
64,192,191854,1,0,0:0:0:0:
320,192,192005,1,0,0:0:0:70:snare.wav
192,192,192005,1,0,0:0:0:0:
448,192,192157,1,0,0:0:0:70:snare.wav
64,192,192157,128,0,192308:0:0:0:0:
320,192,192308,128,0,192460:0:0:0:0:
192,192,192308,1,0,0:0:0:0:
64,192,192460,1,0,0:0:0:70:snare.wav
448,192,192460,1,0,0:0:0:0:
320,192,192535,1,0,0:0:0:0:
64,192,192611,128,0,192763:0:0:0:0:
192,192,192611,1,0,0:0:0:0:
448,192,192763,128,0,192914:0:0:0:70:snare.wav
320,192,192763,1,0,0:0:0:0:
192,192,192914,1,0,0:0:0:0:
64,192,192914,1,0,0:0:0:0:
320,192,192990,128,0,193141:0:0:0:0:
448,192,193066,1,0,0:0:0:70:snare.wav
64,192,193066,1,0,0:0:0:0:
192,192,193217,128,0,193369:0:0:0:0:
320,192,193217,1,0,0:0:0:0:
448,192,193369,128,0,193520:0:0:0:70:snare.wav
64,192,193369,1,0,0:0:0:0:
192,192,193520,1,0,0:0:0:0:
320,192,193520,1,0,0:0:0:0:
64,192,193596,128,0,193748:0:0:0:0:
448,192,193672,1,0,0:0:0:70:snare.wav
320,192,193672,1,0,0:0:0:0:
192,192,193823,128,0,193975:0:0:0:0:
64,192,193823,1,0,0:0:0:0:
448,192,193975,128,0,194278:0:0:0:70:snare.wav
320,192,193975,1,0,0:0:0:0:
64,192,194126,1,0,0:0:0:0:
320,192,194126,1,0,0:0:0:0:
64,192,194278,128,0,194429:0:0:0:70:snare.wav
192,192,194278,1,0,0:0:0:0:
320,192,194429,1,0,0:0:0:70:snare.wav
448,192,194429,1,0,0:0:0:0:
192,192,194505,1,0,0:0:0:70:snare.wav
64,192,194581,1,0,0:0:0:70:whistle.wav
320,192,194581,1,0,0:0:0:50:finish.wav
448,192,194581,1,0,0:0:0:0:
64,192,194732,1,0,0:0:0:70:tom.wav
192,192,194732,1,0,0:0:0:0:
192,192,194884,1,0,0:0:0:70:whistle.wav
320,192,194884,1,0,0:0:0:0:
448,192,194884,1,0,0:0:0:0:
64,192,195035,1,0,0:0:0:70:tom.wav
448,192,195035,1,0,0:0:0:0:
64,192,195187,1,0,0:0:0:70:whistle.wav
192,192,195187,1,0,0:0:0:0:
320,192,195187,1,0,0:0:0:0:
192,192,195338,1,0,0:0:0:70:tom.wav
448,192,195338,1,0,0:0:0:0:
64,192,195490,1,0,0:0:0:70:whistle.wav
320,192,195490,1,0,0:0:0:0:
448,192,195490,1,0,0:0:0:0:
64,192,195641,1,0,0:0:0:70:tom.wav
192,192,195641,1,0,0:0:0:0:
192,192,195793,1,0,0:0:0:70:whistle.wav
320,192,195793,1,0,0:0:0:0:
448,192,195793,1,0,0:0:0:0:
64,192,195945,1,0,0:0:0:70:tom.wav
320,192,195945,1,0,0:0:0:0:
64,192,196096,1,0,0:0:0:70:whistle.wav
192,192,196096,1,0,0:0:0:0:
448,192,196096,1,0,0:0:0:0:
320,192,196248,1,0,0:0:0:70:tom.wav
448,192,196248,1,0,0:0:0:0:
64,192,196399,1,0,0:0:0:70:whistle.wav
192,192,196399,1,0,0:0:0:0:
320,192,196399,1,0,0:0:0:0:
64,192,196551,1,0,0:0:0:70:tom.wav
448,192,196551,1,0,0:0:0:0:
192,192,196702,1,0,0:0:0:70:whistle.wav
320,192,196702,1,0,0:0:0:0:
448,192,196702,1,0,0:0:0:0:
64,192,196854,1,0,0:0:0:70:tom.wav
192,192,196854,1,0,0:0:0:0:
64,192,197005,1,0,0:0:0:70:whistle.wav
320,192,197005,1,0,0:0:0:50:finish.wav
448,192,197005,1,0,0:0:0:0:
192,192,197081,1,0,0:0:0:0:
320,192,197157,1,0,0:0:0:70:whistle.wav
448,192,197157,1,0,0:0:0:70:tom.wav
64,192,197232,1,0,0:0:0:0:
192,192,197308,1,0,0:0:0:70:whistle.wav
448,192,197308,1,0,0:0:0:0:
320,192,197384,1,0,0:0:0:0:
64,192,197460,1,0,0:0:0:70:whistle.wav
192,192,197460,1,0,0:0:0:70:tom.wav
448,192,197535,1,0,0:0:0:0:
64,192,197611,1,0,0:0:0:70:whistle.wav
320,192,197611,1,0,0:0:0:50:finish.wav
192,192,197687,1,0,0:0:0:0:
320,192,197763,1,0,0:0:0:70:whistle.wav
448,192,197763,1,0,0:0:0:70:tom.wav
64,192,197838,1,0,0:0:0:0:
192,192,197914,1,0,0:0:0:70:whistle.wav
448,192,197914,1,0,0:0:0:0:
320,192,197990,1,0,0:0:0:0:
64,192,198066,1,0,0:0:0:70:whistle.wav
448,192,198066,1,0,0:0:0:70:tom.wav
192,192,198141,1,0,0:0:0:0:
64,192,198217,1,0,0:0:0:70:whistle.wav
320,192,198217,1,0,0:0:0:50:finish.wav
448,192,198293,1,0,0:0:0:0:
64,192,198369,1,0,0:0:0:70:whistle.wav
192,192,198369,1,0,0:0:0:70:tom.wav
320,192,198445,1,0,0:0:0:0:
64,192,198520,1,0,0:0:0:70:whistle.wav
448,192,198520,1,0,0:0:0:0:
192,192,198596,1,0,0:0:0:0:
320,192,198672,1,0,0:0:0:70:whistle.wav
448,192,198672,1,0,0:0:0:70:tom.wav
64,192,198748,1,0,0:0:0:0:
192,192,198823,1,0,0:0:0:70:whistle.wav
448,192,198823,1,0,0:0:0:50:finish.wav
320,192,198899,1,0,0:0:0:0:
64,192,198975,1,0,0:0:0:70:whistle.wav
192,192,198975,1,0,0:0:0:70:tom.wav
448,192,199051,1,0,0:0:0:0:
64,192,199126,1,0,0:0:0:70:whistle.wav
320,192,199126,1,0,0:0:0:0:
192,192,199202,1,0,0:0:0:0:
64,192,199278,1,0,0:0:0:70:whistle.wav
448,192,199278,1,0,0:0:0:70:tom.wav
320,192,199354,1,0,0:0:0:0:
64,192,199429,1,0,0:0:0:70:whistle.wav
192,192,199429,1,0,0:0:0:50:finish.wav
320,192,199505,1,0,0:0:0:70:whistle.wav
448,192,199505,1,0,0:0:0:0:
64,192,199581,1,0,0:0:0:70:whistle.wav
192,192,199581,1,0,0:0:0:0:
320,192,199657,1,0,0:0:0:70:whistle.wav
448,192,199657,1,0,0:0:0:0:
64,192,199732,1,0,0:0:0:70:whistle.wav
192,192,199732,1,0,0:0:0:50:finish.wav
320,192,199808,1,0,0:0:0:70:whistle.wav
448,192,199808,1,0,0:0:0:0:
64,192,199884,1,0,0:0:0:70:whistle.wav
192,192,199884,1,0,0:0:0:0:
320,192,199960,1,0,0:0:0:70:whistle.wav
64,192,200035,1,0,0:0:0:70:whistle.wav
448,192,200035,1,0,0:0:0:50:finish.wav
192,192,200111,1,0,0:0:0:70:whistle.wav
320,192,200111,1,0,0:0:0:0:
64,192,200187,1,0,0:0:0:70:whistle.wav
448,192,200187,1,0,0:0:0:0:
192,192,200263,1,0,0:0:0:70:whistle.wav
320,192,200263,1,0,0:0:0:0:
64,192,200338,1,0,0:0:0:70:whistle.wav
448,192,200338,1,0,0:0:0:50:finish.wav
192,192,200414,1,0,0:0:0:70:whistle.wav
320,192,200414,1,0,0:0:0:0:
64,192,200490,1,0,0:0:0:70:whistle.wav
448,192,200490,1,0,0:0:0:0:
192,192,200566,1,0,0:0:0:70:whistle.wav
64,192,200641,1,0,0:0:0:70:whistle.wav
320,192,200641,1,0,0:0:0:50:finish.wav
448,192,200641,1,0,0:0:0:0:
192,192,200793,1,0,0:0:0:0:
320,192,200869,1,0,0:0:0:0:
64,192,200945,1,0,0:0:0:70:whistle.wav
192,192,200945,1,0,0:0:0:0:
448,192,200945,1,0,0:0:0:0:
320,192,201020,1,0,0:0:0:0:
192,192,201096,1,0,0:0:0:0:
64,192,201248,1,0,0:0:0:70:whistle.wav
192,192,201248,1,0,0:0:0:50:finish.wav
448,192,201248,1,0,0:0:0:0:
320,192,201399,1,0,0:0:0:0:
192,192,201475,1,0,0:0:0:0:
64,192,201551,1,0,0:0:0:70:whistle.wav
320,192,201551,1,0,0:0:0:0:
448,192,201551,1,0,0:0:0:0:
192,192,201626,1,0,0:0:0:0:
320,192,201702,1,0,0:0:0:0:
64,192,201854,1,0,0:0:0:70:whistle.wav
320,192,201854,1,0,0:0:0:50:finish.wav
448,192,201854,1,0,0:0:0:0:
192,192,202005,1,0,0:0:0:0:
64,192,202157,1,0,0:0:0:70:snare.wav
320,192,202157,1,0,0:0:0:0:
192,192,202308,1,0,0:0:0:70:whistle.wav
448,192,202308,1,0,0:0:0:0:
320,192,202460,1,0,0:0:0:0:
64,192,202611,1,0,0:0:0:70:whistle.wav
192,192,202611,1,0,0:0:0:0:
64,192,202763,1,0,0:0:0:70:snare.wav
320,192,202763,1,0,0:0:0:0:
448,192,202914,1,0,0:0:0:0:
192,192,203066,1,0,0:0:0:70:whistle.wav
320,192,203066,1,0,0:0:0:0:
192,192,203217,1,0,0:0:0:0:
64,192,203369,1,0,0:0:0:70:snare.wav
448,192,203369,1,0,0:0:0:0:
192,192,203520,1,0,0:0:0:70:whistle.wav
320,192,203520,1,0,0:0:0:0:
64,192,203672,1,0,0:0:0:0:
320,192,203823,1,0,0:0:0:70:whistle.wav
448,192,203823,1,0,0:0:0:0:
64,192,203975,1,0,0:0:0:70:snare.wav
448,192,203975,1,0,0:0:0:0:
64,192,204126,1,0,0:0:0:0:
320,192,204126,1,0,0:0:0:0:
192,192,204278,1,0,0:0:0:70:whistle.wav
448,192,204278,1,0,0:0:0:0:
320,192,204429,1,0,0:0:0:0:
192,192,204581,1,0,0:0:0:70:snare.wav
448,192,204581,1,0,0:0:0:0:
64,192,204732,1,0,0:0:0:70:whistle.wav
320,192,204732,1,0,0:0:0:0:
64,192,204884,1,0,0:0:0:0:
448,192,204884,1,0,0:0:0:0:
192,192,205035,1,0,0:0:0:70:whistle.wav
320,192,205035,1,0,0:0:0:0:
64,192,205187,1,0,0:0:0:70:snare.wav
320,192,205187,1,0,0:0:0:0:
192,192,205338,1,0,0:0:0:0:
320,192,205490,1,0,0:0:0:70:whistle.wav
448,192,205490,1,0,0:0:0:50:finish.wav
448,192,205641,1,0,0:0:0:70:snare.wav
320,192,205692,1,0,0:0:0:70:snare.wav
192,192,205743,1,0,0:0:0:70:snare.wav
64,192,205793,1,0,0:0:0:70:snare.wav
448,192,205793,1,0,0:0:0:0:
192,192,205945,1,0,0:0:0:70:snare.wav
320,192,205945,1,0,0:0:0:0:
64,192,206096,1,0,0:0:0:70:snare.wav
448,192,206096,1,0,0:0:0:0:
64,192,206248,1,0,0:0:0:70:whistle.wav
320,192,206248,1,0,0:0:0:0:
192,192,206399,1,0,0:0:0:70:snare.wav
448,192,206399,1,0,0:0:0:0:
192,192,206551,1,0,0:0:0:70:whistle.wav
320,192,206551,1,0,0:0:0:0:
64,192,206702,1,0,0:0:0:70:whistle.wav
320,192,206702,1,0,0:0:0:50:finish.wav
448,192,206702,1,0,0:0:0:0:
192,192,206778,1,0,0:0:0:0:
320,192,206854,1,0,0:0:0:0:
64,192,206929,1,0,0:0:0:0:
192,192,207005,1,0,0:0:0:70:snare.wav
448,192,207005,1,0,0:0:0:0:
320,192,207081,1,0,0:0:0:0:
64,192,207157,1,0,0:0:0:70:whistle.wav
448,192,207157,1,0,0:0:0:0:
192,192,207232,1,0,0:0:0:0:
448,192,207308,1,0,0:0:0:0:
320,192,207384,1,0,0:0:0:0:
64,192,207460,1,0,0:0:0:70:whistle.wav
192,192,207460,1,0,0:0:0:0:
448,192,207535,1,0,0:0:0:0:
64,192,207611,1,0,0:0:0:70:snare.wav
320,192,207611,1,0,0:0:0:0:
192,192,207687,1,0,0:0:0:0:
448,192,207763,1,0,0:0:0:0:
320,192,207838,1,0,0:0:0:0:
64,192,207914,1,0,0:0:0:70:whistle.wav
192,192,207914,1,0,0:0:0:50:finish.wav
448,192,207914,1,0,0:0:0:0:
320,192,207990,1,0,0:0:0:0:
64,192,208066,1,0,0:0:0:0:
192,192,208141,1,0,0:0:0:0:
64,192,208217,1,0,0:0:0:70:snare.wav
448,192,208217,1,0,0:0:0:0:
320,192,208293,1,0,0:0:0:0:
192,192,208369,1,0,0:0:0:70:whistle.wav
448,192,208369,1,0,0:0:0:0:
320,192,208445,1,0,0:0:0:0:
64,192,208520,1,0,0:0:0:70:whistle.wav
192,192,208520,1,0,0:0:0:50:finish.wav
448,192,208520,1,0,0:0:0:0:
320,192,208596,1,0,0:0:0:0:
64,192,208672,1,0,0:0:0:0:
192,192,208748,1,0,0:0:0:0:
320,192,208823,1,0,0:0:0:70:snare.wav
448,192,208823,1,0,0:0:0:0:
64,192,208899,1,0,0:0:0:0:
192,192,208975,1,0,0:0:0:70:whistle.wav
448,192,208975,1,0,0:0:0:0:
320,192,209051,1,0,0:0:0:0:
64,192,209126,1,0,0:0:0:70:whistle.wav
192,192,209126,1,0,0:0:0:50:finish.wav
448,192,209126,1,0,0:0:0:0:
320,192,209202,1,0,0:0:0:0:
64,192,209278,1,0,0:0:0:70:whistle.wav
448,192,209278,1,0,0:0:0:0:
192,192,209354,1,0,0:0:0:0:
64,192,209429,1,0,0:0:0:70:whistle.wav
320,192,209429,1,0,0:0:0:50:finish.wav
448,192,209505,1,0,0:0:0:0:
64,192,209581,1,0,0:0:0:70:whistle.wav
192,192,209581,1,0,0:0:0:0:
320,192,209657,1,0,0:0:0:0:
64,192,209732,1,0,0:0:0:70:whistle.wav
192,192,209732,1,0,0:0:0:50:finish.wav
320,192,209808,1,0,0:0:0:70:whistle.wav
448,192,209808,1,0,0:0:0:0:
64,192,209884,1,0,0:0:0:70:whistle.wav
192,192,209884,1,0,0:0:0:0:
320,192,209960,1,0,0:0:0:70:whistle.wav
448,192,209960,1,0,0:0:0:0:
64,192,210035,1,0,0:0:0:70:whistle.wav
192,192,210035,1,0,0:0:0:50:finish.wav
320,192,210111,1,0,0:0:0:70:whistle.wav
448,192,210111,1,0,0:0:0:0:
64,192,210187,1,0,0:0:0:70:whistle.wav
192,192,210187,1,0,0:0:0:0:
320,192,210263,1,0,0:0:0:70:whistle.wav
448,192,210263,1,0,0:0:0:0:
64,192,210338,1,0,0:0:0:70:whistle.wav
192,192,210338,1,0,0:0:0:0:
64,192,210490,1,0,0:0:0:70:snare.wav
448,192,210490,1,0,0:0:0:0:
320,192,210540,1,0,0:0:0:70:snare.wav
192,192,210591,1,0,0:0:0:70:snare.wav
64,192,210641,1,0,0:0:0:70:whistle.wav
320,192,210641,1,0,0:0:0:50:finish.wav
448,192,210641,1,0,0:0:0:0:
64,192,210945,1,0,0:0:0:70:whistle.wav
192,192,210945,1,0,0:0:0:50:finish.wav
448,192,210945,1,0,0:0:0:0:
