osu file format v14

[General]
AudioFilename: audio.mp3
AudioLeadIn: 0
PreviewTime: 47063
Countdown: 0
SampleSet: Soft
StackLeniency: 0.7
Mode: 3
LetterboxInBreaks: 0
SpecialStyle: 0
WidescreenStoryboard: 0

[Editor]
Bookmarks: 62751
DistanceSpacing: 1
BeatDivisor: 4
GridSize: 4
TimelineZoom: 1.9

[Metadata]
Title:White Parade
TitleUnicode:ホワイトパレード
Artist:Umeboshi Chazuke
ArtistUnicode:梅干茶漬け
Creator:Murumoo
Version:Sya's BASIC
Source:SOUND VOLTEX IV HEAVENLY HAVEN
Tags:[Ping] NewBungping Leon Brigido ATing Syadow- The 7th KAC オリジナル楽曲コンテスト Original Song Contest konami electronic Video Game Instrumental 8bit Chiptune sdvx 4 3 III GRAVITY WARS コナステ's REGULAR course
BeatmapID:3050366
BeatmapSetID:1485217

[Difficulty]
HPDrainRate:6.5
CircleSize:4
OverallDifficulty:6.5
ApproachRate:5
SliderMultiplier:1.4
SliderTickRate:1

[Events]
//Background and Video events
0,0,"bg.jpg",0,0
//Break Periods
//Storyboard Layer 0 (Background)
//Storyboard Layer 1 (Fail)
//Storyboard Layer 2 (Pass)
//Storyboard Layer 3 (Foreground)
//Storyboard Layer 4 (Overlay)
//Storyboard Sound Samples
Sample,11145,0,"chokkaku_down.wav",50
Sample,11283,0,"chokkaku_down.wav",50
Sample,11421,0,"chokkaku_down.wav",50
Sample,11558,0,"chokkaku_down.wav",50
Sample,16375,0,"sel_l.wav",70
Sample,22843,0,"LR_Chm Fast.wav",70
Sample,25044,0,"LR_Chm Fast.wav",70
Sample,25457,0,"sel_l.wav",70
Sample,26558,0,"sel_l.wav",70
Sample,26971,0,"sel_l.wav",70
Sample,27246,0,"LR_Chm Fast.wav",70
Sample,27659,0,"sel_l.wav",70
Sample,28210,0,"sel_l.wav",70
Sample,28622,0,"chokkaku_down.wav",50
Sample,28898,0,"chokkaku_down.wav",50
Sample,29035,0,"sel_l.wav",70
Sample,29035,0,"chokkaku_down.wav",50
Sample,29311,0,"sel_l.wav",70
Sample,29311,0,"chokkaku_down.wav",50
Sample,38255,0,"sel_l.wav",70
Sample,44723,0,"sel_l.wav",70
Sample,44999,0,"sel_l.wav",70
Sample,45274,0,"chokkaku_down.wav",50
Sample,45411,0,"chokkaku_down.wav",50
Sample,45687,0,"chokkaku_down.wav",50
Sample,45824,0,"chokkaku_down.wav",50
Sample,46099,0,"chokkaku_down.wav",50
Sample,46375,0,"chokkaku_down.wav",50
Sample,46512,0,"chokkaku_down.wav",50
Sample,49265,0,"LR_Chm Fast.wav",70
Sample,51466,0,"LR_Chm Fast.wav",70
Sample,53668,0,"LR_Chm Fast.wav",70
Sample,55182,0,"sel_l.wav",70
Sample,56008,0,"sel_l.wav",70
Sample,58072,0,"LR_Chm Fast.wav",70
Sample,60274,0,"LR_Chm Fast.wav",70
Sample,62476,0,"LR_Chm Fast.wav",70
Sample,64677,0,"LR_Chm Fast.wav",70
Sample,66604,0,"chokkaku_down.wav",50
Sample,66879,0,"chokkaku_down.wav",50
Sample,71283,0,"LR_Chm Fast.wav",70
Sample,73485,0,"LR_Chm Fast.wav",70
Sample,74999,0,"sel_l.wav",70
Sample,75687,0,"LR_Chm Fast.wav",70
Sample,75824,0,"sel_l.wav",70
Sample,77888,0,"LR_Chm Fast.wav",70
Sample,80090,0,"LR_Chm Fast.wav",70
Sample,81191,0,"chokkaku_down.wav",50
Sample,82292,0,"chokkaku_down.wav",50
Sample,83393,0,"chokkaku_down.wav",50
Sample,84494,0,"chokkaku_down.wav",50
Sample,95916,0,"chokkaku_down.wav",50
Sample,96054,0,"chokkaku_down.wav",50
Sample,96329,0,"chokkaku_down.wav",50
Sample,96466,0,"chokkaku_down.wav",50
Sample,96742,0,"chokkaku_down.wav",50
Sample,97017,0,"chokkaku_down.wav",50
Sample,97155,0,"chokkaku_down.wav",50
Sample,104311,0,"LR_Chm Fast.wav",70
Sample,105824,0,"sel_l.wav",70
Sample,106099,0,"sel_l.wav",70
Sample,106650,0,"sel_l.wav",70
Sample,108714,0,"LR_Chm Fast.wav",70
Sample,110916,0,"LR_Chm Fast.wav",70
Sample,113118,0,"LR_Chm Fast.wav",70
Sample,114494,0,"chokkaku_down.wav",50
Sample,115044,0,"chokkaku_down.wav",50

[TimingPoints]
1100,275.229357798165,4,2,1,32,1,0
47338,-100,4,2,1,32,0,1
66879,-100,4,2,1,32,0,0
102659,-100,4,2,1,32,0,1
117797,-100,4,2,1,32,0,0

[HitObjects]
192,192,824,128,0,1100:0:0:0:0:
448,192,1100,1,0,0:0:0:0:
320,192,1650,1,0,0:0:0:0:
192,192,2200,1,0,0:0:0:0:
320,192,2407,1,0,0:0:0:0:
192,192,2613,1,0,0:0:0:0:
448,192,2751,1,0,0:0:0:0:
64,192,3026,1,0,0:0:0:0:
320,192,3301,128,0,3577:0:0:0:0:
192,192,3852,128,0,4265:0:0:0:0:
448,192,4265,128,0,4677:0:0:0:0:
64,192,4815,1,0,0:0:0:0:
320,192,5090,128,0,5503:0:0:0:0:
192,192,5503,1,0,0:0:0:0:
448,192,6054,1,0,0:0:0:0:
192,192,6191,1,0,0:0:0:0:
320,192,6329,1,0,0:0:0:0:
64,192,6466,1,0,0:0:0:0:
448,192,6742,1,0,0:0:0:0:
320,192,6879,1,0,0:0:0:0:
64,192,7017,1,0,0:0:0:0:
192,192,7292,128,2,7705:0:0:0:0:
448,192,7705,1,6,0:0:0:0:
448,192,7980,1,2,0:0:0:0:
64,192,8255,1,2,0:0:0:0:
64,192,8531,1,2,0:0:0:0:
320,192,8806,1,2,0:0:0:0:
320,192,9081,1,2,0:0:0:0:
192,192,9356,1,2,0:0:0:0:
192,192,9632,1,2,0:0:0:0:
320,192,9907,1,2,0:0:0:0:
448,192,9907,128,4,11008:0:0:0:0:
64,192,11145,1,2,0:0:0:0:
320,192,11283,1,2,0:0:0:0:
64,192,11421,1,2,0:0:0:0:
320,192,11558,1,6,0:0:0:0:
192,192,11833,128,0,12109:0:0:0:0:
64,192,12109,1,2,0:0:0:0:
448,192,12109,1,4,0:0:0:0:
320,192,12384,1,2,0:0:0:0:
64,192,12659,1,2,0:0:0:0:
448,192,12934,1,2,0:0:0:0:
192,192,13210,1,2,0:0:0:0:
320,192,13485,1,2,0:0:0:0:
64,192,13760,1,2,0:0:0:0:
192,192,14035,1,2,0:0:0:0:
448,192,14311,1,2,0:0:0:0:
64,192,14586,1,2,0:0:0:0:
320,192,14861,1,2,0:0:0:0:
192,192,15136,1,2,0:0:0:0:
448,192,15411,1,2,0:0:0:0:
320,192,15687,1,2,0:0:0:0:
64,192,15962,1,2,0:0:0:0:
448,192,16237,1,2,0:0:0:0:
192,192,16375,1,2,0:0:0:0:
320,192,16512,1,2,0:0:0:0:
64,192,16788,1,2,0:0:0:0:
192,192,17063,1,2,0:0:0:0:
320,192,17338,1,2,0:0:0:0:
448,192,17613,1,2,0:0:0:0:
64,192,17888,1,2,0:0:0:0:
320,192,18164,1,2,0:0:0:0:
192,192,18439,1,2,0:0:0:0:
64,192,18714,1,2,0:0:0:0:
448,192,18989,1,2,0:0:0:0:
192,192,19265,1,2,0:0:0:0:
320,192,19540,1,2,0:0:0:0:
448,192,19815,128,10,20090:0:0:0:0:
64,192,20090,1,10,0:0:0:0:
320,192,20228,1,0,0:0:0:70:sel_l.wav
192,192,20366,1,10,0:0:0:0:
448,192,20503,1,14,0:0:0:0:
64,192,20778,1,2,0:0:0:0:
192,192,20916,1,2,0:0:0:0:
448,192,20916,1,4,0:0:0:0:
320,192,21191,1,10,0:0:0:0:
192,192,21466,1,2,0:0:0:0:
64,192,21742,1,10,0:0:0:0:
448,192,22017,1,2,0:0:0:0:
192,192,22292,1,10,0:0:0:0:
320,192,22567,1,2,0:0:0:0:
64,192,22843,1,10,0:0:0:0:
192,192,23118,1,2,0:0:0:0:
448,192,23393,1,10,0:0:0:0:
320,192,23668,1,2,0:0:0:0:
192,192,23944,1,10,0:0:0:0:
64,192,24219,1,2,0:0:0:0:
448,192,24494,1,10,0:0:0:0:
192,192,24769,1,2,0:0:0:0:
320,192,25044,1,10,0:0:0:0:
64,192,25320,1,2,0:0:0:0:
192,192,25457,1,2,0:0:0:0:
448,192,25595,1,10,0:0:0:0:
64,192,25870,1,2,0:0:0:0:
192,192,26145,1,10,0:0:0:0:
448,192,26421,1,2,0:0:0:0:
320,192,26558,1,2,0:0:0:0:
64,192,26696,1,10,0:0:0:0:
320,192,26971,128,2,27246:0:0:0:0:
192,192,27246,128,10,27522:0:0:0:0:
448,192,27522,1,2,0:0:0:0:
320,192,27659,1,2,0:0:0:0:
64,192,27797,1,14,0:0:0:0:
448,192,28072,1,2,0:0:0:0:
192,192,28210,1,2,0:0:0:0:
64,192,28347,1,14,0:0:0:0:
320,192,28622,1,2,0:0:0:0:
64,192,28898,1,2,0:0:0:0:
448,192,29035,1,2,0:0:0:0:
448,192,29311,128,6,29723:0:0:0:0:
64,192,29723,1,4,0:0:0:0:
192,192,29723,1,2,0:0:0:0:
320,192,29999,128,0,30274:0:0:0:70:sel_l.wav
192,192,30274,128,8,30549:0:0:0:0:
448,192,30549,128,0,30824:0:0:0:70:sel_l.wav
320,192,30824,128,2,31375:0:0:0:0:
64,192,31375,128,8,31925:0:0:0:0:
320,192,31925,128,2,32338:0:0:0:0:
192,192,32338,1,2,0:0:0:0:
448,192,32476,128,8,34127:0:0:0:0:
192,192,33026,1,2,0:0:0:0:
320,192,33577,1,8,0:0:0:0:
64,192,34127,1,2,0:0:0:0:
192,192,34402,128,0,34677:0:0:0:70:sel_l.wav
320,192,34677,128,8,34953:0:0:0:0:
64,192,34953,128,0,35228:0:0:0:70:sel_l.wav
192,192,35228,128,2,35778:0:0:0:0:
448,192,35778,128,8,36329:0:0:0:0:
320,192,36329,128,2,36742:0:0:0:0:
64,192,36742,1,2,0:0:0:0:
192,192,36879,128,8,37155:0:0:0:0:
448,192,37155,1,0,0:0:0:70:sel_l.wav
64,192,37292,128,2,38255:0:0:0:0:
192,192,37980,1,8,0:0:0:0:
448,192,38255,128,2,38531:0:0:0:0:
64,192,38531,1,2,0:0:0:0:
192,192,38531,1,4,0:0:0:0:
320,192,38806,1,10,0:0:0:0:
192,192,39081,1,2,0:0:0:0:
448,192,39356,1,10,0:0:0:0:
320,192,39632,1,2,0:0:0:0:
64,192,39907,1,10,0:0:0:0:
192,192,40182,1,2,0:0:0:0:
320,192,40457,1,10,0:0:0:0:
448,192,40733,128,2,41008:0:0:0:0:
64,192,41008,1,8,0:0:0:0:
192,192,41283,128,2,41558:0:0:0:0:
448,192,41558,1,8,0:0:0:0:
320,192,41833,128,2,42109:0:0:0:0:
192,192,42109,1,8,0:0:0:0:
64,192,42384,128,2,42659:0:0:0:0:
448,192,42659,1,8,0:0:0:0:
192,192,42934,1,6,0:0:0:0:
192,192,43210,1,10,0:0:0:0:
320,192,43485,1,2,0:0:0:0:
320,192,43760,1,10,0:0:0:0:
448,192,44035,128,2,44586:0:0:0:0:
192,192,44311,1,10,0:0:0:0:
64,192,44586,1,2,0:0:0:0:
192,192,44723,1,2,0:0:0:0:
448,192,44861,1,10,0:0:0:0:
320,192,44999,1,2,0:0:0:0:
64,192,45274,1,2,0:0:0:0:
448,192,45411,1,2,0:0:0:0:
64,192,45687,1,2,0:0:0:0:
448,192,45824,1,2,0:0:0:0:
64,192,46099,1,2,0:0:0:0:
448,192,46375,1,2,0:0:0:0:
64,192,46512,1,6,0:0:0:0:
320,192,46788,128,0,47063:0:0:0:0:
192,192,47063,128,8,47338:0:0:0:0:
320,192,47338,1,2,0:0:0:0:
448,192,47338,1,4,0:0:0:0:
192,192,47613,1,10,0:0:0:0:
448,192,47888,1,2,0:0:0:0:
64,192,48164,1,10,0:0:0:0:
320,192,48439,1,2,0:0:0:0:
192,192,48714,1,10,0:0:0:0:
64,192,48989,1,2,0:0:0:0:
448,192,49265,128,10,49540:0:0:0:0:
192,192,49540,1,2,0:0:0:0:
320,192,49815,1,10,0:0:0:0:
64,192,50090,1,2,0:0:0:0:
448,192,50366,1,10,0:0:0:0:
192,192,50641,1,2,0:0:0:0:
64,192,50916,1,10,0:0:0:0:
448,192,51191,1,2,0:0:0:0:
192,192,51466,128,10,51742:0:0:0:0:
320,192,51742,1,2,0:0:0:0:
64,192,52017,1,10,0:0:0:0:
448,192,52292,1,2,0:0:0:0:
192,192,52567,1,10,0:0:0:0:
64,192,52843,1,2,0:0:0:0:
320,192,53118,1,10,0:0:0:0:
448,192,53393,1,2,0:0:0:0:
64,192,53668,128,10,53944:0:0:0:0:
320,192,53944,1,2,0:0:0:0:
192,192,54219,1,10,0:0:0:0:
448,192,54494,1,2,0:0:0:0:
192,192,54769,1,10,0:0:0:0:
64,192,55044,1,2,0:0:0:0:
320,192,55182,1,2,0:0:0:0:
192,192,55320,1,10,0:0:0:0:
448,192,55457,1,2,0:0:0:0:
192,192,55733,128,14,56008:0:0:0:0:
448,192,56008,1,2,0:0:0:0:
64,192,56145,1,4,0:0:0:0:
320,192,56145,128,2,56421:0:0:0:0:
192,192,56421,1,10,0:0:0:0:
320,192,56696,1,2,0:0:0:0:
448,192,56971,1,10,0:0:0:0:
64,192,57246,128,2,57522:0:0:0:0:
320,192,57522,1,10,0:0:0:0:
192,192,57797,1,2,0:0:0:0:
64,192,58072,1,10,0:0:0:0:
448,192,58347,128,2,58622:0:0:0:0:
192,192,58622,1,10,0:0:0:0:
320,192,58898,1,2,0:0:0:0:
64,192,59173,1,10,0:0:0:0:
192,192,59448,1,2,0:0:0:0:
320,192,59723,1,10,0:0:0:0:
448,192,59999,128,2,60274:0:0:0:0:
192,192,60274,128,10,60549:0:0:0:0:
320,192,60549,128,2,60824:0:0:0:0:
448,192,60549,1,4,0:0:0:0:
64,192,60824,128,10,61099:0:0:0:0:
448,192,61099,1,2,0:0:0:0:
192,192,61375,1,10,0:0:0:0:
320,192,61650,1,2,0:0:0:0:
448,192,61650,128,4,61925:0:0:0:0:
64,192,61925,128,10,62200:0:0:0:0:
320,192,62200,128,2,62476:0:0:0:0:
192,192,62476,128,10,62751:0:0:0:0:
320,192,62751,1,2,0:0:0:0:
448,192,62751,1,4,0:0:0:0:
64,192,63301,1,4,0:0:0:0:
192,192,63301,1,2,0:0:0:0:
448,192,63852,1,6,0:0:0:0:
448,192,64127,1,6,0:0:0:0:
64,192,64402,1,6,0:0:0:0:
64,192,64677,1,6,0:0:0:0:
320,192,64953,1,2,0:0:0:0:
448,192,64953,128,4,65778:0:0:0:0:
64,192,65778,1,0,0:0:0:70:sel_l.wav
320,192,66054,128,2,66604:0:0:0:0:
192,192,66604,1,2,0:0:0:0:
448,192,66879,128,2,67155:0:0:0:0:
64,192,67155,1,4,0:0:0:0:
192,192,67155,1,0,0:0:0:0:
192,192,67567,1,6,0:0:0:0:
320,192,67980,1,2,0:0:0:0:
448,192,67980,1,4,0:0:0:0:
320,192,68393,1,6,0:0:0:0:
64,192,68806,1,6,0:0:0:0:
448,192,69081,1,6,0:0:0:0:
192,192,69356,128,0,69632:0:0:0:0:
320,192,69632,1,2,0:0:0:0:
448,192,69632,1,4,0:0:0:0:
192,192,69907,1,2,0:0:0:0:
64,192,70182,1,10,0:0:0:0:
320,192,70457,1,2,0:0:0:0:
448,192,70733,1,10,0:0:0:0:
64,192,71008,1,2,0:0:0:0:
320,192,71283,1,10,0:0:0:0:
192,192,71558,128,2,71833:0:0:0:0:
448,192,71833,1,10,0:0:0:0:
64,192,72109,128,2,72384:0:0:0:0:
320,192,72384,1,10,0:0:0:0:
192,192,72659,128,2,72934:0:0:0:0:
448,192,72934,128,10,73210:0:0:0:0:
64,192,73210,128,2,73485:0:0:0:0:
320,192,73485,128,10,73760:0:0:0:0:
192,192,73760,1,2,0:0:0:0:
448,192,74035,1,10,0:0:0:0:
192,192,74311,1,2,0:0:0:0:
448,192,74586,1,10,0:0:0:0:
64,192,74861,1,2,0:0:0:0:
192,192,74999,1,2,0:0:0:0:
320,192,75136,1,10,0:0:0:0:
192,192,75411,1,2,0:0:0:0:
448,192,75687,1,10,0:0:0:0:
320,192,75824,1,2,0:0:0:0:
64,192,75962,1,2,0:0:0:0:
192,192,75962,1,4,0:0:0:0:
320,192,76237,1,10,0:0:0:0:
64,192,76512,128,2,76788:0:0:0:0:
192,192,76788,128,10,77063:0:0:0:0:
448,192,77063,128,2,77338:0:0:0:0:
64,192,77338,1,10,0:0:0:0:
320,192,77613,128,2,77888:0:0:0:0:
192,192,77888,128,10,78164:0:0:0:0:
448,192,78164,128,2,78439:0:0:0:0:
64,192,78439,128,10,78714:0:0:0:0:
320,192,78714,128,2,78989:0:0:0:0:
448,192,78989,128,10,79265:0:0:0:0:
192,192,79265,128,2,79540:0:0:0:0:
320,192,79540,1,10,0:0:0:0:
448,192,79815,128,2,80090:0:0:0:0:
64,192,80090,1,10,0:0:0:0:
64,192,80366,1,2,0:0:0:0:
448,192,80366,1,0,0:0:0:50:chokkaku_down.wav
320,192,80641,1,10,0:0:0:0:
192,192,80916,1,2,0:0:0:0:
448,192,81191,1,10,0:0:0:0:
64,192,81466,1,2,0:0:0:0:
448,192,81466,1,0,0:0:0:50:chokkaku_down.wav
192,192,81742,1,10,0:0:0:0:
320,192,82017,1,2,0:0:0:0:
192,192,82292,1,10,0:0:0:0:
192,192,82567,1,2,0:0:0:0:
448,192,82567,1,0,0:0:0:50:chokkaku_down.wav
320,192,82843,1,10,0:0:0:0:
192,192,83118,1,2,0:0:0:0:
320,192,83393,1,10,0:0:0:0:
64,192,83668,1,2,0:0:0:0:
320,192,83668,1,0,0:0:0:50:chokkaku_down.wav
448,192,83944,1,10,0:0:0:0:
320,192,84219,1,2,0:0:0:0:
192,192,84494,1,10,0:0:0:0:
192,192,84769,1,14,0:0:0:0:
448,192,84769,1,0,0:0:0:50:chokkaku_down.wav
448,192,85044,1,14,0:0:0:0:
64,192,85320,1,14,0:0:0:0:
64,192,85595,1,14,0:0:0:0:
320,192,85870,1,14,0:0:0:0:
320,192,86145,1,14,0:0:0:0:
192,192,86421,1,14,0:0:0:0:
320,192,86558,1,0,0:0:0:70:sel_l.wav
448,192,86696,1,2,0:0:0:0:
64,192,86833,1,10,0:0:0:0:
192,192,86833,1,4,0:0:0:0:
448,192,88072,1,0,0:0:0:40:LR_CymbalG.wav
64,192,88347,1,0,0:0:0:40:LR_CymbalG.wav
448,192,88622,1,0,0:0:0:40:LR_CymbalG.wav
320,192,88760,1,2,0:0:0:0:
192,192,88898,128,8,89173:0:0:0:0:
448,192,89173,1,0,0:0:0:0:
64,192,89723,1,0,0:0:0:0:
320,192,90274,1,0,0:0:0:0:
192,192,90480,1,0,0:0:0:0:
320,192,90687,1,0,0:0:0:0:
64,192,90824,1,0,0:0:0:0:
448,192,91099,1,0,0:0:0:0:
192,192,91375,128,0,91650:0:0:0:0:
320,192,91925,128,0,92338:0:0:0:0:
64,192,92338,128,0,92751:0:0:0:0:
448,192,92888,1,0,0:0:0:0:
192,192,93164,128,0,93577:0:0:0:0:
320,192,93577,1,0,0:0:0:0:
64,192,94127,1,0,0:0:0:0:
320,192,94265,1,0,0:0:0:0:
192,192,94402,1,0,0:0:0:0:
448,192,94540,1,0,0:0:0:0:
64,192,94815,1,0,0:0:0:0:
192,192,94953,1,0,0:0:0:0:
448,192,95090,1,0,0:0:0:0:
320,192,95366,128,0,95778:0:0:0:0:
64,192,95916,1,2,0:0:0:0:
448,192,96054,1,2,0:0:0:0:
64,192,96329,1,2,0:0:0:0:
448,192,96466,1,2,0:0:0:0:
64,192,96742,1,2,0:0:0:0:
448,192,97017,1,2,0:0:0:0:
64,192,97155,1,6,0:0:0:0:
320,192,97430,128,0,97705:0:0:0:0:
192,192,97705,128,8,97980:0:0:0:0:
320,192,97980,1,2,0:0:0:0:
448,192,97980,1,0,0:0:0:0:
64,192,98531,1,0,0:0:0:0:
192,192,99081,1,0,0:0:0:0:
320,192,99632,1,0,0:0:0:0:
448,192,100182,1,0,0:0:0:0:
192,192,100733,1,0,0:0:0:0:
320,192,101283,128,2,101696:0:0:0:0:
192,192,101696,1,2,0:0:0:0:
64,192,101971,128,2,102384:0:0:0:0:
448,192,101971,1,4,0:0:0:0:
448,192,102384,128,0,102659:0:0:0:0:
64,192,102659,1,6,0:0:0:0:
192,192,102659,1,8,0:0:0:0:
320,192,102934,1,2,0:0:0:0:
192,192,103210,1,10,0:0:0:0:
448,192,103485,1,2,0:0:0:0:
64,192,103760,1,10,0:0:0:0:
192,192,104035,1,2,0:0:0:0:
448,192,104311,128,10,104586:0:0:0:0:
192,192,104586,1,2,0:0:0:0:
320,192,104861,1,10,0:0:0:0:
64,192,105136,1,2,0:0:0:0:
192,192,105411,1,10,0:0:0:0:
448,192,105687,1,2,0:0:0:0:
192,192,105824,1,2,0:0:0:0:
320,192,105962,1,10,0:0:0:0:
64,192,106099,1,2,0:0:0:0:
320,192,106375,128,14,106650:0:0:0:0:
64,192,106650,1,2,0:0:0:0:
192,192,106788,128,2,107063:0:0:0:0:
448,192,106788,1,4,0:0:0:0:
320,192,107063,1,10,0:0:0:0:
192,192,107338,1,2,0:0:0:0:
64,192,107613,1,10,0:0:0:0:
448,192,107888,128,2,108164:0:0:0:0:
192,192,108164,1,10,0:0:0:0:
320,192,108439,1,2,0:0:0:0:
448,192,108714,1,10,0:0:0:0:
192,192,108989,128,2,109265:0:0:0:0:
320,192,109265,1,10,0:0:0:0:
64,192,109540,1,2,0:0:0:0:
448,192,109815,1,10,0:0:0:0:
192,192,110090,1,2,0:0:0:0:
320,192,110366,1,10,0:0:0:0:
64,192,110641,128,2,110916:0:0:0:0:
320,192,110916,128,10,111191:0:0:0:0:
64,192,111191,1,2,0:0:0:0:
192,192,111191,128,4,111466:0:0:0:0:
448,192,111466,128,10,111742:0:0:0:0:
64,192,111742,1,2,0:0:0:0:
320,192,112017,1,10,0:0:0:0:
64,192,112292,128,2,112567:0:0:0:0:
192,192,112292,1,4,0:0:0:0:
448,192,112567,128,10,112843:0:0:0:0:
192,192,112843,128,2,113118:0:0:0:0:
320,192,113118,128,10,113393:0:0:0:0:
64,192,113393,1,6,0:0:0:0:
192,192,113393,1,0,0:0:0:50:chokkaku_down.wav
320,192,113944,1,6,0:0:0:0:
448,192,113944,1,0,0:0:0:50:chokkaku_down.wav
192,192,114494,1,6,0:0:0:0:
192,192,114769,1,14,0:0:0:0:
320,192,115044,1,6,0:0:0:0:
320,192,115320,1,14,0:0:0:0:
64,192,115595,128,2,116421:0:0:0:0:
192,192,115595,1,4,0:0:0:0:
320,192,116421,1,0,0:0:0:70:sel_l.wav
192,192,116696,128,2,117246:0:0:0:0:
448,192,117246,1,14,0:0:0:0:
320,192,117522,1,14,0:0:0:0:
64,192,117797,1,10,0:0:0:0:
192,192,117797,1,0,0:0:0:70:LR3_BassDropPDG.wav
