osu file format v14

[General]
AudioFilename: audio.mp3
AudioLeadIn: 0
PreviewTime: 47063
Countdown: 0
SampleSet: Soft
StackLeniency: 0.7
Mode: 3
LetterboxInBreaks: 0
SpecialStyle: 0
WidescreenStoryboard: 1

[Editor]
Bookmarks: 7705,12109,29723,47338,67155,89173,97980,102659
DistanceSpacing: 1
BeatDivisor: 4
GridSize: 4
TimelineZoom: 1.9

[Metadata]
Title:White Parade
TitleUnicode:ホワイトパレード
Artist:Umeboshi Chazuke
ArtistUnicode:梅干茶漬け
Creator:Murumoo
Version:Ping's EXHAUST
Source:SOUND VOLTEX IV HEAVENLY HAVEN
Tags:[Ping] NewBungping Leon Brigido ATing Syadow- The 7th KAC オリジナル楽曲コンテスト Original Song Contest konami electronic Video Game Instrumental 8bit Chiptune sdvx 4 3 III GRAVITY WARS コナステ's REGULAR course
BeatmapID:3221954
BeatmapSetID:1485217

[Difficulty]
HPDrainRate:8
CircleSize:4
OverallDifficulty:8
ApproachRate:5
SliderMultiplier:1.4
SliderTickRate:1

[Events]
//Background and Video events
0,0,"bg.jpg",0,0
//Break Periods
//Storyboard Layer 0 (Background)
//Storyboard Layer 1 (Fail)
//Storyboard Layer 2 (Pass)
//Storyboard Layer 3 (Foreground)
//Storyboard Layer 4 (Overlay)
//Storyboard Sound Samples
Sample,26971,0,"sel_l.wav",70
Sample,27109,0,"sel_l.wav",70
Sample,27384,0,"sel_l.wav",70
Sample,29035,0,"chokkaku_down.wav",50
Sample,38255,0,"sel_l.wav",70
Sample,44723,0,"sel_l.wav",70
Sample,44999,0,"sel_l.wav",70
Sample,55182,0,"sel_l.wav",70
Sample,56008,0,"sel_l.wav",70
Sample,64540,0,"sel_l.wav",70
Sample,64815,0,"sel_l.wav",70
Sample,84356,0,"sel_l.wav",70
Sample,84632,0,"sel_l.wav",70
Sample,101558,0,"sel_l.wav",70
Sample,105824,0,"sel_l.wav",70
Sample,106650,0,"sel_l.wav",70
Sample,115182,0,"sel_l.wav",70
Sample,115457,0,"sel_l.wav",70

[TimingPoints]
1100,275.229357798165,4,2,1,32,1,0
47338,-100,4,2,1,32,0,1
66879,-100,4,2,1,32,0,0
102659,-100,4,2,1,32,0,1
117797,-100,4,2,1,32,0,0

[HitObjects]
192,192,824,5,0,0:0:0:0:
448,192,893,1,0,0:0:0:0:
320,192,962,1,0,0:0:0:0:
192,192,1031,1,0,0:0:0:0:
64,192,1100,1,0,0:0:0:0:
448,192,1100,128,0,1306:0:0:0:0:
320,192,1237,1,0,0:0:0:0:
64,192,1375,1,0,0:0:0:0:
448,192,1375,1,0,0:0:0:0:
192,192,1512,1,0,0:0:0:0:
192,192,1650,128,0,1856:0:0:0:0:
448,192,1788,1,0,0:0:0:0:
192,192,1925,1,0,0:0:0:0:
320,192,2063,1,0,0:0:0:0:
448,192,2063,128,0,2200:0:0:0:0:
64,192,2200,128,0,2338:0:0:0:0:
320,192,2338,1,0,0:0:0:0:
192,192,2407,128,0,2544:0:0:0:0:
448,192,2544,1,0,0:0:0:0:
320,192,2613,128,0,2751:0:0:0:0:
64,192,2751,128,0,2888:0:0:0:0:
448,192,2751,1,0,0:0:0:0:
64,192,3026,1,0,0:0:0:0:
192,192,3026,128,0,3233:0:0:0:0:
192,192,3301,1,0,0:0:0:0:
448,192,3301,128,0,3439:0:0:0:0:
320,192,3439,1,0,0:0:0:0:
64,192,3577,1,0,0:0:0:0:
320,192,3577,128,0,3783:0:0:0:0:
192,192,3783,1,0,0:0:0:0:
448,192,3852,1,0,0:0:0:0:
64,192,3989,1,0,0:0:0:0:
320,192,3989,1,0,0:0:0:0:
192,192,4127,1,0,0:0:0:0:
448,192,4127,1,0,0:0:0:0:
64,192,4265,1,0,0:0:0:0:
192,192,4265,128,0,4540:0:0:0:0:
320,192,4540,1,0,0:0:0:0:
448,192,4609,1,0,0:0:0:0:
64,192,4677,1,0,0:0:0:0:
192,192,4746,1,0,0:0:0:0:
320,192,4815,128,0,4953:0:0:0:0:
448,192,4815,1,0,0:0:0:0:
192,192,5090,1,0,0:0:0:0:
448,192,5159,1,0,0:0:0:0:
320,192,5228,1,0,0:0:0:0:
64,192,5297,1,0,0:0:0:0:
192,192,5366,1,0,0:0:0:0:
320,192,5434,1,0,0:0:0:0:
64,192,5503,128,0,5710:0:0:0:0:
448,192,5503,1,0,0:0:0:0:
192,192,5641,1,0,0:0:0:0:
64,192,5778,1,0,0:0:0:0:
448,192,5778,1,0,0:0:0:0:
320,192,5916,1,0,0:0:0:0:
64,192,5985,1,0,0:0:0:0:
320,192,6054,1,0,0:0:0:0:
192,192,6191,1,0,0:0:0:0:
448,192,6191,1,0,0:0:0:0:
64,192,6329,1,0,0:0:0:0:
320,192,6466,128,0,6673:0:0:0:0:
448,192,6466,1,0,0:0:0:0:
192,192,6742,1,0,0:0:0:0:
448,192,6742,1,0,0:0:0:0:
320,192,6879,1,0,0:0:0:0:
64,192,7017,1,0,0:0:0:0:
192,192,7017,128,0,7292:0:0:0:0:
320,192,7292,1,2,0:0:0:0:
64,192,7361,1,2,0:0:0:0:
320,192,7430,1,2,0:0:0:0:
192,192,7499,1,2,0:0:0:0:
448,192,7567,1,2,0:0:0:0:
192,192,7636,1,2,0:0:0:0:
64,192,7705,1,2,0:0:0:0:
320,192,7705,1,4,0:0:0:0:
320,192,7843,1,0,0:0:0:70:sel_l.wav
192,192,7980,1,2,0:0:0:0:
448,192,7980,1,0,0:0:0:0:
192,192,8118,1,0,0:0:0:70:sel_l.wav
320,192,8255,1,2,0:0:0:0:
448,192,8255,1,0,0:0:0:0:
448,192,8393,1,0,0:0:0:70:sel_l.wav
64,192,8531,1,2,0:0:0:0:
192,192,8531,1,0,0:0:0:0:
64,192,8668,1,0,0:0:0:70:sel_l.wav
320,192,8806,1,2,0:0:0:0:
448,192,8806,1,0,0:0:0:0:
64,192,8944,1,0,0:0:0:70:sel_l.wav
320,192,8944,1,0,0:0:0:0:
192,192,9081,1,2,0:0:0:0:
448,192,9081,1,0,0:0:0:0:
192,192,9219,1,0,0:0:0:70:sel_l.wav
64,192,9219,1,0,0:0:0:0:
320,192,9356,1,2,0:0:0:0:
448,192,9356,1,0,0:0:0:0:
192,192,9494,1,0,0:0:0:70:sel_l.wav
448,192,9494,1,0,0:0:0:0:
64,192,9632,1,2,0:0:0:0:
320,192,9632,1,0,0:0:0:0:
64,192,9769,1,0,0:0:0:70:sel_l.wav
192,192,9769,1,0,0:0:0:0:
320,192,9907,1,2,0:0:0:0:
448,192,9907,1,4,0:0:0:0:
192,192,9976,1,0,0:0:0:0:
192,192,10182,1,0,0:0:0:0:
64,192,10251,1,0,0:0:0:0:
448,192,10457,1,0,0:0:0:0:
320,192,10526,1,0,0:0:0:0:
320,192,10733,1,0,0:0:0:0:
192,192,10801,1,0,0:0:0:0:
320,192,11145,1,2,0:0:0:0:
448,192,11145,1,0,0:0:0:50:chokkaku_down.wav
192,192,11283,1,2,0:0:0:0:
448,192,11283,1,0,0:0:0:50:chokkaku_down.wav
192,192,11421,1,2,0:0:0:0:
448,192,11421,1,0,0:0:0:50:chokkaku_down.wav
64,192,11558,1,2,0:0:0:0:
192,192,11558,1,4,0:0:0:0:
320,192,11558,1,0,0:0:0:50:chokkaku_down.wav
320,192,11833,1,0,0:0:0:0:
64,192,11902,1,0,0:0:0:0:
192,192,11971,1,0,0:0:0:0:
320,192,12040,1,0,0:0:0:0:
64,192,12109,128,2,12384:0:0:0:0:
448,192,12109,1,4,0:0:0:0:
192,192,12246,1,0,0:0:0:70:sel_l.wav
320,192,12384,1,2,0:0:0:0:
448,192,12384,1,0,0:0:0:0:
192,192,12522,1,0,0:0:0:70:sel_l.wav
64,192,12659,1,2,0:0:0:0:
192,192,12659,128,0,12934:0:0:0:0:
320,192,12797,1,0,0:0:0:70:sel_l.wav
64,192,12934,1,2,0:0:0:0:
448,192,12934,1,0,0:0:0:0:
320,192,13072,1,0,0:0:0:70:sel_l.wav
320,192,13210,128,2,13485:0:0:0:0:
448,192,13210,1,0,0:0:0:0:
192,192,13347,1,0,0:0:0:70:sel_l.wav
64,192,13485,1,2,0:0:0:0:
448,192,13485,1,0,0:0:0:0:
320,192,13622,1,0,0:0:0:70:sel_l.wav
64,192,13760,128,2,14035:0:0:0:0:
192,192,13760,1,0,0:0:0:0:
448,192,13898,1,0,0:0:0:70:sel_l.wav
192,192,14035,128,2,14242:0:0:0:0:
320,192,14035,1,0,0:0:0:0:
448,192,14173,1,0,0:0:0:70:sel_l.wav
64,192,14311,128,2,14448:0:0:0:0:
192,192,14311,1,0,0:0:0:0:
320,192,14448,1,0,0:0:0:70:sel_l.wav
192,192,14586,1,2,0:0:0:0:
448,192,14586,1,0,0:0:0:0:
192,192,14723,128,0,14999:0:0:0:70:sel_l.wav
64,192,14861,1,2,0:0:0:0:
448,192,14861,1,0,0:0:0:0:
320,192,14999,1,0,0:0:0:70:sel_l.wav
64,192,15136,1,2,0:0:0:0:
192,192,15136,1,0,0:0:0:0:
192,192,15274,1,0,0:0:0:70:sel_l.wav
64,192,15411,1,2,0:0:0:0:
448,192,15411,1,0,0:0:0:0:
64,192,15549,1,0,0:0:0:70:sel_l.wav
320,192,15687,1,2,0:0:0:0:
448,192,15687,1,0,0:0:0:0:
192,192,15824,1,0,0:0:0:70:sel_l.wav
64,192,15962,128,2,16237:0:0:0:0:
448,192,15962,1,0,0:0:0:0:
320,192,16099,1,0,0:0:0:70:sel_l.wav
192,192,16237,128,2,16444:0:0:0:0:
448,192,16237,1,0,0:0:0:0:
320,192,16375,1,2,0:0:0:0:
448,192,16375,1,0,0:0:0:70:sel_l.wav
64,192,16512,128,2,16788:0:0:0:0:
192,192,16512,1,0,0:0:0:0:
320,192,16650,1,0,0:0:0:70:sel_l.wav
192,192,16788,1,2,0:0:0:0:
448,192,16788,1,0,0:0:0:0:
320,192,16925,1,0,0:0:0:70:sel_l.wav
64,192,17063,1,2,0:0:0:0:
320,192,17063,128,0,17338:0:0:0:0:
192,192,17200,1,0,0:0:0:70:sel_l.wav
64,192,17338,1,2,0:0:0:0:
448,192,17338,1,0,0:0:0:0:
320,192,17476,1,0,0:0:0:70:sel_l.wav
64,192,17613,1,2,0:0:0:0:
192,192,17613,1,0,0:0:0:0:
448,192,17751,1,0,0:0:0:70:sel_l.wav
64,192,17888,128,2,18164:0:0:0:0:
320,192,17888,1,0,0:0:0:0:
192,192,18026,1,0,0:0:0:70:sel_l.wav
320,192,18164,1,2,0:0:0:0:
448,192,18164,128,0,18439:0:0:0:0:
64,192,18301,1,0,0:0:0:70:sel_l.wav
192,192,18439,1,2,0:0:0:0:
320,192,18439,128,0,18645:0:0:0:0:
64,192,18577,1,0,0:0:0:70:sel_l.wav
320,192,18714,1,2,0:0:0:0:
448,192,18714,128,0,18989:0:0:0:0:
192,192,18852,1,0,0:0:0:70:sel_l.wav
64,192,18989,1,2,0:0:0:0:
320,192,18989,1,0,0:0:0:0:
448,192,19127,1,0,0:0:0:70:sel_l.wav
64,192,19265,128,2,19540:0:0:0:0:
192,192,19265,1,0,0:0:0:0:
320,192,19402,1,0,0:0:0:70:sel_l.wav
192,192,19540,1,2,0:0:0:0:
448,192,19540,1,0,0:0:0:0:
64,192,19677,1,0,0:0:0:70:sel_l.wav
320,192,19815,128,2,19953:0:0:0:0:
448,192,19815,1,8,0:0:0:0:
192,192,19953,1,0,0:0:0:70:sel_l.wav
320,192,20022,1,0,0:0:0:0:
64,192,20090,1,8,0:0:0:0:
192,192,20090,1,2,0:0:0:0:
448,192,20228,128,0,20366:0:0:0:70:sel_l.wav
320,192,20297,1,0,0:0:0:0:
64,192,20366,1,2,0:0:0:0:
192,192,20366,1,8,0:0:0:0:
64,192,20503,1,2,0:0:0:0:
320,192,20503,128,8,20778:0:0:0:0:
448,192,20503,1,4,0:0:0:0:
192,192,20778,1,2,0:0:0:0:
320,192,20847,1,2,0:0:0:0:
64,192,20916,1,2,0:0:0:0:
192,192,20916,1,4,0:0:0:0:
448,192,20916,1,0,0:0:0:0:
448,192,21054,128,0,21191:0:0:0:70:sel_l.wav
192,192,21191,1,2,0:0:0:0:
320,192,21191,1,8,0:0:0:0:
192,192,21329,1,0,0:0:0:70:sel_l.wav
64,192,21466,1,2,0:0:0:0:
192,192,21466,128,0,21604:0:0:0:0:
64,192,21604,1,0,0:0:0:70:sel_l.wav
192,192,21673,1,0,0:0:0:0:
320,192,21742,1,2,0:0:0:0:
448,192,21742,1,8,0:0:0:0:
320,192,21879,1,0,0:0:0:70:sel_l.wav
64,192,22017,128,2,22155:0:0:0:0:
448,192,22017,1,0,0:0:0:0:
192,192,22155,1,0,0:0:0:70:sel_l.wav
64,192,22292,128,2,22430:0:0:0:0:
320,192,22292,1,8,0:0:0:0:
192,192,22430,1,0,0:0:0:70:sel_l.wav
320,192,22567,1,2,0:0:0:0:
448,192,22567,128,0,22705:0:0:0:0:
64,192,22705,1,0,0:0:0:70:sel_l.wav
320,192,22843,1,10,0:0:0:0:
448,192,22843,1,0,0:0:0:70:LR_Chm Fast.wav
320,192,22980,1,0,0:0:0:70:sel_l.wav
192,192,23118,1,2,0:0:0:0:
448,192,23118,1,0,0:0:0:0:
320,192,23255,1,0,0:0:0:70:sel_l.wav
448,192,23324,1,0,0:0:0:0:
64,192,23393,1,2,0:0:0:0:
192,192,23393,1,8,0:0:0:0:
320,192,23531,1,0,0:0:0:70:sel_l.wav
64,192,23599,1,0,0:0:0:0:
320,192,23668,1,2,0:0:0:0:
448,192,23668,1,0,0:0:0:0:
192,192,23806,1,0,0:0:0:70:sel_l.wav
64,192,23875,1,0,0:0:0:0:
320,192,23944,1,2,0:0:0:0:
448,192,23944,1,8,0:0:0:0:
192,192,24081,1,0,0:0:0:70:sel_l.wav
448,192,24150,1,0,0:0:0:0:
64,192,24219,1,2,0:0:0:0:
192,192,24219,128,0,24356:0:0:0:0:
320,192,24356,1,0,0:0:0:70:sel_l.wav
64,192,24494,1,2,0:0:0:0:
192,192,24494,128,8,24632:0:0:0:0:
320,192,24632,1,0,0:0:0:70:sel_l.wav
64,192,24769,1,2,0:0:0:0:
448,192,24769,128,0,24907:0:0:0:0:
320,192,24907,1,0,0:0:0:70:sel_l.wav
192,192,25044,1,10,0:0:0:0:
448,192,25044,128,0,25182:0:0:0:70:LR_Chm Fast.wav
192,192,25182,1,0,0:0:0:70:sel_l.wav
64,192,25320,1,2,0:0:0:0:
320,192,25320,1,0,0:0:0:0:
64,192,25457,128,2,25595:0:0:0:0:
192,192,25457,1,0,0:0:0:70:sel_l.wav
320,192,25595,1,2,0:0:0:0:
448,192,25595,1,8,0:0:0:0:
192,192,25733,1,0,0:0:0:70:sel_l.wav
64,192,25801,1,0,0:0:0:0:
320,192,25870,1,2,0:0:0:0:
448,192,25870,1,0,0:0:0:0:
192,192,26008,1,0,0:0:0:70:sel_l.wav
448,192,26077,1,0,0:0:0:0:
64,192,26145,1,8,0:0:0:0:
192,192,26145,1,2,0:0:0:0:
320,192,26283,1,0,0:0:0:70:sel_l.wav
448,192,26352,1,0,0:0:0:0:
64,192,26421,1,2,0:0:0:0:
192,192,26421,1,0,0:0:0:0:
320,192,26558,1,2,0:0:0:0:
448,192,26558,1,0,0:0:0:70:sel_l.wav
64,192,26627,1,0,0:0:0:0:
320,192,26696,1,2,0:0:0:0:
448,192,26696,1,8,0:0:0:0:
64,192,26833,1,2,0:0:0:0:
192,192,26833,1,0,0:0:0:70:sel_l.wav
448,192,26902,1,0,0:0:0:0:
192,192,26971,1,2,0:0:0:0:
320,192,27040,1,2,0:0:0:0:
64,192,27109,1,2,0:0:0:0:
320,192,27177,1,2,0:0:0:0:
64,192,27246,1,10,0:0:0:0:
192,192,27246,1,0,0:0:0:70:LR_Chm Fast.wav
448,192,27315,1,2,0:0:0:0:
192,192,27384,1,2,0:0:0:0:
320,192,27453,1,2,0:0:0:0:
64,192,27522,1,2,0:0:0:0:
448,192,27522,1,0,0:0:0:0:
320,192,27659,1,2,0:0:0:0:
448,192,27659,1,0,0:0:0:70:sel_l.wav
64,192,27797,1,10,0:0:0:0:
320,192,27797,128,4,28072:0:0:0:0:
64,192,28072,1,2,0:0:0:0:
448,192,28072,1,0,0:0:0:0:
64,192,28210,1,2,0:0:0:0:
192,192,28210,1,0,0:0:0:70:sel_l.wav
320,192,28278,1,2,0:0:0:0:
192,192,28347,128,10,28622:0:0:0:0:
448,192,28347,1,4,0:0:0:0:
64,192,28622,128,2,28898:0:0:0:0:
320,192,28622,1,0,0:0:0:50:chokkaku_down.wav
192,192,28898,1,2,0:0:0:0:
448,192,28898,128,0,29035:0:0:0:50:chokkaku_down.wav
64,192,29035,128,2,29173:0:0:0:0:
320,192,29035,1,0,0:0:0:70:sel_l.wav
64,192,29311,1,6,0:0:0:0:
320,192,29311,128,0,29586:0:0:0:70:sel_l.wav
448,192,29311,1,0,0:0:0:50:chokkaku_down.wav
64,192,29586,128,0,29723:0:0:0:70:sel_l.wav
320,192,29723,1,4,0:0:0:0:
448,192,29723,1,2,0:0:0:0:
192,192,29861,1,0,0:0:0:0:
320,192,29930,1,0,0:0:0:0:
448,192,29999,1,0,0:0:0:70:sel_l.wav
192,192,30067,1,0,0:0:0:0:
320,192,30136,1,2,0:0:0:0:
448,192,30136,1,0,0:0:0:0:
64,192,30274,1,8,0:0:0:0:
192,192,30274,1,0,0:0:0:0:
448,192,30343,1,0,0:0:0:0:
64,192,30411,1,0,0:0:0:0:
192,192,30480,1,0,0:0:0:0:
320,192,30549,1,0,0:0:0:70:sel_l.wav
64,192,30618,1,0,0:0:0:0:
320,192,30687,1,2,0:0:0:0:
448,192,30687,1,0,0:0:0:0:
64,192,30824,1,2,0:0:0:0:
192,192,30824,1,0,0:0:0:0:
448,192,30893,1,0,0:0:0:0:
320,192,30962,1,0,0:0:0:0:
64,192,31031,1,2,0:0:0:0:
192,192,31031,1,0,0:0:0:0:
448,192,31099,1,0,0:0:0:70:sel_l.wav
320,192,31168,1,0,0:0:0:0:
64,192,31237,1,2,0:0:0:0:
192,192,31237,1,0,0:0:0:0:
320,192,31375,1,8,0:0:0:0:
448,192,31375,1,0,0:0:0:0:
64,192,31444,1,0,0:0:0:0:
448,192,31512,1,0,0:0:0:0:
192,192,31581,1,0,0:0:0:0:
320,192,31650,1,0,0:0:0:70:sel_l.wav
64,192,31719,1,0,0:0:0:0:
320,192,31788,1,2,0:0:0:0:
448,192,31788,1,0,0:0:0:0:
64,192,31925,1,2,0:0:0:0:
192,192,31925,1,0,0:0:0:0:
320,192,31994,1,0,0:0:0:0:
448,192,32063,1,0,0:0:0:0:
192,192,32132,1,0,0:0:0:0:
320,192,32200,1,0,0:0:0:70:sel_l.wav
448,192,32269,1,0,0:0:0:0:
64,192,32338,1,2,0:0:0:0:
192,192,32338,1,0,0:0:0:0:
320,192,32476,1,8,0:0:0:0:
448,192,32476,1,0,0:0:0:0:
64,192,32544,1,0,0:0:0:0:
320,192,32613,1,0,0:0:0:0:
448,192,32682,1,0,0:0:0:0:
64,192,32751,1,0,0:0:0:70:sel_l.wav
192,192,32820,1,0,0:0:0:0:
320,192,32888,1,2,0:0:0:0:
448,192,32888,1,0,0:0:0:0:
64,192,33026,1,2,0:0:0:0:
192,192,33026,1,0,0:0:0:0:
448,192,33095,1,0,0:0:0:0:
320,192,33164,1,0,0:0:0:0:
64,192,33233,1,2,0:0:0:0:
192,192,33233,1,0,0:0:0:0:
448,192,33301,1,0,0:0:0:70:sel_l.wav
320,192,33370,1,0,0:0:0:0:
64,192,33439,1,2,0:0:0:0:
192,192,33439,1,0,0:0:0:0:
320,192,33577,1,8,0:0:0:0:
448,192,33577,1,0,0:0:0:0:
192,192,33645,1,0,0:0:0:0:
64,192,33714,1,0,0:0:0:0:
320,192,33783,1,0,0:0:0:0:
192,192,33852,1,0,0:0:0:70:sel_l.wav
448,192,33921,1,0,0:0:0:0:
320,192,33989,1,2,0:0:0:0:
64,192,34058,1,2,0:0:0:0:
320,192,34127,1,2,0:0:0:0:
448,192,34127,1,0,0:0:0:0:
192,192,34196,1,0,0:0:0:0:
448,192,34265,1,0,0:0:0:0:
320,192,34333,1,0,0:0:0:0:
64,192,34402,1,0,0:0:0:70:sel_l.wav
448,192,34471,1,0,0:0:0:0:
64,192,34540,1,2,0:0:0:0:
192,192,34540,1,0,0:0:0:0:
320,192,34677,1,8,0:0:0:0:
448,192,34677,1,0,0:0:0:0:
64,192,34746,1,0,0:0:0:0:
320,192,34815,1,0,0:0:0:0:
448,192,34884,1,0,0:0:0:0:
192,192,34953,1,0,0:0:0:70:sel_l.wav
320,192,35022,1,0,0:0:0:0:
64,192,35090,1,2,0:0:0:0:
192,192,35090,1,0,0:0:0:0:
320,192,35228,1,2,0:0:0:0:
448,192,35228,1,0,0:0:0:0:
192,192,35297,1,0,0:0:0:0:
64,192,35366,1,0,0:0:0:0:
320,192,35434,1,2,0:0:0:0:
448,192,35434,1,0,0:0:0:0:
192,192,35503,1,0,0:0:0:70:sel_l.wav
64,192,35572,1,0,0:0:0:0:
320,192,35641,1,2,0:0:0:0:
448,192,35641,1,0,0:0:0:0:
64,192,35778,1,8,0:0:0:0:
192,192,35778,1,0,0:0:0:0:
448,192,35847,1,0,0:0:0:0:
320,192,35916,1,0,0:0:0:0:
64,192,35985,1,0,0:0:0:0:
448,192,36054,1,0,0:0:0:70:sel_l.wav
192,192,36122,1,0,0:0:0:0:
320,192,36191,1,2,0:0:0:0:
448,192,36191,1,0,0:0:0:0:
64,192,36329,1,2,0:0:0:0:
192,192,36329,1,0,0:0:0:0:
320,192,36398,1,0,0:0:0:0:
64,192,36466,1,0,0:0:0:0:
192,192,36535,1,0,0:0:0:0:
320,192,36604,1,0,0:0:0:70:sel_l.wav
448,192,36673,1,0,0:0:0:0:
64,192,36742,1,2,0:0:0:0:
192,192,36742,1,0,0:0:0:0:
320,192,36879,1,8,0:0:0:0:
448,192,36879,1,0,0:0:0:0:
64,192,36948,1,0,0:0:0:0:
320,192,37017,1,0,0:0:0:0:
192,192,37086,1,0,0:0:0:0:
448,192,37155,1,0,0:0:0:70:sel_l.wav
320,192,37223,1,0,0:0:0:0:
64,192,37292,1,2,0:0:0:0:
192,192,37292,1,0,0:0:0:0:
320,192,37430,1,2,0:0:0:0:
448,192,37430,1,0,0:0:0:0:
192,192,37499,1,0,0:0:0:0:
64,192,37567,1,0,0:0:0:0:
320,192,37636,1,2,0:0:0:0:
448,192,37636,1,0,0:0:0:0:
192,192,37705,1,0,0:0:0:70:sel_l.wav
64,192,37774,1,0,0:0:0:0:
320,192,37843,1,2,0:0:0:0:
448,192,37843,1,0,0:0:0:0:
64,192,37980,1,8,0:0:0:0:
192,192,37980,1,0,0:0:0:0:
320,192,38118,1,2,0:0:0:0:
448,192,38118,1,0,0:0:0:0:
64,192,38187,1,0,0:0:0:0:
320,192,38255,1,2,0:0:0:0:
448,192,38324,1,2,0:0:0:0:
192,192,38393,1,2,0:0:0:0:
448,192,38462,1,2,0:0:0:0:
64,192,38531,1,2,0:0:0:0:
192,192,38531,1,4,0:0:0:0:
320,192,38668,1,0,0:0:0:70:sel_l.wav
64,192,38806,1,2,0:0:0:0:
448,192,38806,128,8,39012:0:0:0:0:
192,192,38944,1,0,0:0:0:70:sel_l.wav
320,192,39081,128,2,39288:0:0:0:0:
448,192,39081,1,0,0:0:0:0:
64,192,39219,1,0,0:0:0:70:sel_l.wav
192,192,39356,128,8,39563:0:0:0:0:
320,192,39356,1,2,0:0:0:0:
448,192,39494,1,0,0:0:0:70:sel_l.wav
64,192,39632,128,2,40113:0:0:0:0:
192,192,39632,1,0,0:0:0:0:
320,192,39769,1,0,0:0:0:70:sel_l.wav
192,192,39907,1,2,0:0:0:0:
448,192,39907,1,8,0:0:0:0:
320,192,40044,1,0,0:0:0:70:sel_l.wav
64,192,40182,1,2,0:0:0:0:
192,192,40182,128,0,40388:0:0:0:0:
448,192,40320,1,0,0:0:0:70:sel_l.wav
320,192,40388,128,0,40595:0:0:0:0:
64,192,40457,1,8,0:0:0:0:
192,192,40457,1,2,0:0:0:0:
448,192,40595,1,0,0:0:0:70:sel_l.wav
64,192,40733,1,2,0:0:0:0:
320,192,40733,1,0,0:0:0:0:
64,192,40870,1,2,0:0:0:0:
192,192,40870,1,0,0:0:0:0:
320,192,41008,1,8,0:0:0:0:
448,192,41008,1,0,0:0:0:0:
320,192,41145,1,0,0:0:0:0:
192,192,41214,1,0,0:0:0:0:
64,192,41283,1,2,0:0:0:0:
448,192,41283,1,0,0:0:0:0:
320,192,41421,1,2,0:0:0:0:
448,192,41421,1,0,0:0:0:0:
64,192,41558,1,8,0:0:0:0:
192,192,41558,1,0,0:0:0:0:
192,192,41696,1,0,0:0:0:0:
320,192,41765,1,0,0:0:0:0:
64,192,41833,1,2,0:0:0:0:
448,192,41833,1,0,0:0:0:0:
64,192,41971,1,2,0:0:0:0:
192,192,41971,1,0,0:0:0:0:
320,192,42109,1,8,0:0:0:0:
448,192,42109,1,0,0:0:0:0:
320,192,42246,1,0,0:0:0:0:
448,192,42315,1,0,0:0:0:0:
64,192,42384,1,2,0:0:0:0:
192,192,42384,1,0,0:0:0:0:
192,192,42522,1,2,0:0:0:0:
320,192,42590,1,2,0:0:0:0:
64,192,42659,1,8,0:0:0:0:
448,192,42659,1,0,0:0:0:0:
64,192,42797,1,0,0:0:0:0:
320,192,42934,1,4,0:0:0:0:
448,192,42934,1,2,0:0:0:0:
192,192,43003,1,0,0:0:0:0:
320,192,43072,1,0,0:0:0:70:sel_l.wav
448,192,43141,1,0,0:0:0:0:
64,192,43210,1,2,0:0:0:0:
192,192,43210,1,8,0:0:0:0:
320,192,43278,1,0,0:0:0:0:
64,192,43347,1,0,0:0:0:70:sel_l.wav
192,192,43416,1,0,0:0:0:0:
320,192,43485,1,2,0:0:0:0:
448,192,43485,1,0,0:0:0:0:
64,192,43554,1,0,0:0:0:0:
320,192,43622,1,0,0:0:0:70:sel_l.wav
448,192,43691,1,0,0:0:0:0:
64,192,43760,1,2,0:0:0:0:
192,192,43760,1,8,0:0:0:0:
320,192,43829,1,0,0:0:0:0:
64,192,43898,1,0,0:0:0:70:sel_l.wav
192,192,43966,1,0,0:0:0:0:
320,192,44035,1,2,0:0:0:0:
448,192,44035,1,0,0:0:0:0:
64,192,44173,1,2,0:0:0:0:
320,192,44173,1,0,0:0:0:70:sel_l.wav
192,192,44311,1,2,0:0:0:0:
448,192,44311,1,8,0:0:0:0:
320,192,44448,1,2,0:0:0:0:
448,192,44448,1,0,0:0:0:70:sel_l.wav
64,192,44586,1,2,0:0:0:0:
320,192,44586,1,0,0:0:0:0:
192,192,44723,1,2,0:0:0:0:
448,192,44792,1,2,0:0:0:0:
64,192,44861,1,2,0:0:0:0:
192,192,44861,1,8,0:0:0:0:
448,192,44999,1,2,0:0:0:0:
192,192,45067,1,2,0:0:0:0:
64,192,45274,1,2,0:0:0:0:
320,192,45274,1,0,0:0:0:50:chokkaku_down.wav
64,192,45411,1,2,0:0:0:0:
320,192,45411,1,0,0:0:0:50:chokkaku_down.wav
64,192,45687,1,2,0:0:0:0:
192,192,45687,1,0,0:0:0:50:chokkaku_down.wav
192,192,45824,1,2,0:0:0:0:
448,192,45824,1,0,0:0:0:50:chokkaku_down.wav
320,192,46099,1,2,0:0:0:0:
448,192,46099,1,0,0:0:0:50:chokkaku_down.wav
320,192,46375,1,2,0:0:0:0:
448,192,46375,1,0,0:0:0:50:chokkaku_down.wav
64,192,46512,1,2,0:0:0:0:
320,192,46512,1,4,0:0:0:0:
448,192,46512,1,0,0:0:0:50:chokkaku_down.wav
192,192,46788,128,0,47063:0:0:0:0:
64,192,46925,128,2,47063:0:0:0:0:
320,192,47063,1,8,0:0:0:0:
448,192,47063,1,0,0:0:0:0:
64,192,47132,1,0,0:0:0:0:
192,192,47200,1,0,0:0:0:0:
320,192,47269,1,0,0:0:0:0:
64,192,47338,1,2,0:0:0:0:
448,192,47338,128,4,47544:0:0:0:0:
192,192,47476,1,0,0:0:0:70:sel_l.wav
320,192,47613,1,2,0:0:0:0:
448,192,47613,1,8,0:0:0:0:
192,192,47751,1,0,0:0:0:70:sel_l.wav
64,192,47888,1,2,0:0:0:0:
192,192,47888,128,0,48164:0:0:0:0:
320,192,48026,1,0,0:0:0:70:sel_l.wav
64,192,48164,1,2,0:0:0:0:
448,192,48164,128,8,48301:0:0:0:0:
320,192,48301,128,0,48439:0:0:0:70:sel_l.wav
64,192,48439,128,2,48577:0:0:0:0:
192,192,48439,1,0,0:0:0:0:
320,192,48577,1,0,0:0:0:70:sel_l.wav
192,192,48645,128,0,48783:0:0:0:0:
64,192,48714,1,2,0:0:0:0:
448,192,48714,1,8,0:0:0:0:
320,192,48852,128,0,48989:0:0:0:70:sel_l.wav
64,192,48989,128,2,49127:0:0:0:0:
448,192,48989,1,0,0:0:0:0:
192,192,49127,1,0,0:0:0:70:sel_l.wav
320,192,49196,1,0,0:0:0:0:
64,192,49265,1,10,0:0:0:0:
192,192,49265,128,0,49471:0:0:0:70:LR_Chm Fast.wav
192,192,49540,1,2,0:0:0:0:
448,192,49540,128,0,49677:0:0:0:0:
320,192,49677,1,0,0:0:0:70:sel_l.wav
320,192,49815,128,2,49953:0:0:0:0:
448,192,49815,1,8,0:0:0:0:
64,192,49884,128,0,50022:0:0:0:0:
192,192,50022,1,0,0:0:0:0:
320,192,50090,1,2,0:0:0:0:
448,192,50090,1,0,0:0:0:0:
192,192,50228,128,0,50366:0:0:0:70:sel_l.wav
64,192,50366,1,2,0:0:0:0:
448,192,50366,1,8,0:0:0:0:
320,192,50503,1,0,0:0:0:70:sel_l.wav
320,192,50641,1,2,0:0:0:0:
448,192,50641,1,0,0:0:0:0:
320,192,50778,1,0,0:0:0:70:sel_l.wav
192,192,50916,1,2,0:0:0:0:
448,192,50916,1,8,0:0:0:0:
64,192,51054,128,0,51191:0:0:0:70:sel_l.wav
320,192,51191,1,2,0:0:0:0:
448,192,51191,1,0,0:0:0:0:
192,192,51329,1,0,0:0:0:70:sel_l.wav
320,192,51398,1,0,0:0:0:0:
64,192,51466,1,10,0:0:0:0:
448,192,51466,1,0,0:0:0:70:LR_Chm Fast.wav
192,192,51535,1,0,0:0:0:0:
320,192,51604,1,2,0:0:0:0:
448,192,51604,1,0,0:0:0:70:sel_l.wav
64,192,51673,1,0,0:0:0:0:
320,192,51742,128,2,51948:0:0:0:0:
448,192,51742,1,0,0:0:0:0:
192,192,51879,1,0,0:0:0:70:sel_l.wav
64,192,52017,1,2,0:0:0:0:
320,192,52017,1,8,0:0:0:0:
192,192,52155,1,0,0:0:0:70:sel_l.wav
448,192,52223,1,0,0:0:0:0:
64,192,52292,1,2,0:0:0:0:
192,192,52292,1,0,0:0:0:0:
320,192,52430,1,0,0:0:0:70:sel_l.wav
64,192,52567,1,8,0:0:0:0:
448,192,52567,1,2,0:0:0:0:
192,192,52705,1,0,0:0:0:70:sel_l.wav
448,192,52774,128,0,52911:0:0:0:0:
64,192,52843,1,2,0:0:0:0:
192,192,52843,1,0,0:0:0:0:
448,192,52980,1,0,0:0:0:70:sel_l.wav
64,192,53118,1,2,0:0:0:0:
320,192,53118,1,8,0:0:0:0:
192,192,53255,1,0,0:0:0:70:sel_l.wav
448,192,53324,1,0,0:0:0:0:
192,192,53393,1,2,0:0:0:0:
320,192,53393,1,0,0:0:0:0:
448,192,53462,1,0,0:0:0:0:
64,192,53531,1,0,0:0:0:70:sel_l.wav
64,192,53668,1,10,0:0:0:0:
448,192,53668,1,0,0:0:0:70:LR_Chm Fast.wav
320,192,53806,1,0,0:0:0:70:sel_l.wav
320,192,53944,1,2,0:0:0:0:
448,192,53944,128,0,54081:0:0:0:0:
192,192,54081,1,0,0:0:0:70:sel_l.wav
64,192,54219,1,2,0:0:0:0:
448,192,54219,1,8,0:0:0:0:
448,192,54356,1,0,0:0:0:70:sel_l.wav
64,192,54494,1,2,0:0:0:0:
320,192,54494,128,0,54632:0:0:0:0:
192,192,54632,128,0,54769:0:0:0:70:sel_l.wav
320,192,54769,1,2,0:0:0:0:
448,192,54769,1,8,0:0:0:0:
192,192,54907,1,0,0:0:0:70:sel_l.wav
64,192,54976,1,0,0:0:0:0:
320,192,55044,1,2,0:0:0:0:
448,192,55044,1,0,0:0:0:0:
192,192,55113,1,0,0:0:0:0:
64,192,55182,1,2,0:0:0:0:
320,192,55251,1,2,0:0:0:0:
64,192,55320,1,2,0:0:0:0:
448,192,55320,1,8,0:0:0:0:
192,192,55457,1,2,0:0:0:0:
448,192,55457,1,0,0:0:0:0:
320,192,55595,1,0,0:0:0:70:sel_l.wav
64,192,55733,1,14,0:0:0:0:
320,192,55801,1,2,0:0:0:0:
64,192,55870,1,2,0:0:0:0:
448,192,55939,1,2,0:0:0:0:
192,192,56008,1,2,0:0:0:0:
448,192,56077,1,2,0:0:0:0:
64,192,56145,1,4,0:0:0:0:
320,192,56145,128,2,56352:0:0:0:0:
192,192,56283,1,0,0:0:0:70:sel_l.wav
64,192,56352,128,0,56558:0:0:0:0:
320,192,56421,1,2,0:0:0:0:
448,192,56421,1,8,0:0:0:0:
192,192,56558,128,0,56696:0:0:0:70:sel_l.wav
320,192,56696,128,2,56833:0:0:0:0:
448,192,56696,1,0,0:0:0:0:
64,192,56765,128,0,56902:0:0:0:0:
192,192,56833,1,0,0:0:0:70:sel_l.wav
64,192,56971,1,2,0:0:0:0:
320,192,56971,1,8,0:0:0:0:
192,192,57109,1,0,0:0:0:70:sel_l.wav
320,192,57246,1,2,0:0:0:0:
448,192,57246,128,0,57453:0:0:0:0:
64,192,57384,1,0,0:0:0:70:sel_l.wav
192,192,57453,128,0,57659:0:0:0:0:
320,192,57522,1,2,0:0:0:0:
448,192,57522,1,8,0:0:0:0:
320,192,57659,128,0,57797:0:0:0:70:sel_l.wav
64,192,57797,1,2,0:0:0:0:
448,192,57797,128,0,57934:0:0:0:0:
192,192,57866,128,0,58003:0:0:0:0:
320,192,57934,1,0,0:0:0:70:sel_l.wav
192,192,58072,1,10,0:0:0:0:
448,192,58072,1,0,0:0:0:70:LR_Chm Fast.wav
320,192,58210,1,0,0:0:0:70:sel_l.wav
64,192,58347,1,2,0:0:0:0:
192,192,58347,1,0,0:0:0:0:
448,192,58416,1,0,0:0:0:0:
192,192,58485,1,0,0:0:0:70:sel_l.wav
320,192,58554,1,0,0:0:0:0:
64,192,58622,1,8,0:0:0:0:
448,192,58622,1,2,0:0:0:0:
320,192,58760,1,0,0:0:0:70:sel_l.wav
64,192,58829,1,0,0:0:0:0:
320,192,58898,1,2,0:0:0:0:
448,192,58898,1,0,0:0:0:0:
448,192,59035,1,0,0:0:0:70:sel_l.wav
64,192,59173,1,2,0:0:0:0:
320,192,59173,1,8,0:0:0:0:
448,192,59311,128,0,59448:0:0:0:70:sel_l.wav
64,192,59448,1,2,0:0:0:0:
192,192,59448,128,0,59586:0:0:0:0:
320,192,59655,128,0,59792:0:0:0:0:
64,192,59723,1,8,0:0:0:0:
192,192,59723,1,2,0:0:0:0:
448,192,59861,128,0,59999:0:0:0:70:sel_l.wav
64,192,59999,1,2,0:0:0:0:
320,192,59999,1,0,0:0:0:0:
448,192,60067,1,0,0:0:0:0:
192,192,60136,1,0,0:0:0:70:sel_l.wav
320,192,60205,1,0,0:0:0:0:
64,192,60274,1,10,0:0:0:0:
448,192,60274,1,0,0:0:0:70:LR_Chm Fast.wav
192,192,60343,1,0,0:0:0:0:
320,192,60411,1,2,0:0:0:0:
448,192,60411,1,0,0:0:0:70:sel_l.wav
64,192,60549,1,2,0:0:0:0:
192,192,60549,1,4,0:0:0:0:
448,192,60618,1,0,0:0:0:0:
192,192,60687,1,0,0:0:0:70:sel_l.wav
320,192,60755,1,0,0:0:0:0:
64,192,60824,1,2,0:0:0:0:
448,192,60824,1,8,0:0:0:0:
320,192,60893,1,0,0:0:0:0:
64,192,60962,1,0,0:0:0:70:sel_l.wav
192,192,61031,1,0,0:0:0:0:
320,192,61099,128,2,61237:0:0:0:0:
448,192,61099,1,0,0:0:0:0:
64,192,61237,1,0,0:0:0:70:sel_l.wav
192,192,61375,1,2,0:0:0:0:
448,192,61375,128,8,61512:0:0:0:0:
64,192,61512,1,0,0:0:0:70:sel_l.wav
320,192,61650,1,2,0:0:0:0:
448,192,61650,1,4,0:0:0:0:
192,192,61719,1,0,0:0:0:0:
320,192,61788,1,0,0:0:0:70:sel_l.wav
64,192,61856,1,0,0:0:0:0:
192,192,61925,1,2,0:0:0:0:
448,192,61925,1,8,0:0:0:0:
64,192,61994,1,0,0:0:0:0:
448,192,62063,1,0,0:0:0:70:sel_l.wav
320,192,62132,1,0,0:0:0:0:
64,192,62200,1,2,0:0:0:0:
192,192,62200,1,0,0:0:0:0:
448,192,62269,1,0,0:0:0:0:
192,192,62338,1,0,0:0:0:70:sel_l.wav
320,192,62407,1,0,0:0:0:0:
64,192,62476,1,10,0:0:0:0:
448,192,62476,1,0,0:0:0:70:LR_Chm Fast.wav
320,192,62544,1,0,0:0:0:0:
192,192,62613,1,0,0:0:0:70:sel_l.wav
64,192,62682,1,0,0:0:0:0:
320,192,62751,1,2,0:0:0:0:
448,192,62751,1,4,0:0:0:0:
320,192,62888,1,0,0:0:0:70:sel_l.wav
192,192,63026,1,2,0:0:0:0:
448,192,63026,1,8,0:0:0:0:
64,192,63164,1,0,0:0:0:70:sel_l.wav
192,192,63233,1,0,0:0:0:0:
320,192,63301,1,4,0:0:0:0:
448,192,63301,1,2,0:0:0:0:
320,192,63439,1,0,0:0:0:70:sel_l.wav
64,192,63577,1,2,0:0:0:0:
448,192,63577,1,8,0:0:0:0:
64,192,63714,1,0,0:0:0:70:sel_l.wav
320,192,63852,1,2,0:0:0:0:
448,192,63852,1,4,0:0:0:0:
192,192,63989,1,2,0:0:0:0:
448,192,63989,1,0,0:0:0:70:sel_l.wav
64,192,64127,1,2,0:0:0:0:
320,192,64127,1,4,0:0:0:0:
320,192,64265,1,2,0:0:0:0:
448,192,64265,1,0,0:0:0:70:sel_l.wav
64,192,64402,1,2,0:0:0:0:
192,192,64402,1,4,0:0:0:0:
448,192,64471,1,2,0:0:0:0:
192,192,64540,1,2,0:0:0:0:
320,192,64609,1,2,0:0:0:0:
64,192,64677,1,6,0:0:0:0:
448,192,64677,1,0,0:0:0:70:LR_Chm Fast.wav
320,192,64746,1,2,0:0:0:0:
64,192,64815,1,2,0:0:0:0:
192,192,64884,1,2,0:0:0:0:
320,192,64953,128,2,65916:0:0:0:0:
448,192,64953,1,4,0:0:0:0:
64,192,65090,1,0,0:0:0:0:
192,192,65228,1,0,0:0:0:70:sel_l.wav
64,192,65366,1,0,0:0:0:70:sel_l.wav
448,192,65503,1,0,0:0:0:0:
192,192,65641,1,0,0:0:0:70:sel_l.wav
448,192,65778,128,0,65916:0:0:0:70:sel_l.wav
64,192,65916,1,2,0:0:0:0:
192,192,65916,1,0,0:0:0:0:
320,192,66054,1,2,0:0:0:0:
448,192,66054,1,0,0:0:0:0:
192,192,66122,1,0,0:0:0:0:
64,192,66191,1,0,0:0:0:70:sel_l.wav
320,192,66260,1,2,0:0:0:0:
448,192,66260,1,0,0:0:0:0:
192,192,66329,1,0,0:0:0:70:sel_l.wav
64,192,66398,1,0,0:0:0:0:
320,192,66466,1,2,0:0:0:0:
448,192,66466,1,0,0:0:0:0:
192,192,66604,1,2,0:0:0:0:
320,192,66604,1,0,0:0:0:50:chokkaku_down.wav
64,192,66879,1,2,0:0:0:0:
448,192,66879,1,0,0:0:0:50:chokkaku_down.wav
192,192,66948,1,0,0:0:0:0:
320,192,67017,1,0,0:0:0:0:
448,192,67086,1,0,0:0:0:0:
64,192,67155,128,4,67430:0:0:0:0:
192,192,67155,1,0,0:0:0:0:
192,192,67292,1,0,0:0:0:0:
448,192,67430,1,2,0:0:0:0:
320,192,67499,1,2,0:0:0:0:
64,192,67567,128,4,67843:0:0:0:0:
192,192,67567,1,2,0:0:0:0:
192,192,67705,1,0,0:0:0:0:
320,192,67843,1,2,0:0:0:0:
64,192,67911,1,2,0:0:0:0:
320,192,67980,1,2,0:0:0:0:
448,192,67980,128,4,68255:0:0:0:0:
320,192,68118,1,0,0:0:0:0:
192,192,68255,1,2,0:0:0:0:
448,192,68324,1,2,0:0:0:0:
64,192,68393,128,2,68668:0:0:0:0:
192,192,68393,1,4,0:0:0:0:
192,192,68531,1,0,0:0:0:0:
448,192,68668,1,2,0:0:0:0:
320,192,68737,1,2,0:0:0:0:
64,192,68806,1,2,0:0:0:0:
192,192,68806,1,4,0:0:0:0:
64,192,68944,1,2,0:0:0:0:
192,192,69012,1,2,0:0:0:0:
320,192,69081,1,2,0:0:0:0:
448,192,69081,1,4,0:0:0:0:
192,192,69219,1,2,0:0:0:0:
320,192,69219,1,0,0:0:0:0:
192,192,69356,128,0,69632:0:0:0:0:
64,192,69632,1,2,0:0:0:0:
320,192,69632,1,4,0:0:0:0:
448,192,69632,1,0,0:0:0:0:
320,192,69769,1,0,0:0:0:70:sel_l.wav
448,192,69838,1,0,0:0:0:0:
64,192,69907,128,2,70113:0:0:0:0:
192,192,69907,1,0,0:0:0:0:
192,192,70044,1,0,0:0:0:70:sel_l.wav
64,192,70182,1,2,0:0:0:0:
320,192,70182,1,8,0:0:0:0:
64,192,70320,1,0,0:0:0:70:sel_l.wav
320,192,70457,1,2,0:0:0:0:
448,192,70457,1,0,0:0:0:0:
320,192,70733,1,2,0:0:0:0:
448,192,70733,1,8,0:0:0:0:
192,192,70870,1,0,0:0:0:70:sel_l.wav
320,192,70939,1,0,0:0:0:0:
64,192,71008,1,2,0:0:0:0:
448,192,71008,128,0,71145:0:0:0:0:
192,192,71145,1,0,0:0:0:70:sel_l.wav
320,192,71214,128,0,71352:0:0:0:0:
64,192,71283,1,10,0:0:0:0:
448,192,71283,1,0,0:0:0:70:LR_Chm Fast.wav
64,192,71421,1,2,0:0:0:0:
192,192,71421,128,0,71558:0:0:0:70:sel_l.wav
320,192,71558,1,2,0:0:0:0:
448,192,71558,128,0,71696:0:0:0:0:
192,192,71696,1,0,0:0:0:70:sel_l.wav
320,192,71765,1,0,0:0:0:0:
64,192,71833,1,8,0:0:0:0:
448,192,71833,1,2,0:0:0:0:
192,192,71902,1,0,0:0:0:0:
320,192,71971,1,0,0:0:0:70:sel_l.wav
320,192,72109,1,2,0:0:0:0:
448,192,72109,128,0,72246:0:0:0:0:
192,192,72246,1,0,0:0:0:70:sel_l.wav
448,192,72315,1,0,0:0:0:0:
64,192,72384,1,2,0:0:0:0:
320,192,72384,1,8,0:0:0:0:
192,192,72453,1,0,0:0:0:0:
448,192,72522,1,0,0:0:0:70:sel_l.wav
64,192,72659,1,2,0:0:0:0:
192,192,72659,1,0,0:0:0:0:
448,192,72728,1,0,0:0:0:0:
192,192,72797,1,0,0:0:0:70:sel_l.wav
320,192,72866,1,0,0:0:0:0:
64,192,72934,1,8,0:0:0:0:
448,192,72934,1,2,0:0:0:0:
192,192,73003,1,0,0:0:0:0:
320,192,73072,1,0,0:0:0:70:sel_l.wav
64,192,73141,1,0,0:0:0:0:
320,192,73210,1,2,0:0:0:0:
448,192,73210,1,0,0:0:0:0:
192,192,73278,1,0,0:0:0:0:
448,192,73347,1,0,0:0:0:70:sel_l.wav
320,192,73416,1,0,0:0:0:0:
64,192,73485,1,10,0:0:0:0:
192,192,73485,1,0,0:0:0:70:LR_Chm Fast.wav
448,192,73554,1,0,0:0:0:0:
320,192,73622,1,0,0:0:0:70:sel_l.wav
192,192,73691,1,0,0:0:0:0:
64,192,73760,128,2,73898:0:0:0:0:
448,192,73760,1,0,0:0:0:0:
320,192,73898,1,0,0:0:0:70:sel_l.wav
448,192,73966,128,0,74104:0:0:0:0:
64,192,74035,1,8,0:0:0:0:
192,192,74035,1,2,0:0:0:0:
320,192,74104,1,0,0:0:0:0:
192,192,74173,128,0,74311:0:0:0:70:sel_l.wav
320,192,74311,1,2,0:0:0:0:
448,192,74311,1,0,0:0:0:0:
64,192,74379,128,0,74517:0:0:0:0:
320,192,74517,1,0,0:0:0:0:
192,192,74586,1,2,0:0:0:0:
448,192,74586,128,8,74723:0:0:0:0:
192,192,74723,128,0,74861:0:0:0:70:sel_l.wav
320,192,74861,1,2,0:0:0:0:
448,192,74861,1,0,0:0:0:0:
64,192,74930,1,0,0:0:0:0:
192,192,74999,1,2,0:0:0:0:
320,192,74999,1,0,0:0:0:70:sel_l.wav
448,192,75067,1,0,0:0:0:0:
64,192,75136,1,2,0:0:0:0:
192,192,75136,1,8,0:0:0:0:
320,192,75205,1,0,0:0:0:0:
448,192,75274,1,0,0:0:0:70:sel_l.wav
192,192,75343,1,0,0:0:0:0:
64,192,75411,1,2,0:0:0:0:
320,192,75411,1,0,0:0:0:0:
448,192,75480,1,0,0:0:0:0:
64,192,75549,1,0,0:0:0:70:sel_l.wav
192,192,75618,1,2,0:0:0:0:
320,192,75687,1,10,0:0:0:0:
448,192,75687,1,0,0:0:0:70:LR_Chm Fast.wav
64,192,75755,1,0,0:0:0:0:
192,192,75824,1,2,0:0:0:0:
320,192,75824,1,0,0:0:0:70:sel_l.wav
64,192,75893,1,0,0:0:0:0:
320,192,75962,1,2,0:0:0:0:
448,192,75962,1,4,0:0:0:0:
448,192,76099,1,0,0:0:0:70:sel_l.wav
64,192,76237,1,2,0:0:0:0:
448,192,76237,1,8,0:0:0:0:
192,192,76375,1,0,0:0:0:70:sel_l.wav
64,192,76444,1,0,0:0:0:0:
320,192,76512,1,2,0:0:0:0:
448,192,76512,1,0,0:0:0:0:
192,192,76581,1,0,0:0:0:0:
448,192,76650,1,0,0:0:0:70:sel_l.wav
320,192,76719,1,0,0:0:0:0:
64,192,76788,1,2,0:0:0:0:
192,192,76788,1,8,0:0:0:0:
448,192,76856,1,0,0:0:0:0:
192,192,76925,1,0,0:0:0:70:sel_l.wav
320,192,76994,1,0,0:0:0:0:
64,192,77063,1,2,0:0:0:0:
448,192,77063,1,0,0:0:0:0:
448,192,77200,1,0,0:0:0:70:sel_l.wav
192,192,77338,1,2,0:0:0:0:
448,192,77338,1,8,0:0:0:0:
64,192,77476,1,0,0:0:0:70:sel_l.wav
192,192,77544,1,0,0:0:0:0:
320,192,77613,1,2,0:0:0:0:
448,192,77613,1,0,0:0:0:0:
64,192,77682,1,0,0:0:0:0:
320,192,77751,1,0,0:0:0:70:sel_l.wav
192,192,77820,1,0,0:0:0:0:
64,192,77888,1,10,0:0:0:0:
448,192,77888,1,0,0:0:0:70:LR_Chm Fast.wav
192,192,77957,1,0,0:0:0:0:
320,192,78026,1,0,0:0:0:70:sel_l.wav
448,192,78095,1,0,0:0:0:0:
64,192,78164,1,2,0:0:0:0:
192,192,78164,1,0,0:0:0:0:
320,192,78233,1,0,0:0:0:0:
64,192,78301,1,0,0:0:0:70:sel_l.wav
192,192,78370,1,0,0:0:0:0:
320,192,78439,1,2,0:0:0:0:
448,192,78439,1,8,0:0:0:0:
64,192,78508,1,0,0:0:0:0:
448,192,78577,1,0,0:0:0:70:sel_l.wav
320,192,78645,1,0,0:0:0:0:
64,192,78714,1,2,0:0:0:0:
192,192,78714,1,0,0:0:0:0:
448,192,78783,1,0,0:0:0:0:
192,192,78852,1,0,0:0:0:70:sel_l.wav
320,192,78921,1,0,0:0:0:0:
64,192,78989,1,8,0:0:0:0:
448,192,78989,1,2,0:0:0:0:
192,192,79058,1,0,0:0:0:0:
320,192,79127,1,0,0:0:0:70:sel_l.wav
64,192,79196,1,0,0:0:0:0:
192,192,79265,1,2,0:0:0:0:
448,192,79265,1,0,0:0:0:0:
192,192,79402,1,0,0:0:0:70:sel_l.wav
64,192,79540,1,2,0:0:0:0:
192,192,79540,1,8,0:0:0:0:
448,192,79677,1,0,0:0:0:70:sel_l.wav
192,192,79746,1,0,0:0:0:0:
320,192,79815,1,2,0:0:0:0:
448,192,79815,1,0,0:0:0:0:
64,192,79884,1,0,0:0:0:0:
320,192,79953,1,0,0:0:0:70:sel_l.wav
192,192,80022,1,0,0:0:0:0:
64,192,80090,1,10,0:0:0:0:
448,192,80090,1,0,0:0:0:70:LR_Chm Fast.wav
64,192,80228,1,2,0:0:0:0:
320,192,80228,1,0,0:0:0:70:sel_l.wav
320,192,80366,1,2,0:0:0:0:
448,192,80366,1,0,0:0:0:50:chokkaku_down.wav
64,192,80434,1,0,0:0:0:0:
192,192,80503,1,0,0:0:0:70:sel_l.wav
448,192,80572,1,0,0:0:0:0:
64,192,80641,1,2,0:0:0:0:
192,192,80641,1,8,0:0:0:0:
320,192,80710,1,0,0:0:0:0:
448,192,80778,1,0,0:0:0:70:sel_l.wav
192,192,80847,1,0,0:0:0:0:
320,192,80916,1,2,0:0:0:0:
448,192,80916,1,0,0:0:0:0:
64,192,80985,1,0,0:0:0:0:
192,192,81054,1,0,0:0:0:70:sel_l.wav
320,192,81122,1,0,0:0:0:0:
64,192,81191,1,10,0:0:0:0:
448,192,81191,1,0,0:0:0:50:chokkaku_down.wav
320,192,81260,1,0,0:0:0:0:
64,192,81329,1,0,0:0:0:70:sel_l.wav
320,192,81466,1,2,0:0:0:0:
448,192,81466,1,0,0:0:0:50:chokkaku_down.wav
192,192,81535,1,0,0:0:0:0:
320,192,81604,1,0,0:0:0:70:sel_l.wav
448,192,81673,1,0,0:0:0:0:
64,192,81742,1,2,0:0:0:0:
192,192,81742,1,8,0:0:0:0:
320,192,81811,1,0,0:0:0:0:
64,192,81879,1,0,0:0:0:70:sel_l.wav
192,192,81948,1,0,0:0:0:0:
320,192,82017,1,2,0:0:0:0:
448,192,82017,1,0,0:0:0:0:
64,192,82086,1,0,0:0:0:0:
320,192,82155,1,0,0:0:0:70:sel_l.wav
448,192,82223,1,0,0:0:0:0:
64,192,82292,1,10,0:0:0:0:
192,192,82292,1,0,0:0:0:50:chokkaku_down.wav
448,192,82361,1,0,0:0:0:0:
64,192,82430,1,0,0:0:0:70:sel_l.wav
192,192,82567,1,2,0:0:0:0:
448,192,82567,1,0,0:0:0:50:chokkaku_down.wav
64,192,82636,1,0,0:0:0:0:
448,192,82705,1,0,0:0:0:70:sel_l.wav
320,192,82774,1,0,0:0:0:0:
64,192,82843,1,2,0:0:0:0:
192,192,82843,1,8,0:0:0:0:
448,192,82911,1,0,0:0:0:0:
192,192,82980,1,0,0:0:0:70:sel_l.wav
320,192,83049,1,0,0:0:0:0:
64,192,83118,1,2,0:0:0:0:
448,192,83118,1,0,0:0:0:0:
192,192,83187,1,0,0:0:0:0:
448,192,83255,1,0,0:0:0:70:sel_l.wav
320,192,83324,1,0,0:0:0:0:
64,192,83393,1,10,0:0:0:0:
192,192,83393,1,0,0:0:0:50:chokkaku_down.wav
320,192,83462,1,0,0:0:0:0:
192,192,83531,1,0,0:0:0:70:sel_l.wav
320,192,83668,1,2,0:0:0:0:
448,192,83668,1,0,0:0:0:50:chokkaku_down.wav
64,192,83737,1,0,0:0:0:0:
448,192,83806,1,0,0:0:0:70:sel_l.wav
320,192,83875,1,0,0:0:0:0:
64,192,83944,1,2,0:0:0:0:
192,192,83944,1,8,0:0:0:0:
448,192,84012,1,0,0:0:0:0:
192,192,84081,1,0,0:0:0:70:sel_l.wav
64,192,84150,1,0,0:0:0:0:
320,192,84219,1,2,0:0:0:0:
448,192,84219,1,0,0:0:0:0:
192,192,84288,1,0,0:0:0:0:
64,192,84356,1,2,0:0:0:0:
320,192,84425,1,2,0:0:0:0:
64,192,84494,1,10,0:0:0:0:
448,192,84494,1,0,0:0:0:50:chokkaku_down.wav
320,192,84563,1,0,0:0:0:0:
192,192,84632,1,2,0:0:0:0:
64,192,84700,1,2,0:0:0:0:
320,192,84769,1,14,0:0:0:0:
448,192,84769,1,0,0:0:0:50:chokkaku_down.wav
192,192,84838,1,0,0:0:0:0:
64,192,84907,1,0,0:0:0:0:
320,192,84976,1,0,0:0:0:0:
64,192,85044,1,10,0:0:0:0:
448,192,85044,1,4,0:0:0:0:
192,192,85113,1,0,0:0:0:0:
320,192,85182,1,0,0:0:0:0:
64,192,85251,1,0,0:0:0:0:
320,192,85320,1,10,0:0:0:0:
448,192,85320,1,4,0:0:0:0:
192,192,85388,1,0,0:0:0:0:
64,192,85457,1,0,0:0:0:0:
320,192,85526,1,0,0:0:0:0:
64,192,85595,1,10,0:0:0:0:
448,192,85595,1,4,0:0:0:0:
192,192,85664,1,0,0:0:0:0:
320,192,85733,1,0,0:0:0:0:
64,192,85801,1,0,0:0:0:0:
320,192,85870,1,10,0:0:0:0:
448,192,85870,1,4,0:0:0:0:
192,192,85939,1,0,0:0:0:0:
64,192,86008,1,0,0:0:0:0:
320,192,86077,1,0,0:0:0:0:
64,192,86145,1,10,0:0:0:0:
448,192,86145,1,4,0:0:0:0:
192,192,86214,1,0,0:0:0:0:
320,192,86283,1,0,0:0:0:0:
64,192,86352,1,0,0:0:0:0:
320,192,86421,1,10,0:0:0:0:
448,192,86421,1,4,0:0:0:0:
448,192,86558,1,0,0:0:0:70:sel_l.wav
64,192,86696,1,2,0:0:0:0:
192,192,86696,1,0,0:0:0:0:
64,192,86833,1,8,0:0:0:0:
320,192,86833,1,2,0:0:0:0:
448,192,86833,1,4,0:0:0:0:
192,192,87109,1,0,0:0:0:0:
448,192,87246,128,0,87384:0:0:0:0:
192,192,87384,1,0,0:0:0:0:
64,192,87453,1,0,0:0:0:0:
320,192,87522,128,0,87659:0:0:0:0:
448,192,87659,128,0,87797:0:0:0:0:
192,192,87797,1,0,0:0:0:0:
320,192,87934,1,0,0:0:0:0:
448,192,87969,128,0,88210:0:0:0:0:
64,192,88072,1,0,0:0:0:40:LR_CymbalG.wav
192,192,88072,1,0,0:0:0:0:
320,192,88210,1,0,0:0:0:0:
64,192,88278,1,0,0:0:0:0:
192,192,88347,1,0,0:0:0:40:LR_CymbalG.wav
448,192,88347,128,0,88485:0:0:0:0:
320,192,88485,1,0,0:0:0:0:
64,192,88622,1,0,0:0:0:40:LR_CymbalG.wav
448,192,88622,128,0,88760:0:0:0:0:
192,192,88760,1,2,0:0:0:0:
64,192,88898,1,8,0:0:0:0:
192,192,88898,1,0,0:0:0:0:
448,192,88966,1,0,0:0:0:0:
320,192,89035,1,0,0:0:0:0:
192,192,89104,1,0,0:0:0:0:
64,192,89173,1,0,0:0:0:0:
448,192,89173,128,0,89379:0:0:0:0:
320,192,89311,1,0,0:0:0:0:
448,192,89448,1,0,0:0:0:0:
192,192,89586,1,0,0:0:0:0:
64,192,89723,1,0,0:0:0:0:
192,192,89723,128,0,89930:0:0:0:0:
320,192,89861,1,0,0:0:0:0:
192,192,89999,1,0,0:0:0:0:
448,192,90136,128,0,90274:0:0:0:0:
64,192,90274,128,0,90411:0:0:0:0:
320,192,90411,1,0,0:0:0:0:
192,192,90480,128,0,90618:0:0:0:0:
64,192,90549,1,0,0:0:0:0:
448,192,90618,1,0,0:0:0:0:
320,192,90687,128,0,90824:0:0:0:0:
64,192,90824,128,0,90962:0:0:0:0:
448,192,90824,1,0,0:0:0:0:
320,192,90962,1,0,0:0:0:0:
192,192,91099,128,0,91237:0:0:0:0:
320,192,91237,1,0,0:0:0:0:
64,192,91306,1,0,0:0:0:0:
448,192,91375,128,0,91512:0:0:0:0:
320,192,91512,1,0,0:0:0:0:
320,192,91650,128,0,91856:0:0:0:0:
64,192,91788,1,0,0:0:0:0:
192,192,91856,1,0,0:0:0:0:
320,192,91925,1,0,0:0:0:0:
448,192,91925,1,0,0:0:0:0:
320,192,92063,1,0,0:0:0:0:
192,192,92200,1,0,0:0:0:0:
192,192,92338,128,0,92613:0:0:0:0:
64,192,92613,1,0,0:0:0:0:
320,192,92682,1,0,0:0:0:0:
64,192,92751,1,0,0:0:0:0:
192,192,92820,1,0,0:0:0:0:
320,192,92888,128,0,93026:0:0:0:0:
448,192,92888,1,0,0:0:0:0:
64,192,93164,1,0,0:0:0:0:
192,192,93164,1,0,0:0:0:0:
448,192,93233,1,0,0:0:0:0:
320,192,93301,1,0,0:0:0:0:
64,192,93370,1,0,0:0:0:0:
320,192,93439,1,0,0:0:0:0:
192,192,93508,1,0,0:0:0:0:
64,192,93577,128,0,93783:0:0:0:0:
448,192,93577,1,0,0:0:0:0:
192,192,93714,1,0,0:0:0:0:
64,192,93852,1,0,0:0:0:0:
320,192,93852,1,0,0:0:0:0:
448,192,93989,1,0,0:0:0:0:
64,192,94058,1,0,0:0:0:0:
192,192,94127,1,0,0:0:0:0:
448,192,94127,1,0,0:0:0:0:
192,192,94265,1,0,0:0:0:0:
320,192,94402,1,0,0:0:0:0:
320,192,94540,128,0,94815:0:0:0:0:
448,192,94815,1,0,0:0:0:0:
192,192,94953,1,0,0:0:0:0:
192,192,95090,128,0,95366:0:0:0:0:
320,192,95228,1,0,0:0:0:0:
448,192,95228,1,0,0:0:0:0:
64,192,95366,1,0,0:0:0:0:
192,192,95434,1,0,0:0:0:0:
320,192,95503,1,0,0:0:0:0:
448,192,95503,1,0,0:0:0:0:
64,192,95572,1,0,0:0:0:0:
192,192,95641,1,0,0:0:0:0:
320,192,95710,1,0,0:0:0:0:
64,192,95778,1,0,0:0:0:0:
448,192,95778,1,0,0:0:0:0:
192,192,95916,1,2,0:0:0:0:
320,192,95916,1,0,0:0:0:50:chokkaku_down.wav
192,192,96054,1,2,0:0:0:0:
320,192,96054,1,0,0:0:0:50:chokkaku_down.wav
192,192,96329,1,2,0:0:0:0:
448,192,96329,1,0,0:0:0:50:chokkaku_down.wav
320,192,96466,1,2,0:0:0:0:
448,192,96466,1,0,0:0:0:50:chokkaku_down.wav
64,192,96742,1,2,0:0:0:0:
192,192,96742,1,0,0:0:0:50:chokkaku_down.wav
64,192,97017,1,2,0:0:0:0:
192,192,97017,1,0,0:0:0:50:chokkaku_down.wav
64,192,97155,1,2,0:0:0:0:
192,192,97155,1,4,0:0:0:0:
448,192,97155,1,0,0:0:0:50:chokkaku_down.wav
448,192,97430,1,0,0:0:0:0:
320,192,97499,1,0,0:0:0:0:
192,192,97567,1,2,0:0:0:0:
448,192,97636,1,0,0:0:0:0:
64,192,97705,1,8,0:0:0:0:
192,192,97705,1,0,0:0:0:0:
320,192,97774,1,0,0:0:0:0:
64,192,97843,1,0,0:0:0:0:
192,192,97911,1,0,0:0:0:0:
448,192,97980,128,2,98187:0:0:0:0:
320,192,98118,1,0,0:0:0:0:
448,192,98255,1,0,0:0:0:70:sel_l.wav
192,192,98393,1,0,0:0:0:0:
192,192,98531,128,0,98806:0:0:0:0:
64,192,98668,1,0,0:0:0:0:
320,192,98806,128,0,98944:0:0:0:70:sel_l.wav
448,192,98944,128,0,99081:0:0:0:0:
64,192,99081,128,0,99219:0:0:0:0:
320,192,99219,1,0,0:0:0:0:
192,192,99288,128,0,99425:0:0:0:0:
448,192,99425,1,0,0:0:0:0:
320,192,99494,128,0,99632:0:0:0:0:
64,192,99632,128,0,99769:0:0:0:0:
192,192,99769,1,0,0:0:0:0:
64,192,99838,1,0,0:0:0:0:
320,192,99907,1,0,0:0:0:70:sel_l.wav
320,192,100044,1,0,0:0:0:0:
448,192,100182,128,0,100320:0:0:0:0:
192,192,100320,1,0,0:0:0:0:
192,192,100457,1,0,0:0:0:70:sel_l.wav
320,192,100526,128,0,100664:0:0:0:0:
64,192,100595,1,0,0:0:0:0:
192,192,100664,1,0,0:0:0:0:
320,192,100733,1,0,0:0:0:0:
64,192,100870,128,0,101008:0:0:0:0:
448,192,101008,1,0,0:0:0:70:sel_l.wav
192,192,101145,1,0,0:0:0:0:
64,192,101283,1,2,0:0:0:0:
192,192,101283,1,0,0:0:0:0:
448,192,101352,1,2,0:0:0:0:
320,192,101421,1,2,0:0:0:0:
64,192,101489,1,2,0:0:0:0:
320,192,101558,1,2,0:0:0:0:
448,192,101627,1,2,0:0:0:0:
64,192,101696,1,2,0:0:0:0:
192,192,101696,1,0,0:0:0:0:
320,192,101971,1,2,0:0:0:0:
448,192,101971,1,4,0:0:0:0:
64,192,102040,1,0,0:0:0:0:
320,192,102109,1,0,0:0:0:70:sel_l.wav
192,192,102177,1,0,0:0:0:0:
64,192,102246,1,2,0:0:0:0:
448,192,102246,1,0,0:0:0:0:
320,192,102315,1,0,0:0:0:0:
448,192,102384,128,0,102590:0:0:0:0:
192,192,102453,1,0,0:0:0:0:
320,192,102522,1,0,0:0:0:0:
64,192,102590,1,0,0:0:0:0:
192,192,102659,1,6,0:0:0:0:
448,192,102659,1,8,0:0:0:0:
320,192,102797,1,0,0:0:0:70:sel_l.wav
64,192,102866,1,0,0:0:0:0:
320,192,102934,1,2,0:0:0:0:
448,192,102934,1,0,0:0:0:0:
192,192,103072,1,0,0:0:0:70:sel_l.wav
64,192,103210,1,2,0:0:0:0:
448,192,103210,1,8,0:0:0:0:
320,192,103347,1,0,0:0:0:70:sel_l.wav
64,192,103416,128,0,103554:0:0:0:0:
320,192,103485,1,2,0:0:0:0:
448,192,103485,1,0,0:0:0:0:
64,192,103622,1,0,0:0:0:70:sel_l.wav
192,192,103760,1,2,0:0:0:0:
448,192,103760,1,8,0:0:0:0:
320,192,103898,1,0,0:0:0:70:sel_l.wav
64,192,103966,1,0,0:0:0:0:
192,192,104035,1,2,0:0:0:0:
320,192,104035,1,0,0:0:0:0:
448,192,104104,1,0,0:0:0:0:
64,192,104173,1,0,0:0:0:70:sel_l.wav
320,192,104311,128,10,104448:0:0:0:0:
448,192,104311,1,0,0:0:0:70:LR_Chm Fast.wav
192,192,104448,1,0,0:0:0:70:sel_l.wav
192,192,104586,1,2,0:0:0:0:
448,192,104586,128,0,104723:0:0:0:0:
64,192,104723,1,0,0:0:0:70:sel_l.wav
320,192,104861,1,2,0:0:0:0:
448,192,104861,128,8,105067:0:0:0:0:
192,192,104930,1,0,0:0:0:0:
320,192,104999,1,0,0:0:0:70:sel_l.wav
192,192,105067,1,0,0:0:0:0:
64,192,105136,1,2,0:0:0:0:
448,192,105136,1,0,0:0:0:0:
64,192,105274,1,0,0:0:0:70:sel_l.wav
320,192,105411,1,8,0:0:0:0:
448,192,105411,1,2,0:0:0:0:
192,192,105549,1,0,0:0:0:70:sel_l.wav
448,192,105618,1,0,0:0:0:0:
64,192,105687,1,2,0:0:0:0:
192,192,105687,1,0,0:0:0:0:
448,192,105755,1,0,0:0:0:0:
320,192,105824,1,2,0:0:0:0:
64,192,105893,1,2,0:0:0:0:
320,192,105962,1,2,0:0:0:0:
448,192,105962,1,8,0:0:0:0:
64,192,106099,1,2,0:0:0:0:
192,192,106099,1,0,0:0:0:70:sel_l.wav
64,192,106375,1,6,0:0:0:0:
448,192,106375,1,8,0:0:0:0:
320,192,106444,1,2,0:0:0:0:
64,192,106512,1,2,0:0:0:0:
448,192,106581,1,2,0:0:0:0:
192,192,106650,1,2,0:0:0:0:
448,192,106719,1,2,0:0:0:0:
64,192,106788,1,2,0:0:0:0:
320,192,106788,128,4,106994:0:0:0:0:
192,192,106925,1,0,0:0:0:70:sel_l.wav
64,192,106994,128,0,107200:0:0:0:0:
320,192,107063,1,2,0:0:0:0:
448,192,107063,1,8,0:0:0:0:
192,192,107200,128,0,107338:0:0:0:70:sel_l.wav
320,192,107338,1,2,0:0:0:0:
448,192,107338,1,0,0:0:0:0:
64,192,107407,128,0,107544:0:0:0:0:
320,192,107476,1,0,0:0:0:70:sel_l.wav
64,192,107613,1,2,0:0:0:0:
192,192,107613,1,8,0:0:0:0:
192,192,107751,1,0,0:0:0:70:sel_l.wav
320,192,107888,1,2,0:0:0:0:
448,192,107888,128,0,108095:0:0:0:0:
64,192,108026,1,0,0:0:0:70:sel_l.wav
192,192,108095,128,0,108301:0:0:0:0:
320,192,108164,1,2,0:0:0:0:
448,192,108164,1,8,0:0:0:0:
320,192,108301,128,0,108439:0:0:0:70:sel_l.wav
64,192,108439,1,2,0:0:0:0:
448,192,108439,1,0,0:0:0:0:
192,192,108508,128,0,108645:0:0:0:0:
448,192,108577,1,0,0:0:0:70:sel_l.wav
64,192,108714,1,10,0:0:0:0:
320,192,108714,1,0,0:0:0:70:LR_Chm Fast.wav
320,192,108852,1,0,0:0:0:70:sel_l.wav
64,192,108989,1,2,0:0:0:0:
192,192,108989,1,0,0:0:0:0:
448,192,109058,1,0,0:0:0:0:
192,192,109127,1,0,0:0:0:70:sel_l.wav
320,192,109196,1,0,0:0:0:0:
64,192,109265,1,2,0:0:0:0:
448,192,109265,1,8,0:0:0:0:
320,192,109402,1,0,0:0:0:70:sel_l.wav
64,192,109471,1,0,0:0:0:0:
320,192,109540,128,2,109746:0:0:0:0:
448,192,109540,1,0,0:0:0:0:
192,192,109609,1,0,0:0:0:0:
64,192,109677,1,0,0:0:0:70:sel_l.wav
448,192,109746,1,0,0:0:0:0:
64,192,109815,1,2,0:0:0:0:
320,192,109815,1,8,0:0:0:0:
448,192,109953,128,0,110090:0:0:0:70:sel_l.wav
64,192,110090,1,2,0:0:0:0:
192,192,110090,128,0,110228:0:0:0:0:
320,192,110297,128,0,110434:0:0:0:0:
64,192,110366,1,2,0:0:0:0:
192,192,110366,1,8,0:0:0:0:
448,192,110503,128,0,110641:0:0:0:70:sel_l.wav
64,192,110641,1,2,0:0:0:0:
320,192,110641,1,0,0:0:0:0:
192,192,110710,1,0,0:0:0:0:
320,192,110778,1,0,0:0:0:70:sel_l.wav
448,192,110847,1,0,0:0:0:0:
64,192,110916,1,10,0:0:0:0:
192,192,110916,1,0,0:0:0:70:LR_Chm Fast.wav
320,192,110985,1,0,0:0:0:0:
192,192,111054,1,2,0:0:0:0:
448,192,111054,1,0,0:0:0:70:sel_l.wav
320,192,111191,1,2,0:0:0:0:
448,192,111191,1,4,0:0:0:0:
64,192,111260,1,0,0:0:0:0:
320,192,111329,1,0,0:0:0:70:sel_l.wav
192,192,111398,1,0,0:0:0:0:
64,192,111466,1,8,0:0:0:0:
448,192,111466,1,2,0:0:0:0:
192,192,111535,1,0,0:0:0:0:
448,192,111604,1,0,0:0:0:70:sel_l.wav
320,192,111673,1,0,0:0:0:0:
64,192,111742,1,2,0:0:0:0:
192,192,111742,128,0,111879:0:0:0:0:
448,192,111879,1,0,0:0:0:70:sel_l.wav
192,192,112017,1,2,0:0:0:0:
320,192,112017,128,8,112155:0:0:0:0:
64,192,112155,1,0,0:0:0:70:sel_l.wav
320,192,112292,1,2,0:0:0:0:
448,192,112292,1,4,0:0:0:0:
192,192,112361,1,0,0:0:0:0:
320,192,112430,1,0,0:0:0:70:sel_l.wav
64,192,112499,1,0,0:0:0:0:
192,192,112567,1,8,0:0:0:0:
448,192,112567,1,2,0:0:0:0:
64,192,112636,1,0,0:0:0:0:
320,192,112705,1,0,0:0:0:70:sel_l.wav
192,192,112774,1,0,0:0:0:0:
64,192,112843,1,2,0:0:0:0:
448,192,112843,1,0,0:0:0:0:
320,192,112911,1,0,0:0:0:0:
448,192,112980,1,0,0:0:0:70:sel_l.wav
192,192,113049,1,0,0:0:0:0:
64,192,113118,1,10,0:0:0:0:
320,192,113118,1,0,0:0:0:70:LR_Chm Fast.wav
448,192,113187,1,0,0:0:0:0:
192,192,113255,1,0,0:0:0:70:sel_l.wav
320,192,113324,1,0,0:0:0:0:
64,192,113393,128,6,113599:0:0:0:0:
192,192,113393,1,0,0:0:0:50:chokkaku_down.wav
448,192,113462,1,0,0:0:0:0:
320,192,113531,1,0,0:0:0:70:sel_l.wav
192,192,113599,1,0,0:0:0:0:
64,192,113668,1,8,0:0:0:0:
448,192,113668,1,2,0:0:0:0:
320,192,113806,1,0,0:0:0:70:sel_l.wav
448,192,113875,1,0,0:0:0:0:
64,192,113944,1,6,0:0:0:0:
192,192,113944,1,0,0:0:0:50:chokkaku_down.wav
64,192,114081,1,0,0:0:0:70:sel_l.wav
192,192,114219,1,2,0:0:0:0:
448,192,114219,1,8,0:0:0:0:
192,192,114356,1,0,0:0:0:70:sel_l.wav
64,192,114494,1,6,0:0:0:0:
448,192,114494,1,0,0:0:0:50:chokkaku_down.wav
192,192,114632,1,2,0:0:0:0:
448,192,114632,1,0,0:0:0:70:sel_l.wav
64,192,114769,1,6,0:0:0:0:
320,192,114769,1,8,0:0:0:0:
320,192,114907,1,2,0:0:0:0:
448,192,114907,1,0,0:0:0:70:sel_l.wav
192,192,115044,1,6,0:0:0:0:
448,192,115044,1,0,0:0:0:50:chokkaku_down.wav
64,192,115113,1,2,0:0:0:0:
192,192,115182,1,2,0:0:0:0:
320,192,115251,1,2,0:0:0:0:
64,192,115320,1,6,0:0:0:0:
448,192,115320,1,8,0:0:0:0:
320,192,115388,1,2,0:0:0:0:
64,192,115457,1,2,0:0:0:0:
192,192,115526,1,2,0:0:0:0:
320,192,115595,128,2,116558:0:0:0:0:
448,192,115595,1,4,0:0:0:0:
64,192,115733,1,0,0:0:0:0:
192,192,115870,1,0,0:0:0:70:sel_l.wav
192,192,116008,1,0,0:0:0:0:
448,192,116145,1,0,0:0:0:0:
64,192,116283,1,0,0:0:0:0:
448,192,116421,128,0,116558:0:0:0:70:sel_l.wav
192,192,116558,1,0,0:0:0:0:
320,192,116696,1,2,0:0:0:0:
448,192,116696,1,0,0:0:0:0:
64,192,116765,1,2,0:0:0:0:
320,192,116833,1,2,0:0:0:0:
448,192,116833,1,0,0:0:0:0:
64,192,116971,1,2,0:0:0:0:
192,192,116971,1,0,0:0:0:70:sel_l.wav
448,192,117040,1,2,0:0:0:0:
64,192,117109,1,2,0:0:0:0:
192,192,117109,1,0,0:0:0:0:
320,192,117246,1,12,0:0:0:0:
448,192,117246,1,2,0:0:0:0:
320,192,117522,1,6,0:0:0:0:
448,192,117522,1,8,0:0:0:0:
64,192,117797,1,2,0:0:0:0:
192,192,117797,1,8,0:0:0:0:
320,192,117797,1,0,0:0:0:70:LR3_BassDropPDG.wav
