osu file format v14

[General]
AudioFilename: audio.mp3
AudioLeadIn: 0
PreviewTime: 47063
Countdown: 0
SampleSet: Soft
StackLeniency: 0.7
Mode: 3
LetterboxInBreaks: 0
SpecialStyle: 0
WidescreenStoryboard: 1

[Editor]
Bookmarks: 62751
DistanceSpacing: 1
BeatDivisor: 4
GridSize: 4
TimelineZoom: 1.5

[Metadata]
Title:White Parade
TitleUnicode:ホワイトパレード
Artist:Umeboshi Chazuke
ArtistUnicode:梅干茶漬け
Creator:Murumoo
Version:Leon's NOVICE
Source:SOUND VOLTEX IV HEAVENLY HAVEN
Tags:[Ping] NewBungping Leon Brigido ATing Syadow- The 7th KAC オリジナル楽曲コンテスト Original Song Contest konami electronic Video Game Instrumental 8bit Chiptune sdvx 4 3 III GRAVITY WARS コナステ's REGULAR course
BeatmapID:3050368
BeatmapSetID:1485217

[Difficulty]
HPDrainRate:7
CircleSize:4
OverallDifficulty:7
ApproachRate:5
SliderMultiplier:1.4
SliderTickRate:1

[Events]
//Background and Video events
0,0,"bg.jpg",0,0
//Break Periods
//Storyboard Layer 0 (Background)
//Storyboard Layer 1 (Fail)
//Storyboard Layer 2 (Pass)
//Storyboard Layer 3 (Foreground)
//Storyboard Layer 4 (Overlay)
//Storyboard Sound Samples
Sample,22843,0,"LR_Chm Fast.wav",70
Sample,25044,0,"LR_Chm Fast.wav",70
Sample,25457,0,"sel_l.wav",70
Sample,26558,0,"sel_l.wav",70
Sample,26833,0,"sel_l.wav",70
Sample,26971,0,"sel_l.wav",70
Sample,27109,0,"sel_l.wav",70
Sample,27246,0,"LR_Chm Fast.wav",70
Sample,27384,0,"sel_l.wav",70
Sample,28898,0,"chokkaku_down.wav",50
Sample,29035,0,"sel_l.wav",70
Sample,29035,0,"chokkaku_down.wav",50
Sample,29311,0,"chokkaku_down.wav",50
Sample,29311,0,"sel_l.wav",70
Sample,38255,0,"sel_l.wav",70
Sample,44173,0,"sel_l.wav",70
Sample,44448,0,"sel_l.wav",70
Sample,44723,0,"sel_l.wav",70
Sample,44999,0,"sel_l.wav",70
Sample,49265,0,"LR_Chm Fast.wav",70
Sample,51466,0,"LR_Chm Fast.wav",70
Sample,51604,0,"sel_l.wav",70
Sample,53668,0,"LR_Chm Fast.wav",70
Sample,55182,0,"sel_l.wav",70
Sample,56008,0,"sel_l.wav",70
Sample,58072,0,"LR_Chm Fast.wav",70
Sample,60274,0,"LR_Chm Fast.wav",70
Sample,60411,0,"sel_l.wav",70
Sample,62476,0,"LR_Chm Fast.wav",70
Sample,63989,0,"sel_l.wav",70
Sample,64265,0,"sel_l.wav",70
Sample,64540,0,"sel_l.wav",70
Sample,64677,0,"LR_Chm Fast.wav",70
Sample,64815,0,"sel_l.wav",70
Sample,66604,0,"chokkaku_down.wav",50
Sample,66879,0,"chokkaku_down.wav",50
Sample,71283,0,"LR_Chm Fast.wav",70
Sample,71421,0,"sel_l.wav",70
Sample,73485,0,"LR_Chm Fast.wav",70
Sample,75687,0,"LR_Chm Fast.wav",70
Sample,77888,0,"LR_Chm Fast.wav",70
Sample,80090,0,"LR_Chm Fast.wav",70
Sample,101558,0,"sel_l.wav",70
Sample,104311,0,"LR_Chm Fast.wav",70
Sample,105824,0,"sel_l.wav",70
Sample,106099,0,"sel_l.wav",70
Sample,106650,0,"sel_l.wav",70
Sample,108714,0,"LR_Chm Fast.wav",70
Sample,110916,0,"LR_Chm Fast.wav",70
Sample,111054,0,"sel_l.wav",70
Sample,113118,0,"LR_Chm Fast.wav",70
Sample,114494,0,"chokkaku_down.wav",50
Sample,114632,0,"sel_l.wav",70
Sample,114907,0,"sel_l.wav",70
Sample,115044,0,"chokkaku_down.wav",50
Sample,115182,0,"sel_l.wav",70
Sample,115457,0,"sel_l.wav",70
Sample,116971,0,"sel_l.wav",70

[TimingPoints]
1100,275.229357798165,4,2,1,32,1,0
47338,-100,4,2,1,32,0,1
66879,-100,4,2,1,32,0,0
102659,-100,4,2,1,32,0,1
117797,-100,4,2,1,32,0,0

[HitObjects]
64,192,1100,128,0,1375:0:0:0:0:
320,192,1375,1,0,0:0:0:0:
64,192,1650,128,0,1925:0:0:0:0:
448,192,1925,1,0,0:0:0:0:
192,192,2200,1,0,0:0:0:0:
320,192,2407,1,0,0:0:0:0:
448,192,2613,1,0,0:0:0:0:
192,192,2751,128,0,2888:0:0:0:0:
64,192,3026,1,0,0:0:0:0:
448,192,3301,1,0,0:0:0:0:
192,192,3577,1,0,0:0:0:0:
64,192,3852,1,0,0:0:0:0:
320,192,3989,1,0,0:0:0:0:
192,192,4127,1,0,0:0:0:0:
448,192,4265,128,0,4540:0:0:0:0:
192,192,4815,1,0,0:0:0:0:
448,192,5090,128,0,5366:0:0:0:0:
320,192,5366,1,0,0:0:0:0:
64,192,5503,128,0,5778:0:0:0:0:
320,192,5778,1,0,0:0:0:0:
448,192,6054,1,0,0:0:0:0:
320,192,6191,1,0,0:0:0:0:
192,192,6329,1,0,0:0:0:0:
448,192,6466,128,0,6742:0:0:0:0:
64,192,6742,1,0,0:0:0:0:
192,192,6879,1,0,0:0:0:0:
320,192,7017,128,0,7292:0:0:0:0:
64,192,7292,1,2,0:0:0:0:
192,192,7430,1,2,0:0:0:0:
448,192,7567,1,2,0:0:0:0:
64,192,7705,128,2,8806:0:0:0:0:
320,192,7705,1,4,0:0:0:0:
192,192,7843,1,0,0:0:0:70:sel_l.wav
320,192,7980,1,2,0:0:0:0:
192,192,8118,1,0,0:0:0:70:sel_l.wav
448,192,8255,1,2,0:0:0:0:
320,192,8393,1,0,0:0:0:70:sel_l.wav
192,192,8531,1,2,0:0:0:0:
320,192,8668,1,0,0:0:0:70:sel_l.wav
448,192,8806,128,2,9907:0:0:0:0:
192,192,8944,1,0,0:0:0:70:sel_l.wav
320,192,9081,1,2,0:0:0:0:
64,192,9219,1,0,0:0:0:70:sel_l.wav
192,192,9356,1,2,0:0:0:0:
320,192,9494,1,0,0:0:0:70:sel_l.wav
192,192,9632,1,2,0:0:0:0:
64,192,9769,1,0,0:0:0:70:sel_l.wav
192,192,9907,128,2,10182:0:0:0:0:
320,192,9907,1,4,0:0:0:0:
64,192,10182,128,0,10457:0:0:0:0:
448,192,10457,128,0,10733:0:0:0:0:
320,192,10733,128,0,11008:0:0:0:0:
64,192,11145,1,2,0:0:0:0:
192,192,11145,1,0,0:0:0:50:chokkaku_down.wav
320,192,11283,1,2,0:0:0:0:
448,192,11283,1,0,0:0:0:50:chokkaku_down.wav
64,192,11421,1,2,0:0:0:0:
192,192,11421,1,0,0:0:0:50:chokkaku_down.wav
320,192,11558,1,6,0:0:0:0:
448,192,11558,1,0,0:0:0:50:chokkaku_down.wav
64,192,11833,128,0,12109:0:0:0:0:
320,192,12109,1,2,0:0:0:0:
448,192,12109,1,4,0:0:0:0:
192,192,12384,1,2,0:0:0:0:
448,192,12659,128,2,13210:0:0:0:0:
64,192,12934,1,2,0:0:0:0:
320,192,13210,128,2,13760:0:0:0:0:
64,192,13485,1,2,0:0:0:0:
192,192,13622,1,0,0:0:0:70:sel_l.wav
448,192,13760,128,2,14311:0:0:0:0:
64,192,13898,1,0,0:0:0:70:sel_l.wav
320,192,14035,1,2,0:0:0:0:
192,192,14173,1,0,0:0:0:70:sel_l.wav
64,192,14311,128,2,14586:0:0:0:0:
192,192,14586,1,2,0:0:0:0:
320,192,14723,128,0,15687:0:0:0:70:sel_l.wav
448,192,14861,1,2,0:0:0:0:
64,192,15136,1,2,0:0:0:0:
192,192,15411,1,2,0:0:0:0:
448,192,15687,1,2,0:0:0:0:
64,192,15824,1,0,0:0:0:70:sel_l.wav
448,192,15962,128,2,16237:0:0:0:0:
192,192,16099,1,0,0:0:0:70:sel_l.wav
64,192,16237,128,2,16512:0:0:0:0:
320,192,16512,1,2,0:0:0:0:
192,192,16788,1,2,0:0:0:0:
320,192,17063,128,2,17613:0:0:0:0:
448,192,17338,1,2,0:0:0:0:
64,192,17613,1,2,0:0:0:0:
192,192,17751,1,0,0:0:0:70:sel_l.wav
448,192,17888,128,2,18164:0:0:0:0:
64,192,18026,1,0,0:0:0:70:sel_l.wav
192,192,18164,128,2,18439:0:0:0:0:
64,192,18439,128,2,18714:0:0:0:0:
320,192,18714,128,2,18989:0:0:0:0:
448,192,18989,1,2,0:0:0:0:
192,192,19265,128,2,19540:0:0:0:0:
320,192,19540,1,2,0:0:0:0:
448,192,19815,128,10,20090:0:0:0:0:
64,192,20090,1,10,0:0:0:0:
192,192,20228,1,0,0:0:0:70:sel_l.wav
320,192,20366,1,10,0:0:0:0:
64,192,20503,1,10,0:0:0:0:
448,192,20503,1,4,0:0:0:0:
320,192,20778,1,2,0:0:0:0:
192,192,20916,1,2,0:0:0:0:
448,192,20916,1,4,0:0:0:0:
64,192,21054,1,0,0:0:0:70:sel_l.wav
320,192,21191,1,10,0:0:0:0:
192,192,21329,1,0,0:0:0:70:sel_l.wav
448,192,21466,1,2,0:0:0:0:
64,192,21604,1,0,0:0:0:70:sel_l.wav
320,192,21742,1,10,0:0:0:0:
448,192,21879,1,0,0:0:0:70:sel_l.wav
192,192,22017,1,2,0:0:0:0:
320,192,22155,1,0,0:0:0:70:sel_l.wav
192,192,22292,1,10,0:0:0:0:
64,192,22430,1,0,0:0:0:70:sel_l.wav
448,192,22567,1,2,0:0:0:0:
192,192,22705,1,0,0:0:0:70:sel_l.wav
320,192,22843,1,10,0:0:0:0:
64,192,23118,1,2,0:0:0:0:
192,192,23255,1,0,0:0:0:70:sel_l.wav
448,192,23393,1,10,0:0:0:0:
320,192,23531,1,0,0:0:0:70:sel_l.wav
192,192,23668,1,2,0:0:0:0:
64,192,23806,1,0,0:0:0:70:sel_l.wav
320,192,23944,1,10,0:0:0:0:
448,192,24081,1,0,0:0:0:70:sel_l.wav
192,192,24219,1,2,0:0:0:0:
64,192,24356,1,0,0:0:0:70:sel_l.wav
320,192,24494,1,10,0:0:0:0:
192,192,24632,1,0,0:0:0:70:sel_l.wav
64,192,24769,1,2,0:0:0:0:
448,192,24907,1,0,0:0:0:70:sel_l.wav
320,192,25044,1,10,0:0:0:0:
64,192,25182,1,0,0:0:0:70:sel_l.wav
448,192,25320,1,2,0:0:0:0:
192,192,25457,1,2,0:0:0:0:
320,192,25595,1,10,0:0:0:0:
448,192,25733,1,0,0:0:0:70:sel_l.wav
64,192,25870,1,2,0:0:0:0:
192,192,26008,1,0,0:0:0:70:sel_l.wav
64,192,26145,1,10,0:0:0:0:
320,192,26283,1,0,0:0:0:70:sel_l.wav
448,192,26421,1,2,0:0:0:0:
64,192,26558,1,2,0:0:0:0:
192,192,26696,1,10,0:0:0:0:
320,192,26833,1,2,0:0:0:0:
64,192,26971,1,2,0:0:0:0:
448,192,27109,1,2,0:0:0:0:
320,192,27246,1,10,0:0:0:0:
192,192,27384,1,2,0:0:0:0:
448,192,27522,128,2,27797:0:0:0:0:
192,192,27797,1,14,0:0:0:0:
64,192,28072,128,2,28347:0:0:0:0:
448,192,28347,1,14,0:0:0:0:
192,192,28622,1,2,0:0:0:0:
320,192,28622,1,0,0:0:0:50:chokkaku_down.wav
320,192,28898,1,2,0:0:0:0:
64,192,29035,1,2,0:0:0:0:
448,192,29311,128,6,29723:0:0:0:0:
64,192,29723,128,4,30274:0:0:0:0:
320,192,29723,1,2,0:0:0:0:
448,192,29999,1,0,0:0:0:70:sel_l.wav
320,192,30136,1,2,0:0:0:0:
192,192,30274,128,8,30549:0:0:0:0:
320,192,30549,128,0,30824:0:0:0:70:sel_l.wav
448,192,30824,128,2,31375:0:0:0:0:
192,192,31099,1,0,0:0:0:70:sel_l.wav
64,192,31375,128,8,31925:0:0:0:0:
320,192,31650,1,0,0:0:0:70:sel_l.wav
192,192,31925,128,2,32338:0:0:0:0:
448,192,32200,1,0,0:0:0:70:sel_l.wav
320,192,32338,128,2,32888:0:0:0:0:
64,192,32476,1,8,0:0:0:0:
448,192,32751,1,0,0:0:0:70:sel_l.wav
192,192,32888,1,2,0:0:0:0:
64,192,33026,1,2,0:0:0:0:
448,192,33164,1,0,0:0:0:0:
192,192,33301,1,0,0:0:0:70:sel_l.wav
64,192,33439,1,2,0:0:0:0:
320,192,33577,1,8,0:0:0:0:
192,192,33852,1,0,0:0:0:70:sel_l.wav
320,192,34127,1,2,0:0:0:0:
64,192,34402,128,0,34677:0:0:0:70:sel_l.wav
192,192,34677,128,8,34953:0:0:0:0:
448,192,34953,128,0,35228:0:0:0:70:sel_l.wav
320,192,35228,128,2,35778:0:0:0:0:
64,192,35503,1,0,0:0:0:70:sel_l.wav
192,192,35778,128,8,36329:0:0:0:0:
320,192,36054,1,0,0:0:0:70:sel_l.wav
448,192,36329,128,2,36742:0:0:0:0:
64,192,36604,1,0,0:0:0:70:sel_l.wav
320,192,36742,128,2,37155:0:0:0:0:
192,192,36879,1,8,0:0:0:0:
64,192,37155,128,0,37292:0:0:0:70:sel_l.wav
192,192,37292,128,2,37430:0:0:0:0:
448,192,37430,128,2,37980:0:0:0:0:
320,192,37705,1,0,0:0:0:70:sel_l.wav
64,192,37980,1,8,0:0:0:0:
320,192,38118,1,2,0:0:0:0:
192,192,38255,1,2,0:0:0:0:
64,192,38393,1,2,0:0:0:0:
320,192,38531,1,6,0:0:0:0:
448,192,38668,1,0,0:0:0:70:sel_l.wav
64,192,38806,1,10,0:0:0:0:
192,192,38944,1,0,0:0:0:70:sel_l.wav
448,192,39081,1,2,0:0:0:0:
320,192,39219,1,0,0:0:0:70:sel_l.wav
192,192,39356,1,10,0:0:0:0:
64,192,39494,1,0,0:0:0:70:sel_l.wav
320,192,39632,1,2,0:0:0:0:
192,192,39769,1,0,0:0:0:70:sel_l.wav
448,192,39907,1,10,0:0:0:0:
320,192,40044,1,0,0:0:0:70:sel_l.wav
64,192,40182,1,2,0:0:0:0:
448,192,40320,1,0,0:0:0:70:sel_l.wav
192,192,40457,1,10,0:0:0:0:
64,192,40595,1,0,0:0:0:70:sel_l.wav
320,192,40733,1,2,0:0:0:0:
64,192,40870,1,2,0:0:0:0:
320,192,41008,1,8,0:0:0:0:
192,192,41283,1,2,0:0:0:0:
448,192,41421,1,2,0:0:0:0:
192,192,41558,1,8,0:0:0:0:
64,192,41833,1,2,0:0:0:0:
448,192,41971,1,2,0:0:0:0:
64,192,42109,1,8,0:0:0:0:
320,192,42384,1,2,0:0:0:0:
192,192,42522,1,2,0:0:0:0:
64,192,42659,1,8,0:0:0:0:
320,192,42797,1,0,0:0:0:0:
64,192,42934,1,6,0:0:0:0:
448,192,43072,1,0,0:0:0:70:sel_l.wav
320,192,43210,1,10,0:0:0:0:
64,192,43347,1,0,0:0:0:70:sel_l.wav
192,192,43485,1,2,0:0:0:0:
320,192,43622,1,0,0:0:0:70:sel_l.wav
64,192,43760,1,10,0:0:0:0:
320,192,43898,1,0,0:0:0:70:sel_l.wav
448,192,44035,1,2,0:0:0:0:
192,192,44173,1,2,0:0:0:0:
320,192,44311,1,10,0:0:0:0:
64,192,44448,1,2,0:0:0:0:
192,192,44586,1,2,0:0:0:0:
320,192,44723,1,2,0:0:0:0:
64,192,44861,1,10,0:0:0:0:
192,192,44999,1,2,0:0:0:0:
64,192,45274,1,2,0:0:0:0:
192,192,45274,1,0,0:0:0:50:chokkaku_down.wav
320,192,45411,1,2,0:0:0:0:
448,192,45411,1,0,0:0:0:50:chokkaku_down.wav
64,192,45687,1,2,0:0:0:0:
320,192,45687,1,0,0:0:0:50:chokkaku_down.wav
192,192,45824,1,2,0:0:0:0:
448,192,45824,1,0,0:0:0:50:chokkaku_down.wav
192,192,46099,1,2,0:0:0:0:
320,192,46099,1,0,0:0:0:50:chokkaku_down.wav
64,192,46375,1,2,0:0:0:0:
448,192,46375,1,0,0:0:0:50:chokkaku_down.wav
192,192,46512,1,6,0:0:0:0:
320,192,46512,1,0,0:0:0:50:chokkaku_down.wav
64,192,46788,128,0,47338:0:0:0:0:
320,192,47338,1,2,0:0:0:0:
448,192,47338,1,4,0:0:0:0:
192,192,47476,1,0,0:0:0:70:sel_l.wav
448,192,47613,1,10,0:0:0:0:
320,192,47751,1,0,0:0:0:70:sel_l.wav
192,192,47888,1,2,0:0:0:0:
64,192,48026,1,0,0:0:0:70:sel_l.wav
448,192,48164,1,10,0:0:0:0:
320,192,48301,1,0,0:0:0:70:sel_l.wav
64,192,48439,1,2,0:0:0:0:
192,192,48645,1,0,0:0:0:0:
320,192,48714,1,10,0:0:0:0:
64,192,48852,1,0,0:0:0:70:sel_l.wav
448,192,48989,1,2,0:0:0:0:
320,192,49127,1,0,0:0:0:70:sel_l.wav
192,192,49265,1,10,0:0:0:0:
448,192,49402,1,0,0:0:0:70:sel_l.wav
64,192,49540,1,2,0:0:0:0:
320,192,49677,1,0,0:0:0:70:sel_l.wav
448,192,49815,1,10,0:0:0:0:
192,192,49953,1,0,0:0:0:70:sel_l.wav
320,192,50090,1,2,0:0:0:0:
64,192,50228,1,0,0:0:0:70:sel_l.wav
192,192,50366,1,10,0:0:0:0:
320,192,50503,128,0,50778:0:0:0:70:sel_l.wav
192,192,50778,1,0,0:0:0:70:sel_l.wav
448,192,50916,1,10,0:0:0:0:
64,192,51054,1,0,0:0:0:70:sel_l.wav
320,192,51191,1,2,0:0:0:0:
192,192,51329,1,0,0:0:0:70:sel_l.wav
320,192,51466,1,10,0:0:0:0:
448,192,51604,1,2,0:0:0:0:
64,192,51742,128,2,52017:0:0:0:0:
448,192,52017,1,10,0:0:0:0:
192,192,52155,1,0,0:0:0:70:sel_l.wav
320,192,52292,1,2,0:0:0:0:
64,192,52430,1,0,0:0:0:70:sel_l.wav
192,192,52567,1,10,0:0:0:0:
448,192,52705,1,0,0:0:0:70:sel_l.wav
64,192,52843,1,2,0:0:0:0:
192,192,52980,1,0,0:0:0:70:sel_l.wav
320,192,53118,1,10,0:0:0:0:
448,192,53255,1,0,0:0:0:70:sel_l.wav
192,192,53393,1,2,0:0:0:0:
320,192,53531,1,0,0:0:0:70:sel_l.wav
64,192,53668,1,10,0:0:0:0:
448,192,53806,1,0,0:0:0:70:sel_l.wav
320,192,53944,1,2,0:0:0:0:
192,192,54081,1,0,0:0:0:70:sel_l.wav
320,192,54219,1,10,0:0:0:0:
64,192,54356,1,0,0:0:0:70:sel_l.wav
192,192,54494,1,2,0:0:0:0:
320,192,54632,1,0,0:0:0:70:sel_l.wav
192,192,54769,1,10,0:0:0:0:
448,192,54907,1,0,0:0:0:70:sel_l.wav
320,192,55044,1,2,0:0:0:0:
64,192,55182,1,2,0:0:0:0:
192,192,55320,1,10,0:0:0:0:
448,192,55457,1,2,0:0:0:0:
192,192,55733,1,12,0:0:0:0:
320,192,55733,1,2,0:0:0:0:
448,192,55870,1,2,0:0:0:0:
64,192,56008,1,2,0:0:0:0:
320,192,56145,1,6,0:0:0:0:
448,192,56283,1,0,0:0:0:70:sel_l.wav
64,192,56421,1,10,0:0:0:0:
320,192,56558,1,0,0:0:0:70:sel_l.wav
192,192,56696,1,2,0:0:0:0:
64,192,56833,1,0,0:0:0:70:sel_l.wav
448,192,56971,1,10,0:0:0:0:
192,192,57109,1,0,0:0:0:70:sel_l.wav
64,192,57246,1,2,0:0:0:0:
320,192,57384,1,0,0:0:0:70:sel_l.wav
448,192,57522,1,10,0:0:0:0:
64,192,57659,1,0,0:0:0:70:sel_l.wav
192,192,57797,1,2,0:0:0:0:
64,192,57934,1,0,0:0:0:70:sel_l.wav
320,192,58072,1,10,0:0:0:0:
192,192,58210,1,0,0:0:0:70:sel_l.wav
64,192,58347,128,2,58622:0:0:0:0:
448,192,58622,1,10,0:0:0:0:
192,192,58760,1,0,0:0:0:70:sel_l.wav
320,192,58898,1,2,0:0:0:0:
192,192,59173,1,10,0:0:0:0:
64,192,59311,1,0,0:0:0:70:sel_l.wav
448,192,59448,1,2,0:0:0:0:
320,192,59655,1,0,0:0:0:0:
192,192,59723,1,10,0:0:0:0:
448,192,59861,1,0,0:0:0:70:sel_l.wav
64,192,59999,1,2,0:0:0:0:
192,192,60136,1,0,0:0:0:70:sel_l.wav
320,192,60274,1,10,0:0:0:0:
448,192,60411,1,2,0:0:0:0:
64,192,60549,1,2,0:0:0:0:
192,192,60549,1,4,0:0:0:0:
320,192,60687,1,0,0:0:0:70:sel_l.wav
64,192,60824,1,10,0:0:0:0:
192,192,60962,1,0,0:0:0:70:sel_l.wav
320,192,61099,1,2,0:0:0:0:
448,192,61237,1,0,0:0:0:70:sel_l.wav
192,192,61375,1,10,0:0:0:0:
64,192,61512,1,0,0:0:0:70:sel_l.wav
320,192,61650,1,2,0:0:0:0:
448,192,61650,1,4,0:0:0:0:
192,192,61788,1,0,0:0:0:70:sel_l.wav
320,192,61925,1,10,0:0:0:0:
64,192,62063,1,0,0:0:0:70:sel_l.wav
448,192,62200,1,2,0:0:0:0:
192,192,62338,1,0,0:0:0:70:sel_l.wav
320,192,62476,1,10,0:0:0:0:
448,192,62613,1,0,0:0:0:70:sel_l.wav
64,192,62751,1,2,0:0:0:0:
192,192,62751,1,4,0:0:0:0:
320,192,63026,1,10,0:0:0:0:
64,192,63164,1,0,0:0:0:70:sel_l.wav
192,192,63301,1,4,0:0:0:0:
448,192,63301,1,2,0:0:0:0:
320,192,63439,1,0,0:0:0:70:sel_l.wav
64,192,63577,1,10,0:0:0:0:
192,192,63714,1,0,0:0:0:70:sel_l.wav
448,192,63852,1,6,0:0:0:0:
64,192,63989,1,2,0:0:0:0:
320,192,64127,1,6,0:0:0:0:
192,192,64265,1,2,0:0:0:0:
64,192,64402,1,6,0:0:0:0:
448,192,64540,1,2,0:0:0:0:
320,192,64677,1,6,0:0:0:0:
192,192,64815,1,2,0:0:0:0:
64,192,64953,1,2,0:0:0:0:
448,192,64953,128,4,65778:0:0:0:0:
192,192,65778,1,0,0:0:0:70:sel_l.wav
64,192,66054,1,2,0:0:0:0:
320,192,66329,1,0,0:0:0:70:sel_l.wav
192,192,66604,1,2,0:0:0:0:
448,192,66879,1,2,0:0:0:0:
320,192,67017,1,0,0:0:0:0:
64,192,67155,128,4,67430:0:0:0:0:
192,192,67430,1,2,0:0:0:0:
448,192,67567,128,6,67843:0:0:0:0:
320,192,67843,1,2,0:0:0:0:
64,192,67980,128,6,68255:0:0:0:0:
192,192,68255,1,2,0:0:0:0:
448,192,68393,128,6,68806:0:0:0:0:
192,192,68806,1,6,0:0:0:0:
64,192,69081,1,6,0:0:0:0:
192,192,69219,1,2,0:0:0:0:
320,192,69356,1,0,0:0:0:0:
64,192,69632,1,2,0:0:0:0:
448,192,69632,1,4,0:0:0:0:
320,192,69769,1,0,0:0:0:70:sel_l.wav
192,192,69907,1,2,0:0:0:0:
64,192,70044,1,0,0:0:0:70:sel_l.wav
320,192,70182,1,10,0:0:0:0:
448,192,70320,1,0,0:0:0:70:sel_l.wav
192,192,70457,1,2,0:0:0:0:
320,192,70595,1,0,0:0:0:70:sel_l.wav
64,192,70733,1,10,0:0:0:0:
448,192,70870,1,0,0:0:0:70:sel_l.wav
192,192,71008,1,2,0:0:0:0:
64,192,71145,1,0,0:0:0:70:sel_l.wav
320,192,71283,1,10,0:0:0:0:
192,192,71421,1,2,0:0:0:0:
448,192,71558,1,2,0:0:0:0:
320,192,71696,1,0,0:0:0:70:sel_l.wav
192,192,71833,1,10,0:0:0:0:
64,192,71971,1,0,0:0:0:70:sel_l.wav
320,192,72109,1,2,0:0:0:0:
448,192,72246,1,0,0:0:0:70:sel_l.wav
192,192,72384,1,10,0:0:0:0:
64,192,72522,1,0,0:0:0:70:sel_l.wav
320,192,72659,128,2,72934:0:0:0:0:
192,192,72934,128,10,73210:0:0:0:0:
64,192,73210,128,2,73485:0:0:0:0:
320,192,73485,128,10,73760:0:0:0:0:
448,192,73760,128,2,74861:0:0:0:0:
64,192,74035,1,10,0:0:0:0:
192,192,74311,1,2,0:0:0:0:
320,192,74586,1,10,0:0:0:0:
64,192,74861,128,2,75962:0:0:0:0:
192,192,75136,1,10,0:0:0:0:
320,192,75411,1,2,0:0:0:0:
192,192,75687,1,10,0:0:0:0:
320,192,75962,128,2,77063:0:0:0:0:
448,192,75962,1,4,0:0:0:0:
192,192,76237,1,10,0:0:0:0:
448,192,76512,1,2,0:0:0:0:
64,192,76788,1,10,0:0:0:0:
448,192,77063,128,2,78164:0:0:0:0:
320,192,77338,1,10,0:0:0:0:
64,192,77613,1,2,0:0:0:0:
320,192,77888,1,10,0:0:0:0:
64,192,78164,128,2,79265:0:0:0:0:
320,192,78439,1,10,0:0:0:0:
448,192,78714,1,2,0:0:0:0:
192,192,78989,1,10,0:0:0:0:
448,192,79265,128,2,80366:0:0:0:0:
320,192,79540,1,10,0:0:0:0:
64,192,79815,1,2,0:0:0:0:
192,192,80090,1,10,0:0:0:0:
64,192,80366,1,2,0:0:0:0:
320,192,80366,1,0,0:0:0:50:chokkaku_down.wav
192,192,80641,1,10,0:0:0:0:
320,192,80916,1,2,0:0:0:0:
192,192,81191,1,10,0:0:0:0:
320,192,81191,1,0,0:0:0:50:chokkaku_down.wav
64,192,81466,1,2,0:0:0:0:
448,192,81466,1,0,0:0:0:50:chokkaku_down.wav
192,192,81742,1,10,0:0:0:0:
320,192,82017,1,2,0:0:0:0:
64,192,82292,1,10,0:0:0:0:
192,192,82292,1,0,0:0:0:50:chokkaku_down.wav
320,192,82567,1,2,0:0:0:0:
448,192,82567,1,0,0:0:0:50:chokkaku_down.wav
192,192,82843,1,10,0:0:0:0:
64,192,83118,1,2,0:0:0:0:
320,192,83393,1,10,0:0:0:0:
448,192,83393,1,0,0:0:0:50:chokkaku_down.wav
64,192,83668,1,2,0:0:0:0:
192,192,83668,1,0,0:0:0:50:chokkaku_down.wav
320,192,83944,1,10,0:0:0:0:
192,192,84219,1,2,0:0:0:0:
64,192,84494,1,10,0:0:0:0:
320,192,84494,1,0,0:0:0:50:chokkaku_down.wav
192,192,84769,1,14,0:0:0:0:
448,192,84769,1,0,0:0:0:50:chokkaku_down.wav
320,192,85044,1,14,0:0:0:0:
192,192,85320,1,14,0:0:0:0:
64,192,85595,1,14,0:0:0:0:
448,192,85870,1,14,0:0:0:0:
320,192,86145,1,14,0:0:0:0:
64,192,86421,1,14,0:0:0:0:
448,192,86558,1,0,0:0:0:70:sel_l.wav
192,192,86696,1,2,0:0:0:0:
64,192,86833,1,10,0:0:0:0:
448,192,86833,1,4,0:0:0:0:
192,192,88072,1,0,0:0:0:40:LR_CymbalG.wav
320,192,88347,1,0,0:0:0:40:LR_CymbalG.wav
192,192,88622,1,0,0:0:0:40:LR_CymbalG.wav
448,192,88760,1,2,0:0:0:0:
320,192,88898,1,8,0:0:0:0:
192,192,89035,1,0,0:0:0:0:
64,192,89173,128,0,89448:0:0:0:0:
320,192,89448,1,0,0:0:0:0:
64,192,89723,128,0,89999:0:0:0:0:
448,192,89999,1,0,0:0:0:0:
192,192,90274,1,0,0:0:0:0:
320,192,90480,1,0,0:0:0:0:
448,192,90687,1,0,0:0:0:0:
192,192,90824,128,0,90962:0:0:0:0:
64,192,91099,1,0,0:0:0:0:
448,192,91375,1,0,0:0:0:0:
192,192,91650,1,0,0:0:0:0:
64,192,91925,1,0,0:0:0:0:
320,192,92063,1,0,0:0:0:0:
192,192,92200,1,0,0:0:0:0:
448,192,92338,128,0,92613:0:0:0:0:
192,192,92888,1,0,0:0:0:0:
448,192,93164,128,0,93439:0:0:0:0:
320,192,93439,1,0,0:0:0:0:
64,192,93577,128,0,93852:0:0:0:0:
320,192,93852,1,0,0:0:0:0:
448,192,94127,1,0,0:0:0:0:
320,192,94265,1,0,0:0:0:0:
192,192,94402,1,0,0:0:0:0:
448,192,94540,128,0,94815:0:0:0:0:
64,192,94815,1,0,0:0:0:0:
192,192,94953,1,0,0:0:0:0:
320,192,95090,128,0,95366:0:0:0:0:
448,192,95366,1,0,0:0:0:0:
192,192,95503,1,0,0:0:0:0:
64,192,95641,1,0,0:0:0:0:
320,192,95916,1,2,0:0:0:0:
448,192,95916,1,0,0:0:0:50:chokkaku_down.wav
64,192,96054,1,2,0:0:0:0:
192,192,96054,1,0,0:0:0:50:chokkaku_down.wav
192,192,96329,1,2,0:0:0:0:
448,192,96329,1,0,0:0:0:50:chokkaku_down.wav
64,192,96466,1,2,0:0:0:0:
320,192,96466,1,0,0:0:0:50:chokkaku_down.wav
64,192,96742,1,2,0:0:0:0:
448,192,96742,1,0,0:0:0:50:chokkaku_down.wav
192,192,97017,1,2,0:0:0:0:
320,192,97017,1,0,0:0:0:50:chokkaku_down.wav
64,192,97155,1,6,0:0:0:0:
448,192,97155,1,0,0:0:0:50:chokkaku_down.wav
448,192,97430,128,0,97980:0:0:0:0:
64,192,97980,1,2,0:0:0:0:
192,192,98255,1,0,0:0:0:70:sel_l.wav
448,192,98393,1,0,0:0:0:0:
320,192,98531,1,0,0:0:0:0:
64,192,98806,1,0,0:0:0:70:sel_l.wav
448,192,99081,1,0,0:0:0:0:
320,192,99288,1,0,0:0:0:0:
192,192,99494,1,0,0:0:0:0:
448,192,99632,1,0,0:0:0:0:
192,192,99907,1,0,0:0:0:70:sel_l.wav
64,192,100182,1,0,0:0:0:0:
320,192,100320,1,0,0:0:0:0:
448,192,100457,1,0,0:0:0:70:sel_l.wav
192,192,100733,1,0,0:0:0:0:
320,192,100870,1,0,0:0:0:0:
64,192,101145,1,0,0:0:0:0:
448,192,101283,1,2,0:0:0:0:
320,192,101421,1,2,0:0:0:0:
192,192,101558,1,2,0:0:0:0:
64,192,101696,1,2,0:0:0:0:
64,192,101971,128,2,102246:0:0:0:0:
448,192,101971,1,4,0:0:0:0:
192,192,102246,1,2,0:0:0:0:
320,192,102384,128,0,102659:0:0:0:0:
64,192,102659,1,6,0:0:0:0:
192,192,102659,1,8,0:0:0:0:
448,192,102797,1,0,0:0:0:70:sel_l.wav
64,192,102934,1,2,0:0:0:0:
192,192,103072,1,0,0:0:0:70:sel_l.wav
320,192,103210,1,10,0:0:0:0:
448,192,103347,1,0,0:0:0:70:sel_l.wav
192,192,103485,1,2,0:0:0:0:
64,192,103622,1,0,0:0:0:70:sel_l.wav
320,192,103760,1,10,0:0:0:0:
192,192,103898,1,0,0:0:0:70:sel_l.wav
448,192,104035,1,2,0:0:0:0:
320,192,104173,1,0,0:0:0:70:sel_l.wav
192,192,104311,1,10,0:0:0:0:
64,192,104448,1,0,0:0:0:70:sel_l.wav
320,192,104586,1,2,0:0:0:0:
192,192,104723,1,0,0:0:0:70:sel_l.wav
320,192,104861,1,10,0:0:0:0:
192,192,104999,1,0,0:0:0:70:sel_l.wav
64,192,105136,1,2,0:0:0:0:
448,192,105274,1,0,0:0:0:70:sel_l.wav
320,192,105411,1,10,0:0:0:0:
448,192,105549,1,0,0:0:0:70:sel_l.wav
64,192,105687,1,2,0:0:0:0:
192,192,105824,1,2,0:0:0:0:
64,192,105962,1,10,0:0:0:0:
320,192,106099,1,2,0:0:0:0:
64,192,106375,1,6,0:0:0:0:
448,192,106375,1,8,0:0:0:0:
320,192,106512,1,2,0:0:0:0:
64,192,106650,1,2,0:0:0:0:
192,192,106788,1,6,0:0:0:0:
320,192,106925,1,0,0:0:0:70:sel_l.wav
64,192,107063,1,10,0:0:0:0:
192,192,107200,1,0,0:0:0:70:sel_l.wav
448,192,107338,1,2,0:0:0:0:
64,192,107476,1,0,0:0:0:70:sel_l.wav
320,192,107613,1,10,0:0:0:0:
192,192,107751,1,0,0:0:0:70:sel_l.wav
448,192,107888,1,2,0:0:0:0:
320,192,108026,1,0,0:0:0:70:sel_l.wav
64,192,108164,1,10,0:0:0:0:
192,192,108301,1,0,0:0:0:70:sel_l.wav
320,192,108439,1,2,0:0:0:0:
448,192,108577,1,0,0:0:0:70:sel_l.wav
64,192,108714,1,10,0:0:0:0:
192,192,108852,1,0,0:0:0:70:sel_l.wav
448,192,108989,128,2,109265:0:0:0:0:
320,192,109265,1,10,0:0:0:0:
192,192,109402,1,0,0:0:0:70:sel_l.wav
64,192,109540,1,2,0:0:0:0:
192,192,109815,1,10,0:0:0:0:
320,192,109953,1,0,0:0:0:70:sel_l.wav
448,192,110090,1,2,0:0:0:0:
320,192,110297,1,0,0:0:0:0:
64,192,110366,1,10,0:0:0:0:
448,192,110503,1,0,0:0:0:70:sel_l.wav
320,192,110641,1,2,0:0:0:0:
64,192,110778,1,0,0:0:0:70:sel_l.wav
448,192,110916,1,10,0:0:0:0:
192,192,111054,1,2,0:0:0:0:
64,192,111191,1,6,0:0:0:0:
192,192,111329,1,0,0:0:0:70:sel_l.wav
320,192,111466,1,10,0:0:0:0:
448,192,111604,1,0,0:0:0:70:sel_l.wav
64,192,111742,1,2,0:0:0:0:
192,192,111879,1,0,0:0:0:70:sel_l.wav
320,192,112017,1,10,0:0:0:0:
192,192,112155,1,0,0:0:0:70:sel_l.wav
64,192,112292,1,2,0:0:0:0:
448,192,112292,1,4,0:0:0:0:
320,192,112430,1,0,0:0:0:70:sel_l.wav
448,192,112567,1,10,0:0:0:0:
192,192,112705,1,0,0:0:0:70:sel_l.wav
320,192,112843,1,2,0:0:0:0:
64,192,112980,1,0,0:0:0:70:sel_l.wav
448,192,113118,1,10,0:0:0:0:
320,192,113255,1,0,0:0:0:70:sel_l.wav
64,192,113393,1,6,0:0:0:0:
192,192,113393,1,0,0:0:0:50:chokkaku_down.wav
320,192,113668,1,10,0:0:0:0:
64,192,113806,1,0,0:0:0:70:sel_l.wav
192,192,113944,1,6,0:0:0:0:
448,192,113944,1,0,0:0:0:50:chokkaku_down.wav
320,192,114081,1,0,0:0:0:70:sel_l.wav
64,192,114219,1,10,0:0:0:0:
192,192,114356,1,0,0:0:0:70:sel_l.wav
448,192,114494,1,6,0:0:0:0:
64,192,114632,1,2,0:0:0:0:
320,192,114769,1,14,0:0:0:0:
192,192,114907,1,2,0:0:0:0:
64,192,115044,1,6,0:0:0:0:
448,192,115182,1,2,0:0:0:0:
320,192,115320,1,14,0:0:0:0:
192,192,115457,1,2,0:0:0:0:
320,192,115595,1,2,0:0:0:0:
448,192,115595,128,4,116421:0:0:0:0:
192,192,116421,1,0,0:0:0:70:sel_l.wav
64,192,116696,1,2,0:0:0:0:
192,192,116833,1,2,0:0:0:0:
448,192,116971,1,2,0:0:0:0:
64,192,117109,1,2,0:0:0:0:
192,192,117246,1,12,0:0:0:0:
320,192,117246,1,2,0:0:0:0:
64,192,117522,1,6,0:0:0:0:
320,192,117522,1,8,0:0:0:0:
192,192,117797,1,10,0:0:0:0:
448,192,117797,1,0,0:0:0:70:LR3_BassDropPDG.wav
