osu file format v14

[General]
AudioFilename: b.mp3
AudioLeadIn: 0
PreviewTime: 76153
Countdown: 0
SampleSet: Normal
StackLeniency: 0.7
Mode: 1
LetterboxInBreaks: 1
WidescreenStoryboard: 0

[Editor]
DistanceSpacing: 1.7
BeatDivisor: 6
GridSize: 32
TimelineZoom: 3.4

[Metadata]
Title:Run*2 Run To You!!
TitleUnicode:Run*2 Run To You!!
Artist:Umeboshi Chazuke
ArtistUnicode:R梅干茶漬け
Creator:steven1
Version:*Run Oni
Source:
Tags:
BeatmapID:1235211
BeatmapSetID:583741

[Difficulty]
HPDrainRate:7
CircleSize:2
OverallDifficulty:7
ApproachRate:5
SliderMultiplier:1.4
SliderTickRate:1

[Events]
//Background and Video events
0,0,"background.jpg",0,0
//Break Periods
//Storyboard Layer 0 (Background)
//Storyboard Layer 1 (Fail)
//Storyboard Layer 2 (Pass)
//Storyboard Layer 3 (Foreground)
//Storyboard Layer 4 (Overlay)
//Storyboard Sound Samples

[TimingPoints]
731,281.69014084507,4,1,0,100,1,0
731,-117.647058823529,4,1,0,100,0,0
7515,-111.111111111111,4,1,0,100,0,0
7561,-105.263157894737,4,1,0,100,0,0
7608,-100,4,1,0,100,0,0
21435,281.69014084507,4,1,0,100,1,0
21505,-101.010101010101,4,1,0,100,0,0
21787,-102.040816326531,4,1,0,100,0,0
21927,-103.092783505155,4,1,0,100,0,0
22209,-104.166666666667,4,1,0,100,0,0
22350,-105.263157894737,4,1,0,100,0,0
30449,-100,4,1,0,100,0,0
39322,-105.263157894737,4,1,0,100,0,0
39463,-111.111111111111,4,1,0,100,0,0
45906,-108.695652173913,4,1,0,100,0,0
45977,-106.382978723404,4,1,0,100,0,0
46047,-104.166666666667,4,1,0,100,0,0
46118,-102.040816326531,4,1,0,100,0,0
46188,-100,4,1,0,100,0,0
60378,-117.647058823529,4,1,0,100,0,0
67233,-111.111111111111,4,1,0,100,0,0
67280,-105.263157894737,4,1,0,100,0,0
67327,-100,4,1,0,100,0,0
76575,-90.9090909090909,4,1,0,100,0,1
94744,-100,4,1,0,100,0,0
113864,-97.0873786407767,4,1,0,100,0,0
113934,-94.3396226415094,4,1,0,100,0,0
114005,-91.743119266055,4,1,0,100,0,0
114075,-89.2857142857143,4,1,0,100,0,0
114146,-86.9565217391304,4,1,0,100,0,0
114216,-84.7457627118644,4,1,0,100,0,0
114287,-82.6446280991736,4,1,0,100,0,0
114357,-80.6451612903226,4,1,0,100,0,0
114463,-78.7401574803149,4,1,0,100,0,0

[HitObjects]
256,192,731,5,0,0:0:0:0:
256,192,871,1,0,0:0:0:0:
256,192,1012,1,2,0:0:0:0:
256,192,1153,1,2,0:0:0:0:
256,192,1294,1,0,0:0:0:0:
256,192,1364,1,0,0:0:0:0:
256,192,1435,1,2,0:0:0:0:
256,192,1576,1,0,0:0:0:0:
256,192,1646,1,0,0:0:0:0:
256,192,1716,1,2,0:0:0:0:
256,192,1857,1,0,0:0:0:0:
256,192,1928,1,0,0:0:0:0:
256,192,1998,1,2,0:0:0:0:
256,192,2139,1,2,0:0:0:0:
256,192,2280,1,0,0:0:0:0:
256,192,2421,1,2,0:0:0:0:
256,192,2561,1,0,0:0:0:0:
256,192,2702,1,0,0:0:0:0:
256,192,2984,1,0,0:0:0:0:
256,192,3125,1,0,0:0:0:0:
256,192,3266,1,2,0:0:0:0:
256,192,3407,1,2,0:0:0:0:
256,192,3547,1,0,0:0:0:0:
256,192,3618,1,0,0:0:0:0:
256,192,3688,1,2,0:0:0:0:
256,192,3829,1,0,0:0:0:0:
256,192,3900,1,0,0:0:0:0:
256,192,3970,1,2,0:0:0:0:
256,192,4111,1,0,0:0:0:0:
256,192,4181,1,2,0:0:0:0:
256,192,4252,1,2,0:0:0:0:
256,192,4392,1,2,0:0:0:0:
256,192,4533,1,0,0:0:0:0:
256,192,4674,1,2,0:0:0:0:
256,192,4815,1,2,0:0:0:0:
256,192,4956,1,0,0:0:0:0:
256,192,5238,1,0,0:0:0:0:
256,192,5519,1,0,0:0:0:0:
256,192,5660,1,2,0:0:0:0:
256,192,6083,1,2,0:0:0:0:
256,192,6153,1,2,0:0:0:0:
256,192,6223,1,0,0:0:0:0:
256,192,6646,1,0,0:0:0:0:
256,192,6716,1,0,0:0:0:0:
256,192,6787,1,2,0:0:0:0:
256,192,6928,1,0,0:0:0:0:
256,192,7069,1,2,0:0:0:0:
256,192,7209,1,0,0:0:0:0:
256,192,7491,1,2,0:0:0:0:
256,192,7538,1,2,0:0:0:0:
256,192,7585,1,0,0:0:0:0:
256,192,7632,1,2,0:0:0:0:
256,192,7773,1,2,0:0:0:0:
256,192,7914,1,4,0:0:0:0:
256,192,8054,1,0,0:0:0:0:
256,192,8125,1,0,0:0:0:0:
256,192,8195,1,2,0:0:0:0:
256,192,8336,1,0,0:0:0:0:
256,192,8407,1,0,0:0:0:0:
256,192,8477,1,2,0:0:0:0:
256,192,8618,1,0,0:0:0:0:
256,192,8759,1,2,0:0:0:0:
256,192,8829,1,2,0:0:0:0:
256,192,8900,1,2,0:0:0:0:
256,192,8970,1,2,0:0:0:0:
256,192,9040,1,0,0:0:0:0:
256,192,9181,1,0,0:0:0:0:
256,192,9252,1,0,0:0:0:0:
256,192,9322,1,0,0:0:0:0:
256,192,9463,1,0,0:0:0:0:
256,192,9604,1,0,0:0:0:0:
256,192,9745,1,2,0:0:0:0:
256,192,9885,1,2,0:0:0:0:
256,192,9956,1,2,0:0:0:0:
256,192,10026,1,2,0:0:0:0:
256,192,10097,1,2,0:0:0:0:
256,192,10167,1,0,0:0:0:0:
256,192,10308,1,2,0:0:0:0:
256,192,10378,1,2,0:0:0:0:
256,192,10449,1,0,0:0:0:0:
256,192,10590,1,0,0:0:0:0:
256,192,10660,1,0,0:0:0:0:
256,192,10730,1,2,0:0:0:0:
256,192,10871,1,2,0:0:0:0:
256,192,10942,1,2,0:0:0:0:
256,192,11012,1,0,0:0:0:0:
256,192,11083,1,0,0:0:0:0:
256,192,11153,1,0,0:0:0:0:
256,192,11200,1,0,0:0:0:0:
256,192,11247,1,0,0:0:0:0:
256,192,11294,1,2,0:0:0:0:
256,192,11364,1,2,0:0:0:0:
256,192,11435,1,0,0:0:0:0:
256,192,11505,1,0,0:0:0:0:
256,192,11576,1,2,0:0:0:0:
256,192,11646,1,2,0:0:0:0:
256,192,11716,1,0,0:0:0:0:
256,192,11763,1,0,0:0:0:0:
256,192,11810,1,0,0:0:0:0:
256,192,11857,1,2,0:0:0:0:
256,192,11928,1,2,0:0:0:0:
256,192,11998,1,0,0:0:0:0:
256,192,12069,1,0,0:0:0:0:
256,192,12139,1,2,0:0:0:0:
256,192,12186,1,2,0:0:0:0:
256,192,12233,1,2,0:0:0:0:
256,192,12280,1,0,0:0:0:0:
256,192,12327,1,0,0:0:0:0:
256,192,12374,1,0,0:0:0:0:
256,192,12421,1,2,0:0:0:0:
256,192,12561,1,0,0:0:0:0:
256,192,12632,1,0,0:0:0:0:
256,192,12702,1,2,0:0:0:0:
256,192,12843,1,2,0:0:0:0:
256,192,12984,1,2,0:0:0:0:
256,192,13054,1,0,0:0:0:0:
256,192,13125,1,2,0:0:0:0:
256,192,13266,1,0,0:0:0:0:
256,192,13407,1,0,0:0:0:0:
256,192,13547,1,2,0:0:0:0:
256,192,13688,1,0,0:0:0:0:
256,192,13759,1,0,0:0:0:0:
256,192,13829,1,2,0:0:0:0:
256,192,13970,1,0,0:0:0:0:
256,192,14040,1,0,0:0:0:0:
256,192,14111,1,2,0:0:0:0:
256,192,14181,1,0,0:0:0:0:
256,192,14252,1,2,0:0:0:0:
256,192,14392,1,2,0:0:0:0:
256,192,14533,1,2,0:0:0:0:
256,192,14674,1,0,0:0:0:0:
256,192,14815,1,0,0:0:0:0:
256,192,14885,1,0,0:0:0:0:
256,192,14956,1,2,0:0:0:0:
256,192,15097,1,2,0:0:0:0:
256,192,15238,1,2,0:0:0:0:
256,192,15308,1,0,0:0:0:0:
256,192,15378,1,2,0:0:0:0:
256,192,15519,1,0,0:0:0:0:
256,192,15660,1,0,0:0:0:0:
256,192,15801,1,2,0:0:0:0:
256,192,15942,1,0,0:0:0:0:
256,192,16012,1,0,0:0:0:0:
256,192,16083,1,2,0:0:0:0:
256,192,16153,1,2,0:0:0:0:
256,192,16223,1,2,0:0:0:0:
256,192,16294,1,0,0:0:0:0:
256,192,16364,1,2,0:0:0:0:
256,192,16435,1,0,0:0:0:0:
256,192,16505,1,2,0:0:0:0:
256,192,16646,1,2,0:0:0:0:
256,192,16787,1,2,0:0:0:0:
256,192,16928,1,4,0:0:0:0:
256,192,17069,1,2,0:0:0:0:
256,192,17139,1,2,0:0:0:0:
256,192,17209,1,0,0:0:0:0:
256,192,17350,1,2,0:0:0:0:
256,192,17421,1,2,0:0:0:0:
256,192,17491,1,0,0:0:0:0:
256,192,17632,1,2,0:0:0:0:
256,192,17702,1,2,0:0:0:0:
256,192,17773,1,0,0:0:0:0:
256,192,17914,1,2,0:0:0:0:
256,192,17984,1,2,0:0:0:0:
256,192,18054,1,2,0:0:0:0:
256,192,18195,1,2,0:0:0:0:
256,192,18266,1,0,0:0:0:0:
256,192,18336,1,0,0:0:0:0:
256,192,18477,1,2,0:0:0:0:
256,192,18548,1,0,0:0:0:0:
256,192,18618,1,0,0:0:0:0:
256,192,18759,1,2,0:0:0:0:
256,192,18830,1,0,0:0:0:0:
256,192,18900,1,0,0:0:0:0:
256,192,19040,1,2,0:0:0:0:
256,192,19111,1,2,0:0:0:0:
256,192,19181,1,4,0:0:0:0:
256,192,19322,1,2,0:0:0:0:
256,192,19392,1,2,0:0:0:0:
256,192,19463,1,2,0:0:0:0:
256,192,19604,1,2,0:0:0:0:
256,192,19674,1,2,0:0:0:0:
256,192,19745,1,4,0:0:0:0:
256,192,19885,1,2,0:0:0:0:
256,192,19956,1,2,0:0:0:0:
256,192,20026,1,2,0:0:0:0:
256,192,20167,1,2,0:0:0:0:
256,192,20238,1,0,0:0:0:0:
256,192,20308,1,0,0:0:0:0:
256,192,20378,1,0,0:0:0:0:
256,192,20449,1,2,0:0:0:0:
256,192,20520,1,2,0:0:0:0:
256,192,20590,1,0,0:0:0:0:
256,192,20660,1,0,0:0:0:0:
256,192,20730,1,2,0:0:0:0:
256,192,20801,1,0,0:0:0:0:
256,192,20871,1,0,0:0:0:0:
256,192,20942,1,0,0:0:0:0:
256,192,21012,1,2,0:0:0:0:
256,192,21153,1,0,0:0:0:0:
256,192,21223,1,0,0:0:0:0:
256,192,21294,1,2,0:0:0:0:
256,192,21435,1,6,0:0:0:0:
256,192,21576,1,0,0:0:0:0:
256,192,21646,1,2,0:0:0:0:
256,192,21716,1,0,0:0:0:0:
256,192,21857,1,0,0:0:0:0:
256,192,21998,1,0,0:0:0:0:
256,192,22069,1,0,0:0:0:0:
256,192,22139,1,0,0:0:0:0:
256,192,22280,1,2,0:0:0:0:
256,192,22421,1,0,0:0:0:0:
256,192,22491,1,2,0:0:0:0:
256,192,22561,1,2,0:0:0:0:
256,192,22702,1,0,0:0:0:0:
256,192,22843,1,2,0:0:0:0:
256,192,22984,1,2,0:0:0:0:
256,192,23125,1,2,0:0:0:0:
256,192,23172,1,2,0:0:0:0:
256,192,23219,1,0,0:0:0:0:
256,192,23266,1,2,0:0:0:0:
256,192,23407,1,2,0:0:0:0:
256,192,23547,1,0,0:0:0:0:
256,192,23688,1,2,0:0:0:0:
256,192,23829,1,0,0:0:0:0:
256,192,23900,1,2,0:0:0:0:
256,192,23970,1,0,0:0:0:0:
256,192,24111,1,0,0:0:0:0:
256,192,24252,1,0,0:0:0:0:
256,192,24322,1,0,0:0:0:0:
256,192,24392,1,0,0:0:0:0:
256,192,24533,1,2,0:0:0:0:
256,192,24674,1,2,0:0:0:0:
256,192,24745,1,2,0:0:0:0:
256,192,24815,1,2,0:0:0:0:
256,192,24956,1,0,0:0:0:0:
256,192,25097,1,2,0:0:0:0:
256,192,25238,1,2,0:0:0:0:
256,192,25378,1,0,0:0:0:0:
256,192,25519,1,0,0:0:0:0:
256,192,25660,1,0,0:0:0:0:
256,192,25801,1,0,0:0:0:0:
256,192,25942,1,2,0:0:0:0:
256,192,26083,1,0,0:0:0:0:
256,192,26153,1,2,0:0:0:0:
256,192,26223,1,0,0:0:0:0:
256,192,26364,1,0,0:0:0:0:
256,192,26505,1,0,0:0:0:0:
256,192,26576,1,0,0:0:0:0:
256,192,26646,1,0,0:0:0:0:
256,192,26787,1,2,0:0:0:0:
256,192,26928,1,2,0:0:0:0:
256,192,26998,1,2,0:0:0:0:
256,192,27069,1,0,0:0:0:0:
256,192,27209,1,0,0:0:0:0:
256,192,27280,1,2,0:0:0:0:
256,192,27350,1,2,0:0:0:0:
256,192,27491,1,0,0:0:0:0:
256,192,27632,1,2,0:0:0:0:
256,192,27773,1,2,0:0:0:0:
256,192,27914,1,0,0:0:0:0:
256,192,28054,1,0,0:0:0:0:
256,192,28195,1,2,0:0:0:0:
256,192,28230,1,2,0:0:0:0:
256,192,28336,1,2,0:0:0:0:
256,192,28371,1,2,0:0:0:0:
256,192,28477,1,2,0:0:0:0:
256,192,28512,1,2,0:0:0:0:
256,192,28618,1,2,0:0:0:0:
256,192,28653,1,2,0:0:0:0:
256,192,28759,1,2,0:0:0:0:
256,192,28794,1,2,0:0:0:0:
256,192,28900,1,0,0:0:0:0:
256,192,28970,1,2,0:0:0:0:
256,192,29040,1,2,0:0:0:0:
256,192,29181,1,0,0:0:0:0:
256,192,29322,1,2,0:0:0:0:
256,192,29463,1,0,0:0:0:0:
256,192,29533,1,2,0:0:0:0:
256,192,29604,1,0,0:0:0:0:
256,192,29745,1,2,0:0:0:0:
256,192,29815,1,0,0:0:0:0:
256,192,29885,1,2,0:0:0:0:
256,192,30026,1,0,0:0:0:0:
256,192,30097,1,0,0:0:0:0:
256,192,30167,1,2,0:0:0:0:
256,192,30308,1,0,0:0:0:0:
256,192,30449,1,6,0:0:0:0:
256,192,30590,1,0,0:0:0:0:
256,192,30660,1,2,0:0:0:0:
256,192,30730,1,0,0:0:0:0:
256,192,30871,1,0,0:0:0:0:
256,192,31012,1,0,0:0:0:0:
256,192,31083,1,0,0:0:0:0:
256,192,31153,1,0,0:0:0:0:
256,192,31294,1,2,0:0:0:0:
256,192,31435,1,0,0:0:0:0:
256,192,31505,1,2,0:0:0:0:
256,192,31575,1,2,0:0:0:0:
256,192,31716,1,0,0:0:0:0:
256,192,31857,1,2,0:0:0:0:
256,192,31998,1,2,0:0:0:0:
256,192,32139,1,2,0:0:0:0:
256,192,32186,1,2,0:0:0:0:
256,192,32233,1,0,0:0:0:0:
256,192,32280,1,2,0:0:0:0:
256,192,32421,1,2,0:0:0:0:
256,192,32561,1,0,0:0:0:0:
256,192,32702,1,2,0:0:0:0:
256,192,32843,1,0,0:0:0:0:
256,192,32914,1,2,0:0:0:0:
256,192,32984,1,0,0:0:0:0:
256,192,33125,1,0,0:0:0:0:
256,192,33266,1,0,0:0:0:0:
256,192,33336,1,0,0:0:0:0:
256,192,33406,1,0,0:0:0:0:
256,192,33547,1,2,0:0:0:0:
256,192,33688,1,2,0:0:0:0:
256,192,33759,1,2,0:0:0:0:
256,192,33829,1,2,0:0:0:0:
256,192,33970,1,0,0:0:0:0:
256,192,34111,1,2,0:0:0:0:
256,192,34252,1,2,0:0:0:0:
256,192,34392,1,0,0:0:0:0:
256,192,34533,1,0,0:0:0:0:
256,192,34674,1,0,0:0:0:0:
256,192,34815,1,0,0:0:0:0:
256,192,34956,1,2,0:0:0:0:
256,192,35097,1,0,0:0:0:0:
256,192,35167,1,2,0:0:0:0:
256,192,35237,1,0,0:0:0:0:
256,192,35378,1,0,0:0:0:0:
256,192,35519,1,0,0:0:0:0:
256,192,35590,1,0,0:0:0:0:
256,192,35660,1,0,0:0:0:0:
256,192,35801,1,2,0:0:0:0:
256,192,35942,1,2,0:0:0:0:
256,192,36012,1,2,0:0:0:0:
256,192,36083,1,0,0:0:0:0:
256,192,36223,1,0,0:0:0:0:
256,192,36294,1,2,0:0:0:0:
256,192,36364,1,2,0:0:0:0:
256,192,36505,1,0,0:0:0:0:
256,192,36646,1,2,0:0:0:0:
256,192,36787,1,2,0:0:0:0:
256,192,36928,1,0,0:0:0:0:
256,192,37068,1,0,0:0:0:0:
256,192,37209,1,2,0:0:0:0:
256,192,37244,1,2,0:0:0:0:
256,192,37350,1,2,0:0:0:0:
256,192,37385,1,2,0:0:0:0:
256,192,37491,1,2,0:0:0:0:
256,192,37526,1,2,0:0:0:0:
256,192,37632,1,2,0:0:0:0:
256,192,37667,1,2,0:0:0:0:
256,192,37773,1,2,0:0:0:0:
256,192,37808,1,2,0:0:0:0:
256,192,37914,1,0,0:0:0:0:
256,192,37984,1,2,0:0:0:0:
256,192,38054,1,2,0:0:0:0:
256,192,38195,1,0,0:0:0:0:
256,192,38336,1,2,0:0:0:0:
256,192,38477,1,0,0:0:0:0:
256,192,38547,1,2,0:0:0:0:
256,192,38618,1,0,0:0:0:0:
256,192,38759,1,2,0:0:0:0:
256,192,38829,1,0,0:0:0:0:
256,192,38899,1,2,0:0:0:0:
256,192,39040,1,0,0:0:0:0:
256,192,39111,1,0,0:0:0:0:
256,192,39181,1,2,0:0:0:0:
256,192,39322,1,0,0:0:0:0:
256,192,39463,1,4,0:0:0:0:
256,192,39885,1,0,0:0:0:0:
256,192,39956,1,0,0:0:0:0:
256,192,40026,1,2,0:0:0:0:
256,192,40308,1,2,0:0:0:0:
256,192,40449,1,0,0:0:0:0:
256,192,40730,1,0,0:0:0:0:
256,192,41012,1,0,0:0:0:0:
256,192,41082,1,0,0:0:0:0:
256,192,41153,1,2,0:0:0:0:
256,192,41434,1,2,0:0:0:0:
256,192,41716,1,0,0:0:0:0:
256,192,42139,1,0,0:0:0:0:
256,192,42209,1,0,0:0:0:0:
256,192,42280,1,2,0:0:0:0:
256,192,42561,1,2,0:0:0:0:
256,192,42702,1,0,0:0:0:0:
256,192,42984,1,0,0:0:0:0:
256,192,43125,1,0,0:0:0:0:
256,192,43265,1,0,0:0:0:0:
256,192,43336,1,0,0:0:0:0:
256,192,43406,1,2,0:0:0:0:
256,192,43688,1,2,0:0:0:0:
256,192,43970,1,0,0:0:0:0:
256,192,44392,1,0,0:0:0:0:
256,192,44463,1,0,0:0:0:0:
256,192,44533,1,2,0:0:0:0:
256,192,44815,1,2,0:0:0:0:
256,192,44956,1,0,0:0:0:0:
256,192,45237,1,0,0:0:0:0:
256,192,45519,1,0,0:0:0:0:
256,192,45589,1,0,0:0:0:0:
256,192,45660,1,2,0:0:0:0:
256,192,45942,1,0,0:0:0:0:
256,192,46012,1,0,0:0:0:0:
256,192,46082,1,0,0:0:0:0:
256,192,46153,1,0,0:0:0:0:
256,192,46223,1,6,0:0:0:0:
256,192,46364,1,0,0:0:0:0:
256,192,46434,1,0,0:0:0:0:
256,192,46505,1,2,0:0:0:0:
256,192,46646,1,0,0:0:0:0:
256,192,46787,1,2,0:0:0:0:
256,192,46927,1,0,0:0:0:0:
256,192,46998,1,0,0:0:0:0:
256,192,47068,1,2,0:0:0:0:
256,192,47209,1,0,0:0:0:0:
256,192,47350,1,2,0:0:0:0:
256,192,47491,1,0,0:0:0:0:
256,192,47561,1,0,0:0:0:0:
256,192,47632,1,2,0:0:0:0:
256,192,47773,1,0,0:0:0:0:
256,192,47913,1,2,0:0:0:0:
256,192,48054,1,0,0:0:0:0:
256,192,48125,1,0,0:0:0:0:
256,192,48195,1,2,0:0:0:0:
256,192,48336,1,0,0:0:0:0:
256,192,48477,1,2,0:0:0:0:
256,192,48547,1,0,0:0:0:0:
256,192,48618,1,0,0:0:0:0:
256,192,48688,1,0,0:0:0:0:
256,192,48758,1,2,0:0:0:0:
256,192,48829,1,2,0:0:0:0:
256,192,48899,1,0,0:0:0:0:
256,192,48970,1,0,0:0:0:0:
256,192,49040,1,2,0:0:0:0:
256,192,49111,1,0,0:0:0:0:
256,192,49181,1,0,0:0:0:0:
256,192,49251,1,0,0:0:0:0:
256,192,49322,1,2,0:0:0:0:
256,192,49392,1,2,0:0:0:0:
256,192,49463,1,0,0:0:0:0:
256,192,49510,1,0,0:0:0:0:
256,192,49557,1,0,0:0:0:0:
256,192,49604,1,2,0:0:0:0:
256,192,50026,1,0,0:0:0:0:
256,192,50096,1,0,0:0:0:0:
256,192,50167,1,2,0:0:0:0:
256,192,50378,1,2,0:0:0:0:
256,192,50589,1,2,0:0:0:0:
256,192,50730,1,0,0:0:0:0:
256,192,50871,1,0,0:0:0:0:
256,192,50942,1,0,0:0:0:0:
256,192,51012,1,2,0:0:0:0:
256,192,51153,1,2,0:0:0:0:
256,192,51223,1,0,0:0:0:0:
256,192,51294,1,2,0:0:0:0:
256,192,51364,1,0,0:0:0:0:
256,192,51435,1,2,0:0:0:0:
256,192,51576,1,0,0:0:0:0:
256,192,51717,1,0,0:0:0:0:
256,192,51857,1,2,0:0:0:0:
256,192,51998,1,0,0:0:0:0:
256,192,52069,1,0,0:0:0:0:
256,192,52139,1,2,0:0:0:0:
256,192,52280,1,0,0:0:0:0:
256,192,52350,1,0,0:0:0:0:
256,192,52421,1,2,0:0:0:0:
256,192,52491,1,0,0:0:0:0:
256,192,52562,1,2,0:0:0:0:
256,192,52702,1,2,0:0:0:0:
256,192,52843,1,2,0:0:0:0:
256,192,52984,1,0,0:0:0:0:
256,192,53125,1,0,0:0:0:0:
256,192,53195,1,0,0:0:0:0:
256,192,53266,1,2,0:0:0:0:
256,192,53407,1,2,0:0:0:0:
256,192,53477,1,0,0:0:0:0:
256,192,53548,1,2,0:0:0:0:
256,192,53618,1,0,0:0:0:0:
256,192,53688,1,2,0:0:0:0:
256,192,53829,1,0,0:0:0:0:
256,192,53970,1,0,0:0:0:0:
256,192,54111,1,2,0:0:0:0:
256,192,54252,1,0,0:0:0:0:
256,192,54322,1,0,0:0:0:0:
256,192,54393,1,2,0:0:0:0:
256,192,54463,1,0,0:0:0:0:
256,192,54533,1,0,0:0:0:0:
256,192,54604,1,0,0:0:0:0:
256,192,54674,1,2,0:0:0:0:
256,192,54745,1,0,0:0:0:0:
256,192,54815,1,2,0:0:0:0:
256,192,54956,1,2,0:0:0:0:
256,192,55097,1,2,0:0:0:0:
256,192,55237,1,4,0:0:0:0:
256,192,55378,1,2,0:0:0:0:
256,192,55448,1,2,0:0:0:0:
256,192,55518,1,0,0:0:0:0:
256,192,55659,1,2,0:0:0:0:
256,192,55730,1,2,0:0:0:0:
256,192,55800,1,0,0:0:0:0:
256,192,55941,1,2,0:0:0:0:
256,192,56011,1,2,0:0:0:0:
256,192,56082,1,0,0:0:0:0:
256,192,56223,1,2,0:0:0:0:
256,192,56293,1,2,0:0:0:0:
256,192,56363,1,2,0:0:0:0:
256,192,56504,1,2,0:0:0:0:
256,192,56575,1,0,0:0:0:0:
256,192,56645,1,0,0:0:0:0:
256,192,56786,1,2,0:0:0:0:
256,192,56857,1,0,0:0:0:0:
256,192,56927,1,0,0:0:0:0:
256,192,57068,1,2,0:0:0:0:
256,192,57139,1,0,0:0:0:0:
256,192,57209,1,0,0:0:0:0:
256,192,57349,1,2,0:0:0:0:
256,192,57420,1,2,0:0:0:0:
256,192,57490,1,4,0:0:0:0:
256,192,57631,1,2,0:0:0:0:
256,192,57701,1,2,0:0:0:0:
256,192,57772,1,2,0:0:0:0:
256,192,57913,1,2,0:0:0:0:
256,192,57983,1,2,0:0:0:0:
256,192,58054,1,4,0:0:0:0:
256,192,58194,1,2,0:0:0:0:
256,192,58265,1,2,0:0:0:0:
256,192,58335,1,2,0:0:0:0:
256,192,58477,1,0,0:0:0:0:
256,192,58618,1,0,0:0:0:0:
256,192,58688,1,0,0:0:0:0:
256,192,58758,1,2,0:0:0:0:
256,192,58829,1,2,0:0:0:0:
256,192,58899,1,0,0:0:0:0:
256,192,59040,1,0,0:0:0:0:
256,192,59087,1,0,0:0:0:0:
256,192,59134,1,0,0:0:0:0:
256,192,59181,1,2,0:0:0:0:
256,192,59322,1,2,0:0:0:0:
256,192,59357,1,2,0:0:0:0:
256,192,59392,1,2,0:0:0:0:
256,192,59427,1,2,0:0:0:0:
256,192,59463,1,0,0:0:0:0:
256,192,59604,1,0,0:0:0:0:
256,192,59744,1,0,0:0:0:0:
256,192,60449,1,0,0:0:0:0:
256,192,60589,1,0,0:0:0:0:
256,192,60730,1,2,0:0:0:0:
256,192,60871,1,2,0:0:0:0:
256,192,61012,1,0,0:0:0:0:
256,192,61082,1,0,0:0:0:0:
256,192,61153,1,2,0:0:0:0:
256,192,61294,1,0,0:0:0:0:
256,192,61364,1,0,0:0:0:0:
256,192,61434,1,2,0:0:0:0:
256,192,61575,1,0,0:0:0:0:
256,192,61646,1,0,0:0:0:0:
256,192,61716,1,2,0:0:0:0:
256,192,61857,1,2,0:0:0:0:
256,192,61998,1,0,0:0:0:0:
256,192,62139,1,2,0:0:0:0:
256,192,62279,1,0,0:0:0:0:
256,192,62420,1,0,0:0:0:0:
256,192,62702,1,0,0:0:0:0:
256,192,62843,1,0,0:0:0:0:
256,192,62984,1,2,0:0:0:0:
256,192,63125,1,2,0:0:0:0:
256,192,63265,1,0,0:0:0:0:
256,192,63336,1,0,0:0:0:0:
256,192,63406,1,2,0:0:0:0:
256,192,63547,1,0,0:0:0:0:
256,192,63618,1,0,0:0:0:0:
256,192,63688,1,2,0:0:0:0:
256,192,63829,1,0,0:0:0:0:
256,192,63899,1,2,0:0:0:0:
256,192,63970,1,2,0:0:0:0:
256,192,64110,1,2,0:0:0:0:
256,192,64251,1,0,0:0:0:0:
256,192,64392,1,2,0:0:0:0:
256,192,64533,1,2,0:0:0:0:
256,192,64674,1,0,0:0:0:0:
256,192,64956,1,0,0:0:0:0:
256,192,65237,1,0,0:0:0:0:
256,192,65378,1,2,0:0:0:0:
256,192,65801,1,2,0:0:0:0:
256,192,65871,1,2,0:0:0:0:
256,192,65941,1,0,0:0:0:0:
256,192,66364,1,0,0:0:0:0:
256,192,66434,1,0,0:0:0:0:
256,192,66505,1,2,0:0:0:0:
256,192,66646,1,0,0:0:0:0:
256,192,66787,1,2,0:0:0:0:
256,192,66927,1,0,0:0:0:0:
256,192,67209,1,2,0:0:0:0:
256,192,67256,1,2,0:0:0:0:
256,192,67303,1,0,0:0:0:0:
256,192,67350,1,2,0:0:0:0:
256,192,67491,1,2,0:0:0:0:
256,192,67632,1,4,0:0:0:0:
256,192,67773,1,0,0:0:0:0:
256,192,67844,1,0,0:0:0:0:
256,192,67914,1,2,0:0:0:0:
256,192,68055,1,0,0:0:0:0:
256,192,68126,1,0,0:0:0:0:
256,192,68196,1,2,0:0:0:0:
256,192,68337,1,0,0:0:0:0:
256,192,68478,1,2,0:0:0:0:
256,192,68548,1,2,0:0:0:0:
256,192,68619,1,0,0:0:0:0:
256,192,68689,1,0,0:0:0:0:
256,192,68759,1,2,0:0:0:0:
256,192,68829,1,0,0:0:0:0:
256,192,68900,1,0,0:0:0:0:
256,192,68971,1,0,0:0:0:0:
256,192,69041,1,2,0:0:0:0:
256,192,69111,1,2,0:0:0:0:
256,192,69182,1,0,0:0:0:0:
256,192,69251,1,0,0:0:0:0:
256,192,69323,1,0,0:0:0:0:
256,192,69464,1,2,0:0:0:0:
256,192,69604,1,2,0:0:0:0:
256,192,69675,1,2,0:0:0:0:
256,192,69745,1,2,0:0:0:0:
256,192,69816,1,2,0:0:0:0:
256,192,69886,1,0,0:0:0:0:
256,192,70027,1,2,0:0:0:0:
256,192,70096,1,2,0:0:0:0:
256,192,70168,1,0,0:0:0:0:
256,192,70237,1,0,0:0:0:0:
256,192,70309,1,0,0:0:0:0:
256,192,70379,1,0,0:0:0:0:
256,192,70449,1,2,0:0:0:0:
256,192,70589,1,0,0:0:0:0:
256,192,70660,1,0,0:0:0:0:
256,192,70730,1,2,0:0:0:0:
256,192,70871,1,0,0:0:0:0:
256,192,70942,1,0,0:0:0:0:
256,192,71012,1,2,0:0:0:0:
256,192,71153,1,0,0:0:0:0:
256,192,71223,1,0,0:0:0:0:
256,192,71294,1,2,0:0:0:0:
256,192,71364,1,2,0:0:0:0:
256,192,71434,1,0,0:0:0:0:
256,192,71505,1,0,0:0:0:0:
256,192,71575,1,2,0:0:0:0:
256,192,71716,1,0,0:0:0:0:
256,192,71857,1,2,0:0:0:0:
256,192,71927,1,2,0:0:0:0:
256,192,71998,1,0,0:0:0:0:
256,192,72068,1,0,0:0:0:0:
256,192,72139,1,2,0:0:0:0:
256,192,72209,1,0,0:0:0:0:
256,192,72280,1,0,0:0:0:0:
256,192,72350,1,2,0:0:0:0:
256,192,72420,1,0,0:0:0:0:
256,192,72491,1,0,0:0:0:0:
256,192,72561,1,2,0:0:0:0:
256,192,72632,1,0,0:0:0:0:
256,192,72702,1,0,0:0:0:0:
256,192,72773,1,0,0:0:0:0:
256,192,72843,1,2,0:0:0:0:
256,192,72890,1,0,0:0:0:0:
256,192,72937,1,0,0:0:0:0:
256,192,72984,1,2,0:0:0:0:
256,192,73054,1,0,0:0:0:0:
256,192,73125,1,2,0:0:0:0:
256,192,73172,1,0,0:0:0:0:
256,192,73219,1,0,0:0:0:0:
256,192,73265,1,2,0:0:0:0:
256,192,73336,1,2,0:1:0:0:
256,192,73406,1,2,0:1:0:0:
256,192,73477,1,2,0:1:0:0:
256,192,73547,1,2,0:1:0:0:
256,192,73618,1,2,0:1:0:0:
256,192,73688,1,2,0:1:0:0:
256,192,73758,1,2,0:1:0:0:
256,192,73829,1,0,0:0:0:0:
256,192,73899,1,0,0:0:0:0:
256,192,73970,1,0,0:0:0:0:
256,192,74040,1,0,0:0:0:0:
256,192,74111,1,0,0:0:0:0:
256,192,74181,1,0,0:0:0:0:
256,192,74251,1,0,0:0:0:0:
256,192,74322,1,0,0:0:0:0:
256,192,74392,1,2,0:0:0:0:
256,192,74463,1,2,0:0:0:0:
256,192,74533,1,2,0:0:0:0:
256,192,74604,1,0,0:0:0:0:
256,192,74674,1,2,0:0:0:0:
256,192,74744,1,0,0:0:0:0:
256,192,74814,1,0,0:0:0:0:
256,192,74885,1,0,0:0:0:0:
256,192,74955,1,2,0:0:0:0:
256,192,75026,1,2,0:0:0:0:
256,192,75096,1,0,0:0:0:0:
256,192,75167,1,0,0:0:0:0:
256,192,75237,1,2,0:0:0:0:
256,192,75308,1,0,0:0:0:0:
256,192,75378,1,0,0:0:0:0:
256,192,75449,1,0,0:0:0:0:
256,192,75519,1,2,0:0:0:0:
256,192,75589,1,2,0:0:0:0:
256,192,75659,1,0,0:0:0:0:
256,192,75706,1,0,0:0:0:0:
256,192,75753,1,0,0:0:0:0:
256,192,75800,1,2,0:0:0:0:
256,192,75871,1,2,0:0:0:0:
256,192,75941,1,0,0:0:0:0:
256,192,75988,1,0,0:0:0:0:
256,192,76035,1,0,0:0:0:0:
256,192,76082,1,2,0:0:0:0:
256,192,76223,1,0,0:0:0:0:
256,192,76364,1,0,0:0:0:0:
256,192,76505,1,2,0:0:0:0:
256,192,76646,1,6,0:0:0:0:
256,192,76787,1,0,0:0:0:0:
256,192,76857,1,0,0:0:0:0:
256,192,76927,1,2,0:0:0:0:
256,192,77068,1,0,0:0:0:0:
256,192,77139,1,0,0:0:0:0:
256,192,77209,1,2,0:0:0:0:
256,192,77350,1,0,0:0:0:0:
256,192,77420,1,0,0:0:0:0:
256,192,77491,1,2,0:0:0:0:
256,192,77632,1,2,0:0:0:0:
256,192,77773,1,0,0:0:0:0:
256,192,77913,1,2,0:0:0:0:
256,192,77984,1,0,0:0:0:0:
256,192,78054,1,0,0:0:0:0:
256,192,78195,1,0,0:0:0:0:
256,192,78336,1,0,0:0:0:0:
256,192,78406,1,0,0:0:0:0:
256,192,78477,1,0,0:0:0:0:
256,192,78618,1,0,0:0:0:0:
256,192,78758,1,2,0:0:0:0:
256,192,78899,1,6,0:0:0:0:
256,192,79040,1,0,0:0:0:0:
256,192,79111,1,0,0:0:0:0:
256,192,79181,1,2,0:0:0:0:
256,192,79322,1,0,0:0:0:0:
256,192,79392,1,0,0:0:0:0:
256,192,79463,1,2,0:0:0:0:
256,192,79604,1,0,0:0:0:0:
256,192,79674,1,2,0:0:0:0:
256,192,79744,1,2,0:0:0:0:
256,192,79885,1,2,0:0:0:0:
256,192,80026,1,0,0:0:0:0:
256,192,80167,1,2,0:0:0:0:
256,192,80237,1,0,0:0:0:0:
256,192,80308,1,2,0:0:0:0:
256,192,80449,1,0,0:0:0:0:
256,192,80589,1,2,0:0:0:0:
256,192,80660,1,2,0:0:0:0:
256,192,80730,1,0,0:0:0:0:
256,192,80871,1,0,0:0:0:0:
256,192,81012,1,0,0:0:0:0:
256,192,81082,1,0,0:0:0:0:
256,192,81153,1,2,0:0:0:0:
256,192,81294,1,0,0:0:0:0:
256,192,81434,1,0,0:0:0:0:
256,192,81575,1,2,0:0:0:0:
256,192,81646,1,2,0:0:0:0:
256,192,81716,1,0,0:0:0:0:
256,192,81857,1,0,0:0:0:0:
256,192,81998,1,0,0:0:0:0:
256,192,82139,1,0,0:0:0:0:
256,192,82209,1,0,0:0:0:0:
256,192,82280,1,2,0:0:0:0:
256,192,82420,1,0,0:0:0:0:
256,192,82561,1,2,0:0:0:0:
256,192,82702,1,0,0:0:0:0:
256,192,82843,1,2,0:0:0:0:
256,192,82913,1,2,0:0:0:0:
256,192,82984,1,0,0:0:0:0:
256,192,83125,1,0,0:0:0:0:
256,192,83265,1,2,0:0:0:0:
256,192,83406,1,4,0:0:0:0:
256,192,83547,1,0,0:0:0:0:
256,192,83618,1,0,0:0:0:0:
256,192,83688,1,2,0:0:0:0:
256,192,83829,1,0,0:0:0:0:
256,192,83899,1,2,0:0:0:0:
256,192,83970,1,2,0:0:0:0:
256,192,84111,1,0,0:0:0:0:
256,192,84181,1,2,0:0:0:0:
256,192,84251,1,0,0:0:0:0:
256,192,84392,1,0,0:0:0:0:
256,192,84533,1,0,0:0:0:0:
256,192,84674,1,2,0:0:0:0:
256,192,84744,1,2,0:0:0:0:
256,192,84815,1,0,0:0:0:0:
256,192,84956,1,0,0:0:0:0:
256,192,85237,1,0,0:0:0:0:
256,192,85378,1,0,0:0:0:0:
256,192,85519,1,2,0:0:0:0:
256,192,85660,1,6,0:0:0:0:
256,192,85801,1,0,0:0:0:0:
256,192,85871,1,2,0:0:0:0:
256,192,85942,1,2,0:0:0:0:
256,192,86082,1,0,0:0:0:0:
256,192,86153,1,2,0:0:0:0:
256,192,86223,1,2,0:0:0:0:
256,192,86364,1,0,0:0:0:0:
256,192,86434,1,0,0:0:0:0:
256,192,86505,1,2,0:0:0:0:
256,192,86646,1,2,0:0:0:0:
256,192,86787,1,0,0:0:0:0:
256,192,86927,1,2,0:0:0:0:
256,192,86998,1,0,0:0:0:0:
256,192,87068,1,0,0:0:0:0:
256,192,87209,1,0,0:0:0:0:
256,192,87350,1,0,0:0:0:0:
256,192,87420,1,0,0:0:0:0:
256,192,87491,1,0,0:0:0:0:
256,192,87632,1,0,0:0:0:0:
256,192,87773,1,2,0:0:0:0:
256,192,87913,1,6,0:0:0:0:
256,192,88054,1,2,0:0:0:0:
256,192,88125,1,0,0:0:0:0:
256,192,88195,1,2,0:0:0:0:
256,192,88336,1,2,0:0:0:0:
256,192,88406,1,0,0:0:0:0:
256,192,88477,1,2,0:0:0:0:
256,192,88618,1,0,0:0:0:0:
256,192,88688,1,2,0:0:0:0:
256,192,88758,1,2,0:0:0:0:
256,192,88899,1,0,0:0:0:0:
256,192,89040,1,2,0:0:0:0:
256,192,89181,1,2,0:0:0:0:
256,192,89251,1,2,0:0:0:0:
256,192,89322,1,2,0:0:0:0:
256,192,89463,1,0,0:0:0:0:
256,192,89744,1,2,0:0:0:0:
256,192,89815,1,2,0:0:0:0:
256,192,89885,1,2,0:0:0:0:
256,192,90026,1,2,0:0:0:0:
256,192,90167,1,4,0:0:0:0:
256,192,90308,1,2,0:0:0:0:
256,192,90378,1,2,0:0:0:0:
256,192,90449,1,0,0:0:0:0:
256,192,90589,1,0,0:0:0:0:
256,192,90636,1,0,0:0:0:0:
256,192,90683,1,0,0:0:0:0:
256,192,90730,1,2,0:0:0:0:
256,192,90871,1,2,0:0:0:0:
256,192,90942,1,2,0:0:0:0:
256,192,91012,1,0,0:0:0:0:
256,192,91153,1,0,0:0:0:0:
256,192,91200,1,0,0:0:0:0:
256,192,91247,1,2,0:0:0:0:
256,192,91294,1,2,0:0:0:0:
256,192,91434,1,2,0:0:0:0:
256,192,91505,1,2,0:0:0:0:
256,192,91575,1,0,0:0:0:0:
256,192,91716,1,0,0:0:0:0:
256,192,91763,1,2,0:0:0:0:
256,192,91810,1,2,0:0:0:0:
256,192,91857,1,2,0:0:0:0:
256,192,91998,1,2,0:0:0:0:
256,192,92068,1,2,0:0:0:0:
256,192,92139,1,0,0:0:0:0:
256,192,92280,1,0,0:0:0:0:
256,192,92421,1,2,0:0:0:0:
256,192,92491,1,0,0:0:0:0:
256,192,92561,1,0,0:0:0:0:
256,192,92632,1,2,0:0:0:0:
256,192,92702,1,0,0:0:0:0:
256,192,92773,1,0,0:0:0:0:
256,192,92843,1,2,0:0:0:0:
256,192,92913,1,0,0:0:0:0:
256,192,92984,1,2,0:0:0:0:
256,192,93054,1,0,0:0:0:0:
256,192,93125,1,0,0:0:0:0:
256,192,93195,1,0,0:0:0:0:
256,192,93265,1,2,0:0:0:0:
256,192,93336,1,0,0:0:0:0:
256,192,93406,1,2,0:0:0:0:
256,192,93477,1,0,0:0:0:0:
256,192,93547,1,2,0:0:0:0:
256,192,93594,1,2,0:0:0:0:
256,192,93641,1,2,0:0:0:0:
256,192,93688,1,0,0:0:0:0:
256,192,93758,1,0,0:0:0:0:
256,192,93829,1,2,0:0:0:0:
256,192,93876,1,2,0:0:0:0:
256,192,93923,1,2,0:0:0:0:
256,192,93970,1,0,0:0:0:0:
256,192,94040,1,0,0:0:0:0:
256,192,94111,1,2,0:0:0:0:
256,192,94158,1,2,0:0:0:0:
256,192,94204,1,2,0:0:0:0:
256,192,94251,1,0,0:0:0:0:
256,192,94322,1,0,0:0:0:0:
256,192,94392,1,2,0:0:0:0:
256,192,94439,1,2,0:0:0:0:
256,192,94486,1,2,0:0:0:0:
256,192,94533,1,0,0:0:0:0:
256,192,94604,1,0,0:0:0:0:
256,192,94674,1,6,0:0:0:0:
256,192,95096,1,0,0:0:0:0:
256,192,95167,1,0,0:0:0:0:
256,192,95237,1,0,0:0:0:0:
256,192,95660,1,0,0:0:0:0:
256,192,95801,1,0,0:0:0:0:
256,192,95871,1,0,0:0:0:0:
256,192,95942,1,0,0:0:0:0:
256,192,96012,1,0,0:0:0:0:
256,192,96082,1,0,0:0:0:0:
256,192,96153,1,0,0:0:0:0:
256,192,96223,1,0,0:0:0:0:
256,192,96294,1,0,0:0:0:0:
256,192,96364,1,0,0:0:0:0:
256,192,96434,1,0,0:0:0:0:
256,192,96505,1,0,0:0:0:0:
256,192,96575,1,0,0:0:0:0:
256,192,96646,1,2,0:0:0:0:
256,192,96927,1,4,0:0:0:0:
256,192,97068,1,2,0:0:0:0:
256,192,97139,1,0,0:0:0:0:
256,192,97209,1,0,0:0:0:0:
256,192,97350,1,2,0:0:0:0:
256,192,97420,1,0,0:0:0:0:
256,192,97491,1,0,0:0:0:0:
256,192,97632,1,2,0:0:0:0:
256,192,97702,1,0,0:0:0:0:
256,192,97773,1,0,0:0:0:0:
256,192,97913,1,2,0:0:0:0:
256,192,98054,1,4,0:0:0:0:
256,192,98195,1,2,0:0:0:0:
256,192,98265,1,2,0:0:0:0:
256,192,98336,1,0,0:0:0:0:
256,192,98477,1,2,0:0:0:0:
256,192,98547,1,2,0:0:0:0:
256,192,98618,1,0,0:0:0:0:
256,192,98758,1,2,0:0:0:0:
256,192,98829,1,2,0:0:0:0:
256,192,98899,1,0,0:0:0:0:
256,192,99040,1,2,0:0:0:0:
256,192,99181,1,4,0:0:0:0:
256,192,99322,1,2,0:0:0:0:
256,192,99392,1,0,0:0:0:0:
256,192,99463,1,2,0:0:0:0:
256,192,99604,1,2,0:0:0:0:
256,192,99674,1,0,0:0:0:0:
256,192,99744,1,2,0:0:0:0:
256,192,99885,1,2,0:0:0:0:
256,192,99956,1,0,0:0:0:0:
256,192,100026,1,2,0:0:0:0:
256,192,100167,1,2,0:0:0:0:
256,192,100308,1,4,0:0:0:0:
256,192,100449,1,2,0:0:0:0:
256,192,100519,1,2,0:0:0:0:
256,192,100589,1,2,0:0:0:0:
256,192,100730,1,2,0:0:0:0:
256,192,100801,1,2,0:0:0:0:
256,192,100871,1,2,0:0:0:0:
256,192,101012,1,2,0:0:0:0:
256,192,101082,1,2,0:0:0:0:
256,192,101153,1,2,0:0:0:0:
256,192,101294,1,2,0:0:0:0:
256,192,101434,1,4,0:0:0:0:
256,192,101575,1,2,0:0:0:0:
256,192,101646,1,2,0:0:0:0:
256,192,101716,1,0,0:0:0:0:
256,192,101787,1,0,0:0:0:0:
256,192,101857,1,2,0:0:0:0:
256,192,101927,1,2,0:0:0:0:
256,192,101998,1,0,0:0:0:0:
256,192,102068,1,0,0:0:0:0:
256,192,102139,1,2,0:0:0:0:
256,192,102209,1,2,0:0:0:0:
256,192,102280,1,0,0:0:0:0:
256,192,102350,1,0,0:0:0:0:
256,192,102420,1,2,0:0:0:0:
256,192,102561,1,4,0:0:0:0:
256,192,102702,1,2,0:0:0:0:
256,192,102773,1,0,0:0:0:0:
256,192,102843,1,0,0:0:0:0:
256,192,102913,1,0,0:0:0:0:
256,192,102984,1,2,0:0:0:0:
256,192,103054,1,0,0:0:0:0:
256,192,103125,1,0,0:0:0:0:
256,192,103195,1,0,0:0:0:0:
256,192,103265,1,2,0:0:0:0:
256,192,103336,1,0,0:0:0:0:
256,192,103406,1,0,0:0:0:0:
256,192,103477,1,0,0:0:0:0:
256,192,103547,1,2,0:0:0:0:
256,192,103688,1,4,0:0:0:0:
256,192,103829,1,2,0:0:0:0:
256,192,103899,1,2,0:0:0:0:
256,192,103970,1,0,0:0:0:0:
256,192,104040,1,0,0:0:0:0:
256,192,104111,1,2,0:0:0:0:
256,192,104181,1,0,0:0:0:0:
256,192,104251,1,0,0:0:0:0:
256,192,104322,1,0,0:0:0:0:
256,192,104392,1,2,0:0:0:0:
256,192,104463,1,2,0:0:0:0:
256,192,104533,1,0,0:0:0:0:
256,192,104604,1,0,0:0:0:0:
256,192,104674,1,2,0:0:0:0:
256,192,104815,1,4,0:0:0:0:
256,192,104956,1,2,0:0:0:0:
256,192,105026,1,2,0:0:0:0:
256,192,105096,1,0,0:0:0:0:
256,192,105167,1,0,0:0:0:0:
256,192,105237,1,0,0:0:0:0:
256,192,105308,1,0,0:0:0:0:
256,192,105378,1,6,0:0:0:0:
256,192,105519,1,2,0:0:0:0:
256,192,105566,1,2,0:0:0:0:
256,192,105613,1,2,0:0:0:0:
256,192,105660,1,0,0:0:0:0:
256,192,105801,1,0,0:0:0:0:
256,192,105942,1,4,0:0:0:0:
256,192,106082,1,0,0:0:0:0:
256,192,106153,1,0,0:0:0:0:
256,192,106223,1,2,0:0:0:0:
256,192,106364,1,0,0:0:0:0:
256,192,106505,1,6,0:0:0:0:
256,192,106646,1,2,0:0:0:0:
256,192,106787,1,4,0:0:0:0:
256,192,106927,1,0,0:0:0:0:
256,192,106998,1,0,0:0:0:0:
256,192,107068,1,2,0:0:0:0:
256,192,107139,1,0,0:0:0:0:
256,192,107209,1,2,0:0:0:0:
256,192,107280,1,2,0:0:0:0:
256,192,107350,1,2,0:0:0:0:
256,192,107491,1,2,0:0:0:0:
256,192,107538,1,8,0:0:0:0:
256,192,107585,1,0,0:0:0:0:
256,192,107632,1,0,0:0:0:0:
256,192,107773,1,0,0:0:0:0:
256,192,107819,1,0,0:0:0:0:
256,192,107866,1,0,0:0:0:0:
256,192,107913,1,2,0:0:0:0:
256,192,108054,1,2,0:0:0:0:
256,192,108195,1,0,0:0:0:0:
256,192,108265,1,0,0:0:0:0:
256,192,108336,1,0,0:0:0:0:
256,192,108477,1,2,0:0:0:0:
256,192,108618,1,0,0:0:0:0:
256,192,108758,1,6,0:0:0:0:
256,192,108899,1,2,0:0:0:0:
256,192,109040,1,4,0:0:0:0:
256,192,109181,1,0,0:0:0:0:
256,192,109251,1,0,0:0:0:0:
256,192,109322,1,6,0:0:0:0:
256,192,109463,1,6,0:0:0:0:
256,192,109604,1,6,0:0:0:0:
256,192,109744,1,2,0:0:0:0:
256,192,109815,1,2,0:0:0:0:
256,192,109885,1,4,0:0:0:0:
256,192,110026,1,2,0:0:0:0:
256,192,110096,1,2,0:0:0:0:
256,192,110167,1,4,0:0:0:0:
256,192,110308,1,0,0:0:0:0:
256,192,110449,1,6,0:0:0:0:
256,192,110589,1,0,0:0:0:0:
256,192,110636,1,0,0:0:0:0:
256,192,110683,1,0,0:0:0:0:
256,192,110730,1,2,0:0:0:0:
256,192,110871,1,0,0:0:0:0:
256,192,111012,1,6,0:0:0:0:
256,192,111153,1,2,0:0:0:0:
256,192,111294,1,4,0:0:0:0:
256,192,111434,1,0,0:0:0:0:
256,192,111505,1,0,0:0:0:0:
256,192,111575,1,2,0:0:0:0:
256,192,111646,1,0,0:0:0:0:
256,192,111716,1,0,0:0:0:0:
256,192,111787,1,2,0:0:0:0:
256,192,111857,1,2,0:0:0:0:
256,192,111998,1,2,0:0:0:0:
256,192,112045,1,2,0:0:0:0:
256,192,112092,1,2,0:0:0:0:
256,192,112139,1,0,0:0:0:0:
256,192,112280,1,0,0:0:0:0:
256,192,112327,1,0,0:0:0:0:
256,192,112373,1,0,0:0:0:0:
256,192,112420,1,2,0:0:0:0:
256,192,112561,1,0,0:0:0:0:
256,192,112702,1,6,0:0:0:0:
256,192,112843,1,0,0:0:0:0:
256,192,112913,1,0,0:0:0:0:
256,192,112984,1,0,0:0:0:0:
256,192,113125,1,0,0:0:0:0:
256,192,113265,1,6,0:0:0:0:
256,192,113406,1,2,0:0:0:0:
256,192,113547,1,4,0:0:0:0:
256,192,113688,1,0,0:0:0:0:
256,192,113829,1,2,0:0:0:0:
256,192,113899,1,0,0:0:0:0:
256,192,113970,1,0,0:0:0:0:
256,192,114040,1,0,0:0:0:0:
256,192,114111,1,2,0:0:0:0:
256,192,114181,1,0,0:0:0:0:
256,192,114251,1,0,0:0:0:0:
256,192,114322,1,0,0:0:0:0:
256,192,114392,1,4,0:0:0:0:
256,192,114533,1,4,0:0:0:0:
