osu file format v14

[General]
AudioFilename: audio.mp3
AudioLeadIn: 0
PreviewTime: 76345
Countdown: 0
SampleSet: Normal
StackLeniency: 0.7
Mode: 1
LetterboxInBreaks: 0
WidescreenStoryboard: 0

[Editor]
Bookmarks: 1278,8038,12545,17052,21559,30573,39587,50855,76770,85785,97052,106066
DistanceSpacing: 1
BeatDivisor: 4
GridSize: 32
TimelineZoom: 2.2

[Metadata]
Title:Run*2 Run To You!!
TitleUnicode:Run*2 Run To You!!
Artist:Umeboshi Chazuke
ArtistUnicode:梅干茶漬け
Creator:gaston_2199
Version:Inner Oni
Source:
Tags:fa featured artist chiptune chipstyle bitpop electronic instrumental 8bit 8-bit mpg mg mappers' guild
BeatmapID:2607700
BeatmapSetID:1254735

[Difficulty]
HPDrainRate:6
CircleSize:2
OverallDifficulty:7
ApproachRate:10
SliderMultiplier:1.4
SliderTickRate:1

[Events]
//Background and Video events
0,0,"BG.jpg",0,-100
//Break Periods
//Storyboard Layer 0 (Background)
//Storyboard Layer 1 (Fail)
//Storyboard Layer 2 (Pass)
//Storyboard Layer 3 (Foreground)
//Storyboard Layer 4 (Overlay)
//Storyboard Sound Samples

[TimingPoints]
149,281.69014084507,4,1,0,70,1,8
149,-133.333333333333,4,1,0,70,0,8
1275,281.69014084507,4,1,0,70,1,0
1275,-133.333333333333,4,1,0,70,0,8
8032,-111.111111111111,4,1,0,80,0,0
10286,-110.091743119266,4,1,0,80,0,0
10426,-109.090909090909,4,1,0,80,0,0
10497,-108.108108108108,4,1,0,80,0,0
10567,-107.142857142857,4,1,0,80,0,0
10708,-106.194690265487,4,1,0,80,0,0
10849,-105.263157894737,4,1,0,80,0,0
10990,-104.347826086957,4,1,0,80,0,0
11060,-103.448275862069,4,1,0,80,0,0
11131,-102.564102564103,4,1,0,80,0,0
11271,-101.694915254237,4,1,0,80,0,0
11412,-100.840336134454,4,1,0,80,0,0
11483,-100,4,1,0,80,0,0
11553,-99.1735537190083,4,1,0,80,0,0
11624,-98.3606557377049,4,1,0,80,0,0
11694,-97.5609756097561,4,1,0,80,0,0
11764,-96.7741935483871,4,1,0,80,0,0
11835,-96,4,1,0,80,0,0
11905,-95.2380952380952,4,1,0,80,0,0
11976,-94.488188976378,4,1,0,80,0,0
12117,-93.75,4,1,0,80,0,0
12187,-93.0232558139535,4,1,0,80,0,0
12257,-92.3076923076923,4,1,0,80,0,0
12398,-91.6030534351145,4,1,0,80,0,0
12539,-90.9090909090909,4,1,0,80,0,0
14652,-111.111111111111,4,1,0,60,0,0
15919,-125,4,1,0,60,0,8
17046,-100,4,1,0,80,0,8
19300,-99.6168582375479,4,1,0,80,0,8
19441,-99.236641221374,4,1,0,80,0,8
19511,-98.8593155893536,4,1,0,80,0,8
19581,-98.4848484848485,4,1,0,80,0,8
19652,-98.1132075471698,4,1,0,80,0,8
19722,-97.7443609022557,4,1,0,80,0,8
19863,-97.378277153558,4,1,0,80,0,8
20004,-97.0149253731343,4,1,0,80,0,8
20074,-96.6542750929368,4,1,0,80,0,8
20145,-96.2962962962963,4,1,0,80,0,8
20215,-95.9409594095941,4,1,0,80,0,8
20286,-95.5882352941176,4,1,0,80,0,8
20426,-95.2380952380952,4,1,0,80,0,8
20497,-96.2199312714777,4,1,0,80,0,8
20567,-97.2222222222222,4,1,0,80,0,8
20638,-98.2456140350877,4,1,0,80,0,8
20708,-99.290780141844,4,1,0,80,0,8
20779,-100.358422939068,4,1,0,80,0,8
20849,-101.449275362319,4,1,0,80,0,8
20919,-102.564102564103,4,1,0,80,0,8
20990,-103.703703703704,4,1,0,80,0,8
21060,-104.868913857678,4,1,0,80,0,8
21131,-106.060606060606,4,1,0,80,0,8
21201,-107.27969348659,4,1,0,80,0,8
21271,-108.527131782946,4,1,0,80,0,8
21412,-109.803921568627,4,1,0,80,0,8
21553,-111.111111111111,4,1,0,80,0,8
29863,-109.090869421502,4,1,0,80,0,0
29933,-108.108108108108,4,1,0,80,0,0
30074,-106.194652674459,4,1,0,80,0,0
30145,-105.263157894737,4,1,0,80,0,0
30215,-104.347862381865,4,1,0,80,0,0
30286,-103.448240190262,4,1,0,80,0,0
30426,-101.694949727102,4,1,0,80,0,0
30567,-100,4,1,0,80,0,0
39863,-125,4,1,0,70,0,0
45638,-123.076923076923,4,1,0,70,0,0
45708,-121.212121212121,4,1,0,70,0,0
45779,-119.402985074627,4,1,0,70,0,0
45919,-117.647058823529,4,1,0,70,0,0
46060,-115.942028985507,4,1,0,70,0,0
46131,-114.285714285714,4,1,0,70,0,0
46201,-112.676056338028,4,1,0,70,0,0
46342,-111.111111111111,4,1,0,80,0,0
46483,-110.091783519921,4,1,0,80,0,0
46553,-109.58904109589,4,1,0,80,0,0
46624,-109.090869421502,4,1,0,80,0,0
46764,-108.108108108108,4,1,0,80,0,0
46835,-107.623279776402,4,1,0,80,0,0
46905,-107.142895408177,4,1,0,80,0,0
47046,-106.194652674459,4,1,0,80,0,0
47117,-105.726909507281,4,1,0,80,0,0
47187,-105.263157894737,4,1,0,80,0,0
47328,-104.347862381865,4,1,0,80,0,0
47398,-103.896103896104,4,1,0,80,0,0
47469,-103.448240190262,4,1,0,80,0,0
47610,-102.564102564103,4,1,0,80,0,0
47680,-102.127624807617,4,1,0,80,0,0
47750,-101.694949727102,4,1,0,80,0,0
47891,-100.840302238554,4,1,0,80,0,0
47962,-100.418443654709,4,1,0,80,0,0
48032,-100,4,1,0,80,0,0
48173,-99.173586503665,4,1,0,80,0,0
48243,-98.7654320987654,4,1,0,80,0,0
48314,-98.3606234883202,4,1,0,80,0,0
48455,-97.5609756097561,4,1,0,80,0,0
48595,-96.774224765879,4,1,0,80,0,0
48736,-95.9999692800098,4,1,0,80,0,0
48807,-95.6175603561945,4,1,0,80,0,0
48877,-95.2380952380952,4,1,0,80,0,0
49018,-94.4882187364469,4,1,0,80,0,0
49159,-93.7499707031342,4,1,0,80,0,0
49300,-93.0232558139535,4,1,0,80,0,0
49370,-92.6640640419879,4,1,0,80,0,0
49441,-92.3077207100679,4,1,0,80,0,0
49511,-91.9540229885058,4,1,0,80,0,0
49581,-91.6030254647251,4,1,0,80,0,0
49652,-91.2547806098192,4,1,0,80,0,0
49722,-90.9090909090909,4,1,0,80,0,0
50145,-100,4,1,0,80,0,0
50215,-98.0392156862745,4,1,0,80,0,0
50286,-96.1538461538461,4,1,0,80,0,0
50497,-94.3396226415094,4,1,0,80,0,0
50708,-92.5925925925926,4,1,0,80,0,0
50849,-90.9090909090909,4,1,0,80,0,0
52962,-111.111111111111,4,1,0,60,0,0
53384,-115.384615384615,4,1,0,60,0,0
53948,-120,4,1,0,60,0,0
54229,-125,4,1,0,60,0,0
55356,-100,4,1,0,80,0,0
57610,-99.6168582375479,4,1,0,80,0,0
57750,-99.236641221374,4,1,0,80,0,0
57821,-98.8593155893536,4,1,0,80,0,0
57891,-98.4848484848485,4,1,0,80,0,0
57962,-98.1132075471698,4,1,0,80,0,0
58032,-97.7443609022557,4,1,0,80,0,0
58173,-97.378277153558,4,1,0,80,0,0
58314,-97.0149253731343,4,1,0,80,0,0
58384,-96.6542750929368,4,1,0,80,0,0
58455,-96.2962962962963,4,1,0,80,0,0
58525,-95.9409594095941,4,1,0,80,0,0
58595,-95.5882352941176,4,1,0,80,0,0
58736,-95.2380952380952,4,1,0,80,0,0
58807,-94.9554896142433,4,1,0,80,0,0
58877,-94.6745562130177,4,1,0,80,0,0
58948,-94.3952802359882,4,1,0,80,0,0
59018,-94.1176470588235,4,1,0,80,0,0
59088,-93.841642228739,4,1,0,80,0,0
59159,-93.5672514619883,4,1,0,80,0,0
59206,-93.2944606413994,4,1,0,80,0,0
59253,-93.0232558139535,4,1,0,80,0,0
59300,-92.7536231884058,4,1,0,80,0,0
59370,-92.485549132948,4,1,0,80,0,0
59441,-92.2190201729107,4,1,0,80,0,0
59487,-91.9540229885057,4,1,0,80,0,0
59534,-91.6905444126074,4,1,0,80,0,0
59581,-91.4285714285714,4,1,0,80,0,0
59722,-91.1680911680912,4,1,0,80,0,0
59863,-90.9090909090909,4,1,0,80,0,0
60567,-133.333333333333,4,1,0,70,0,0
67750,-111.111111111111,4,1,0,80,0,0
72257,-110.328638497653,4,1,0,80,0,0
72398,-109.55710955711,4,1,0,80,0,0
72469,-108.796296296296,4,1,0,80,0,0
72539,-108.045977011494,4,1,0,80,0,0
72610,-107.305936073059,4,1,0,80,0,0
72680,-106.575963718821,4,1,0,80,0,0
72821,-105.855855855856,4,1,0,80,0,0
72962,-105.145413870246,4,1,0,80,0,0
73032,-104.444444444444,4,1,0,80,0,0
73102,-103.752759381898,4,1,0,80,0,0
73243,-103.070175438596,4,1,0,80,0,0
73384,-102.39651416122,4,1,0,80,0,0
73525,-101.731601731602,4,1,0,80,0,0
73595,-101.075268817204,4,1,0,80,0,0
73666,-100.42735042735,4,1,0,80,0,0
73807,-99.7876857749469,4,1,0,80,0,0
73948,-99.1561181434599,4,1,0,80,0,0
74018,-98.5324947589099,4,1,0,80,0,0
74088,-97.9166666666667,4,1,0,80,0,0
74159,-97.3084886128365,4,1,0,80,0,0
74229,-96.7078189300411,4,1,0,80,0,0
74370,-96.1145194274029,4,1,0,80,0,0
74511,-95.5284552845528,4,1,0,80,0,0
74581,-94.949494949495,4,1,0,80,0,0
74652,-94.3775100401606,4,1,0,80,0,0
74722,-93.812375249501,4,1,0,80,0,0
74793,-93.2539682539683,4,1,0,80,0,0
74863,-92.7021696252466,4,1,0,80,0,0
74933,-92.1568627450981,4,1,0,80,0,0
75004,-91.6179337231969,4,1,0,80,0,0
75074,-91.0852713178295,4,1,0,80,0,0
75145,-90.5587668593449,4,1,0,80,0,0
75215,-90.0383141762452,4,1,0,80,0,0
75286,-89.5238095238095,4,1,0,80,0,0
75356,-89.0151515151515,4,1,0,80,0,0
75426,-88.5122410546139,4,1,0,80,0,0
75497,-88.0149812734082,4,1,0,80,0,0
75567,-87.5232774674115,4,1,0,80,0,0
75638,-87.0370370370371,4,1,0,80,0,0
75708,-86.5561694290976,4,1,0,80,0,0
75779,-86.0805860805861,4,1,0,80,0,0
75849,-85.6102003642987,4,1,0,80,0,0
75919,-85.1449275362319,4,1,0,80,0,0
75990,-84.6846846846847,4,1,0,80,0,0
76060,-84.2293906810036,4,1,0,80,0,0
76131,-83.7789661319073,4,1,0,80,0,0
76201,-83.3333333333333,4,1,0,80,0,0
76767,-100,4,1,0,90,0,1
90708,-101.688951800454,4,1,0,90,0,1
90755,-101.975988733693,4,1,0,90,0,1
90802,-102.264650689519,4,1,0,90,0,1
90849,-102.554951506891,4,1,0,90,0,1
90990,-103.43593488501,4,1,0,90,0,1
91271,-105.243992409803,4,1,0,90,0,1
91318,-105.55148009563,4,1,0,90,0,1
91365,-105.860769798346,4,1,0,90,0,1
91412,-106.171877405457,4,1,0,90,0,1
91553,-107.116384093645,4,1,0,90,0,1
91835,-109.056605831257,4,1,0,90,0,1
91882,-109.386810357181,4,1,0,90,0,1
91929,-109.719020560247,4,1,0,90,0,1
91976,-110.053254769983,4,1,0,90,0,1
92117,-111.111111111111,4,1,0,90,0,1
92680,-109.929078014184,4,1,0,90,0,1
92750,-108.771929824561,4,1,0,90,0,1
92821,-107.638888888889,4,1,0,90,0,1
92891,-106.529209621993,4,1,0,90,0,1
92962,-105.442176870748,4,1,0,90,0,1
93102,-104.377104377104,4,1,0,90,0,1
93173,-103.333333333333,4,1,0,90,0,1
93243,-102.310231023102,4,1,0,90,0,1
93384,-101.307189542484,4,1,0,90,0,1
93525,-100.323624595469,4,1,0,90,0,1
93595,-99.3589743589744,4,1,0,90,0,1
93666,-98.4126984126984,4,1,0,90,0,1
93736,-97.4842767295597,4,1,0,90,0,1
93807,-96.5732087227414,4,1,0,90,0,1
93877,-95.679012345679,4,1,0,90,0,1
93948,-94.8012232415902,4,1,0,90,0,1
94018,-93.9393939393939,4,1,0,90,0,1
94088,-93.0930930930931,4,1,0,90,0,1
94159,-92.2619047619048,4,1,0,90,0,1
94229,-91.4454277286136,4,1,0,90,0,1
94300,-90.6432748538012,4,1,0,90,0,1
94370,-89.8550724637681,4,1,0,90,0,1
94417,-89.0804597701149,4,1,0,90,0,1
94464,-88.3190883190883,4,1,0,90,0,1
94511,-87.5706214689266,4,1,0,90,0,1
94581,-86.8347338935574,4,1,0,90,0,1
94652,-86.1111111111111,4,1,0,90,0,1
94699,-85.3994490358127,4,1,0,90,0,1
94746,-84.6994535519126,4,1,0,90,0,1
94796,-84.0108401084011,4,1,0,80,0,0
95779,-83.3333333333333,4,1,0,80,0,0
95919,-85.3658224271381,4,1,0,80,0,0
95990,-86.4197424173157,4,1,0,80,0,0
96060,-87.5000109375014,4,1,0,80,0,0
96131,-88.6076285851754,4,1,0,80,0,0
96201,-89.7435667324188,4,1,0,80,0,0
96271,-90.9090909090909,4,1,0,80,0,0
96342,-92.1052873961283,4,1,0,80,0,0
96412,-93.3332960000149,4,1,0,80,0,0
96483,-94.594581811543,4,1,0,80,0,0
96553,-95.8904240945786,4,1,0,80,0,0
96624,-97.2222627314984,4,1,0,80,0,0
96694,-98.5915215235151,4,1,0,80,0,0
96764,-100,4,1,0,80,0,0
105497,-102.564102564103,4,1,0,80,0,0
105638,-105.263157894737,4,1,0,80,0,0
105779,-108.108108108108,4,1,0,80,0,0
105919,-111.111111111111,4,1,0,80,0,0
106060,-90.9090909090909,4,1,0,80,0,0
106345,-90.9090909090909,4,1,0,90,0,1
112821,-89.8233713226312,4,1,0,90,0,1
112962,-89.2900990673649,4,1,0,90,0,1
113102,-88.7632001974094,4,1,0,90,0,1
113173,-88.5020758161883,4,1,0,90,0,1
113243,-88.2424832846676,4,1,0,90,0,1
113384,-87.7278401668934,4,1,0,90,0,1
113525,-87.2191651904823,4,1,0,90,0,1
113595,-86.9670334066465,4,1,0,90,0,1
113666,-86.7162799409636,4,1,0,90,0,1
113736,-86.4670430865276,4,1,0,90,0,1
113807,-86.2192348215348,4,1,0,90,0,1
113948,-85.7278552090817,4,1,0,90,0,1
114018,-85.4842597832461,4,1,0,90,0,1
114088,-85.2420447861703,4,1,0,90,0,1
114159,-85.0011985168991,4,1,0,90,0,1
114229,-84.7617094063459,4,1,0,90,0,1
114300,-84.5235660154408,4,1,0,90,0,1
114370,-84.2866859907942,4,1,0,90,0,1
114511,-76.9230769230769,4,1,0,90,0,1
114655,-76.9230769230769,4,1,0,80,0,0

[HitObjects]
256,160,853,5,8,0:0:0:0:
256,192,994,1,8,0:0:0:0:
256,192,1134,1,0,0:0:0:0:
256,192,1275,1,12,0:0:0:0:
256,192,1415,1,0,0:0:0:0:
256,192,1556,1,8,0:0:0:0:
256,192,1697,1,0,0:0:0:0:
256,192,1838,1,8,0:0:0:0:
256,192,1979,1,0,0:0:0:0:
256,192,2049,1,0,0:0:0:0:
256,192,2120,1,8,0:0:0:0:
192,160,2260,1,0,0:0:0:0:
256,192,2401,1,8,0:0:0:0:
256,192,2542,1,0,0:0:0:0:
256,192,2683,1,8,0:0:0:0:
256,192,2824,1,0,0:0:0:0:
256,192,3105,1,8,0:0:0:0:
256,192,3176,1,0,0:0:0:0:
256,192,3246,1,8,0:0:0:0:
256,192,3387,1,0,0:0:0:0:
256,192,3528,1,8,0:0:0:0:
192,160,3669,1,0,0:0:0:0:
256,160,3810,1,8,0:0:0:0:
256,160,3951,1,0,0:0:0:0:
256,160,4091,1,8,0:0:0:0:
256,160,4232,1,0,0:0:0:0:
288,96,4303,1,0,0:0:0:0:
256,160,4373,1,8,0:0:0:0:
256,160,4514,1,0,0:0:0:0:
256,160,4655,1,8,0:0:0:0:
256,160,4796,1,8,0:0:0:0:
256,160,4936,1,0,0:0:0:0:
256,160,5077,1,8,0:0:0:0:
256,160,5359,1,8,0:0:0:0:
256,160,5500,1,0,0:0:0:0:
256,160,5641,1,8,0:0:0:0:
256,160,5782,1,0,0:0:0:0:
256,160,5922,1,0,0:0:0:0:
256,160,6063,1,8,0:0:0:0:
256,160,6204,1,0,0:0:0:0:
256,160,6274,1,8,0:0:0:0:
256,160,6345,1,0,0:0:0:0:
256,160,6486,1,0,0:0:0:0:
256,160,6627,1,8,0:0:0:0:
256,160,6767,1,0,0:0:0:0:
256,160,6838,1,8,0:0:0:0:
256,160,6908,1,8,0:0:0:0:
256,160,7049,1,0,0:0:0:0:
256,160,7190,1,8,0:0:0:0:
256,160,7331,1,8,0:0:0:0:
256,160,7613,1,8,0:0:0:0:
256,160,7683,1,0,0:0:0:0:
256,160,7753,1,8,0:0:0:0:
227,119,7894,1,0,0:0:0:0:
256,160,8035,1,12,0:0:0:0:
256,160,8176,1,0,0:0:0:0:
256,160,8246,1,0,0:0:0:0:
256,160,8317,1,8,0:0:0:0:
256,160,8458,1,0,0:0:0:0:
256,160,8528,1,8,0:0:0:0:
256,160,8598,1,0,0:0:0:0:
256,160,8739,1,0,0:0:0:0:
256,160,8880,1,8,0:0:0:0:
256,160,9021,1,0,0:0:0:0:
240,123,9091,1,0,0:0:0:0:
256,160,9162,1,8,0:0:0:0:
288,96,9232,1,0,0:0:0:0:
256,160,9303,1,0,0:0:0:0:
256,160,9444,1,8,0:0:0:0:
256,160,9584,1,0,0:0:0:0:
256,128,9655,1,8,0:0:0:0:
256,160,9725,1,8,0:0:0:0:
256,160,9866,1,0,0:0:0:0:
256,160,10007,1,8,0:0:0:0:
256,160,10077,1,8,0:0:0:0:
256,160,10148,1,0,0:0:0:0:
256,160,10289,1,12,0:0:0:0:
256,160,10429,1,0,0:0:0:0:
256,160,10500,1,0,0:0:0:0:
256,160,10570,1,8,0:0:0:0:
256,160,10711,1,0,0:0:0:0:
256,160,10852,1,12,0:0:0:0:
256,160,10993,1,0,0:0:0:0:
256,160,11063,1,0,0:0:0:0:
256,160,11134,1,8,0:0:0:0:
256,160,11274,1,0,0:0:0:0:
256,160,11415,1,8,0:0:0:0:
256,160,11486,1,8,0:0:0:0:
256,160,11556,1,0,0:0:0:0:
256,160,11627,1,8,0:0:0:0:
256,160,11697,1,0,0:0:0:0:
256,160,11767,1,0,0:0:0:0:
256,160,11838,1,8,0:0:0:0:
256,160,11908,1,0,0:0:0:0:
256,160,11979,1,8,0:0:0:0:
256,160,12120,1,0,0:0:0:0:
256,160,12190,1,0,0:0:0:0:
256,160,12260,1,8,0:0:0:0:
256,160,12401,1,8,0:0:0:0:
256,160,12542,1,4,0:0:0:0:
256,192,12683,12,0,14514,0:0:0:0:
256,160,14655,5,8,0:0:0:0:
256,160,14725,1,8,0:0:0:0:
256,160,14796,1,8,0:0:0:0:
256,160,15922,1,0,0:0:0:0:
256,160,16204,1,0,0:0:0:0:
256,160,16486,1,0,0:0:0:0:
256,160,16627,1,0,0:0:0:0:
256,160,16697,1,0,0:0:0:0:
256,160,16767,1,8,0:0:0:0:
256,160,17049,1,4,0:0:0:0:
192,160,17190,1,0,0:0:0:0:
256,160,17260,1,0,0:0:0:0:
256,160,17331,1,8,0:0:0:0:
224,160,17401,1,8,0:0:0:0:
256,160,17472,1,0,0:0:0:0:
256,160,17613,1,0,0:0:0:0:
256,160,17753,1,0,0:0:0:0:
224,128,17824,1,0,0:0:0:0:
256,160,17894,1,8,0:0:0:0:
288,128,17965,1,8,0:0:0:0:
256,160,18035,1,8,0:0:0:0:
256,160,18176,1,0,0:0:0:0:
192,160,18317,1,0,0:0:0:0:
160,160,18387,1,0,0:0:0:0:
128,160,18458,1,8,0:0:0:0:
160,128,18528,1,8,0:0:0:0:
64,128,18598,1,0,0:0:0:0:
64,128,18739,1,0,0:0:0:0:
64,128,18880,1,0,0:0:0:0:
64,128,18951,1,0,0:0:0:0:
64,128,19021,1,8,0:0:0:0:
96,128,19091,1,0,0:0:0:0:
128,128,19162,1,8,0:0:0:0:
128,96,19303,1,4,0:0:0:0:
64,128,19444,1,0,0:0:0:0:
64,128,19514,1,0,0:0:0:0:
64,128,19584,1,8,0:0:0:0:
96,96,19655,1,8,0:0:0:0:
128,96,19725,1,0,0:0:0:0:
64,128,19866,1,4,0:0:0:0:
64,128,20007,1,0,0:0:0:0:
64,128,20077,1,0,0:0:0:0:
64,128,20148,1,8,0:0:0:0:
96,128,20218,1,8,0:0:0:0:
64,128,20289,1,8,0:0:0:0:
128,128,20429,1,0,0:0:0:0:
160,128,20500,1,8,0:0:0:0:
64,128,20570,1,0,0:0:0:0:
64,128,20641,1,0,0:0:0:0:
64,128,20711,1,8,0:0:0:0:
64,128,20782,1,8,0:0:0:0:
96,128,20852,1,0,0:0:0:0:
64,128,20922,1,0,0:0:0:0:
64,128,20993,1,8,0:0:0:0:
96,128,21063,1,0,0:0:0:0:
64,128,21134,1,8,0:0:0:0:
64,128,21204,1,8,0:0:0:0:
64,128,21274,1,0,0:0:0:0:
128,96,21415,1,8,0:0:0:0:
192,64,21556,1,4,0:0:0:0:
192,96,21767,1,0,0:0:0:0:
192,96,21838,1,8,0:0:0:0:
192,96,21979,1,0,0:0:0:0:
192,96,22120,1,0,0:0:0:0:
192,128,22190,1,8,0:0:0:0:
192,96,22260,1,0,0:0:0:0:
192,96,22401,1,8,0:0:0:0:
192,160,22542,1,8,0:0:0:0:
192,160,22613,1,0,0:0:0:0:
192,96,22683,1,8,0:0:0:0:
192,96,22824,1,0,0:0:0:0:
192,96,22965,1,8,0:0:0:0:
192,96,23105,1,8,0:0:0:0:
192,96,23246,1,8,0:0:0:0:
192,96,23317,1,8,0:0:0:0:
192,96,23387,1,0,0:0:0:0:
224,160,23528,1,8,0:0:0:0:
192,96,23669,1,0,0:0:0:0:
192,160,23810,1,0,0:0:0:0:
192,64,24021,1,0,0:0:0:0:
192,64,24091,1,8,0:0:0:0:
192,128,24232,1,0,0:0:0:0:
224,192,24373,1,0,0:0:0:0:
256,352,24444,1,8,0:0:0:0:
224,256,24514,1,0,0:0:0:0:
256,320,24655,1,8,0:0:0:0:
256,352,24796,1,8,0:0:0:0:
256,352,24866,1,0,0:0:0:0:
256,352,24936,1,8,0:0:0:0:
256,352,25077,1,0,0:0:0:0:
256,352,25218,1,8,0:0:0:0:
256,352,25359,1,8,0:0:0:0:
256,352,25429,1,0,0:0:0:0:
256,352,25500,1,8,0:0:0:0:
256,352,25570,1,0,0:0:0:0:
256,352,25641,1,8,0:0:0:0:
256,352,25782,1,0,0:0:0:0:
256,352,25922,1,8,0:0:0:0:
256,352,26063,1,0,0:0:0:0:
256,352,26274,1,0,0:0:0:0:
256,352,26345,1,8,0:0:0:0:
288,288,26486,1,0,0:0:0:0:
288,224,26627,1,0,0:0:0:0:
288,192,26697,1,0,0:0:0:0:
320,160,26767,1,0,0:0:0:0:
320,160,26908,1,8,0:0:0:0:
320,160,27049,1,8,0:0:0:0:
320,160,27120,1,8,0:0:0:0:
320,160,27190,1,0,0:0:0:0:
320,160,27331,1,0,0:0:0:0:
320,160,27401,1,0,0:0:0:0:
320,160,27472,1,8,0:0:0:0:
320,160,27613,1,0,0:0:0:0:
320,160,27753,1,8,0:0:0:0:
320,160,27894,1,8,0:0:0:0:
320,160,28035,1,0,0:0:0:0:
320,160,28176,1,8,0:0:0:0:
320,160,28317,1,0,0:0:0:0:
288,160,28458,1,0,0:0:0:0:
224,160,28598,1,8,0:0:0:0:
320,160,28739,1,0,0:0:0:0:
320,160,28880,1,8,0:0:0:0:
320,96,29021,1,8,0:0:0:0:
288,96,29091,1,0,0:0:0:0:
256,96,29162,1,8,0:0:0:0:
192,128,29303,1,0,0:0:0:0:
128,128,29444,1,8,0:0:0:0:
128,128,29584,1,0,0:0:0:0:
128,128,29655,1,0,0:0:0:0:
128,128,29725,1,8,0:0:0:0:
128,128,29866,1,0,0:0:0:0:
128,128,29936,1,8,0:0:0:0:
128,128,30077,1,0,0:0:0:0:
128,128,30148,1,8,0:0:0:0:
128,128,30218,1,0,0:0:0:0:
128,128,30289,1,8,0:0:0:0:
128,128,30429,1,0,0:0:0:0:
192,64,30570,1,12,0:0:0:0:
224,128,30711,1,0,0:0:0:0:
192,96,30782,1,0,0:0:0:0:
192,96,30852,1,8,0:0:0:0:
192,96,30993,1,0,0:0:0:0:
224,128,31063,1,0,0:0:0:0:
192,96,31134,1,0,0:0:0:0:
192,128,31204,1,8,0:0:0:0:
192,96,31274,1,0,0:0:0:0:
192,96,31415,1,8,0:0:0:0:
192,160,31556,1,8,0:0:0:0:
192,160,31627,1,0,0:0:0:0:
192,96,31697,1,8,0:0:0:0:
192,96,31838,1,0,0:0:0:0:
192,96,31979,1,8,0:0:0:0:
192,96,32120,1,8,0:0:0:0:
224,128,32190,1,0,0:0:0:0:
192,96,32260,1,8,0:0:0:0:
192,96,32331,1,8,0:0:0:0:
192,96,32401,1,0,0:0:0:0:
224,160,32542,1,8,0:0:0:0:
192,96,32683,1,0,0:0:0:0:
224,128,32753,1,8,0:0:0:0:
192,160,32824,1,0,0:0:0:0:
192,64,32965,1,0,0:0:0:0:
192,64,33035,1,0,0:0:0:0:
192,64,33105,1,8,0:0:0:0:
192,128,33246,1,0,0:0:0:0:
224,128,33317,1,0,0:0:0:0:
224,192,33387,1,0,0:0:0:0:
256,352,33458,1,8,0:0:0:0:
224,256,33528,1,0,0:0:0:0:
256,320,33669,1,8,0:0:0:0:
256,352,33810,1,8,0:0:0:0:
256,352,33880,1,0,0:0:0:0:
256,352,33951,1,8,0:0:0:0:
256,352,34091,1,0,0:0:0:0:
256,352,34232,1,8,0:0:0:0:
256,352,34373,1,8,0:0:0:0:
256,352,34444,1,0,0:0:0:0:
256,352,34514,1,8,0:0:0:0:
256,352,34584,1,0,0:0:0:0:
256,352,34655,1,8,0:0:0:0:
256,352,34796,1,0,0:0:0:0:
256,352,34936,1,8,0:0:0:0:
160,96,35007,1,8,0:0:0:0:
256,352,35077,1,0,0:0:0:0:
256,288,35218,1,0,0:0:0:0:
256,352,35289,1,0,0:0:0:0:
256,352,35359,1,8,0:0:0:0:
288,288,35500,1,0,0:0:0:0:
288,256,35570,1,8,0:0:0:0:
288,224,35641,1,0,0:0:0:0:
288,192,35711,1,0,0:0:0:0:
320,160,35782,1,0,0:0:0:0:
320,160,35922,1,8,0:0:0:0:
320,160,36063,1,8,0:0:0:0:
320,160,36134,1,8,0:0:0:0:
320,160,36204,1,0,0:0:0:0:
320,160,36345,1,0,0:0:0:0:
320,160,36415,1,0,0:0:0:0:
320,160,36486,1,8,0:0:0:0:
320,160,36627,1,0,0:0:0:0:
320,160,36767,1,8,0:0:0:0:
288,160,36838,1,0,0:0:0:0:
320,160,36908,1,8,0:0:0:0:
320,160,37049,1,0,0:0:0:0:
320,160,37190,1,8,0:0:0:0:
320,160,37331,1,0,0:0:0:0:
288,160,37472,1,0,0:0:0:0:
256,128,37542,1,0,0:0:0:0:
224,160,37613,1,8,0:0:0:0:
320,160,37753,1,0,0:0:0:0:
320,160,37894,1,8,0:0:0:0:
320,96,38035,1,8,0:0:0:0:
288,96,38105,1,0,0:0:0:0:
256,96,38176,1,8,0:0:0:0:
256,96,38246,1,8,0:0:0:0:
192,128,38317,1,0,0:0:0:0:
128,128,38458,1,8,0:0:0:0:
128,128,38598,1,0,0:0:0:0:
128,128,38669,1,0,0:0:0:0:
128,128,38739,1,8,0:0:0:0:
128,128,38880,1,0,0:0:0:0:
128,128,38951,1,8,0:0:0:0:
128,128,39021,1,0,0:0:0:0:
128,128,39162,1,8,0:0:0:0:
128,128,39232,1,0,0:0:0:0:
128,128,39303,1,8,0:0:0:0:
160,96,39373,1,8,0:0:0:0:
128,128,39444,1,8,0:0:0:0:
128,128,39584,1,4,0:0:0:0:
320,64,40007,1,0,0:0:0:0:
352,32,40077,1,0,0:0:0:0:
320,32,40148,1,8,0:0:0:0:
256,64,40289,1,0,0:0:0:0:
160,128,40570,1,0,0:0:0:0:
256,64,40852,1,0,0:0:0:0:
160,128,41134,1,0,0:0:0:0:
192,96,41204,1,0,0:0:0:0:
192,96,41274,1,8,0:0:0:0:
192,96,41415,1,0,0:0:0:0:
192,96,41556,1,8,0:0:0:0:
192,96,41697,1,8,0:0:0:0:
192,96,41838,1,0,0:0:0:0:
192,96,42260,1,0,0:0:0:0:
192,96,42331,1,0,0:0:0:0:
192,96,42401,1,8,0:0:0:0:
192,96,42542,1,8,0:0:0:0:
192,96,42824,1,0,0:0:0:0:
192,96,43105,1,0,0:0:0:0:
192,96,43387,1,0,0:0:0:0:
192,96,43458,1,0,0:0:0:0:
192,96,43528,1,8,0:0:0:0:
192,96,43669,1,0,0:0:0:0:
192,96,43810,1,8,0:0:0:0:
192,96,43951,1,0,0:0:0:0:
192,96,44091,1,0,0:0:0:0:
320,64,44514,1,0,0:0:0:0:
352,32,44584,1,0,0:0:0:0:
320,32,44655,1,8,0:0:0:0:
256,64,44796,1,0,0:0:0:0:
160,128,45077,1,0,0:0:0:0:
256,64,45359,1,0,0:0:0:0:
160,128,45641,1,0,0:0:0:0:
192,96,45711,1,0,0:0:0:0:
192,96,45782,1,8,0:0:0:0:
192,96,45922,1,0,0:0:0:0:
192,96,46063,1,8,0:0:0:0:
192,96,46134,1,0,0:0:0:0:
192,96,46204,1,8,0:0:0:0:
192,96,46345,1,4,0:0:0:0:
192,96,46486,1,0,0:0:0:0:
192,128,46556,1,0,0:0:0:0:
192,128,46627,1,8,0:0:0:0:
192,96,46767,1,0,0:0:0:0:
192,96,46838,1,0,0:0:0:0:
192,96,46908,1,8,0:0:0:0:
160,96,47049,1,0,0:0:0:0:
192,160,47120,1,0,0:0:0:0:
192,160,47190,1,8,0:0:0:0:
224,96,47331,1,0,0:0:0:0:
224,96,47401,1,0,0:0:0:0:
192,128,47472,1,8,0:0:0:0:
192,96,47613,1,0,0:0:0:0:
192,128,47683,1,0,0:0:0:0:
192,128,47753,1,8,0:0:0:0:
192,96,47894,1,0,0:0:0:0:
192,96,47965,1,0,0:0:0:0:
192,96,48035,1,8,0:0:0:0:
192,96,48176,1,0,0:0:0:0:
192,128,48246,1,0,0:0:0:0:
192,128,48317,1,8,0:0:0:0:
192,96,48458,1,0,0:0:0:0:
192,160,48598,1,12,0:0:0:0:
192,96,48739,1,0,0:0:0:0:
192,96,48810,1,0,0:0:0:0:
192,96,48880,1,8,0:0:0:0:
192,96,49021,1,0,0:0:0:0:
192,96,49162,1,12,0:0:0:0:
192,96,49303,1,0,0:0:0:0:
192,96,49373,1,0,0:0:0:0:
192,96,49444,1,8,0:0:0:0:
192,96,49514,1,0,0:0:0:0:
192,96,49584,1,0,0:0:0:0:
160,128,49655,1,0,0:0:0:0:
192,96,49725,1,12,0:0:0:0:
160,96,50148,1,0,0:0:0:0:
160,96,50218,1,0,0:0:0:0:
160,96,50289,1,12,0:0:0:0:
160,96,50500,1,12,0:0:0:0:
160,96,50711,1,12,0:0:0:0:
256,160,50852,1,4,0:0:0:0:
256,192,50993,12,0,52824,0:0:0:0:
256,160,52965,5,8,0:0:0:0:
256,160,53035,1,8,0:0:0:0:
256,160,53105,1,8,0:0:0:0:
192,256,53387,1,0,0:0:0:0:
320,32,53951,1,0,0:0:0:0:
256,160,54232,1,0,0:0:0:0:
256,160,54514,1,0,0:0:0:0:
256,160,54796,1,0,0:0:0:0:
256,160,54936,1,0,0:0:0:0:
256,160,55007,1,0,0:0:0:0:
256,160,55077,1,8,0:0:0:0:
256,160,55359,1,4,0:0:0:0:
192,160,55500,1,0,0:0:0:0:
256,160,55570,1,0,0:0:0:0:
256,160,55641,1,8,0:0:0:0:
224,160,55711,1,8,0:0:0:0:
256,160,55782,1,0,0:0:0:0:
256,160,55922,1,0,0:0:0:0:
256,160,56063,1,0,0:0:0:0:
224,128,56134,1,0,0:0:0:0:
256,160,56204,1,8,0:0:0:0:
224,128,56274,1,8,0:0:0:0:
256,160,56345,1,8,0:0:0:0:
256,160,56486,1,0,0:0:0:0:
192,160,56627,1,0,0:0:0:0:
160,160,56697,1,0,0:0:0:0:
128,160,56767,1,8,0:0:0:0:
160,128,56838,1,8,0:0:0:0:
64,128,56908,1,0,0:0:0:0:
64,128,57049,1,0,0:0:0:0:
64,128,57190,1,0,0:0:0:0:
64,128,57260,1,0,0:0:0:0:
64,128,57331,1,8,0:0:0:0:
96,96,57401,1,0,0:0:0:0:
64,128,57472,1,8,0:0:0:0:
128,96,57613,1,4,0:0:0:0:
64,128,57753,1,0,0:0:0:0:
64,128,57824,1,0,0:0:0:0:
64,128,57894,1,8,0:0:0:0:
96,96,57965,1,8,0:0:0:0:
128,96,58035,1,0,0:0:0:0:
64,128,58176,1,4,0:0:0:0:
64,128,58317,1,0,0:0:0:0:
64,128,58387,1,0,0:0:0:0:
64,128,58458,1,8,0:0:0:0:
96,128,58528,1,8,0:0:0:0:
64,128,58598,1,8,0:0:0:0:
64,128,58739,1,0,0:0:0:0:
96,128,58810,1,0,0:0:0:0:
64,128,58880,1,8,0:0:0:0:
64,128,58951,1,0,0:0:0:0:
64,128,59021,1,8,0:0:0:0:
64,128,59091,1,8,0:0:0:0:
96,128,59162,1,0,0:0:0:0:
128,128,59209,1,0,0:0:0:0:
128,128,59256,1,0,0:0:0:0:
64,128,59303,1,8,0:0:0:0:
96,128,59373,1,0,0:0:0:0:
64,128,59444,1,8,0:0:0:0:
96,128,59490,1,8,0:0:0:0:
64,128,59537,1,8,0:0:0:0:
64,128,59584,1,0,0:0:0:0:
128,96,59725,1,8,0:0:0:0:
192,64,59866,1,4,0:0:0:0:
256,160,60570,5,8,0:0:0:0:
256,192,60711,1,8,0:0:0:0:
256,192,60852,1,0,0:0:0:0:
256,192,60993,1,12,0:0:0:0:
256,192,61134,1,0,0:0:0:0:
256,192,61274,1,8,0:0:0:0:
256,192,61415,1,0,0:0:0:0:
256,192,61556,1,8,0:0:0:0:
256,192,61697,1,0,0:0:0:0:
256,192,61767,1,0,0:0:0:0:
256,192,61838,1,8,0:0:0:0:
192,160,61979,1,0,0:0:0:0:
256,192,62120,1,8,0:0:0:0:
256,192,62260,1,0,0:0:0:0:
256,192,62401,1,8,0:0:0:0:
256,192,62542,1,0,0:0:0:0:
256,192,62824,1,8,0:0:0:0:
256,192,62894,1,0,0:0:0:0:
256,192,62965,1,8,0:0:0:0:
256,192,63105,1,0,0:0:0:0:
256,192,63246,1,8,0:0:0:0:
192,160,63387,1,0,0:0:0:0:
256,160,63528,1,8,0:0:0:0:
256,160,63669,1,0,0:0:0:0:
256,160,63810,1,8,0:0:0:0:
256,160,63951,1,0,0:0:0:0:
288,96,64021,1,0,0:0:0:0:
256,160,64091,1,8,0:0:0:0:
256,160,64232,1,0,0:0:0:0:
256,160,64373,1,8,0:0:0:0:
256,160,64514,1,8,0:0:0:0:
256,160,64655,1,0,0:0:0:0:
256,160,64796,1,8,0:0:0:0:
256,160,65077,1,8,0:0:0:0:
256,160,65218,1,0,0:0:0:0:
256,160,65359,1,8,0:0:0:0:
256,160,65500,1,0,0:0:0:0:
256,160,65641,1,0,0:0:0:0:
256,160,65782,1,8,0:0:0:0:
256,160,65922,1,0,0:0:0:0:
256,160,65993,1,8,0:0:0:0:
256,160,66063,1,0,0:0:0:0:
256,160,66204,1,0,0:0:0:0:
256,160,66345,1,8,0:0:0:0:
256,160,66486,1,0,0:0:0:0:
256,160,66556,1,8,0:0:0:0:
256,160,66627,1,8,0:0:0:0:
256,160,66767,1,0,0:0:0:0:
256,160,66908,1,8,0:0:0:0:
256,160,67049,1,8,0:0:0:0:
256,160,67331,1,8,0:0:0:0:
256,160,67401,1,0,0:0:0:0:
256,160,67472,1,8,0:0:0:0:
200,167,67613,1,0,0:0:0:0:
256,160,67753,1,12,0:0:0:0:
256,160,67894,1,0,0:0:0:0:
256,160,67965,1,0,0:0:0:0:
256,160,68035,1,8,0:0:0:0:
256,160,68176,1,0,0:0:0:0:
256,160,68246,1,8,0:0:0:0:
256,160,68317,1,0,0:0:0:0:
256,160,68458,1,0,0:0:0:0:
256,160,68598,1,8,0:0:0:0:
256,160,68739,1,0,0:0:0:0:
249,138,68810,1,0,0:0:0:0:
256,160,68880,1,8,0:0:0:0:
288,96,68951,1,0,0:0:0:0:
256,160,69021,1,0,0:0:0:0:
256,160,69162,1,8,0:0:0:0:
256,160,69303,1,0,0:0:0:0:
256,128,69373,1,8,0:0:0:0:
256,160,69444,1,8,0:0:0:0:
256,160,69584,1,0,0:0:0:0:
256,160,69725,1,8,0:0:0:0:
256,160,69796,1,8,0:0:0:0:
256,160,69866,1,0,0:0:0:0:
256,160,70007,1,12,0:0:0:0:
256,160,70148,1,0,0:0:0:0:
256,160,70218,1,0,0:0:0:0:
256,160,70289,1,8,0:0:0:0:
256,160,70429,1,8,0:0:0:0:
224,128,70500,1,0,0:0:0:0:
256,160,70570,1,8,0:0:0:0:
256,160,70711,1,0,0:0:0:0:
256,160,70852,1,8,0:0:0:0:
256,160,70993,1,0,0:0:0:0:
256,160,71063,1,0,0:0:0:0:
256,160,71134,1,8,0:0:0:0:
246,140,71204,1,0,0:0:0:0:
256,160,71274,1,0,0:0:0:0:
256,160,71415,1,8,0:0:0:0:
256,160,71556,1,8,0:0:0:0:
256,160,71627,1,8,0:0:0:0:
256,160,71697,1,8,0:0:0:0:
256,160,71838,1,0,0:0:0:0:
256,160,71979,1,8,0:0:0:0:
239,125,72049,1,8,0:0:0:0:
256,160,72120,1,0,0:0:0:0:
256,160,72260,1,12,0:0:0:0:
224,224,72401,1,0,0:0:0:0:
224,256,72472,1,8,0:0:0:0:
224,288,72542,1,0,0:0:0:0:
224,256,72613,1,0,0:0:0:0:
192,352,72683,1,8,0:0:0:0:
192,352,72824,1,0,0:0:0:0:
192,352,72965,1,8,0:0:0:0:
224,224,73035,1,0,0:0:0:0:
192,352,73105,1,8,0:0:0:0:
192,288,73246,1,0,0:0:0:0:
192,224,73387,1,12,0:0:0:0:
192,160,73528,1,0,0:0:0:0:
224,96,73598,1,0,0:0:0:0:
224,96,73669,1,8,0:0:0:0:
224,96,73810,1,0,0:0:0:0:
224,96,73951,1,8,0:0:0:0:
224,96,74021,1,8,0:0:0:0:
224,96,74091,1,0,0:0:0:0:
224,96,74162,1,0,0:0:0:0:
224,96,74232,1,8,0:0:0:0:
224,96,74373,1,0,0:0:0:0:
224,96,74514,1,8,0:0:0:0:
224,96,74584,1,8,0:0:0:0:
224,96,74655,1,0,0:0:0:0:
224,96,74725,1,8,0:0:0:0:
224,96,74796,1,0,0:0:0:0:
224,96,74866,1,0,0:0:0:0:
224,96,74936,1,8,0:0:0:0:
224,96,75007,1,0,0:0:0:0:
224,96,75077,1,8,0:0:0:0:
224,96,75148,1,8,0:0:0:0:
224,96,75218,1,8,0:0:0:0:
224,96,75289,1,0,0:0:0:0:
224,96,75359,1,8,0:0:0:0:
224,128,75429,1,8,0:0:0:0:
224,96,75500,1,0,0:0:0:0:
224,96,75570,1,0,0:0:0:0:
224,96,75641,1,8,0:0:0:0:
224,128,75711,1,0,0:0:0:0:
224,128,75782,1,0,0:0:0:0:
224,96,75852,1,8,0:0:0:0:
224,96,75922,1,0,0:0:0:0:
224,96,75993,1,0,0:0:0:0:
224,96,76063,1,8,0:0:0:0:
224,96,76134,1,0,0:0:0:0:
224,96,76204,1,12,0:0:0:0:
256,192,76767,1,12,0:0:0:0:
256,192,76908,1,0,0:0:0:0:
384,320,76979,1,0,0:0:0:0:
256,192,77049,1,8,0:0:0:0:
256,192,77190,1,0,0:0:0:0:
256,192,77331,1,8,0:0:0:0:
256,160,77401,1,8,0:0:0:0:
256,192,77472,1,0,0:0:0:0:
256,192,77542,1,0,0:0:0:0:
256,192,77613,1,8,0:0:0:0:
256,128,77753,1,0,0:0:0:0:
256,160,77824,1,0,0:0:0:0:
256,192,77894,1,8,0:0:0:0:
256,160,77965,1,0,0:0:0:0:
256,192,78035,1,0,0:0:0:0:
384,320,78105,1,0,0:0:0:0:
256,192,78176,1,8,0:0:0:0:
256,128,78317,1,8,0:0:0:0:
256,192,78458,1,0,0:0:0:0:
256,192,78598,1,8,0:0:0:0:
256,192,78669,1,0,0:0:0:0:
256,192,78739,1,8,0:0:0:0:
256,192,78880,1,0,0:0:0:0:
256,192,79021,1,8,0:0:0:0:
192,160,79162,1,0,0:0:0:0:
224,128,79232,1,0,0:0:0:0:
256,160,79303,1,8,0:0:0:0:
256,160,79444,1,0,0:0:0:0:
256,160,79584,1,8,0:0:0:0:
256,128,79655,1,8,0:0:0:0:
256,160,79725,1,0,0:0:0:0:
288,96,79796,1,0,0:0:0:0:
256,160,79866,1,8,0:0:0:0:
256,160,80007,1,0,0:0:0:0:
256,128,80077,1,0,0:0:0:0:
256,160,80148,1,8,0:0:0:0:
256,128,80218,1,0,0:0:0:0:
256,160,80289,1,8,0:0:0:0:
256,128,80359,1,8,0:0:0:0:
256,160,80429,1,0,0:0:0:0:
256,160,80570,1,8,0:0:0:0:
256,96,80711,1,0,0:0:0:0:
256,160,80852,1,8,0:0:0:0:
256,96,80922,1,8,0:0:0:0:
256,160,80993,1,0,0:0:0:0:
256,96,81063,1,0,0:0:0:0:
256,160,81134,1,8,0:0:0:0:
256,160,81274,1,0,0:0:0:0:
256,160,81415,1,0,0:0:0:0:
256,96,81486,1,0,0:0:0:0:
256,160,81556,1,8,0:0:0:0:
256,160,81697,1,0,0:0:0:0:
256,160,81767,1,8,0:0:0:0:
256,160,81838,1,0,0:0:0:0:
256,160,81979,1,0,0:0:0:0:
256,160,82120,1,8,0:0:0:0:
256,160,82260,1,0,0:0:0:0:
256,160,82331,1,8,0:0:0:0:
256,160,82401,1,8,0:0:0:0:
256,160,82542,1,0,0:0:0:0:
256,160,82683,1,8,0:0:0:0:
256,160,82824,1,8,0:0:0:0:
256,96,82871,1,8,0:0:0:0:
256,96,82918,1,8,0:0:0:0:
256,96,82965,1,0,0:0:0:0:
256,160,83105,1,8,0:0:0:0:
256,128,83176,1,0,0:0:0:0:
256,160,83246,1,8,0:0:0:0:
256,96,83387,1,0,0:0:0:0:
256,96,83528,1,8,0:0:0:0:
256,96,83669,1,0,0:0:0:0:
256,96,83739,1,0,0:0:0:0:
256,96,83810,1,8,0:0:0:0:
256,96,83951,1,0,0:0:0:0:
256,96,84091,1,8,0:0:0:0:
256,96,84162,1,0,0:0:0:0:
256,96,84232,1,8,0:0:0:0:
256,96,84303,1,8,0:0:0:0:
256,96,84373,1,0,0:0:0:0:
256,96,84444,1,8,0:0:0:0:
256,96,84514,1,0,0:0:0:0:
256,96,84584,1,0,0:0:0:0:
256,96,84655,1,8,0:0:0:0:
256,96,84796,1,0,0:0:0:0:
256,96,84866,1,0,0:0:0:0:
256,96,84936,1,8,0:0:0:0:
256,96,85077,1,0,0:0:0:0:
256,96,85359,1,8,0:0:0:0:
288,128,85429,1,0,0:0:0:0:
256,96,85500,1,8,0:0:0:0:
256,96,85641,1,0,0:0:0:0:
256,192,85782,1,12,0:0:0:0:
256,192,85922,1,0,0:0:0:0:
384,320,85993,1,0,0:0:0:0:
256,192,86063,1,8,0:0:0:0:
256,192,86204,1,0,0:0:0:0:
256,192,86345,1,8,0:0:0:0:
256,160,86415,1,0,0:0:0:0:
256,192,86486,1,0,0:0:0:0:
256,192,86556,1,0,0:0:0:0:
256,192,86627,1,8,0:0:0:0:
192,160,86767,1,0,0:0:0:0:
256,160,86838,1,0,0:0:0:0:
256,192,86908,1,8,0:0:0:0:
256,160,86979,1,0,0:0:0:0:
256,192,87049,1,0,0:0:0:0:
384,320,87120,1,0,0:0:0:0:
256,192,87190,1,8,0:0:0:0:
256,128,87331,1,8,0:0:0:0:
256,192,87472,1,0,0:0:0:0:
256,192,87613,1,8,0:0:0:0:
256,192,87683,1,0,0:0:0:0:
256,192,87753,1,8,0:0:0:0:
256,192,87894,1,0,0:0:0:0:
256,192,88035,1,8,0:0:0:0:
192,160,88176,1,0,0:0:0:0:
224,128,88246,1,0,0:0:0:0:
256,160,88317,1,8,0:0:0:0:
256,160,88458,1,0,0:0:0:0:
256,160,88598,1,8,0:0:0:0:
256,128,88669,1,0,0:0:0:0:
256,160,88739,1,0,0:0:0:0:
288,96,88810,1,0,0:0:0:0:
256,160,88880,1,8,0:0:0:0:
256,160,89021,1,8,0:0:0:0:
256,128,89091,1,0,0:0:0:0:
256,160,89162,1,8,0:0:0:0:
256,128,89232,1,8,0:0:0:0:
256,160,89303,1,0,0:0:0:0:
256,128,89373,1,0,0:0:0:0:
256,160,89444,1,8,0:0:0:0:
256,160,89584,1,8,0:0:0:0:
256,96,89725,1,0,0:0:0:0:
256,160,89866,1,8,0:0:0:0:
256,96,89936,1,0,0:0:0:0:
256,160,90007,1,8,0:0:0:0:
256,96,90077,1,0,0:0:0:0:
256,160,90148,1,8,0:0:0:0:
256,160,90289,1,8,0:0:0:0:
256,160,90429,1,0,0:0:0:0:
192,32,90711,1,0,0:0:0:0:
256,160,90758,1,0,0:0:0:0:
256,160,90805,1,0,0:0:0:0:
256,160,90852,1,8,0:0:0:0:
256,160,90993,1,0,0:0:0:0:
256,160,91274,1,8,0:0:0:0:
256,160,91321,1,0,0:0:0:0:
256,160,91368,1,0,0:0:0:0:
256,160,91415,1,8,0:0:0:0:
256,160,91556,1,0,0:0:0:0:
256,160,91838,1,8,0:0:0:0:
256,128,91885,1,8,0:0:0:0:
256,96,91932,1,0,0:0:0:0:
256,96,91979,1,8,0:0:0:0:
256,160,92120,1,0,0:0:0:0:
256,160,92260,1,8,0:0:0:0:
256,96,92401,1,0,0:0:0:0:
256,64,92448,1,0,0:0:0:0:
256,64,92495,1,0,0:0:0:0:
256,96,92542,1,8,0:0:0:0:
320,64,92683,1,0,0:0:0:0:
320,64,92753,1,8,0:0:0:0:
313,96,92824,1,8,0:0:0:0:
320,64,92894,1,0,0:0:0:0:
256,96,92965,1,8,0:0:0:0:
256,64,93105,1,0,0:0:0:0:
256,64,93176,1,8,0:0:0:0:
224,32,93246,1,0,0:0:0:0:
256,64,93387,1,8,0:0:0:0:
224,32,93528,1,0,0:0:0:0:
224,32,93598,1,0,0:0:0:0:
224,32,93669,1,8,0:0:0:0:
224,32,93739,1,8,0:0:0:0:
224,32,93810,1,0,0:0:0:0:
224,32,93880,1,0,0:0:0:0:
224,32,93951,1,8,0:0:0:0:
224,32,94021,1,8,0:0:0:0:
224,32,94091,1,8,0:0:0:0:
224,32,94162,1,0,0:0:0:0:
224,32,94232,1,8,0:0:0:0:
224,32,94303,1,0,0:0:0:0:
256,96,94373,1,8,0:0:0:0:
256,96,94420,1,8,0:0:0:0:
256,96,94467,1,8,0:0:0:0:
256,96,94514,1,0,0:0:0:0:
224,32,94584,1,0,0:0:0:0:
256,96,94655,1,8,0:0:0:0:
256,96,94702,1,8,0:0:0:0:
256,96,94749,1,8,0:0:0:0:
256,96,94796,1,0,0:0:0:0:
352,256,95218,1,0,0:0:0:0:
320,224,95289,1,0,0:0:0:0:
320,192,95359,1,0,0:0:0:0:
320,192,95782,1,0,0:0:0:0:
320,192,95922,1,8,0:0:0:0:
320,192,95993,1,0,0:0:0:0:
320,192,96063,1,0,0:0:0:0:
320,192,96134,1,0,0:0:0:0:
320,192,96204,1,8,0:0:0:0:
320,192,96274,1,8,0:0:0:0:
320,192,96345,1,0,0:0:0:0:
320,192,96415,1,0,0:0:0:0:
320,192,96486,1,8,0:0:0:0:
320,192,96556,1,8,0:0:0:0:
320,192,96627,1,8,0:0:0:0:
320,192,96697,1,0,0:0:0:0:
320,192,96767,1,8,0:0:0:0:
256,160,97049,1,12,0:0:0:0:
192,160,97190,1,0,0:0:0:0:
256,160,97260,1,0,0:0:0:0:
256,160,97331,1,8,0:0:0:0:
224,160,97401,1,8,0:0:0:0:
256,32,97472,1,0,0:0:0:0:
256,160,97613,1,0,0:0:0:0:
256,160,97753,1,0,0:0:0:0:
224,128,97824,1,0,0:0:0:0:
256,160,97894,1,8,0:0:0:0:
288,128,97965,1,8,0:0:0:0:
256,160,98035,1,8,0:0:0:0:
256,160,98176,1,0,0:0:0:0:
192,160,98317,1,0,0:0:0:0:
160,160,98387,1,0,0:0:0:0:
128,160,98458,1,8,0:0:0:0:
160,128,98528,1,8,0:0:0:0:
64,128,98598,1,0,0:0:0:0:
64,128,98739,1,0,0:0:0:0:
64,128,98880,1,0,0:0:0:0:
64,128,98951,1,0,0:0:0:0:
64,128,99021,1,8,0:0:0:0:
96,128,99091,1,0,0:0:0:0:
128,128,99162,1,8,0:0:0:0:
256,32,99303,1,0,0:0:0:0:
192,160,99444,1,0,0:0:0:0:
256,160,99514,1,0,0:0:0:0:
256,160,99584,1,8,0:0:0:0:
224,160,99655,1,8,0:0:0:0:
256,160,99725,1,0,0:0:0:0:
256,160,99866,1,0,0:0:0:0:
256,160,100007,1,0,0:0:0:0:
224,128,100077,1,0,0:0:0:0:
256,160,100148,1,8,0:0:0:0:
288,128,100218,1,8,0:0:0:0:
256,160,100289,1,8,0:0:0:0:
256,160,100429,1,0,0:0:0:0:
192,160,100570,1,0,0:0:0:0:
160,160,100641,1,0,0:0:0:0:
128,160,100711,1,8,0:0:0:0:
160,128,100782,1,8,0:0:0:0:
64,128,100852,1,0,0:0:0:0:
64,128,100993,1,0,0:0:0:0:
64,128,101134,1,0,0:0:0:0:
64,128,101204,1,0,0:0:0:0:
64,128,101274,1,8,0:0:0:0:
96,128,101345,1,0,0:0:0:0:
128,128,101415,1,8,0:0:0:0:
256,160,101556,1,8,0:0:0:0:
192,160,101697,1,0,0:0:0:0:
256,160,101767,1,0,0:0:0:0:
256,160,101838,1,8,0:0:0:0:
224,160,101908,1,8,0:0:0:0:
256,160,101979,1,0,0:0:0:0:
256,160,102120,1,0,0:0:0:0:
256,160,102260,1,0,0:0:0:0:
224,128,102331,1,0,0:0:0:0:
256,160,102401,1,8,0:0:0:0:
288,128,102472,1,8,0:0:0:0:
256,160,102542,1,8,0:0:0:0:
256,160,102683,1,0,0:0:0:0:
192,160,102824,1,0,0:0:0:0:
160,160,102894,1,0,0:0:0:0:
128,160,102965,1,8,0:0:0:0:
160,128,103035,1,8,0:0:0:0:
64,128,103105,1,0,0:0:0:0:
64,128,103246,1,0,0:0:0:0:
64,128,103387,1,0,0:0:0:0:
64,128,103458,1,0,0:0:0:0:
64,128,103528,1,8,0:0:0:0:
96,128,103598,1,0,0:0:0:0:
128,128,103669,1,8,0:0:0:0:
256,32,103810,1,0,0:0:0:0:
192,160,103951,1,0,0:0:0:0:
256,160,104021,1,0,0:0:0:0:
256,160,104091,1,8,0:0:0:0:
224,160,104162,1,8,0:0:0:0:
256,160,104232,1,0,0:0:0:0:
256,160,104373,1,0,0:0:0:0:
256,160,104514,1,0,0:0:0:0:
224,128,104584,1,0,0:0:0:0:
256,160,104655,1,8,0:0:0:0:
288,128,104725,1,8,0:0:0:0:
256,160,104796,1,8,0:0:0:0:
256,160,104936,1,0,0:0:0:0:
192,160,105077,1,0,0:0:0:0:
160,160,105148,1,0,0:0:0:0:
128,160,105218,1,8,0:0:0:0:
64,128,105359,1,0,0:0:0:0:
64,128,105500,1,12,0:0:0:0:
64,128,105641,1,12,0:0:0:0:
64,128,105782,1,0,0:0:0:0:
128,128,105922,1,12,0:0:0:0:
192,96,106063,1,0,0:0:0:0:
256,32,106134,1,0,0:0:0:0:
256,32,106204,1,0,0:0:0:0:
256,32,106274,1,0,0:0:0:0:
256,32,106345,1,12,0:0:0:0:
256,32,106486,1,0,0:0:0:0:
256,32,106627,1,8,0:0:0:0:
256,32,106767,1,8,0:0:0:0:
256,32,106838,1,8,0:0:0:0:
256,32,106908,1,0,0:0:0:0:
256,32,106979,1,0,0:0:0:0:
256,32,107049,1,0,0:0:0:0:
256,32,107190,1,0,0:0:0:0:
256,32,107260,1,8,0:0:0:0:
256,32,107331,1,0,0:0:0:0:
256,32,107401,1,0,0:0:0:0:
256,32,107472,1,8,0:0:0:0:
256,32,107613,1,8,0:0:0:0:
256,32,107683,1,8,0:0:0:0:
256,32,107753,1,0,0:0:0:0:
256,32,107824,1,8,0:0:0:0:
256,32,107894,1,0,0:0:0:0:
224,32,108035,1,12,0:0:0:0:
256,32,108317,1,8,0:0:0:0:
256,32,108458,1,0,0:0:0:0:
256,32,108598,1,8,0:0:0:0:
224,64,108669,1,0,0:0:0:0:
224,64,108739,1,8,0:0:0:0:
256,32,108880,1,8,0:0:0:0:
256,32,109021,1,8,0:0:0:0:
224,32,109091,1,8,0:0:0:0:
256,32,109162,1,0,0:0:0:0:
224,32,109232,1,0,0:0:0:0:
224,32,109303,1,0,0:0:0:0:
256,32,109444,1,8,0:0:0:0:
256,32,109514,1,0,0:0:0:0:
256,32,109584,1,8,0:0:0:0:
256,32,109655,1,0,0:0:0:0:
256,32,109725,1,8,0:0:0:0:
256,32,109796,1,0,0:0:0:0:
256,32,109866,1,8,0:0:0:0:
256,32,110007,1,0,0:0:0:0:
256,32,110077,1,0,0:0:0:0:
256,32,110148,1,8,0:0:0:0:
256,32,110289,1,8,0:0:0:0:
256,32,110359,1,0,0:0:0:0:
256,32,110429,1,8,0:0:0:0:
192,96,110570,1,4,0:0:0:0:
256,32,110711,1,0,0:0:0:0:
256,32,110782,1,0,0:0:0:0:
256,32,110852,1,8,0:0:0:0:
256,32,110993,1,0,0:0:0:0:
256,32,111134,1,8,0:0:0:0:
256,32,111274,1,8,0:0:0:0:
256,32,111345,1,8,0:0:0:0:
256,32,111415,1,0,0:0:0:0:
192,0,111486,1,0,0:0:0:0:
192,0,111556,1,0,0:0:0:0:
256,32,111697,1,0,0:0:0:0:
256,32,111767,1,8,0:0:0:0:
256,32,111838,1,0,0:0:0:0:
256,32,111908,1,0,0:0:0:0:
256,32,111979,1,8,0:0:0:0:
256,32,112120,1,8,0:0:0:0:
224,32,112190,1,8,0:0:0:0:
256,32,112260,1,0,0:0:0:0:
256,32,112331,1,8,0:0:0:0:
256,32,112401,1,0,0:0:0:0:
224,32,112542,1,12,0:0:0:0:
256,32,112824,1,8,0:0:0:0:
256,32,112965,1,0,0:0:0:0:
256,32,113105,1,8,0:0:0:0:
256,32,113176,1,0,0:0:0:0:
224,32,113246,1,8,0:0:0:0:
256,32,113387,1,8,0:0:0:0:
256,32,113528,1,8,0:0:0:0:
256,32,113598,1,8,0:0:0:0:
256,32,113669,1,0,0:0:0:0:
256,32,113739,1,0,0:0:0:0:
256,32,113810,1,0,0:0:0:0:
256,32,113951,1,8,0:0:0:0:
256,32,114021,1,0,0:0:0:0:
256,32,114091,1,8,0:0:0:0:
256,32,114162,1,0,0:0:0:0:
256,32,114232,1,8,0:0:0:0:
256,32,114303,1,0,0:0:0:0:
256,32,114373,1,8,0:0:0:0:
256,32,114514,1,12,0:0:0:0:
256,32,114655,1,4,0:0:0:0:
