osu file format v14

[General]
AudioFilename: audio.mp3
AudioLeadIn: 0
PreviewTime: 76345
Countdown: 0
SampleSet: Soft
StackLeniency: 0.7
Mode: 2
LetterboxInBreaks: 0
WidescreenStoryboard: 1

[Editor]
Bookmarks: 21556,30570,39584,46345,48598,49725,50852,55359,59866,66627,67753,76204,76767,85782,94796
DistanceSpacing: 1
BeatDivisor: 4
GridSize: 8
TimelineZoom: 2.3

[Metadata]
Title:Run*2 Run To You!!
TitleUnicode:Run*2 Run To You!!
Artist:Umeboshi Chazuke
ArtistUnicode:梅干茶漬け
Creator:-Joni-
Version:Dako's Rain
Source:osu!
Tags:fa featured artist chiptune chipstyle bitpop electronic instrumental 8bit 8-bit mpg mg mappers' guild wonjae paranoid grapes dako nelly hazu-
BeatmapID:2709677
BeatmapSetID:1303201

[Difficulty]
HPDrainRate:6
CircleSize:4
OverallDifficulty:9
ApproachRate:9
SliderMultiplier:1.7
SliderTickRate:2

[Events]
//Background and Video events
0,0,"bg.png",0,0
//Break Periods
2,60993,66027
//Storyboard Layer 0 (Background)
//Storyboard Layer 1 (Fail)
//Storyboard Layer 2 (Pass)
//Storyboard Layer 3 (Foreground)
//Storyboard Layer 4 (Overlay)
//Storyboard Sound Samples

[TimingPoints]
1275,281.69014084507,4,2,1,70,1,0
1275,-100,4,2,2,70,0,8
8032,-100,4,2,1,80,0,0
12539,-100,4,2,1,80,0,0
14652,-100,4,2,2,60,0,0
15919,-100,4,2,2,60,0,8
17046,-100,4,2,1,80,0,8
30567,-100,4,2,1,80,0,0
39863,-100,4,2,1,70,0,0
46201,-100,4,2,1,70,0,0
46342,-100,4,2,1,80,0,0
50849,-100,4,2,2,80,0,0
52962,-100,4,2,2,60,0,0
53948,-100,4,2,2,60,0,0
54229,-100,4,2,2,60,0,0
55356,-100,4,2,1,80,0,0
59303,-81.9672131147541,4,2,1,80,0,0
59444,-100,4,2,1,80,0,0
59863,-100,4,2,1,80,0,0
60567,-100,4,2,2,70,0,0
67750,-100,4,2,1,80,0,0
76201,-100,4,2,1,80,0,0
76767,-100,4,2,1,90,0,1
94746,-100,4,2,1,90,0,1
94796,-100,4,2,1,80,0,0
106060,-100,4,2,1,80,0,0
106345,-100,4,2,1,90,0,1
114655,-100,4,2,1,80,0,0

[Colours]
Combo1 : 0,255,128
Combo2 : 128,255,255
Combo3 : 192,192,192
Combo4 : 128,128,192

[HitObjects]
384,304,853,6,0,L|480:304,2,85,2|2|2,0:0|0:0|0:0,0:0:0:0:
248,304,1275,6,0,L|240:200,1,85,2|0,0:0|0:0,0:0:0:0:
144,304,1556,2,0,L|136:208,1,85,10|0,0:0|0:0,0:0:0:0:
264,320,1838,2,0,L|360:320,1,85,2|2,0:0|0:0,0:0:0:0:
360,264,2049,1,0,0:0:0:0:
264,264,2120,2,0,L|256:144,1,85,10|2,0:0|0:0,0:0:0:0:
384,160,2401,6,0,L|289:160,1,85,2|0,0:0|0:0,0:0:0:0:
144,168,2683,1,10,0:0:0:0:
248,160,2824,2,0,L|248:48,1,85,2|0,0:0|0:0,0:0:0:0:
120,328,3105,2,0,L|200:328,1,42.5,2|0,0:0|0:0,0:0:0:0:
272,328,3246,1,10,0:0:0:0:
152,272,3387,1,2,0:0:0:0:
272,280,3528,6,0,L|272:160,1,85,2|0,0:0|0:0,0:0:0:0:
360,216,3810,2,0,L|360:104,1,85,10|0,0:0|0:0,0:0:0:0:
208,112,4091,2,0,L|88:112,1,85,2|2,0:0|0:0,0:0:0:0:
160,64,4303,1,0,0:0:0:0:
264,344,4373,1,10,0:0:0:0:
264,344,4514,1,0,0:0:0:0:
136,312,4655,6,0,L|240:312,1,85,2|2,0:0|0:0,0:0:0:0:
136,248,4936,1,10,0:0:0:0:
288,248,5077,1,2,0:0:0:0:
48,248,5359,1,2,0:0:0:0:
288,248,5641,1,2,0:0:0:0:
152,200,5782,5,2,0:0:0:0:
272,200,6063,1,8,0:0:0:0:
368,200,6204,2,0,L|368:136,1,42.5,2|0,0:0|0:0,0:0:0:0:
264,152,6345,2,0,L|144:152,1,85,2|0,0:0|0:0,0:0:0:0:
264,96,6627,1,8,0:0:0:0:
400,336,6767,2,0,L|400:272,1,42.5,2|0,0:0|0:0,0:0:0:0:
304,296,6908,5,10,0:3:0:0:
168,296,7049,1,10,0:3:0:0:
32,296,7190,1,10,0:3:0:0:
240,240,7331,1,10,0:0:0:0:
416,240,7613,2,0,L|344:240,1,42.5,2|0,0:0|0:0,0:0:0:0:
288,240,7753,1,2,0:0:0:0:
160,240,7894,2,0,L|109:189,1,42.5,2|0,0:0|0:0,0:0:0:0:
288,184,8035,6,0,L|392:184,2,85,14|0|8,0:3|0:0|0:0,0:0:0:0:
176,176,8458,2,0,L|104:176,1,42.5,2|0,0:0|0:0,0:0:0:0:
224,128,8598,2,0,L|309:128,1,85,10|0,0:3|0:0,0:0:0:0:
168,344,8880,2,0,L|160:240,1,85,8|0,0:0|0:0,0:0:0:0:
368,256,9162,6,0,L|368:144,1,85,10|0,0:3|0:0,0:0:0:0:
224,184,9444,2,0,L|112:184,1,85,8|0,0:0|0:0,0:0:0:0:
184,136,9655,1,0,0:0:0:0:
272,120,9725,2,0,L|376:120,1,85,10|0,0:3|0:0,0:0:0:0:
144,344,10007,2,0,L|144:240,1,85,10|0,0:0|0:0,0:0:0:0:
200,256,10218,1,0,0:0:0:0:
368,256,10289,6,0,L|464:256,1,85,10|8,0:3|0:3,0:0:0:0:
320,184,10570,2,0,L|416:184,1,85,8|2,0:0|0:0,0:0:0:0:
192,184,10852,2,0,L|96:184,1,85,10|8,0:3|0:3,0:0:0:0:
240,112,11133,2,0,L|144:112,1,85,10|0,0:0|0:0,0:0:0:0:
376,352,11415,5,10,0:3:0:0:
368,304,11485,1,8,0:3:0:0:
328,272,11555,1,8,0:3:0:0:
280,264,11626,1,8,0:3:0:0:
120,280,11697,1,10,0:3:0:0:
80,264,11767,1,8,0:3:0:0:
48,224,11837,1,8,0:3:0:0:
40,168,11908,1,8,0:3:0:0:
184,152,11979,5,10,0:3:0:0:
232,152,12049,1,8,0:3:0:0:
230,104,12120,1,8,0:3:0:0:
181,104,12190,1,8,0:3:0:0:
328,96,12260,1,10,0:3:0:0:
370,96,12330,1,0,0:0:0:0:
413,96,12400,1,8,0:3:0:0:
175,255,12542,5,10,0:3:0:0:
256,192,12683,12,8,14655,0:1:0:0:
256,192,14796,5,12,0:1:0:0:
360,256,15922,6,0,L|360:160,1,85,8|0,0:1|0:0,0:0:0:0:
280,208,16204,2,0,L|280:120,1,85,8|0,0:1|0:0,0:0:0:0:
200,152,16486,2,0,L|200:56,1,85,8|0,0:1|0:0,0:0:0:0:
336,72,16767,2,0,L|251:72,1,85,10|0,0:0|0:0,0:0:0:0:
24,336,17049,6,0,L|24:224,1,85,6|2,0:3|0:0,0:0:0:0:
160,248,17331,2,0,L|264:248,1,85,8|2,0:0|0:0,0:0:0:0:
288,248,17542,1,0,0:0:0:0:
200,200,17613,1,8,0:3:0:0:
157,200,17683,1,0,0:0:0:0:
144,152,17753,1,2,0:0:0:0:
280,144,17894,1,8,0:0:0:0:
368,144,18035,1,2,0:0:0:0:
232,336,18176,6,0,L|232:240,1,85,8|2,0:3|0:0,0:0:0:0:
376,336,18458,2,0,L|384:232,1,85,8|2,0:0|0:0,0:0:0:0:
328,248,18669,1,0,0:0:0:0:
232,184,18739,1,8,0:3:0:0:
184,184,18809,1,0,0:0:0:0:
136,184,18879,1,2,0:0:0:0:
280,128,19021,1,8,0:0:0:0:
136,128,19162,1,2,0:0:0:0:
344,344,19303,5,14,0:3:0:0:
344,344,19444,1,10,0:3:0:0:
208,336,19584,2,0,L|96:336,1,85,8|2,0:0|0:0,0:0:0:0:
344,264,19866,2,0,L|344:168,1,85,14|2,0:3|0:0,0:0:0:0:
208,336,20148,1,8,0:0:0:0:
208,336,20289,1,10,0:3:0:0:
424,128,20429,6,0,L|360:63,1,85,14|2,0:3|0:0,0:0:0:0:
224,136,20711,2,0,L|120:136,1,85,8|2,0:0|0:0,0:0:0:0:
200,88,20922,1,0,0:0:0:0:
264,88,20993,1,0,0:0:0:0:
408,96,21134,1,2,0:0:0:0:
200,280,21274,2,0,L|200:176,1,85,8|2,0:0|0:0,0:0:0:0:
440,288,21556,6,0,L|440:184,1,85,14|2,0:3|0:0,0:0:0:0:
376,205,21767,1,0,0:0:0:0:
316,207,21838,2,0,L|423:207,1,85,10|0,0:0|0:0,0:0:0:0:
264,160,22120,1,2,0:0:0:0:
224,160,22190,1,0,0:0:0:0:
184,160,22260,1,8,0:3:0:0:
317,344,22401,2,0,L|317:259,1,85,10|2,0:0|0:0,0:0:0:0:
261,256,22613,1,0,0:0:0:0:
128,256,22683,5,10,0:3:0:0:
128,192,22824,1,10,0:3:0:0:
256,192,22965,2,0,L|171:192,1,85,10|0,0:0|0:0,0:0:0:0:
35,192,23246,2,0,L|43:136,1,42.5,2|0,0:0|0:0,0:0:0:0:
99,144,23387,1,10,0:3:0:0:
232,144,23528,2,0,L|147:144,1,85,10|0,0:0|0:0,0:0:0:0:
352,352,23810,6,0,L|352:256,1,85,10|2,0:3|0:0,0:0:0:0:
296,264,24021,1,0,0:0:0:0:
200,264,24091,2,0,L|96:264,1,85,10|0,0:0|0:0,0:0:0:0:
224,200,24373,2,0,L|280:200,2,42.5,2|0|10,0:0|0:0|0:3,0:0:0:0:
88,184,24655,2,0,L|88:80,1,85,10|2,0:0|0:0,0:0:0:0:
136,96,24866,1,0,0:0:0:0:
272,88,24936,6,0,L|368:88,1,85,10|8,0:3|0:3,0:0:0:0:
224,320,25218,2,0,L|224:224,1,85,10|2,0:0|0:0,0:0:0:0:
352,272,25500,1,2,0:0:0:0:
224,235,25641,1,2,0:0:0:0:
120,248,25782,1,10,0:0:0:0:
24,208,25922,1,0,0:0:0:0:
224,208,26063,5,10,0:3:0:0:
304,208,26204,2,0,L|304:160,1,42.5,2|0,0:0|0:0,0:0:0:0:
248,112,26345,2,0,L|360:112,1,85,10|0,0:0|0:0,0:0:0:0:
280,56,26627,2,0,L|224:56,1,42.5,2|0,0:0|0:0,0:0:0:0:
168,56,26767,1,8,0:3:0:0:
304,360,26908,2,0,L|304:248,1,85,10|2,0:0|0:0,0:0:0:0:
256,272,27120,1,0,0:0:0:0:
120,272,27190,5,10,0:3:0:0:
120,208,27331,1,10,0:3:0:0:
152,168,27401,1,0,0:0:0:0:
248,168,27472,2,0,L|368:168,1,85,10|0,0:0|0:0,0:0:0:0:
200,104,27753,2,0,L|104:104,1,85,2|8,0:0|0:3,0:0:0:0:
248,48,28035,2,0,L|144:48,1,85,10|0,0:0|0:0,0:0:0:0:
368,336,28317,6,0,L|360:248,1,85,10|0,0:3|0:0,0:0:0:0:
232,272,28598,2,0,L|224:184,1,85,10|0,0:0|0:0,0:0:0:0:
352,200,28880,2,0,L|360:112,1,85,2|10,0:0|0:3,0:0:0:0:
296,112,29091,1,0,0:0:0:0:
200,104,29162,1,10,0:0:0:0:
272,48,29303,1,0,0:0:0:0:
48,336,29444,6,0,L|48:216,1,85,10|10,0:3|0:3,0:0:0:0:
96,248,29655,1,0,0:0:0:0:
192,248,29725,1,10,0:0:0:0:
320,248,29866,2,0,L|328:200,1,42.5,2|8,0:0|0:3,0:0:0:0:
256,208,30007,1,10,0:3:0:0:
112,208,30148,2,0,L|56:208,2,42.5,10|8|10,0:3|0:3|0:0,0:0:0:0:
256,160,30429,2,0,L|320:160,1,42.5,0|0,0:0|0:0,0:0:0:0:
144,152,30570,6,0,L|32:152,1,85,14|2,0:3|0:0,0:0:0:0:
48,96,30782,1,0,0:0:0:0:
144,96,30852,2,0,L|232:96,1,85,10|0,0:0|0:0,0:0:0:0:
104,336,31134,1,8,0:3:0:0:
56,336,31204,1,0,0:0:0:0:
56,280,31274,1,0,0:0:0:0:
256,288,31415,2,0,L|344:288,1,85,10|2,0:0|0:0,0:0:0:0:
384,288,31627,1,0,0:0:0:0:
248,240,31697,5,10,0:3:0:0:
160,240,31838,1,0,0:0:0:0:
288,184,31979,2,0,L|192:184,1,85,10|0,0:0|0:0,0:0:0:0:
336,136,32260,2,0,L|400:136,2,42.5,10|0|2,0:3|0:0|0:0,0:0:0:0:
200,128,32542,2,0,L|200:32,1,85,10|0,0:0|0:0,0:0:0:0:
408,344,32824,6,0,L|312:344,1,85,10|2,0:3|0:0,0:0:0:0:
320,296,33035,1,0,0:0:0:0:
416,296,33105,2,0,L|424:200,1,85,10|0,0:0|0:0,0:0:0:0:
296,200,33387,1,10,0:3:0:0:
248,200,33457,1,0,0:0:0:0:
200,200,33527,1,0,0:0:0:0:
408,184,33669,2,0,L|408:88,1,85,10|2,0:0|0:0,0:0:0:0:
352,96,33880,1,0,0:0:0:0:
208,96,33951,6,0,L|304:96,1,85,10|2,0:3|0:0,0:0:0:0:
168,344,34232,2,0,L|168:256,1,85,8|2,0:0|0:0,0:0:0:0:
304,264,34514,2,0,L|416:264,1,85,10|0,0:3|0:0,0:0:0:0:
256,192,34796,2,0,L|344:192,1,85,10|0,0:0|0:0,0:0:0:0:
296,136,35007,1,0,0:0:0:0:
160,128,35077,5,10,0:3:0:0:
72,88,35218,2,0,L|128:88,1,42.5,2|0,0:0|0:0,0:0:0:0:
216,88,35359,2,0,L|328:88,1,85,10|0,0:0|0:0,0:0:0:0:
384,336,35641,2,0,L|384:248,1,85,10|0,0:3|0:0,0:0:0:0:
240,248,35922,2,0,L|336:248,1,85,10|2,0:0|0:0,0:0:0:0:
336,192,36134,1,0,0:0:0:0:
192,192,36204,5,10,0:3:0:0:
96,192,36345,2,0,L|152:192,1,42.5,2|0,0:0|0:0,0:0:0:0:
232,144,36486,1,10,0:0:0:0:
328,144,36627,1,0,0:0:0:0:
200,328,36767,2,0,L|184:232,1,85,10|0,0:3|0:0,0:0:0:0:
320,328,37049,2,0,L|336:232,1,85,10|0,0:0|0:0,0:0:0:0:
128,216,37331,5,10,0:3:0:0:
208,216,37471,1,0,0:0:0:0:
344,152,37612,1,10,0:0:0:0:
264,152,37753,1,0,0:0:0:0:
400,152,37894,1,10,0:3:0:0:
480,152,38035,2,0,L|480:96,1,42.5,2|0,0:0|0:0,0:0:0:0:
344,96,38176,1,10,0:0:0:0:
256,96,38317,1,0,0:0:0:0:
464,352,38458,6,0,L|472:248,1,85,10|10,0:3|0:3,0:0:0:0:
408,264,38669,1,8,0:3:0:0:
264,264,38739,2,0,L|168:264,1,85,10|2,0:0|0:0,0:0:0:0:
224,216,38951,1,0,0:0:0:0:
368,208,39021,2,0,L|376:104,1,85,10|10,0:3|0:3,0:0:0:0:
312,120,39232,1,8,0:3:0:0:
152,120,39303,1,10,0:0:0:0:
40,120,39444,2,0,L|80:80,1,42.5,10|0,0:3|0:0,0:0:0:0:
256,336,39584,6,0,L|448:336,2,170,14|0|8,0:3|0:0|0:3,0:0:0:0:
168,328,40289,1,0,0:0:0:0:
40,328,40429,2,0,P|40:288|120:232,1,127.5,2|0,0:0|0:0,0:0:0:0:
272,232,40711,6,0,P|360:224|448:64,1,255,2|8,0:0|0:3,0:0:0:0:
312,80,41274,2,0,P|376:200|320:304,1,255,10|0,0:3|0:0,0:0:0:0:
120,328,41838,6,0,B|120:160|120:160|208:160|208:160|120:160|120:160|120:72,1,425,10|2,0:3|0:0,0:0:0:0:
208,72,42683,1,2,0:0:0:0:
416,320,42824,6,0,P|464:296|464:184,1,170,10|10,0:3|0:3,0:0:0:0:
392,192,43246,1,2,0:0:0:0:
312,192,43387,1,10,0:3:0:0:
184,200,43528,2,0,L|176:96,1,85,10|2,0:3|0:0,0:0:0:0:
96,208,43810,2,0,L|88:104,1,85,10|2,0:3|0:0,0:0:0:0:
296,360,44091,6,0,P|392:336|432:192,1,255,10|10,0:3|0:3,0:0:0:0:
296,192,44655,2,0,L|208:128,1,85,10|0,0:3|0:0,0:0:0:0:
296,136,44936,1,2,0:0:0:0:
168,320,45077,6,0,L|168:144,1,170,10|10,0:3|0:3,0:0:0:0:
256,80,45500,2,0,L|152:80,1,85,2|10,0:0|0:3,0:0:0:0:
304,280,45782,2,0,L|400:280,2,85,10|2|10,0:3|0:0|0:3,0:0:0:0:
168,280,46204,2,0,L|160:224,1,42.5,10|8,0:3|0:3,0:0:0:0:
336,224,46345,6,0,L|456:224,1,85,14|0,0:3|0:0,0:0:0:0:
296,184,46627,2,0,L|288:88,1,85,10|8,0:0|0:3,0:0:0:0:
160,184,46908,2,0,L|152:88,1,85,10|8,0:0|0:3,0:0:0:0:
24,192,47190,2,0,L|16:96,1,85,10|8,0:0|0:3,0:0:0:0:
152,336,47472,6,0,L|160:240,1,85,10|8,0:0|0:3,0:0:0:0:
288,336,47753,2,0,L|296:240,1,85,10|8,0:0|0:3,0:0:0:0:
424,344,48035,2,0,L|432:248,1,85,10|8,0:0|0:3,0:0:0:0:
304,184,48317,2,0,L|296:99,1,85,10|8,0:0|0:3,0:0:0:0:
72,200,48598,6,0,P|48:160|80:128,1,85,14|8,0:3|0:3,0:0:0:0:
112,128,48810,1,8,0:3:0:0:
256,328,48880,1,10,0:0:0:0:
272,296,48950,1,0,0:0:0:0:
256,256,49020,1,8,0:3:0:0:
208,256,49092,1,8,0:3:0:0:
48,320,49162,1,10,0:0:0:0:
90,320,49232,1,0,0:0:0:0:
133,320,49302,1,8,0:3:0:0:
176,320,49374,1,8,0:3:0:0:
352,264,49444,1,10,0:0:0:0:
376,231,49514,1,8,0:3:0:0:
356,196,49584,1,8,0:3:0:0:
304,192,49656,1,8,0:3:0:0:
120,192,49725,5,14,0:3:0:0:
256,192,50148,1,0,0:3:0:0:
264,136,50218,1,0,0:3:0:0:
120,136,50289,2,0,L|32:136,1,85,10|0,0:3|0:0,0:0:0:0:
120,80,50500,2,0,L|216:80,1,85,10|0,0:3|0:0,0:0:0:0:
112,304,50711,2,0,L|48:304,1,42.5,10|0,0:3|0:0,0:0:0:0:
248,304,50852,5,4,0:0:0:0:
256,192,50993,12,0,53810,0:0:0:0:
360,256,54232,6,0,L|360:160,1,85,8|0,0:1|0:0,0:0:0:0:
272,208,54514,2,0,L|272:120,1,85,8|0,0:1|0:0,0:0:0:0:
184,152,54796,2,0,L|184:56,1,85,8|0,0:1|0:0,0:0:0:0:
328,72,55077,2,0,L|243:72,1,85,10|0,0:0|0:0,0:0:0:0:
43,296,55359,6,0,L|35:184,1,85,14|2,0:3|0:0,0:0:0:0:
187,208,55641,2,0,L|283:208,1,85,8|2,0:0|0:0,0:0:0:0:
283,160,55852,1,0,0:0:0:0:
211,160,55922,1,8,0:3:0:0:
123,160,56063,1,2,0:0:0:0:
259,344,56204,2,0,L|275:256,1,85,8|2,0:0|0:0,0:0:0:0:
64,320,56486,6,0,L|64:216,1,85,8|2,0:3|0:0,0:0:0:0:
200,232,56767,2,0,L|104:232,1,85,8|2,0:0|0:0,0:0:0:0:
256,240,57049,1,8,0:3:0:0:
256,197,57119,1,0,0:0:0:0:
256,155,57189,1,2,0:0:0:0:
192,152,57260,1,0,0:0:0:0:
96,152,57331,1,8,0:0:0:0:
232,104,57472,1,10,0:3:0:0:
432,336,57613,6,0,P|448:296|424:256,1,85,14|10,0:3|0:3,0:0:0:0:
360,256,57824,1,8,0:3:0:0:
264,256,57894,2,0,L|256:152,1,85,8|2,0:0|0:0,0:0:0:0:
56,336,58176,1,14,0:3:0:0:
52,293,58246,1,0,0:0:0:0:
49,251,58316,1,2,0:0:0:0:
96,248,58387,1,8,0:3:0:0:
184,248,58458,1,8,0:2:0:0:
56,192,58598,1,10,0:3:0:0:
272,136,58739,5,12,0:3:0:0:
231,136,58809,1,8,0:3:0:0:
192,136,58879,1,10,0:3:0:0:
152,136,58950,1,8,0:3:0:0:
296,80,59021,2,0,L|392:80,1,85,12|10,0:3|0:3,0:0:0:0:
384,32,59232,1,0,0:0:0:0:
133,241,59303,2,0,L|132:118,1,103.699995727692,12|10,0:3|0:3,0:0:0:0:
192,136,59514,1,8,0:3:0:0:
334,287,59584,2,0,L|433:287,1,85,12|10,0:3|0:3,0:0:0:0:
203,253,59866,5,14,0:3:0:0:
304,224,66627,6,0,L|400:224,2,85,10|10|10,0:3|0:3|0:3,0:0:0:0:
176,224,67049,2,0,L|176:120,1,85,10|0,0:0|0:0,0:0:0:0:
312,144,67331,2,0,L|384:144,1,42.5,2|0,0:0|0:0,0:0:0:0:
264,88,67472,1,2,0:0:0:0:
184,88,67613,1,2,0:0:0:0:
392,344,67753,6,0,L|400:232,1,85,14|0,0:3|0:0,0:0:0:0:
272,344,68035,2,0,L|280:232,1,85,10|2,0:3|0:0,0:0:0:0:
328,264,68246,1,0,0:0:0:0:
424,184,68317,2,0,L|320:184,1,85,10|0,0:3|0:0,0:0:0:0:
200,136,68598,2,0,L|285:136,1,85,10|0,0:3|0:0,0:0:0:0:
72,328,68880,6,0,L|64:232,1,85,10|0,0:3|0:0,0:0:0:0:
272,328,69162,2,0,L|280:232,1,85,10|0,0:3|0:0,0:0:0:0:
120,176,69444,2,0,L|112:120,1,42.5,10|0,0:3|0:0,0:0:0:0:
168,128,69584,1,0,0:0:0:0:
392,192,69725,2,0,L|496:192,1,85,10|0,0:3|0:0,0:0:0:0:
488,144,69936,1,0,0:0:0:0:
312,352,70007,6,0,L|208:352,1,85,10|0,0:3|0:0,0:0:0:0:
360,296,70289,2,0,L|448:296,1,85,10|2,0:3|0:0,0:0:0:0:
400,240,70500,1,0,0:0:0:0:
240,240,70570,2,0,L|144:240,1,85,10|0,0:3|0:0,0:0:0:0:
288,176,70852,2,0,L|376:176,1,85,10|0,0:3|0:0,0:0:0:0:
160,176,71134,6,0,L|152:72,1,85,10|0,0:3|0:0,0:0:0:0:
296,144,71415,2,0,L|304:40,1,85,10|0,0:3|0:0,0:0:0:0:
240,64,71627,1,0,0:0:0:0:
144,344,71697,2,0,L|136:240,1,85,10|0,0:3|0:0,0:0:0:0:
344,248,71979,2,0,L|432:248,1,85,10|0,0:3|0:0,0:0:0:0:
384,192,72190,1,0,0:0:0:0:
208,200,72260,6,0,L|120:200,1,85,14|8,0:3|0:3,0:0:0:0:
256,144,72542,2,0,L|144:144,1,85,8|10,0:3|0:3,0:0:0:0:
312,328,72824,2,0,L|312:232,1,85,8|10,0:3|0:3,0:0:0:0:
176,208,73105,2,0,L|280:208,1,85,10|10,0:3|0:3,0:0:0:0:
48,328,73387,6,0,L|56:240,1,85,14|8,0:3|0:3,0:0:0:0:
184,336,73669,2,0,L|192:248,1,85,8|8,0:3|0:3,0:0:0:0:
328,200,73951,2,0,L|224:200,1,85,10|8,0:3|0:3,0:0:0:0:
104,192,74232,2,0,L|96:88,1,85,8|8,0:3|0:3,0:0:0:0:
312,336,74514,5,14,0:3:0:0:
360,320,74584,1,8,0:3:0:0:
392,288,74654,1,8,0:3:0:0:
408,240,74725,1,8,0:3:0:0:
256,248,74796,1,8,0:3:0:0:
208,248,74866,1,8,0:3:0:0:
160,248,74936,1,8,0:3:0:0:
112,248,75007,1,8,0:3:0:0:
272,152,75077,5,14,0:3:0:0:
328,136,75147,1,8,0:3:0:0:
328,80,75217,1,8,0:3:0:0:
272,72,75288,1,8,0:3:0:0:
104,128,75359,1,8,0:3:0:0:
48,112,75429,1,8,0:3:0:0:
48,56,75499,1,8,0:3:0:0:
104,48,75570,1,8,0:3:0:0:
288,336,75641,5,14,0:3:0:0:
344,336,75711,1,8,0:3:0:0:
400,336,75781,1,8,0:3:0:0:
456,336,75852,1,8,0:3:0:0:
264,288,75922,1,14,0:3:0:0:
208,272,75992,1,8,0:3:0:0:
176,224,76062,1,8,0:3:0:0:
184,160,76133,1,8,0:3:0:0:
416,152,76204,5,14,0:3:0:0:
488,232,76345,1,2,0:0:0:0:
488,152,76486,1,2,0:0:0:0:
416,232,76627,1,2,0:0:0:0:
184,112,76767,6,0,L|120:112,2,42.5,14|0|0,0:3|0:0|0:0,0:0:0:0:
392,360,77049,2,0,L|400:312,1,42.5,10|0,0:0|0:0,0:0:0:0:
336,320,77190,1,0,0:0:0:0:
208,320,77331,2,0,L|200:256,1,42.5,10|0,0:3|0:0,0:0:0:0:
272,280,77472,1,2,0:0:0:0:
400,264,77613,2,0,L|473:190,1,85,10|2,0:0|0:0,0:0:0:0:
232,184,77894,5,10,0:3:0:0:
232,184,78035,1,0,0:0:0:0:
440,184,78176,1,10,0:0:0:0:
360,184,78317,2,0,L|352:88,1,85,2|8,0:0|0:3,0:0:0:0:
424,96,78598,1,2,0:0:0:0:
288,96,78739,1,10,0:0:0:0:
152,96,78880,1,2,0:0:0:0:
360,336,79021,6,0,L|408:336,2,42.5,10|0|0,0:3|0:0|0:0,0:0:0:0:
152,328,79303,1,10,0:0:0:0:
152,285,79373,1,0,0:0:0:0:
152,243,79443,1,0,0:0:0:0:
288,248,79584,1,10,0:3:0:0:
330,248,79654,1,0,0:0:0:0:
373,248,79724,1,2,0:0:0:0:
232,192,79866,1,10,0:0:0:0:
368,192,80007,1,2,0:0:0:0:
152,192,80148,6,0,L|144:80,1,85,10|0,0:3|0:0,0:0:0:0:
272,320,80429,1,10,0:0:0:0:
136,320,80570,2,0,L|48:320,1,85,2|8,0:0|0:3,0:0:0:0:
192,248,80852,2,0,L|384:248,1,170,2|2,0:0|0:0,0:0:0:0:
160,200,81274,6,0,L|42:200,1,85
296,120,81556,1,8,0:0:0:0:
384,120,81697,2,0,L|392:64,1,42.5,2|0,0:0|0:0,0:0:0:0:
296,328,81838,2,0,L|184:328,1,85,10|0,0:3|0:0,0:0:0:0:
416,328,82120,2,0,L|416:240,1,85,8|2,0:0|0:0,0:0:0:0:
360,240,82331,1,0,0:0:0:0:
200,232,82401,6,0,L|192:128,1,85,10|2,0:3|0:0,0:0:0:0:
328,144,82683,1,8,0:0:0:0:
128,88,82824,2,0,L|192:152,1,85,2|8,0:0|0:3,0:0:0:0:
248,208,83105,1,2,0:0:0:0:
40,328,83246,2,0,L|40:232,1,85,10|0,0:0|0:0,0:0:0:0:
272,256,83528,5,10,0:3:0:0:
280,208,83598,1,0,0:0:0:0:
232,208,83668,1,0,0:0:0:0:
24,176,83810,1,10,0:0:0:0:
66,176,83880,1,0,0:0:0:0:
109,176,83950,1,0,0:0:0:0:
232,112,84091,1,10,0:3:0:0:
280,112,84161,1,0,0:0:0:0:
328,112,84231,1,0,0:0:0:0:
208,56,84373,1,10,0:0:0:0:
176,56,84514,1,0,0:0:0:0:
416,352,84655,6,0,L|416:240,1,85,10|10,0:3|0:3,0:0:0:0:
208,256,84936,1,10,0:0:0:0:
80,256,85077,2,0,L|72:160,1,85,2|8,0:0|0:3,0:0:0:0:
160,168,85359,1,10,0:3:0:0:
368,152,85500,1,10,0:0:0:0:
368,152,85641,1,2,0:0:0:0:
168,96,85782,5,14,0:3:0:0:
125,96,85852,1,0,0:0:0:0:
83,96,85922,1,0,0:0:0:0:
288,320,86063,2,0,L|352:320,1,42.5,10|0,0:0|0:0,0:0:0:0:
400,320,86204,1,0,0:0:0:0:
264,272,86345,1,10,0:3:0:0:
216,248,86415,1,0,0:0:0:0:
216,208,86485,1,2,0:0:0:0:
416,176,86627,1,10,0:0:0:0:
336,176,86767,1,0,0:0:0:0:
128,176,86908,6,0,L|120:64,1,85,10|0,0:3|0:0,0:0:0:0:
328,336,87190,1,10,0:0:0:0:
240,336,87331,2,0,L|240:240,1,85,2|8,0:0|0:3,0:0:0:0:
320,248,87613,1,2,0:0:0:0:
112,336,87753,1,10,0:0:0:0:
88,264,87893,1,2,0:0:0:0:
304,184,88035,6,0,L|304:112,1,42.5,10|0,0:3|0:0,0:0:0:0:
264,144,88176,1,0,0:0:0:0:
64,136,88317,2,0,L|0:136,1,42.5,10|0,0:0|0:0,0:0:0:0:
16,88,88458,1,0,0:0:0:0:
152,88,88598,1,10,0:3:0:0:
194,88,88668,1,0,0:0:0:0:
237,88,88738,1,2,0:0:0:0:
448,280,88880,2,0,L|344:280,1,85,10|0,0:0|0:0,0:0:0:0:
144,288,89162,6,0,L|144:192,1,85,10|0,0:3|0:0,0:0:0:0:
352,208,89444,1,10,0:0:0:0:
224,216,89584,2,0,L|224:120,1,85,2|8,0:0|0:3,0:0:0:0:
312,128,89866,1,2,0:0:0:0:
184,80,90007,1,10,0:0:0:0:
312,128,90148,1,2,0:0:0:0:
104,328,90289,6,0,L|149:282,1,42.5,14|0,0:3|0:0,0:0:0:0:
272,296,90429,1,12,0:3:0:0:
408,272,90711,1,10,0:3:0:0:
408,229,90781,1,0,0:0:0:0:
352,224,90852,2,0,L|272:224,1,42.5,14|0,0:3|0:0,0:0:0:0:
152,224,90993,1,12,0:3:0:0:
272,224,91274,1,10,0:3:0:0:
272,181,91344,1,0,0:0:0:0:
216,176,91415,6,0,L|152:176,1,42.5,14|0,0:3|0:0,0:0:0:0:
336,176,91556,1,12,0:3:0:0:
224,296,91838,2,0,L|144:296,1,42.5,10|0,0:3|0:0,0:0:0:0:
128,296,91979,2,0,L|120:240,1,42.5,14|0,0:3|0:0,0:0:0:0:
288,128,92120,1,12,0:3:0:0:
416,128,92260,2,0,P|456:112|480:32,1,127.5,2|8,0:0|0:3,0:0:0:0:
304,216,92542,6,0,L|208:216,1,85,14|0,0:3|0:0,0:0:0:0:
205,168,92753,1,2,0:0:0:0:
301,320,92824,1,8,0:0:0:0:
429,320,92965,2,0,L|429:248,1,42.5,2|0,0:0|0:0,0:0:0:0:
285,112,93105,1,14,0:3:0:0:
229,112,93176,2,0,L|229:24,1,85,2|0,0:0|0:0,0:0:0:0:
373,48,93387,2,0,L|485:48,1,85,10|2,0:0|0:0,0:0:0:0:
469,104,93598,1,0,0:0:0:0:
296,320,93669,6,0,L|288:264,2,42.5,14|8|8,0:3|0:3|0:3,0:0:0:0:
424,320,93951,2,0,L|432:264,2,42.5,14|8|8,0:3|0:3|0:3,0:0:0:0:
213,216,94232,2,0,L|157:216,2,42.5,14|8|8,0:3|0:3|0:3,0:0:0:0:
357,216,94514,1,14,0:3:0:0:
413,192,94584,1,8,0:3:0:0:
408,152,94654,1,8,0:3:0:0:
351,136,94725,1,8,0:3:0:0:
197,128,94796,5,14,0:3:0:0:
72,328,95218,2,0,L|75:272,1,42.5,8|8,0:3|0:3,0:0:0:0:
168,288,95359,1,8,0:3:0:0:
336,288,95782,1,8,0:3:0:0:
128,232,95922,6,0,L|115:184,1,42.5,10|8,0:3|0:3,0:0:0:0:
155,184,96063,2,0,L|211:184,1,42.5,8|8,0:3|0:3,0:0:0:0:
341,168,96204,1,10,0:3:0:0:
389,144,96274,1,8,0:3:0:0:
387,104,96344,1,8,0:3:0:0:
341,96,96415,1,8,0:3:0:0:
197,104,96486,2,0,L|125:104,1,42.5,10|8,0:3|0:3,0:0:0:0:
301,336,96627,2,0,L|373:336,1,42.5,8|8,0:3|0:3,0:0:0:0:
189,336,96767,2,0,P|157:328|133:232,1,127.5,10|0,0:0|0:0,0:0:0:0:
293,240,97049,6,0,L|381:240,1,85,14|2,0:3|0:0,0:0:0:0:
245,192,97331,2,0,L|245:88,1,85,8|2,0:0|0:0,0:0:0:0:
328,112,97613,2,0,L|400:112,2,42.5,8|0|2,0:3|0:0|0:0,0:0:0:0:
192,64,97894,2,0,L|277:64,1,85,8|2,0:0|0:0,0:0:0:0:
488,352,98176,6,0,L|488:248,1,85,8|2,0:3|0:0,0:0:0:0:
352,248,98458,1,8,0:0:0:0:
309,248,98528,1,0,0:0:0:0:
267,248,98598,1,2,0:0:0:0:
352,192,98739,2,0,L|408:192,2,42.5,8|0|2,0:3|0:0|0:0,0:0:0:0:
216,192,99021,1,8,0:0:0:0:
216,192,99162,1,2,0:0:0:0:
424,160,99303,6,0,L|424:72,1,85,8|2,0:3|0:0,0:0:0:0:
216,352,99584,2,0,L|216:280,1,42.5,8|0,0:0|0:0,0:0:0:0:
288,304,99725,1,2,0:0:0:0:
360,248,99866,1,8,0:3:0:0:
312,248,99936,1,0,0:0:0:0:
264,248,100006,1,2,0:0:0:0:
136,288,100148,2,0,L|136:200,1,85,8|2,0:0|0:0,0:0:0:0:
347,192,100429,6,0,L|435:192,1,85,8|2,0:3|0:0,0:0:0:0:
296,192,100711,2,0,L|296:88,1,85,8|2,0:0|0:0,0:0:0:0:
376,104,100993,1,8,0:3:0:0:
424,104,101063,1,0,0:0:0:0:
472,104,101133,1,2,0:0:0:0:
256,336,101274,1,8,0:0:0:0:
171,336,101414,1,10,0:3:0:0:
392,336,101556,6,0,L|392:240,1,85,8|2,0:3|0:0,0:0:0:0:
256,240,101838,1,8,0:0:0:0:
232,184,101978,1,2,0:0:0:0:
320,184,102120,2,0,L|376:184,2,42.5,8|0|2,0:3|0:0|0:0,0:0:0:0:
192,208,102401,2,0,L|96:208,1,85,8|2,0:0|0:0,0:0:0:0:
320,352,102683,6,0,L|320:256,1,85,8|2,0:3|0:0,0:0:0:0:
184,336,102965,1,8,0:0:0:0:
128,336,103035,1,0,0:0:0:0:
112,280,103105,1,2,0:0:0:0:
200,208,103247,2,0,L|256:208,2,42.5,8|0|2,0:3|0:0|0:0,0:0:0:0:
64,144,103528,2,0,L|64:48,1,85,8|2,0:0|0:0,0:0:0:0:
272,192,103810,6,0,L|360:192,1,85,8|2,0:3|0:0,0:0:0:0:
224,144,104092,2,0,L|224:40,1,85,8|2,0:0|0:0,0:0:0:0:
304,56,104374,1,8,0:3:0:0:
352,56,104444,1,0,0:0:0:0:
368,96,104514,1,2,0:0:0:0:
240,280,104655,2,0,L|344:280,1,85,8|2,0:0|0:0,0:0:0:0:
120,288,104936,5,8,0:3:0:0:
120,203,105076,1,10,0:3:0:0:
264,208,105218,2,0,L|336:208,2,42.5,8|0|2,0:0|0:0|0:0,0:0:0:0:
128,144,105500,6,0,L|56:144,1,42.5,14|0,0:3|0:0,0:0:0:0:
248,136,105641,1,6,0:0:0:0:
360,136,105781,1,8,0:3:0:0:
136,352,105922,2,0,L|136:288,1,42.5,6|0,0:0|0:0,0:0:0:0:
232,312,106063,6,0,L|336:312,1,85,2|8,0:0|0:3,0:0:0:0:
328,256,106274,1,8,0:3:0:0:
160,240,106345,5,14,0:0:0:0:
160,240,106486,1,0,0:0:0:0:
312,208,106627,2,0,L|400:208,1,85,10|2,0:3|0:0,0:0:0:0:
425,173,106838,1,0,0:0:0:0:
292,166,106908,2,0,P|240:128|232:64,1,127.5,10|0,0:0|0:0,0:0:0:0:
384,64,107190,6,0,L|480:64,1,85,10|2,0:3|0:0,0:0:0:0:
328,344,107472,2,0,L|320:296,1,42.5,10|0,0:0|0:0,0:0:0:0:
480,304,107613,2,0,L|480:208,1,85,8|8,0:0|0:3,0:0:0:0:
392,216,107894,1,2,0:0:0:0:
192,216,108035,2,0,L|208:112,1,85,10|0,0:0|0:0,0:0:0:0:
416,120,108317,6,0,L|416:24,1,85,10|0,0:3|0:0,0:0:0:0:
280,112,108598,1,10,0:0:0:0:
368,112,108738,1,0,0:0:0:0:
160,304,108880,2,0,L|160:216,1,85,10|2,0:3|0:0,0:0:0:0:
221,219,109091,1,0,0:0:0:0:
280,220,109162,2,0,P|299:161|236:154,1,127.5,10|0,0:0|0:0,0:0:0:0:
88,160,109444,5,10,0:3:0:0:
88,160,109584,1,2,0:0:0:0:
224,168,109725,1,10,0:0:0:0:
224,168,109865,1,2,0:0:0:0:
88,160,110007,2,0,L|88:64,1,85,10|0,0:3|0:0,0:0:0:0:
232,64,110289,1,10,0:0:0:0:
88,72,110429,1,8,0:3:0:0:
320,344,110570,6,0,L|320:240,1,85,14|8,0:3|0:3,0:0:0:0:
264,256,110782,1,8,0:3:0:0:
112,256,110852,1,10,0:0:0:0:
88,184,110993,1,0,0:0:0:0:
216,168,111134,2,0,L|304:168,1,85,10|2,0:3|0:0,0:0:0:0:
312,120,111345,1,0,0:0:0:0:
168,112,111415,2,0,P|119:80|180:44,1,127.5,10|0,0:0|0:0,0:0:0:0:
288,320,111697,5,10,0:3:0:0:
344,312,111767,1,0,0:0:0:0:
352,256,111837,1,2,0:0:0:0:
216,248,111979,1,10,0:0:0:0:
432,256,112120,2,0,L|440:200,1,42.5,8|0,0:0|0:0,0:0:0:0:
296,200,112260,2,0,L|192:200,1,85,8|2,0:3|0:0,0:0:0:0:
440,176,112542,2,0,L|448:72,1,85,10|0,0:0|0:0,0:0:0:0:
208,96,112824,6,0,L|96:96,1,85,14|0,0:3|0:0,0:0:0:0:
256,48,113105,1,10,0:3:0:0:
392,48,113246,1,8,0:3:0:0:
184,256,113387,2,0,L|80:256,1,85,14|10,0:3|0:3,0:0:0:0:
144,208,113598,1,0,0:0:0:0:
280,200,113669,1,10,0:3:0:0:
322,200,113739,1,0,0:0:0:0:
365,200,113809,1,8,0:3:0:0:
407,200,113880,1,0,0:0:0:0:
256,240,113951,5,10,0:3:0:0:
200,224,114021,1,8,0:3:0:0:
192,176,114091,1,10,0:3:0:0:
248,168,114162,1,8,0:3:0:0:
392,168,114232,2,0,L|464:168,1,42.5,10|8,0:3|0:3,0:0:0:0:
272,120,114373,2,0,L|216:120,1,42.5,10|8,0:3|0:3,0:0:0:0:
408,80,114514,2,0,L|416:24,1,42.5,14|0,0:3|0:0,0:0:0:0:
192,80,114655,5,14,0:3:0:0:
