osu file format v14

[General]
AudioFilename: audio.mp3
AudioLeadIn: 0
PreviewTime: 76755
Countdown: 0
SampleSet: Normal
StackLeniency: 0.7
Mode: 3
LetterboxInBreaks: 0
EpilepsyWarning: 1
SpecialStyle: 0
WidescreenStoryboard: 1

[Editor]
DistanceSpacing: 1
BeatDivisor: 4
GridSize: 4
TimelineZoom: 2.699999

[Metadata]
Title:Run*2 Run To You!!
TitleUnicode:Run*2 Run To You!!
Artist:Umeboshi Chazuke
ArtistUnicode:梅干茶漬け
Creator:[Crz]Alleyne
Version:Run while you can!!
Source:MUSYNX
Tags:fa featured artist [RT]Alleyne happycore happy hardcore electronic instrumental stream handstream jumpstream chiptune chipstyle bitpop 8bit 8-bit mg mappers' guild 同步音律喵赛克 MUSYNC
BeatmapID:3665477
BeatmapSetID:1788950

[Difficulty]
HPDrainRate:8.5
CircleSize:4
OverallDifficulty:8.5
ApproachRate:5
SliderMultiplier:1.4
SliderTickRate:1

[Events]
//Background and Video events
0,0,"bg.jpg",0,0
//Break Periods
//Storyboard Layer 0 (Background)
//Storyboard Layer 1 (Fail)
//Storyboard Layer 2 (Pass)
//Storyboard Layer 3 (Foreground)
//Storyboard Layer 4 (Overlay)
//Storyboard Sound Samples

[TimingPoints]
1263,281.69014084507,4,1,1,70,1,0
76755,-100,4,1,1,70,0,1
97037,-100,4,1,1,70,0,0

[HitObjects]
64,192,840,5,0,0:0:0:0:
64,192,981,1,0,0:0:0:0:
192,192,1122,1,0,0:0:0:0:
64,192,1263,1,0,0:0:0:0:
320,192,1263,1,0,0:0:0:0:
448,192,1263,1,0,0:0:0:0:
192,192,1403,1,0,0:0:0:0:
320,192,1403,1,0,0:0:0:0:
64,192,1544,1,0,0:0:0:93:LR_Clap Fast Low.wav
192,192,1544,1,0,0:0:0:0:
448,192,1544,1,0,0:0:0:0:
320,192,1685,1,0,0:0:0:0:
448,192,1685,1,0,0:0:0:0:
192,192,1826,1,0,0:0:0:0:
64,192,1967,1,0,0:0:0:0:
320,192,1967,1,0,0:0:0:0:
448,192,2037,1,0,0:0:0:0:
64,192,2108,1,0,0:0:0:93:LR_Clap Fast Low.wav
192,192,2108,1,0,0:0:0:0:
320,192,2108,1,0,0:0:0:0:
192,192,2248,1,0,0:0:0:0:
448,192,2248,1,0,0:0:0:0:
320,192,2389,1,0,0:0:0:0:
448,192,2389,1,0,0:0:0:0:
64,192,2530,1,0,0:0:0:0:
192,192,2530,1,0,0:0:0:0:
64,192,2671,1,0,0:0:0:93:LR_Clap Fast Low.wav
320,192,2671,1,0,0:0:0:0:
448,192,2671,1,0,0:0:0:0:
192,192,2812,1,0,0:0:0:0:
320,192,2812,1,0,0:0:0:0:
64,192,2953,1,0,0:0:0:0:
192,192,3093,1,0,0:0:0:0:
448,192,3093,1,0,0:0:0:0:
320,192,3164,1,0,0:0:0:0:
64,192,3234,1,0,0:0:0:93:LR_Clap Fast Low.wav
192,192,3234,1,0,0:0:0:0:
448,192,3234,1,0,0:0:0:0:
64,192,3375,1,0,0:0:0:0:
320,192,3375,1,0,0:0:0:0:
448,192,3516,1,0,0:0:0:0:
64,192,3657,1,0,0:0:0:0:
192,192,3657,1,0,0:0:0:0:
192,192,3798,1,0,0:0:0:93:LR_Clap Fast Low.wav
320,192,3798,1,0,0:0:0:0:
448,192,3798,1,0,0:0:0:0:
64,192,3939,1,0,0:0:0:0:
448,192,3939,1,0,0:0:0:0:
320,192,4079,1,0,0:0:0:0:
192,192,4220,1,0,0:0:0:0:
448,192,4220,1,0,0:0:0:0:
64,192,4291,1,0,0:0:0:0:
192,192,4361,1,0,0:0:0:93:LR_Clap Fast Low.wav
320,192,4361,1,0,0:0:0:0:
448,192,4361,1,0,0:0:0:0:
64,192,4502,1,0,0:0:0:0:
320,192,4502,1,0,0:0:0:0:
192,192,4643,1,0,0:0:0:0:
448,192,4643,1,0,0:0:0:0:
64,192,4784,1,0,0:0:0:0:
192,192,4784,1,0,0:0:0:0:
64,192,4924,1,0,0:0:0:93:LR_Clap Fast Low.wav
320,192,4924,1,0,0:0:0:0:
448,192,4924,1,0,0:0:0:0:
192,192,5065,1,0,0:0:0:0:
320,192,5065,1,0,0:0:0:0:
448,192,5206,1,0,0:0:0:0:
64,192,5347,1,0,0:0:0:0:
192,192,5347,1,0,0:0:0:0:
192,192,5488,1,0,0:0:0:93:LR_Clap Fast Low.wav
320,192,5488,1,0,0:0:0:0:
448,192,5488,1,0,0:0:0:0:
64,192,5629,1,0,0:0:0:0:
448,192,5629,1,0,0:0:0:0:
64,192,5770,1,0,0:0:0:0:
192,192,5770,1,0,0:0:0:0:
448,192,5910,1,0,0:0:0:0:
64,192,6051,1,0,0:0:0:93:LR_Clap Fast Low.wav
192,192,6051,1,0,0:0:0:0:
320,192,6051,1,0,0:0:0:0:
320,192,6192,1,0,0:0:0:0:
448,192,6192,1,0,0:0:0:0:
192,192,6262,1,0,0:0:0:0:
64,192,6333,1,0,0:0:0:0:
448,192,6333,1,0,0:0:0:0:
192,192,6474,1,0,0:0:0:0:
64,192,6615,1,0,0:0:0:93:LR_Clap Fast Low.wav
320,192,6615,1,0,0:0:0:0:
448,192,6615,1,0,0:0:0:0:
192,192,6755,1,0,0:0:0:0:
448,192,6755,1,0,0:0:0:0:
320,192,6826,1,0,0:0:0:0:
64,192,6896,128,0,7460:0:0:0:0:
448,192,6896,128,0,7037:0:0:0:0:
192,192,7037,128,0,7178:0:0:0:0:
320,192,7037,1,0,0:0:0:0:
320,192,7178,128,0,7319:0:0:0:93:LR_Clap Fast Low.wav
448,192,7178,1,0,0:0:0:0:
192,192,7319,128,0,7460:0:0:0:93:LR_Clap Fast Low.wav
448,192,7319,1,0,0:0:0:0:
320,192,7601,1,0,0:0:0:0:
448,192,7601,1,0,0:0:0:0:
192,192,7671,1,0,0:0:0:0:
64,192,7741,1,0,0:0:0:0:
320,192,7741,1,0,0:0:0:0:
448,192,7882,1,0,0:0:0:0:
64,192,8023,1,2,0:0:0:46:
192,192,8023,1,4,0:0:0:46:
320,192,8023,1,0,0:0:0:0:
448,192,8093,1,0,0:0:0:0:
64,192,8164,1,0,0:0:0:0:
320,192,8234,1,0,0:0:0:0:
192,192,8305,1,2,0:0:0:93:
448,192,8305,1,0,0:0:0:0:
64,192,8375,1,0,0:0:0:0:
320,192,8446,1,0,0:0:0:0:
448,192,8446,1,0,0:0:0:0:
64,192,8516,1,0,0:0:0:0:
192,192,8516,1,0,0:0:0:0:
320,192,8586,1,2,0:0:0:93:
448,192,8586,1,0,0:0:0:0:
192,192,8657,1,0,0:0:0:0:
64,192,8727,1,0,0:0:0:0:
448,192,8798,1,0,0:0:0:0:
64,192,8868,1,2,0:0:0:93:
320,192,8868,1,0,0:0:0:0:
192,192,8939,1,0,0:0:0:0:
320,192,9009,1,0,0:0:0:0:
448,192,9079,1,0,0:0:0:0:
64,192,9150,1,2,0:0:0:93:
192,192,9150,1,0,0:0:0:0:
320,192,9220,1,0,0:0:0:0:
64,192,9291,1,0,0:0:0:0:
448,192,9291,1,0,0:0:0:0:
192,192,9361,1,0,0:0:0:0:
320,192,9432,1,2,0:0:0:93:
448,192,9432,1,0,0:0:0:0:
64,192,9502,1,0,0:0:0:0:
192,192,9572,1,0,0:0:0:0:
448,192,9572,1,0,0:0:0:0:
320,192,9643,1,0,0:0:0:0:
64,192,9713,1,2,0:0:0:93:
192,192,9713,1,0,0:0:0:0:
448,192,9784,1,0,0:0:0:0:
192,192,9854,1,0,0:0:0:0:
320,192,9854,1,0,0:0:0:0:
64,192,9924,1,0,0:0:0:0:
320,192,9995,1,2,0:0:0:93:
448,192,9995,128,0,10277:0:0:0:0:
192,192,10136,1,0,0:0:0:0:
64,192,10206,1,0,0:0:0:0:
192,192,10277,1,2,0:0:0:46:
320,192,10277,1,4,0:0:0:46:
64,192,10347,1,0,0:0:0:0:
320,192,10417,1,2,0:0:0:93:
448,192,10417,1,0,0:0:0:0:
192,192,10488,1,0,0:0:0:0:
64,192,10558,1,2,0:0:0:93:
320,192,10558,1,0,0:0:0:0:
448,192,10629,1,0,0:0:0:0:
64,192,10699,1,2,0:0:0:93:
192,192,10699,1,0,0:0:0:0:
320,192,10770,1,0,0:0:0:0:
448,192,10770,1,0,0:0:0:0:
64,192,10840,1,2,0:0:0:46:
192,192,10840,1,4,0:0:0:46:
320,192,10910,1,0,0:0:0:0:
192,192,10981,1,2,0:0:0:93:
448,192,10981,1,0,0:0:0:0:
64,192,11051,1,0,0:0:0:0:
192,192,11122,1,2,0:0:0:93:
320,192,11122,1,0,0:0:0:0:
448,192,11122,1,0,0:0:0:0:
64,192,11192,1,0,0:0:0:0:
192,192,11262,1,2,0:0:0:93:
320,192,11262,1,0,0:0:0:0:
448,192,11333,1,0,0:0:0:0:
64,192,11403,1,2,0:0:0:46:
192,192,11403,1,4,0:0:0:46:
320,192,11474,1,2,0:0:0:93:
448,192,11474,1,0,0:0:0:0:
64,192,11544,1,2,0:0:0:93:
192,192,11544,1,0,0:0:0:0:
320,192,11615,1,2,0:0:0:93:
448,192,11615,1,0,0:0:0:0:
64,192,11685,1,2,0:0:0:46:
192,192,11685,1,4,0:0:0:46:
320,192,11755,1,2,0:0:0:93:
448,192,11755,1,0,0:0:0:0:
64,192,11826,1,2,0:0:0:93:
192,192,11826,1,0,0:0:0:0:
320,192,11896,1,2,0:0:0:93:
448,192,11896,1,0,0:0:0:0:
64,192,11967,1,2,0:0:0:93:
192,192,11967,1,0,0:0:0:0:
320,192,12037,1,0,0:0:0:0:
448,192,12037,1,0,0:0:0:0:
64,192,12108,1,2,0:0:0:93:
192,192,12108,1,0,0:0:0:0:
320,192,12178,1,2,0:0:0:93:
448,192,12178,1,0,0:0:0:0:
64,192,12248,128,8,12530:0:0:0:46:
192,192,12248,1,2,0:0:0:46:
448,192,12389,1,0,0:0:0:0:
192,192,12460,1,0,0:0:0:0:
320,192,12530,128,2,12671:0:0:0:93:
448,192,12530,128,0,14784:0:0:0:0:
64,192,12671,1,0,0:0:0:0:
192,192,12741,1,0,0:0:0:0:
64,192,12812,128,0,12953:0:0:0:0:
192,192,12953,128,0,13093:0:0:0:0:
64,192,13093,1,0,0:0:0:0:
320,192,13164,1,0,0:0:0:0:
192,192,13234,128,0,13375:0:0:0:0:
320,192,13375,128,0,13516:0:0:0:0:
192,192,13516,128,0,13657:0:0:0:0:
64,192,13657,128,0,13798:0:0:0:0:
320,192,13798,1,0,0:0:0:0:
192,192,13868,1,0,0:0:0:0:
64,192,13939,128,0,14079:0:0:0:0:
192,192,14079,128,0,14220:0:0:0:0:
320,192,14220,1,0,0:0:0:0:
64,192,14291,1,0,0:0:0:0:
192,192,14361,1,0,0:0:0:0:
320,192,14502,1,0,0:0:0:0:
192,192,14572,1,0,0:0:0:0:
64,192,14643,1,0,0:0:0:93:ride07.wav
320,192,14713,1,0,0:0:0:93:ride07.wav
64,192,14784,128,0,14924:0:0:0:93:ride07.wav
192,192,14784,128,0,14854:0:0:0:0:
320,192,14924,1,0,0:0:0:0:
448,192,14995,1,0,0:0:0:0:
64,192,15065,128,0,15206:0:0:0:0:
320,192,15206,128,0,15347:0:0:0:0:
64,192,15347,1,0,0:0:0:0:
192,192,15417,1,0,0:0:0:0:
448,192,15488,128,0,15629:0:0:0:0:
320,192,15629,128,0,15770:0:0:0:0:
64,192,15770,128,0,15910:0:0:0:0:
192,192,15910,128,0,16051:0:0:0:93:LR_Chm_Soft_NLV.wav
448,192,15910,1,0,0:0:0:0:
320,192,16051,1,0,0:0:0:0:
64,192,16122,1,0,0:0:0:0:
192,192,16192,128,0,16333:0:0:0:93:LR_Chm_Soft_NLV.wav
448,192,16192,1,0,0:0:0:0:
320,192,16333,128,0,16474:0:0:0:0:
64,192,16474,1,0,0:0:0:93:LR_Chm_Soft_NLV.wav
448,192,16474,1,0,0:0:0:0:
192,192,16544,1,0,0:0:0:0:
320,192,16615,128,0,16755:0:0:0:93:LR_Chm_Soft_NLV.wav
448,192,16615,1,0,0:0:0:0:
64,192,16685,1,0,0:0:0:93:LR_Chm_Soft_NLV.wav
192,192,16755,128,0,16896:0:0:0:93:LR_Chm_Soft_NLV.wav
448,192,16755,1,0,0:0:0:0:
64,192,16896,128,0,17037:0:0:0:0:
192,192,17037,1,2,0:0:0:46:
320,192,17037,1,4,0:0:0:46:
448,192,17037,1,0,0:0:0:0:
64,192,17178,1,0,0:0:0:0:
192,192,17178,1,0,0:0:0:0:
320,192,17248,1,0,0:0:0:0:
64,192,17319,1,8,0:0:0:46:
192,192,17319,1,2,0:0:0:46:
448,192,17319,1,0,0:0:0:0:
64,192,17460,1,0,0:0:0:0:
448,192,17460,1,0,0:0:0:0:
192,192,17530,1,0,0:0:0:0:
320,192,17530,1,0,0:0:0:0:
64,192,17601,1,2,0:0:0:93:
448,192,17601,1,0,0:0:0:0:
320,192,17741,1,0,0:0:0:0:
448,192,17741,1,0,0:0:0:0:
192,192,17812,1,0,0:0:0:0:
64,192,17882,1,8,0:0:0:46:
320,192,17882,1,2,0:0:0:46:
448,192,17882,1,0,0:0:0:0:
192,192,18023,1,0,0:0:0:0:
320,192,18023,1,0,0:0:0:0:
64,192,18093,1,0,0:0:0:0:
448,192,18093,1,0,0:0:0:0:
192,192,18164,1,2,0:0:0:93:
320,192,18164,1,0,0:0:0:0:
64,192,18305,1,0,0:0:0:0:
192,192,18305,1,0,0:0:0:0:
320,192,18375,1,0,0:0:0:0:
64,192,18446,1,8,0:0:0:46:
192,192,18446,1,2,0:0:0:46:
448,192,18446,1,0,0:0:0:0:
64,192,18586,1,0,0:0:0:0:
448,192,18586,1,0,0:0:0:0:
192,192,18657,1,0,0:0:0:0:
320,192,18657,1,0,0:0:0:0:
64,192,18727,1,2,0:0:0:93:
448,192,18727,1,0,0:0:0:0:
320,192,18868,1,0,0:0:0:0:
448,192,18868,1,0,0:0:0:0:
192,192,18939,1,0,0:0:0:0:
64,192,19009,1,8,0:0:0:46:
320,192,19009,1,2,0:0:0:46:
448,192,19009,1,0,0:0:0:0:
192,192,19150,1,0,0:0:0:0:
320,192,19150,1,0,0:0:0:0:
448,192,19220,1,0,0:0:0:0:
64,192,19291,1,2,0:0:0:46:
192,192,19291,1,4,0:0:0:46:
320,192,19291,1,0,0:0:0:0:
448,192,19361,1,0,0:0:0:0:
64,192,19432,1,2,0:0:0:93:
192,192,19432,1,0,0:0:0:0:
320,192,19502,1,0,0:0:0:0:
448,192,19502,1,0,0:0:0:0:
64,192,19572,1,8,0:0:0:46:
192,192,19572,1,2,0:0:0:46:
320,192,19713,1,0,0:0:0:0:
448,192,19713,1,0,0:0:0:0:
64,192,19784,1,0,0:0:0:0:
192,192,19854,1,2,0:0:0:46:
320,192,19854,1,4,0:0:0:46:
448,192,19854,1,0,0:0:0:0:
64,192,19995,1,0,0:0:0:0:
192,192,19995,1,0,0:0:0:0:
320,192,20065,1,2,0:0:0:93:
448,192,20065,1,0,0:0:0:0:
64,192,20136,1,8,0:0:0:46:
192,192,20136,1,2,0:0:0:46:
192,192,20277,1,2,0:0:0:93:
320,192,20277,1,0,0:0:0:0:
64,192,20347,1,0,0:0:0:0:
192,192,20417,1,2,0:0:0:46:
320,192,20417,1,4,0:0:0:46:
448,192,20417,1,0,0:0:0:0:
64,192,20558,1,0,0:0:0:0:
448,192,20558,1,0,0:0:0:0:
192,192,20629,1,0,0:0:0:0:
320,192,20629,1,0,0:0:0:0:
64,192,20699,1,0,0:0:0:0:
320,192,20770,1,0,0:0:0:0:
192,192,20840,1,0,0:0:0:0:
448,192,20840,1,0,0:0:0:0:
64,192,20910,1,0,0:0:0:0:
320,192,20910,1,0,0:0:0:0:
192,192,20981,1,0,0:0:0:0:
448,192,21051,1,0,0:0:0:0:
64,192,21122,1,0,0:0:0:0:
320,192,21122,1,0,0:0:0:0:
192,192,21192,1,0,0:0:0:0:
64,192,21262,1,0,0:0:0:93:clap.wav
320,192,21262,1,0,0:0:0:0:
448,192,21262,1,0,0:0:0:0:
192,192,21403,1,0,0:0:0:0:
448,192,21474,1,0,0:0:0:0:
64,192,21544,1,2,0:0:0:46:
192,192,21544,1,4,0:0:0:46:
320,192,21544,1,0,0:0:0:0:
320,192,21685,1,0,0:0:0:0:
448,192,21685,1,0,0:0:0:0:
64,192,21755,1,0,0:0:0:0:
192,192,21826,1,2,0:0:0:93:
320,192,21826,1,8,0:0:0:46:
448,192,21826,1,0,0:0:0:0:
64,192,21967,1,0,0:0:0:0:
192,192,21967,1,0,0:0:0:0:
64,192,22108,1,0,0:0:0:0:
320,192,22108,1,0,0:0:0:0:
192,192,22178,1,0,0:0:0:0:
64,192,22248,1,2,0:0:0:93:
320,192,22248,1,0,0:0:0:0:
448,192,22248,1,0,0:0:0:0:
192,192,22389,1,8,0:0:0:46:
320,192,22389,1,2,0:0:0:46:
448,192,22389,1,0,0:0:0:0:
64,192,22530,1,0,0:0:0:0:
192,192,22530,1,0,0:0:0:0:
320,192,22601,1,0,0:0:0:0:
64,192,22671,1,2,0:0:0:93:
192,192,22671,1,0,0:0:0:0:
448,192,22671,1,0,0:0:0:0:
64,192,22812,1,2,0:0:0:93:
320,192,22812,1,0,0:0:0:0:
448,192,22812,1,0,0:0:0:0:
192,192,22953,1,8,0:0:0:46:
320,192,22953,1,2,0:0:0:46:
448,192,22953,1,0,0:0:0:0:
64,192,23093,1,0,0:0:0:0:
192,192,23093,1,0,0:0:0:0:
320,192,23234,1,0,0:0:0:0:
448,192,23234,1,0,0:0:0:0:
192,192,23305,1,0,0:0:0:0:
64,192,23375,1,2,0:0:0:93:
320,192,23375,1,0,0:0:0:0:
448,192,23375,1,0,0:0:0:0:
64,192,23516,1,8,0:0:0:46:
192,192,23516,1,2,0:0:0:46:
448,192,23516,1,0,0:0:0:0:
192,192,23657,1,0,0:0:0:0:
320,192,23657,1,0,0:0:0:0:
64,192,23798,1,2,0:0:0:93:
320,192,23798,1,0,0:0:0:0:
448,192,23798,1,0,0:0:0:0:
64,192,23939,1,0,0:0:0:0:
192,192,23939,1,0,0:0:0:0:
448,192,24009,1,0,0:0:0:0:
64,192,24079,1,8,0:0:0:46:
192,192,24079,1,2,0:0:0:46:
320,192,24079,1,0,0:0:0:0:
320,192,24220,1,0,0:0:0:0:
448,192,24220,1,0,0:0:0:0:
64,192,24361,1,0,0:0:0:0:
448,192,24361,1,0,0:0:0:0:
320,192,24432,1,0,0:0:0:0:
64,192,24502,1,2,0:0:0:93:
192,192,24502,1,0,0:0:0:0:
448,192,24502,1,0,0:0:0:0:
64,192,24643,1,8,0:0:0:46:
192,192,24643,1,2,0:0:0:46:
320,192,24643,1,0,0:0:0:0:
320,192,24784,1,0,0:0:0:0:
448,192,24784,1,0,0:0:0:0:
192,192,24854,1,0,0:0:0:0:
64,192,24924,1,2,0:0:0:93:
320,192,24924,1,0,0:0:0:0:
448,192,24924,1,0,0:0:0:0:
64,192,25065,1,2,0:0:0:93:
192,192,25065,1,0,0:0:0:0:
448,192,25065,1,0,0:0:0:0:
64,192,25206,1,8,0:0:0:46:
192,192,25206,1,2,0:0:0:46:
320,192,25206,1,0,0:0:0:0:
320,192,25347,1,0,0:0:0:0:
448,192,25347,1,0,0:0:0:0:
64,192,25417,1,2,0:0:0:93:
192,192,25417,1,0,0:0:0:0:
448,192,25488,1,0,0:0:0:0:
192,192,25558,1,2,0:0:0:93:
320,192,25558,1,0,0:0:0:0:
64,192,25629,1,2,0:0:0:93:
448,192,25629,1,0,0:0:0:0:
64,192,25770,1,8,0:0:0:46:
192,192,25770,1,2,0:0:0:46:
320,192,25770,1,0,0:0:0:0:
320,192,25910,1,0,0:0:0:0:
448,192,25910,1,0,0:0:0:0:
64,192,26051,1,2,0:0:0:93:
192,192,26051,1,0,0:0:0:0:
448,192,26051,1,0,0:0:0:0:
320,192,26122,1,0,0:0:0:0:
64,192,26192,1,0,0:0:0:0:
192,192,26192,1,0,0:0:0:0:
448,192,26262,1,0,0:0:0:0:
64,192,26333,1,8,0:0:0:46:
192,192,26333,1,2,0:0:0:46:
320,192,26333,1,0,0:0:0:0:
320,192,26474,1,0,0:0:0:0:
448,192,26474,1,0,0:0:0:0:
64,192,26615,1,0,0:0:0:0:
448,192,26615,1,0,0:0:0:0:
192,192,26685,1,0,0:0:0:0:
64,192,26755,1,2,0:0:0:93:
320,192,26755,1,0,0:0:0:0:
448,192,26755,1,0,0:0:0:0:
64,192,26896,1,8,0:0:0:46:
192,192,26896,1,2,0:0:0:46:
320,192,26896,1,0,0:0:0:0:
192,192,27037,1,0,0:0:0:0:
448,192,27037,1,0,0:0:0:0:
320,192,27108,1,0,0:0:0:0:
64,192,27178,1,2,0:0:0:93:
192,192,27178,1,0,0:0:0:0:
448,192,27178,1,0,0:0:0:0:
64,192,27319,1,2,0:0:0:93:
320,192,27319,1,0,0:0:0:0:
448,192,27319,1,0,0:0:0:0:
192,192,27389,1,0,0:0:0:0:
64,192,27460,1,8,0:0:0:46:
320,192,27460,1,2,0:0:0:46:
448,192,27460,1,0,0:0:0:0:
192,192,27601,1,0,0:0:0:0:
320,192,27601,1,0,0:0:0:0:
64,192,27741,1,0,0:0:0:0:
192,192,27741,1,0,0:0:0:0:
64,192,27882,1,2,0:0:0:93:
320,192,27882,1,0,0:0:0:0:
448,192,27882,1,0,0:0:0:0:
192,192,28023,1,8,0:0:0:46:
320,192,28023,1,2,0:0:0:46:
448,192,28023,1,0,0:0:0:0:
64,192,28164,1,0,0:0:0:0:
192,192,28164,1,0,0:0:0:0:
64,192,28305,1,2,0:0:0:93:
320,192,28305,1,0,0:0:0:0:
448,192,28305,1,0,0:0:0:0:
192,192,28446,1,0,0:0:0:0:
320,192,28446,1,0,0:0:0:0:
64,192,28586,1,8,0:0:0:46:
192,192,28586,1,2,0:0:0:46:
320,192,28586,1,0,0:0:0:0:
320,192,28727,1,0,0:0:0:0:
448,192,28727,1,0,0:0:0:0:
192,192,28868,1,0,0:0:0:0:
320,192,28868,1,0,0:0:0:0:
64,192,29009,1,2,0:0:0:93:
320,192,29009,1,0,0:0:0:0:
448,192,29009,1,0,0:0:0:0:
192,192,29079,1,0,0:0:0:0:
64,192,29150,1,8,0:0:0:46:
320,192,29150,1,2,0:0:0:46:
448,192,29150,1,0,0:0:0:0:
64,192,29291,1,0,0:0:0:0:
192,192,29291,1,0,0:0:0:0:
192,192,29432,1,2,0:0:0:93:
320,192,29432,1,0,0:0:0:0:
448,192,29432,1,0,0:0:0:0:
64,192,29572,1,2,0:0:0:93:
320,192,29572,1,0,0:0:0:0:
448,192,29572,1,0,0:0:0:0:
192,192,29643,1,0,0:0:0:0:
64,192,29713,1,8,0:0:0:46:
320,192,29713,1,2,0:0:0:46:
448,192,29713,1,0,0:0:0:0:
192,192,29854,1,0,0:0:0:0:
320,192,29924,1,2,0:0:0:93:
448,192,29924,1,0,0:0:0:0:
64,192,29995,1,0,0:0:0:0:
192,192,30065,1,2,0:0:0:93:
320,192,30065,1,0,0:0:0:0:
64,192,30136,1,2,0:0:0:93:
448,192,30136,1,0,0:0:0:0:
320,192,30206,1,0,0:0:0:0:
64,192,30277,1,8,0:0:0:46:
192,192,30277,1,2,0:0:0:46:
448,192,30277,1,0,0:0:0:0:
192,192,30417,1,2,0:0:0:93:
320,192,30417,1,0,0:0:0:0:
448,192,30417,1,0,0:0:0:0:
64,192,30558,1,2,0:0:0:46:
320,192,30558,1,4,0:0:0:46:
448,192,30558,1,0,0:0:0:0:
192,192,30699,1,0,0:0:0:0:
448,192,30699,1,0,0:0:0:0:
320,192,30770,1,0,0:0:0:0:
64,192,30840,1,8,0:0:0:46:
192,192,30840,1,2,0:0:0:46:
448,192,30840,1,0,0:0:0:0:
64,192,30981,1,0,0:0:0:0:
320,192,30981,1,0,0:0:0:0:
192,192,31051,1,0,0:0:0:0:
64,192,31122,1,2,0:0:0:93:
320,192,31122,1,0,0:0:0:0:
448,192,31122,1,0,0:0:0:0:
192,192,31192,1,0,0:0:0:0:
320,192,31262,1,0,0:0:0:0:
448,192,31262,1,0,0:0:0:0:
64,192,31333,1,0,0:0:0:0:
192,192,31403,1,8,0:0:0:46:
320,192,31403,1,2,0:0:0:46:
448,192,31403,1,0,0:0:0:0:
64,192,31544,1,0,0:0:0:0:
192,192,31544,1,0,0:0:0:0:
448,192,31615,1,0,0:0:0:0:
64,192,31685,1,2,0:0:0:93:
192,192,31685,1,0,0:0:0:0:
320,192,31685,1,0,0:0:0:0:
320,192,31826,1,0,0:0:0:0:
448,192,31826,1,0,0:0:0:0:
192,192,31896,1,0,0:0:0:0:
64,192,31967,1,8,0:0:0:46:
320,192,31967,1,2,0:0:0:46:
448,192,31967,1,0,0:0:0:0:
64,192,32108,1,0,0:0:0:0:
192,192,32108,1,0,0:0:0:0:
320,192,32178,1,0,0:0:0:0:
64,192,32248,1,2,0:0:0:93:
192,192,32248,1,0,0:0:0:0:
448,192,32248,1,0,0:0:0:0:
320,192,32319,1,0,0:0:0:0:
192,192,32389,1,0,0:0:0:0:
448,192,32389,1,0,0:0:0:0:
64,192,32460,1,0,0:0:0:0:
192,192,32530,1,8,0:0:0:46:
320,192,32530,1,2,0:0:0:46:
448,192,32530,1,0,0:0:0:0:
64,192,32671,1,0,0:0:0:0:
320,192,32671,1,0,0:0:0:0:
192,192,32741,1,0,0:0:0:0:
64,192,32812,1,2,0:0:0:93:
320,192,32812,1,0,0:0:0:0:
448,192,32812,1,0,0:0:0:0:
192,192,32953,1,0,0:0:0:0:
448,192,32953,1,0,0:0:0:0:
320,192,33023,1,0,0:0:0:0:
64,192,33093,1,2,0:0:0:46:
192,192,33093,1,8,0:0:0:46:
448,192,33093,1,0,0:0:0:0:
64,192,33234,1,0,0:0:0:0:
320,192,33234,1,0,0:0:0:0:
192,192,33305,1,0,0:0:0:0:
64,192,33375,1,2,0:0:0:93:
320,192,33375,1,0,0:0:0:0:
448,192,33375,1,0,0:0:0:0:
192,192,33446,1,0,0:0:0:0:
320,192,33516,1,0,0:0:0:0:
448,192,33516,1,0,0:0:0:0:
64,192,33586,1,0,0:0:0:0:
192,192,33657,1,2,0:0:0:46:
320,192,33657,1,8,0:0:0:46:
448,192,33657,1,0,0:0:0:0:
64,192,33798,1,0,0:0:0:0:
192,192,33798,1,0,0:0:0:0:
320,192,33868,1,0,0:0:0:0:
64,192,33939,1,2,0:0:0:93:
192,192,33939,1,0,0:0:0:0:
448,192,33939,1,0,0:0:0:0:
320,192,34079,1,0,0:0:0:0:
448,192,34079,1,0,0:0:0:0:
64,192,34150,1,0,0:0:0:0:
192,192,34220,1,2,0:0:0:46:
320,192,34220,1,8,0:0:0:46:
448,192,34220,1,0,0:0:0:0:
64,192,34361,1,0,0:0:0:0:
192,192,34361,1,0,0:0:0:0:
320,192,34432,1,0,0:0:0:0:
64,192,34502,1,2,0:0:0:93:
192,192,34502,1,0,0:0:0:0:
448,192,34502,1,0,0:0:0:0:
320,192,34643,1,0,0:0:0:0:
448,192,34643,1,0,0:0:0:0:
192,192,34713,1,0,0:0:0:0:
64,192,34784,1,2,0:0:0:46:
320,192,34784,1,8,0:0:0:46:
448,192,34784,1,0,0:0:0:0:
64,192,34924,1,2,0:0:0:93:
192,192,34924,1,0,0:0:0:0:
448,192,34924,1,0,0:0:0:0:
320,192,34995,1,0,0:0:0:0:
64,192,35065,1,2,0:0:0:93:
192,192,35065,1,0,0:0:0:0:
448,192,35065,1,0,0:0:0:0:
192,192,35206,1,0,0:0:0:0:
320,192,35206,1,0,0:0:0:0:
448,192,35277,1,0,0:0:0:0:
64,192,35347,1,2,0:0:0:46:
192,192,35347,1,8,0:0:0:46:
320,192,35347,1,0,0:0:0:0:
64,192,35488,1,0,0:0:0:0:
448,192,35488,1,0,0:0:0:0:
192,192,35558,1,0,0:0:0:0:
64,192,35629,1,2,0:0:0:93:
320,192,35629,1,0,0:0:0:0:
448,192,35629,1,0,0:0:0:0:
192,192,35699,1,0,0:0:0:0:
320,192,35770,1,0,0:0:0:0:
448,192,35770,1,0,0:0:0:0:
64,192,35840,1,0,0:0:0:0:
192,192,35910,1,2,0:0:0:46:
320,192,35910,1,8,0:0:0:46:
448,192,35910,1,0,0:0:0:0:
64,192,36051,1,0,0:0:0:0:
192,192,36051,1,0,0:0:0:0:
448,192,36122,1,0,0:0:0:0:
64,192,36192,1,2,0:0:0:93:
192,192,36192,1,0,0:0:0:0:
320,192,36192,1,0,0:0:0:0:
320,192,36333,1,0,0:0:0:0:
448,192,36333,1,0,0:0:0:0:
192,192,36403,1,0,0:0:0:0:
64,192,36474,1,2,0:0:0:46:
320,192,36474,1,8,0:0:0:46:
448,192,36474,1,0,0:0:0:0:
64,192,36615,1,0,0:0:0:0:
192,192,36615,1,0,0:0:0:0:
320,192,36685,1,0,0:0:0:0:
64,192,36755,1,2,0:0:0:93:
192,192,36755,1,0,0:0:0:0:
448,192,36755,1,0,0:0:0:0:
320,192,36896,1,0,0:0:0:0:
448,192,36896,1,0,0:0:0:0:
192,192,36967,1,0,0:0:0:0:
64,192,37037,1,2,0:0:0:46:
320,192,37037,1,8,0:0:0:46:
448,192,37037,1,0,0:0:0:0:
64,192,37178,1,0,0:0:0:0:
192,192,37178,1,0,0:0:0:0:
448,192,37248,1,0,0:0:0:0:
64,192,37319,1,2,0:0:0:93:
192,192,37319,1,0,0:0:0:0:
320,192,37319,1,0,0:0:0:0:
192,192,37460,1,0,0:0:0:0:
448,192,37460,1,0,0:0:0:0:
320,192,37530,1,0,0:0:0:0:
64,192,37601,1,2,0:0:0:46:
192,192,37601,1,8,0:0:0:46:
448,192,37601,1,0,0:0:0:0:
192,192,37741,1,0,0:0:0:0:
320,192,37741,1,0,0:0:0:0:
64,192,37812,1,0,0:0:0:0:
192,192,37882,1,2,0:0:0:93:
320,192,37882,1,0,0:0:0:0:
448,192,37882,1,0,0:0:0:0:
192,192,38023,1,0,0:0:0:0:
448,192,38023,1,0,0:0:0:0:
320,192,38093,1,0,0:0:0:0:
64,192,38164,1,2,0:0:0:46:
192,192,38164,1,8,0:0:0:46:
448,192,38164,1,0,0:0:0:0:
64,192,38305,1,0,0:0:0:0:
320,192,38305,1,0,0:0:0:0:
192,192,38375,1,0,0:0:0:0:
64,192,38446,1,2,0:0:0:93:
320,192,38446,1,0,0:0:0:0:
448,192,38446,1,0,0:0:0:0:
192,192,38586,1,2,0:0:0:93:
320,192,38586,1,0,0:0:0:0:
448,192,38586,1,0,0:0:0:0:
64,192,38657,1,0,0:0:0:0:
192,192,38727,1,2,0:0:0:46:
320,192,38727,1,8,0:0:0:46:
448,192,38727,1,0,0:0:0:0:
64,192,38868,1,0,0:0:0:0:
192,192,38868,1,0,0:0:0:0:
320,192,38939,1,0,0:0:0:0:
64,192,39009,1,2,0:0:0:93:
192,192,39009,1,0,0:0:0:0:
448,192,39009,1,0,0:0:0:0:
320,192,39150,1,0,0:0:0:0:
448,192,39150,1,0,0:0:0:0:
64,192,39220,1,2,0:0:0:93:
192,192,39220,1,0,0:0:0:0:
320,192,39291,1,2,0:0:0:46:
448,192,39291,1,8,0:0:0:46:
64,192,39432,1,2,0:0:0:93:
192,192,39432,1,0,0:0:0:0:
320,192,39432,1,0,0:0:0:0:
64,192,39572,1,2,0:0:0:46:
192,192,39572,1,4,0:0:0:46:
448,192,39572,1,0,0:0:0:0:
320,192,39643,1,0,0:0:0:0:
448,192,39713,1,0,0:0:0:0:
64,192,39784,1,0,0:0:0:0:
192,192,39854,1,0,0:0:0:0:
320,192,39854,1,0,0:0:0:0:
448,192,39924,1,0,0:0:0:0:
64,192,39995,1,2,0:0:0:93:
192,192,39995,1,0,0:0:0:0:
320,192,40065,1,2,0:0:0:93:
448,192,40065,1,0,0:0:0:0:
64,192,40136,1,2,0:0:0:46:
192,192,40136,1,8,0:0:0:46:
320,192,40206,1,0,0:0:0:0:
448,192,40277,1,0,0:0:0:0:
192,192,40347,1,0,0:0:0:0:
64,192,40417,1,0,0:0:0:0:
320,192,40417,1,0,0:0:0:0:
448,192,40488,1,0,0:0:0:0:
64,192,40558,1,2,0:0:0:93:
192,192,40558,1,0,0:0:0:0:
320,192,40629,1,0,0:0:0:0:
448,192,40699,1,0,0:0:0:0:
192,192,40770,1,0,0:0:0:0:
320,192,40840,1,2,0:0:0:93:
448,192,40840,1,0,0:0:0:0:
64,192,40910,1,0,0:0:0:0:
192,192,40981,1,0,0:0:0:0:
320,192,40981,1,0,0:0:0:0:
448,192,41051,1,0,0:0:0:0:
64,192,41122,1,2,0:0:0:93:
192,192,41122,1,0,0:0:0:0:
320,192,41192,1,2,0:0:0:93:
448,192,41192,1,0,0:0:0:0:
64,192,41262,1,2,0:0:0:46:
192,192,41262,1,8,0:0:0:46:
320,192,41333,1,0,0:0:0:0:
448,192,41403,1,0,0:0:0:0:
64,192,41474,1,0,0:0:0:0:
192,192,41544,1,2,0:0:0:93:
320,192,41544,1,0,0:0:0:0:
448,192,41615,1,0,0:0:0:0:
64,192,41685,1,0,0:0:0:0:
320,192,41755,1,0,0:0:0:0:
64,192,41826,1,2,0:0:0:93:
192,192,41826,1,0,0:0:0:0:
448,192,41896,1,0,0:0:0:0:
320,192,41967,1,0,0:0:0:0:
64,192,42037,1,0,0:0:0:0:
192,192,42108,1,0,0:0:0:0:
320,192,42108,1,0,0:0:0:0:
448,192,42178,1,0,0:0:0:0:
64,192,42248,1,2,0:0:0:93:
192,192,42248,1,0,0:0:0:0:
320,192,42319,1,2,0:0:0:93:
448,192,42319,1,0,0:0:0:0:
64,192,42389,1,2,0:0:0:46:
192,192,42389,1,8,0:0:0:46:
320,192,42460,1,0,0:0:0:0:
448,192,42530,1,0,0:0:0:0:
192,192,42601,1,0,0:0:0:0:
64,192,42671,1,0,0:0:0:0:
320,192,42671,1,0,0:0:0:0:
448,192,42741,1,0,0:0:0:0:
192,192,42812,1,2,0:0:0:93:
320,192,42812,1,0,0:0:0:0:
64,192,42882,1,0,0:0:0:0:
448,192,42953,1,0,0:0:0:0:
320,192,43023,1,0,0:0:0:0:
64,192,43093,1,2,0:0:0:93:
448,192,43093,1,0,0:0:0:0:
192,192,43164,1,0,0:0:0:0:
64,192,43234,1,0,0:0:0:0:
320,192,43234,1,0,0:0:0:0:
448,192,43305,1,0,0:0:0:0:
64,192,43375,1,2,0:0:0:93:
192,192,43375,1,0,0:0:0:0:
320,192,43446,1,2,0:0:0:93:
448,192,43446,1,0,0:0:0:0:
64,192,43516,1,2,0:0:0:46:
192,192,43516,1,8,0:0:0:46:
320,192,43586,1,0,0:0:0:0:
448,192,43657,1,0,0:0:0:0:
192,192,43727,1,0,0:0:0:0:
64,192,43798,1,2,0:0:0:93:
320,192,43798,1,0,0:0:0:0:
448,192,43868,1,0,0:0:0:0:
192,192,43939,1,0,0:0:0:0:
64,192,44009,1,0,0:0:0:0:
320,192,44079,1,2,0:0:0:93:
448,192,44079,1,0,0:0:0:0:
192,192,44150,1,0,0:0:0:0:
448,192,44220,1,0,0:0:0:0:
64,192,44291,1,0,0:0:0:0:
192,192,44361,1,0,0:0:0:0:
320,192,44361,1,0,0:0:0:0:
448,192,44432,1,0,0:0:0:0:
64,192,44502,1,2,0:0:0:93:
192,192,44502,1,0,0:0:0:0:
320,192,44572,1,2,0:0:0:93:
448,192,44572,1,0,0:0:0:0:
64,192,44643,1,2,0:0:0:46:
192,192,44643,1,8,0:0:0:46:
320,192,44713,1,0,0:0:0:0:
448,192,44784,1,0,0:0:0:0:
64,192,44854,1,0,0:0:0:0:
192,192,44924,1,0,0:0:0:0:
448,192,44924,1,0,0:0:0:0:
320,192,44995,1,0,0:0:0:0:
64,192,45065,1,2,0:0:0:93:
192,192,45065,1,0,0:0:0:0:
448,192,45136,1,0,0:0:0:0:
320,192,45206,1,0,0:0:0:0:
64,192,45277,1,0,0:0:0:0:
320,192,45347,1,2,0:0:0:93:
448,192,45347,1,0,0:0:0:0:
192,192,45417,1,0,0:0:0:0:
64,192,45488,1,0,0:0:0:0:
448,192,45488,1,0,0:0:0:0:
320,192,45558,1,0,0:0:0:0:
64,192,45629,1,2,0:0:0:93:
192,192,45629,1,0,0:0:0:0:
320,192,45699,1,2,0:0:0:93:
448,192,45699,1,0,0:0:0:0:
64,192,45770,1,2,0:0:0:46:
192,192,45770,1,8,0:0:0:46:
448,192,45840,1,0,0:0:0:0:
320,192,45910,1,0,0:0:0:0:
64,192,45981,1,0,0:0:0:0:
320,192,46051,1,2,0:0:0:93:
448,192,46051,1,0,0:0:0:0:
64,192,46122,1,2,0:0:0:93:
192,192,46122,1,0,0:0:0:0:
320,192,46192,1,2,0:0:0:93:
448,192,46192,1,0,0:0:0:0:
64,192,46262,1,2,0:0:0:93:
192,192,46333,1,2,0:0:0:46:
320,192,46333,1,4,0:0:0:46:
448,192,46333,1,0,0:0:0:0:
64,192,46403,1,0,0:0:0:0:
192,192,46474,1,0,0:0:0:0:
320,192,46544,1,0,0:0:0:0:
64,192,46615,1,2,0:0:0:46:
192,192,46615,1,8,0:0:0:46:
448,192,46615,1,0,0:0:0:0:
320,192,46685,1,0,0:0:0:0:
64,192,46755,1,2,0:0:0:93:
448,192,46755,1,0,0:0:0:0:
192,192,46826,1,0,0:0:0:0:
64,192,46896,1,8,0:0:0:46:
320,192,46896,1,2,0:0:0:46:
448,192,46896,1,0,0:0:0:0:
192,192,46967,1,0,0:0:0:0:
320,192,47037,1,2,0:0:0:93:
448,192,47037,1,0,0:0:0:0:
64,192,47108,1,2,0:0:0:93:
192,192,47108,1,0,0:0:0:0:
320,192,47178,1,2,0:0:0:46:
448,192,47178,1,8,0:0:0:46:
64,192,47248,1,0,0:0:0:0:
192,192,47319,1,2,0:0:0:93:
320,192,47319,1,0,0:0:0:0:
448,192,47389,1,0,0:0:0:0:
64,192,47460,1,2,0:0:0:46:
192,192,47460,1,8,0:0:0:46:
320,192,47460,1,0,0:0:0:0:
448,192,47530,1,0,0:0:0:0:
64,192,47601,1,2,0:0:0:93:
192,192,47601,1,0,0:0:0:0:
320,192,47671,1,0,0:0:0:0:
64,192,47741,1,2,0:0:0:46:
192,192,47741,1,8,0:0:0:46:
448,192,47741,1,0,0:0:0:0:
320,192,47812,1,0,0:0:0:0:
64,192,47882,1,2,0:0:0:93:
448,192,47882,1,0,0:0:0:0:
192,192,47953,1,0,0:0:0:0:
64,192,48023,1,2,0:0:0:46:
320,192,48023,1,8,0:0:0:46:
448,192,48023,1,0,0:0:0:0:
192,192,48093,1,0,0:0:0:0:
320,192,48164,1,2,0:0:0:93:
448,192,48164,1,0,0:0:0:0:
64,192,48234,1,2,0:0:0:93:
192,192,48234,1,0,0:0:0:0:
320,192,48305,1,2,0:0:0:46:
448,192,48305,1,8,0:0:0:46:
64,192,48375,1,0,0:0:0:0:
192,192,48446,1,2,0:0:0:93:
320,192,48446,1,0,0:0:0:0:
448,192,48516,1,0,0:0:0:0:
64,192,48586,1,2,0:0:0:31:
192,192,48586,1,8,0:0:0:31:
320,192,48586,1,4,0:0:0:31:
448,192,48657,1,0,0:0:0:0:
64,192,48727,1,2,0:0:0:93:
192,192,48727,1,0,0:0:0:0:
320,192,48798,1,2,0:0:0:93:
448,192,48798,1,0,0:0:0:0:
64,192,48868,1,2,0:0:0:46:
192,192,48868,1,8,0:0:0:46:
320,192,48939,1,0,0:0:0:0:
64,192,49009,1,2,0:0:0:93:
448,192,49009,1,0,0:0:0:0:
192,192,49079,1,2,0:0:0:93:
320,192,49079,1,0,0:0:0:0:
64,192,49150,1,10,0:0:0:31:
448,192,49150,1,4,0:0:0:31:
192,192,49220,1,0,0:0:0:0:
320,192,49291,1,2,0:0:0:93:
448,192,49291,1,0,0:0:0:0:
64,192,49361,1,2,0:0:0:93:
192,192,49361,1,0,0:0:0:0:
320,192,49432,1,2,0:0:0:46:
448,192,49432,1,8,0:0:0:46:
64,192,49502,1,2,0:0:0:93:
192,192,49502,1,0,0:0:0:0:
320,192,49572,1,2,0:0:0:93:
448,192,49572,1,0,0:0:0:0:
64,192,49643,1,2,0:0:0:93:
192,192,49713,1,2,0:0:0:46:
320,192,49713,1,4,0:0:0:46:
448,192,49713,128,0,49995:0:0:0:0:
64,192,50136,1,2,0:0:0:93:
192,192,50136,1,0,0:0:0:0:
320,192,50206,1,2,0:0:0:93:
64,192,50277,128,2,50417:0:0:0:93:
192,192,50277,128,0,50417:0:0:0:0:
448,192,50277,128,0,50417:0:0:0:0:
64,192,50488,128,2,50629:0:0:0:93:
192,192,50488,128,0,50629:0:0:0:0:
448,192,50488,128,0,50629:0:0:0:0:
192,192,50699,128,2,50770:0:0:0:93:
320,192,50699,128,0,50770:0:0:0:0:
448,192,50699,128,0,50770:0:0:0:0:
64,192,50840,1,2,0:0:0:46:
192,192,50840,128,4,50981:0:0:0:46:
320,192,50840,1,0,0:0:0:0:
448,192,50981,1,0,0:0:0:0:
320,192,51051,1,0,0:0:0:0:
64,192,51122,128,0,51262:0:0:0:93:LR_Chm_Soft_NLV.wav
192,192,51122,1,0,0:0:0:0:
320,192,51262,128,0,51403:0:0:0:0:
64,192,51403,1,0,0:0:0:0:
192,192,51474,1,0,0:0:0:0:
448,192,51544,128,0,51685:0:0:0:0:
192,192,51685,1,0,0:0:0:93:LR_Chm_Soft_NLV.wav
320,192,51685,128,0,51826:0:0:0:0:
64,192,51826,128,0,51967:0:0:0:0:
192,192,51967,128,0,52108:0:0:0:0:
320,192,52108,1,0,0:0:0:0:
64,192,52178,1,0,0:0:0:0:
192,192,52248,1,0,0:0:0:93:LR_Chm_Soft_NLV.wav
448,192,52248,128,0,52389:0:0:0:0:
320,192,52389,128,0,52530:0:0:0:0:
192,192,52530,1,0,0:0:0:0:
64,192,52601,1,0,0:0:0:0:
448,192,52671,128,0,52812:0:0:0:0:
192,192,52812,128,0,52953:0:0:0:93:LR_Chm_Soft_NLV.wav
320,192,52812,1,0,0:0:0:0:
64,192,52953,128,0,53093:0:0:0:93:LR_Chm_Soft_NLV.wav
320,192,52953,1,0,0:0:0:0:
448,192,53023,1,0,0:0:0:93:LR_Chm_Soft_NLV.wav
192,192,53093,128,0,53234:0:0:0:93:LR_Chm_Soft_NLV.wav
320,192,53093,128,0,53164:0:0:0:0:
448,192,53234,1,0,0:0:0:0:
320,192,53305,1,0,0:0:0:0:
64,192,53375,128,0,53516:0:0:0:93:LR_Chm_Soft_NLV.wav
192,192,53375,1,0,0:0:0:0:
320,192,53516,128,0,53657:0:0:0:0:
64,192,53657,1,0,0:0:0:0:
192,192,53727,1,0,0:0:0:0:
448,192,53798,128,0,53939:0:0:0:0:
192,192,53939,1,0,0:0:0:93:LR_Chm_Soft_NLV.wav
320,192,53939,128,0,54079:0:0:0:0:
64,192,54079,128,0,54220:0:0:0:0:
192,192,54220,128,0,54361:0:0:0:93:LR_Chm_Soft_NLV.wav
448,192,54220,1,0,0:0:0:0:
320,192,54361,1,0,0:0:0:0:
64,192,54432,1,0,0:0:0:0:
192,192,54502,1,0,0:0:0:93:LR_Chm_Soft_NLV.wav
448,192,54502,128,0,54643:0:0:0:0:
320,192,54643,128,0,54784:0:0:0:0:
192,192,54784,1,0,0:0:0:93:LR_Chm_Soft_NLV.wav
448,192,54784,1,0,0:0:0:0:
64,192,54854,1,0,0:0:0:0:
448,192,54924,128,0,55065:0:0:0:93:LR_Chm_Soft_NLV.wav
64,192,55065,1,0,0:0:0:93:LR_Chm_Soft_NLV.wav
192,192,55065,128,0,55206:0:0:0:0:
320,192,55065,1,0,0:0:0:0:
64,192,55206,128,0,55347:0:0:0:0:
192,192,55347,1,2,0:0:0:46:
320,192,55347,1,4,0:0:0:46:
448,192,55347,1,0,0:0:0:0:
64,192,55488,1,0,0:0:0:0:
448,192,55488,1,0,0:0:0:0:
192,192,55558,1,0,0:0:0:0:
64,192,55629,1,2,0:0:0:46:
320,192,55629,1,8,0:0:0:46:
448,192,55629,1,0,0:0:0:0:
64,192,55770,1,0,0:0:0:0:
192,192,55770,1,0,0:0:0:0:
320,192,55840,1,0,0:0:0:0:
448,192,55840,1,0,0:0:0:0:
64,192,55910,1,2,0:0:0:93:
192,192,55910,1,0,0:0:0:0:
192,192,56051,1,0,0:0:0:0:
320,192,56051,1,0,0:0:0:0:
448,192,56122,1,0,0:0:0:0:
64,192,56192,1,2,0:0:0:46:
192,192,56192,1,8,0:0:0:46:
320,192,56192,1,0,0:0:0:0:
320,192,56333,1,0,0:0:0:0:
448,192,56333,1,0,0:0:0:0:
64,192,56403,1,0,0:0:0:0:
192,192,56403,1,0,0:0:0:0:
320,192,56474,1,2,0:0:0:93:
448,192,56474,1,0,0:0:0:0:
64,192,56615,1,0,0:0:0:0:
448,192,56615,1,0,0:0:0:0:
192,192,56685,1,0,0:0:0:0:
64,192,56755,1,2,0:0:0:46:
320,192,56755,1,8,0:0:0:46:
448,192,56755,1,0,0:0:0:0:
192,192,56896,1,0,0:0:0:0:
320,192,56896,1,0,0:0:0:0:
64,192,56967,1,0,0:0:0:0:
448,192,56967,1,0,0:0:0:0:
192,192,57037,1,2,0:0:0:93:
320,192,57037,1,0,0:0:0:0:
64,192,57178,1,0,0:0:0:0:
192,192,57178,1,0,0:0:0:0:
320,192,57248,1,0,0:0:0:0:
64,192,57319,1,2,0:0:0:46:
192,192,57319,1,8,0:0:0:46:
448,192,57319,1,0,0:0:0:0:
192,192,57460,1,2,0:0:0:93:
320,192,57460,1,0,0:0:0:0:
448,192,57460,1,0,0:0:0:0:
64,192,57530,1,0,0:0:0:0:
192,192,57601,1,2,0:0:0:46:
320,192,57601,1,4,0:0:0:46:
448,192,57601,1,0,0:0:0:0:
64,192,57671,1,0,0:0:0:0:
320,192,57741,1,2,0:0:0:93:
448,192,57741,1,0,0:0:0:0:
64,192,57812,1,2,0:0:0:93:
192,192,57812,1,0,0:0:0:0:
320,192,57882,1,2,0:0:0:46:
448,192,57882,1,8,0:0:0:46:
64,192,58023,1,0,0:0:0:0:
192,192,58023,1,0,0:0:0:0:
448,192,58093,1,0,0:0:0:0:
64,192,58164,1,2,0:0:0:46:
192,192,58164,1,4,0:0:0:46:
320,192,58164,1,0,0:0:0:0:
320,192,58305,1,0,0:0:0:0:
448,192,58305,1,0,0:0:0:0:
64,192,58375,1,2,0:0:0:93:
192,192,58375,1,0,0:0:0:0:
320,192,58446,1,2,0:0:0:46:
448,192,58446,1,8,0:0:0:46:
192,192,58586,1,2,0:0:0:93:
320,192,58586,1,0,0:0:0:0:
448,192,58657,1,0,0:0:0:0:
64,192,58727,1,2,0:0:0:46:
192,192,58727,1,4,0:0:0:46:
320,192,58798,1,2,0:0:0:93:
448,192,58798,1,0,0:0:0:0:
64,192,58868,1,2,0:0:0:93:
192,192,58868,1,0,0:0:0:0:
320,192,58939,1,2,0:0:0:93:
64,192,59009,1,2,0:0:0:46:
192,192,59009,1,8,0:0:0:46:
448,192,59009,1,4,0:0:0:46:
64,192,59150,1,2,0:0:0:93:
192,192,59185,1,2,0:0:0:93:
320,192,59220,1,2,0:0:0:93:
448,192,59255,1,2,0:0:0:93:
64,192,59291,1,4,0:0:0:46:
192,192,59291,1,2,0:0:0:46:
448,192,59432,1,2,0:0:0:93:
320,192,59467,1,2,0:0:0:93:
192,192,59502,1,2,0:0:0:93:
64,192,59537,1,2,0:0:0:93:
320,192,59572,1,6,0:0:0:31:
448,192,59572,1,8,0:0:0:31:
192,192,59713,1,2,0:0:0:93:
320,192,59713,1,0,0:0:0:0:
64,192,59854,128,2,60417:0:0:0:46:
192,192,59854,1,4,0:0:0:46:
448,192,59854,1,0,0:0:0:0:
448,192,60558,1,0,0:0:0:0:
448,192,60699,1,0,0:0:0:0:
320,192,60840,1,0,0:0:0:0:
64,192,60981,1,0,0:0:0:93:LR_Clap Fast Low.wav
192,192,60981,1,0,0:0:0:0:
448,192,60981,1,0,0:0:0:0:
192,192,61122,1,0,0:0:0:0:
320,192,61122,1,0,0:0:0:0:
64,192,61262,1,0,0:0:0:93:LR_Clap Fast Low.wav
320,192,61262,1,0,0:0:0:0:
448,192,61262,1,0,0:0:0:0:
64,192,61403,1,0,0:0:0:0:
192,192,61403,1,0,0:0:0:0:
320,192,61544,1,0,0:0:0:0:
192,192,61685,1,0,0:0:0:0:
448,192,61685,1,0,0:0:0:0:
64,192,61755,1,0,0:0:0:0:
192,192,61826,1,0,0:0:0:93:LR_Clap Fast Low.wav
320,192,61826,1,0,0:0:0:0:
448,192,61826,1,0,0:0:0:0:
64,192,61967,1,0,0:0:0:0:
320,192,61967,1,0,0:0:0:0:
64,192,62108,1,0,0:0:0:0:
192,192,62108,1,0,0:0:0:0:
320,192,62248,1,0,0:0:0:0:
448,192,62248,1,0,0:0:0:0:
64,192,62389,1,0,0:0:0:93:LR_Clap Fast Low.wav
192,192,62389,1,0,0:0:0:0:
448,192,62389,1,0,0:0:0:0:
192,192,62530,1,0,0:0:0:0:
320,192,62530,1,0,0:0:0:0:
448,192,62671,1,0,0:0:0:0:
64,192,62812,1,0,0:0:0:0:
320,192,62812,1,0,0:0:0:0:
192,192,62882,1,0,0:0:0:0:
64,192,62953,1,0,0:0:0:93:LR_Clap Fast Low.wav
320,192,62953,1,0,0:0:0:0:
448,192,62953,1,0,0:0:0:0:
192,192,63093,1,0,0:0:0:0:
448,192,63093,1,0,0:0:0:0:
64,192,63234,1,0,0:0:0:0:
320,192,63375,1,0,0:0:0:0:
448,192,63375,1,0,0:0:0:0:
64,192,63516,1,0,0:0:0:93:LR_Clap Fast Low.wav
192,192,63516,1,0,0:0:0:0:
320,192,63516,1,0,0:0:0:0:
64,192,63657,1,0,0:0:0:0:
448,192,63657,1,0,0:0:0:0:
192,192,63798,1,0,0:0:0:0:
64,192,63939,1,0,0:0:0:0:
320,192,63939,1,0,0:0:0:0:
448,192,64009,1,0,0:0:0:0:
64,192,64079,1,0,0:0:0:93:LR_Clap Fast Low.wav
192,192,64079,1,0,0:0:0:0:
320,192,64079,1,0,0:0:0:0:
192,192,64220,1,0,0:0:0:0:
448,192,64220,1,0,0:0:0:0:
64,192,64361,1,0,0:0:0:0:
320,192,64361,1,0,0:0:0:0:
320,192,64502,1,0,0:0:0:0:
448,192,64502,1,0,0:0:0:0:
64,192,64643,1,0,0:0:0:93:LR_Clap Fast Low.wav
192,192,64643,1,0,0:0:0:0:
448,192,64643,1,0,0:0:0:0:
192,192,64784,1,0,0:0:0:0:
320,192,64784,1,0,0:0:0:0:
64,192,64924,1,0,0:0:0:0:
320,192,65065,1,0,0:0:0:0:
448,192,65065,1,0,0:0:0:0:
64,192,65206,1,0,0:0:0:93:LR_Clap Fast Low.wav
192,192,65206,1,0,0:0:0:0:
320,192,65206,1,0,0:0:0:0:
64,192,65347,1,0,0:0:0:0:
448,192,65347,1,0,0:0:0:0:
320,192,65488,1,0,0:0:0:0:
448,192,65488,1,0,0:0:0:0:
64,192,65629,1,0,0:0:0:0:
192,192,65770,1,0,0:0:0:93:LR_Clap Fast Low.wav
320,192,65770,1,0,0:0:0:0:
448,192,65770,1,0,0:0:0:0:
64,192,65910,1,0,0:0:0:0:
192,192,65910,1,0,0:0:0:0:
320,192,65981,1,0,0:0:0:0:
64,192,66051,1,0,0:0:0:0:
448,192,66051,1,0,0:0:0:0:
320,192,66192,1,0,0:0:0:0:
64,192,66333,1,0,0:0:0:93:LR_Clap Fast Low.wav
192,192,66333,1,0,0:0:0:0:
448,192,66333,1,0,0:0:0:0:
64,192,66474,1,0,0:0:0:0:
320,192,66474,1,0,0:0:0:0:
192,192,66544,1,0,0:0:0:0:
64,192,66615,128,0,66755:0:0:0:0:
448,192,66615,128,0,67178:0:0:0:0:
192,192,66755,1,0,0:0:0:0:
320,192,66755,128,0,66896:0:0:0:0:
64,192,66896,1,0,0:0:0:93:LR_Clap Fast Low.wav
192,192,66896,128,0,67037:0:0:0:0:
64,192,67037,1,0,0:0:0:93:LR_Clap Fast Low.wav
320,192,67037,128,0,67178:0:0:0:0:
64,192,67319,1,0,0:0:0:0:
192,192,67319,1,0,0:0:0:0:
320,192,67389,1,0,0:0:0:0:
192,192,67460,1,0,0:0:0:0:
448,192,67460,1,0,0:0:0:0:
64,192,67601,1,0,0:0:0:0:
192,192,67741,1,2,0:0:0:46:
320,192,67741,1,4,0:0:0:46:
448,192,67741,1,0,0:0:0:0:
64,192,67812,1,0,0:0:0:0:
448,192,67882,1,0,0:0:0:0:
192,192,67953,1,0,0:0:0:0:
64,192,68023,1,2,0:0:0:93:
320,192,68023,1,0,0:0:0:0:
448,192,68093,1,0,0:0:0:0:
64,192,68164,1,0,0:0:0:0:
192,192,68164,1,0,0:0:0:0:
320,192,68234,1,0,0:0:0:0:
448,192,68234,1,0,0:0:0:0:
64,192,68305,1,2,0:0:0:93:
192,192,68305,1,0,0:0:0:0:
320,192,68375,1,0,0:0:0:0:
448,192,68446,1,0,0:0:0:0:
64,192,68516,1,0,0:0:0:0:
192,192,68586,1,2,0:0:0:93:
448,192,68586,1,0,0:0:0:0:
320,192,68657,1,0,0:0:0:0:
192,192,68727,1,0,0:0:0:0:
64,192,68798,1,0,0:0:0:0:
320,192,68868,1,2,0:0:0:93:
448,192,68868,1,0,0:0:0:0:
192,192,68939,1,0,0:0:0:0:
64,192,69009,1,0,0:0:0:0:
448,192,69009,1,0,0:0:0:0:
320,192,69079,1,0,0:0:0:0:
64,192,69150,1,2,0:0:0:93:
192,192,69150,1,0,0:0:0:0:
448,192,69220,1,0,0:0:0:0:
64,192,69291,1,0,0:0:0:0:
320,192,69291,1,0,0:0:0:0:
192,192,69361,1,0,0:0:0:0:
320,192,69432,1,2,0:0:0:93:
448,192,69432,1,0,0:0:0:0:
64,192,69502,1,0,0:0:0:0:
192,192,69572,1,0,0:0:0:0:
320,192,69572,1,0,0:0:0:0:
448,192,69643,1,0,0:0:0:0:
64,192,69713,128,2,69995:0:0:0:93:
192,192,69713,1,0,0:0:0:0:
320,192,69854,1,0,0:0:0:0:
448,192,69924,1,0,0:0:0:0:
192,192,69995,1,4,0:0:0:46:
320,192,69995,1,2,0:0:0:46:
448,192,70065,1,0,0:0:0:0:
64,192,70136,1,0,0:0:0:0:
320,192,70206,1,0,0:0:0:0:
192,192,70277,1,2,0:0:0:93:
448,192,70277,1,0,0:0:0:0:
64,192,70347,1,0,0:0:0:0:
320,192,70417,1,0,0:0:0:0:
448,192,70417,1,0,0:0:0:0:
64,192,70488,1,0,0:0:0:0:
192,192,70488,1,0,0:0:0:0:
320,192,70558,1,2,0:0:0:93:
448,192,70558,1,0,0:0:0:0:
192,192,70629,1,0,0:0:0:0:
64,192,70699,1,0,0:0:0:0:
448,192,70770,1,0,0:0:0:0:
192,192,70840,1,2,0:0:0:93:
320,192,70840,1,0,0:0:0:0:
64,192,70910,1,0,0:0:0:0:
448,192,70981,1,0,0:0:0:0:
192,192,71051,1,0,0:0:0:0:
320,192,71122,1,2,0:0:0:93:
448,192,71122,1,0,0:0:0:0:
64,192,71192,1,0,0:0:0:0:
192,192,71262,1,0,0:0:0:0:
320,192,71262,1,0,0:0:0:0:
448,192,71333,1,0,0:0:0:0:
64,192,71403,1,2,0:0:0:93:
192,192,71403,1,0,0:0:0:0:
320,192,71474,1,0,0:0:0:0:
64,192,71544,1,0,0:0:0:0:
448,192,71544,1,0,0:0:0:0:
192,192,71615,1,0,0:0:0:0:
64,192,71685,1,2,0:0:0:93:
320,192,71685,1,0,0:0:0:0:
448,192,71685,1,0,0:0:0:0:
192,192,71826,1,0,0:0:0:0:
448,192,71826,1,0,0:0:0:0:
320,192,71896,1,0,0:0:0:0:
64,192,71967,128,2,72248:0:0:0:93:
192,192,71967,1,0,0:0:0:0:
320,192,72108,1,0,0:0:0:0:
192,192,72178,1,0,0:0:0:0:
320,192,72248,1,4,0:0:0:46:
448,192,72248,1,2,0:0:0:46:
192,192,72319,1,0,0:0:0:0:
64,192,72389,1,2,0:0:0:93:
448,192,72389,1,0,0:0:0:0:
320,192,72460,1,0,0:0:0:0:
64,192,72530,1,2,0:0:0:93:
192,192,72530,1,0,0:0:0:0:
448,192,72601,1,0,0:0:0:0:
192,192,72671,1,2,0:0:0:93:
320,192,72671,1,0,0:0:0:0:
64,192,72741,1,0,0:0:0:0:
320,192,72812,1,2,0:0:0:93:
448,192,72812,1,0,0:0:0:0:
192,192,72882,1,0,0:0:0:0:
64,192,72953,1,2,0:0:0:93:
448,192,72953,1,0,0:0:0:0:
320,192,73023,1,0,0:0:0:0:
192,192,73093,1,2,0:0:0:93:
448,192,73093,1,0,0:0:0:0:
64,192,73164,1,0,0:0:0:0:
192,192,73234,1,2,0:0:0:93:
320,192,73234,1,0,0:0:0:0:
448,192,73305,1,0,0:0:0:0:
64,192,73375,1,2,0:0:0:46:
192,192,73375,1,4,0:0:0:46:
320,192,73446,1,0,0:0:0:0:
64,192,73516,1,2,0:0:0:93:
448,192,73516,1,0,0:0:0:0:
192,192,73586,1,0,0:0:0:0:
320,192,73657,1,2,0:0:0:93:
448,192,73657,1,0,0:0:0:0:
64,192,73727,1,0,0:0:0:0:
192,192,73798,1,2,0:0:0:93:
320,192,73798,1,0,0:0:0:0:
448,192,73868,1,0,0:0:0:0:
64,192,73939,1,2,0:0:0:93:
192,192,73939,1,0,0:0:0:0:
448,192,74009,1,0,0:0:0:0:
64,192,74079,1,2,0:0:0:93:
320,192,74079,1,0,0:0:0:0:
192,192,74150,1,0,0:0:0:0:
320,192,74220,1,2,0:0:0:93:
448,192,74220,1,0,0:0:0:0:
192,192,74291,1,0,0:0:0:0:
64,192,74361,1,2,0:0:0:93:
448,192,74361,1,0,0:0:0:0:
320,192,74432,1,0,0:0:0:0:
64,192,74502,1,2,0:0:0:46:
192,192,74502,1,4,0:0:0:46:
448,192,74502,1,0,0:0:0:0:
320,192,74572,1,2,0:0:0:93:
64,192,74643,1,2,0:0:0:93:
192,192,74643,1,0,0:0:0:0:
320,192,74713,1,2,0:0:0:93:
448,192,74713,1,0,0:0:0:0:
64,192,74784,1,2,0:0:0:93:
192,192,74784,1,0,0:0:0:0:
320,192,74854,1,2,0:0:0:93:
448,192,74854,1,0,0:0:0:0:
64,192,74924,1,2,0:0:0:93:
192,192,74924,1,0,0:0:0:0:
448,192,74995,1,2,0:0:0:93:
64,192,75065,1,2,0:0:0:46:
192,192,75065,1,4,0:0:0:46:
320,192,75065,1,0,0:0:0:0:
448,192,75136,1,2,0:0:0:93:
64,192,75206,1,2,0:0:0:93:
192,192,75206,1,0,0:0:0:0:
320,192,75277,1,2,0:0:0:93:
448,192,75277,1,0,0:0:0:0:
64,192,75347,1,2,0:0:0:93:
192,192,75347,1,0,0:0:0:0:
320,192,75417,1,2,0:0:0:93:
448,192,75417,1,0,0:0:0:0:
64,192,75488,1,2,0:0:0:93:
192,192,75488,1,0,0:0:0:0:
320,192,75558,1,2,0:0:0:93:
64,192,75629,1,2,0:0:0:46:
192,192,75629,1,4,0:0:0:46:
448,192,75629,1,0,0:0:0:0:
320,192,75699,1,2,0:0:0:93:
64,192,75770,1,2,0:0:0:93:
192,192,75770,1,0,0:0:0:0:
320,192,75840,1,2,0:0:0:93:
64,192,75910,1,4,0:0:0:46:
192,192,75910,1,2,0:0:0:46:
448,192,75910,1,0,0:0:0:0:
320,192,75981,1,2,0:0:0:93:
64,192,76051,1,2,0:0:0:93:
192,192,76051,1,0,0:0:0:0:
320,192,76122,1,2,0:0:0:93:
64,192,76192,1,2,0:0:0:46:
192,192,76192,1,4,0:0:0:46:
448,192,76192,1,0,0:0:0:0:
64,192,76333,128,0,76403:0:0:0:0:
192,192,76333,128,0,76403:0:0:0:0:
64,192,76474,128,0,76544:0:0:0:0:
192,192,76474,128,0,76544:0:0:0:0:
192,192,76615,128,0,76685:0:0:0:0:
320,192,76615,128,0,76685:0:0:0:0:
64,192,76755,1,2,0:0:0:46:
320,192,76755,1,4,0:0:0:46:
448,192,76755,1,0,0:0:0:0:
192,192,76826,1,0,0:0:0:0:
320,192,76896,1,0,0:0:0:0:
448,192,76896,1,0,0:0:0:0:
64,192,76967,1,0,0:0:0:0:
192,192,77037,1,2,0:0:0:46:
320,192,77037,1,8,0:0:0:46:
448,192,77037,1,0,0:0:0:0:
64,192,77108,1,0,0:0:0:0:
192,192,77178,1,0,0:0:0:0:
448,192,77178,1,0,0:0:0:0:
320,192,77248,1,0,0:0:0:0:
64,192,77319,1,2,0:0:0:93:
192,192,77319,1,0,0:0:0:0:
448,192,77319,1,0,0:0:0:0:
320,192,77389,1,0,0:0:0:0:
64,192,77460,1,0,0:0:0:0:
192,192,77460,1,0,0:0:0:0:
320,192,77530,1,0,0:0:0:0:
448,192,77530,1,0,0:0:0:0:
64,192,77601,1,2,0:0:0:46:
192,192,77601,1,8,0:0:0:46:
320,192,77671,1,0,0:0:0:0:
64,192,77741,1,0,0:0:0:0:
448,192,77741,1,0,0:0:0:0:
192,192,77812,1,0,0:0:0:0:
64,192,77882,1,2,0:0:0:93:
320,192,77882,1,0,0:0:0:0:
448,192,77882,1,0,0:0:0:0:
192,192,77953,1,0,0:0:0:0:
320,192,78023,1,0,0:0:0:0:
448,192,78023,1,0,0:0:0:0:
64,192,78093,1,0,0:0:0:0:
192,192,78164,1,2,0:0:0:46:
320,192,78164,1,8,0:0:0:46:
448,192,78164,1,0,0:0:0:0:
64,192,78234,1,0,0:0:0:0:
192,192,78305,1,0,0:0:0:0:
320,192,78305,1,0,0:0:0:0:
448,192,78375,1,0,0:0:0:0:
64,192,78446,1,2,0:0:0:93:
192,192,78446,1,0,0:0:0:0:
320,192,78516,1,0,0:0:0:0:
192,192,78586,1,0,0:0:0:0:
448,192,78586,1,0,0:0:0:0:
64,192,78657,1,0,0:0:0:0:
192,192,78727,1,2,0:0:0:46:
320,192,78727,1,8,0:0:0:46:
448,192,78727,1,0,0:0:0:0:
64,192,78798,1,0,0:0:0:0:
320,192,78868,1,0,0:0:0:0:
448,192,78868,1,0,0:0:0:0:
64,192,78939,1,0,0:0:0:0:
192,192,79009,1,2,0:0:0:93:
320,192,79009,1,0,0:0:0:0:
448,192,79009,1,0,0:0:0:0:
64,192,79079,1,0,0:0:0:0:
192,192,79150,1,0,0:0:0:0:
320,192,79150,1,0,0:0:0:0:
448,192,79220,1,0,0:0:0:0:
64,192,79291,1,2,0:0:0:46:
192,192,79291,1,8,0:0:0:46:
320,192,79291,1,0,0:0:0:0:
448,192,79361,1,0,0:0:0:0:
64,192,79432,1,0,0:0:0:0:
192,192,79432,1,0,0:0:0:0:
320,192,79502,1,0,0:0:0:0:
64,192,79572,1,2,0:0:0:93:
192,192,79572,1,0,0:0:0:0:
448,192,79572,1,0,0:0:0:0:
320,192,79643,1,0,0:0:0:0:
64,192,79713,1,0,0:0:0:0:
448,192,79713,1,0,0:0:0:0:
192,192,79784,1,0,0:0:0:0:
320,192,79784,1,0,0:0:0:0:
64,192,79854,1,2,0:0:0:46:
448,192,79854,1,8,0:0:0:46:
192,192,79924,1,0,0:0:0:0:
320,192,79995,1,0,0:0:0:0:
448,192,79995,1,0,0:0:0:0:
64,192,80065,1,0,0:0:0:0:
192,192,80136,1,2,0:0:0:93:
320,192,80136,1,0,0:0:0:0:
448,192,80136,1,0,0:0:0:0:
64,192,80206,1,0,0:0:0:0:
192,192,80277,1,0,0:0:0:0:
320,192,80277,1,0,0:0:0:0:
448,192,80347,1,0,0:0:0:0:
64,192,80417,1,2,0:0:0:46:
192,192,80417,1,8,0:0:0:46:
320,192,80417,1,0,0:0:0:0:
448,192,80488,1,0,0:0:0:0:
64,192,80558,1,0,0:0:0:0:
192,192,80558,1,0,0:0:0:0:
320,192,80629,1,0,0:0:0:0:
64,192,80699,1,2,0:0:0:93:
448,192,80699,1,0,0:0:0:0:
192,192,80770,1,0,0:0:0:0:
320,192,80840,1,0,0:0:0:0:
448,192,80840,1,0,0:0:0:0:
64,192,80910,1,0,0:0:0:0:
192,192,80981,1,8,0:0:0:46:
320,192,80981,1,2,0:0:0:46:
448,192,80981,1,0,0:0:0:0:
64,192,81051,1,0,0:0:0:0:
192,192,81122,1,2,0:0:0:93:
448,192,81122,1,0,0:0:0:0:
320,192,81192,1,0,0:0:0:0:
64,192,81262,1,2,0:0:0:93:
448,192,81262,1,0,0:0:0:0:
192,192,81333,1,0,0:0:0:0:
448,192,81403,1,0,0:0:0:0:
320,192,81474,1,0,0:0:0:0:
64,192,81544,1,2,0:0:0:46:
192,192,81544,1,8,0:0:0:46:
448,192,81544,1,0,0:0:0:0:
320,192,81615,1,0,0:0:0:0:
64,192,81685,1,0,0:0:0:0:
448,192,81685,1,0,0:0:0:0:
192,192,81755,1,0,0:0:0:0:
320,192,81755,1,0,0:0:0:0:
64,192,81826,1,2,0:0:0:93:
448,192,81826,1,0,0:0:0:0:
192,192,81896,1,0,0:0:0:0:
320,192,81967,1,0,0:0:0:0:
64,192,82037,1,0,0:0:0:0:
192,192,82108,1,2,0:0:0:46:
320,192,82108,1,8,0:0:0:46:
448,192,82108,1,0,0:0:0:0:
64,192,82178,1,0,0:0:0:0:
320,192,82248,1,0,0:0:0:0:
448,192,82248,1,0,0:0:0:0:
64,192,82319,1,0,0:0:0:0:
192,192,82319,1,0,0:0:0:0:
320,192,82389,1,2,0:0:0:93:
448,192,82389,1,0,0:0:0:0:
192,192,82460,1,0,0:0:0:0:
64,192,82530,1,0,0:0:0:0:
448,192,82530,1,0,0:0:0:0:
320,192,82601,1,0,0:0:0:0:
64,192,82671,1,2,0:0:0:46:
192,192,82671,1,8,0:0:0:46:
448,192,82671,1,0,0:0:0:0:
320,192,82741,1,0,0:0:0:0:
64,192,82812,1,0,0:0:0:0:
192,192,82812,1,0,0:0:0:0:
448,192,82882,1,0,0:0:0:0:
192,192,82953,1,2,0:0:0:93:
320,192,82953,1,0,0:0:0:0:
448,192,83023,1,0,0:0:0:0:
64,192,83093,1,0,0:0:0:0:
320,192,83093,1,0,0:0:0:0:
192,192,83164,1,0,0:0:0:0:
64,192,83234,1,2,0:0:0:46:
320,192,83234,1,8,0:0:0:46:
448,192,83234,1,0,0:0:0:0:
192,192,83305,1,0,0:0:0:0:
64,192,83375,1,0,0:0:0:0:
448,192,83375,1,0,0:0:0:0:
320,192,83446,1,0,0:0:0:0:
64,192,83516,1,2,0:0:0:93:
192,192,83516,1,0,0:0:0:0:
448,192,83516,1,0,0:0:0:0:
320,192,83586,1,0,0:0:0:0:
192,192,83657,1,0,0:0:0:0:
448,192,83657,1,0,0:0:0:0:
64,192,83727,1,0,0:0:0:0:
192,192,83798,1,2,0:0:0:46:
320,192,83798,1,8,0:0:0:46:
448,192,83798,1,0,0:0:0:0:
64,192,83868,1,0,0:0:0:0:
192,192,83939,1,0,0:0:0:0:
320,192,83939,1,0,0:0:0:0:
448,192,84009,1,0,0:0:0:0:
64,192,84079,1,2,0:0:0:93:
192,192,84079,1,0,0:0:0:0:
320,192,84079,1,0,0:0:0:0:
448,192,84150,1,0,0:0:0:0:
64,192,84220,1,0,0:0:0:0:
192,192,84220,1,0,0:0:0:0:
320,192,84291,1,0,0:0:0:0:
448,192,84291,1,0,0:0:0:0:
64,192,84361,1,2,0:0:0:46:
192,192,84361,1,8,0:0:0:46:
320,192,84432,1,0,0:0:0:0:
64,192,84502,1,0,0:0:0:0:
448,192,84502,1,0,0:0:0:0:
192,192,84572,1,0,0:0:0:0:
64,192,84643,1,2,0:0:0:93:
320,192,84643,1,0,0:0:0:0:
448,192,84643,1,0,0:0:0:0:
192,192,84713,1,0,0:0:0:0:
320,192,84784,1,2,0:0:0:93:
448,192,84784,1,0,0:0:0:0:
64,192,84854,1,0,0:0:0:0:
192,192,84924,1,2,0:0:0:46:
320,192,84924,1,8,0:0:0:46:
448,192,84924,1,0,0:0:0:0:
64,192,84995,1,0,0:0:0:0:
192,192,85065,1,0,0:0:0:0:
320,192,85065,1,0,0:0:0:0:
448,192,85136,1,0,0:0:0:0:
64,192,85206,1,2,0:0:0:93:
320,192,85206,1,0,0:0:0:0:
192,192,85277,1,0,0:0:0:0:
320,192,85347,1,0,0:0:0:0:
448,192,85347,1,0,0:0:0:0:
64,192,85417,1,2,0:0:0:93:
192,192,85417,1,0,0:0:0:0:
320,192,85488,1,2,0:0:0:46:
448,192,85488,1,8,0:0:0:46:
64,192,85558,1,0,0:0:0:0:
192,192,85629,1,2,0:0:0:93:
448,192,85629,1,0,0:0:0:0:
320,192,85699,1,0,0:0:0:0:
64,192,85770,1,2,0:0:0:46:
192,192,85770,1,4,0:0:0:46:
448,192,85770,1,0,0:0:0:0:
320,192,85840,1,0,0:0:0:0:
64,192,85910,1,0,0:0:0:0:
192,192,85910,1,0,0:0:0:0:
448,192,85981,1,0,0:0:0:0:
64,192,86051,1,2,0:0:0:46:
192,192,86051,1,8,0:0:0:46:
320,192,86051,1,0,0:0:0:0:
448,192,86122,1,0,0:0:0:0:
64,192,86192,1,0,0:0:0:0:
320,192,86192,1,0,0:0:0:0:
192,192,86262,1,0,0:0:0:0:
64,192,86333,1,2,0:0:0:93:
320,192,86333,1,0,0:0:0:0:
448,192,86333,1,0,0:0:0:0:
192,192,86403,1,0,0:0:0:0:
320,192,86474,1,0,0:0:0:0:
448,192,86474,1,0,0:0:0:0:
64,192,86544,1,0,0:0:0:0:
192,192,86544,1,0,0:0:0:0:
320,192,86615,1,2,0:0:0:46:
448,192,86615,1,8,0:0:0:46:
192,192,86685,1,0,0:0:0:0:
64,192,86755,1,0,0:0:0:0:
448,192,86755,1,0,0:0:0:0:
320,192,86826,1,0,0:0:0:0:
64,192,86896,1,2,0:0:0:93:
192,192,86896,1,0,0:0:0:0:
448,192,86896,1,0,0:0:0:0:
320,192,86967,1,0,0:0:0:0:
64,192,87037,1,0,0:0:0:0:
192,192,87037,1,0,0:0:0:0:
448,192,87108,1,0,0:0:0:0:
64,192,87178,1,2,0:0:0:46:
192,192,87178,1,8,0:0:0:46:
320,192,87178,1,0,0:0:0:0:
448,192,87248,1,0,0:0:0:0:
192,192,87319,1,0,0:0:0:0:
320,192,87319,1,0,0:0:0:0:
64,192,87389,1,0,0:0:0:0:
320,192,87460,1,2,0:0:0:93:
448,192,87460,1,0,0:0:0:0:
192,192,87530,1,0,0:0:0:0:
64,192,87601,1,0,0:0:0:0:
320,192,87601,1,0,0:0:0:0:
448,192,87671,1,0,0:0:0:0:
64,192,87741,1,2,0:0:0:46:
192,192,87741,1,8,0:0:0:46:
320,192,87741,1,0,0:0:0:0:
448,192,87812,1,0,0:0:0:0:
64,192,87882,1,0,0:0:0:0:
192,192,87882,1,0,0:0:0:0:
448,192,87953,1,0,0:0:0:0:
64,192,88023,1,2,0:0:0:93:
192,192,88023,1,0,0:0:0:0:
320,192,88023,1,0,0:0:0:0:
448,192,88093,1,0,0:0:0:0:
192,192,88164,1,0,0:0:0:0:
320,192,88164,1,0,0:0:0:0:
64,192,88234,1,0,0:0:0:0:
192,192,88305,1,2,0:0:0:46:
320,192,88305,1,8,0:0:0:46:
448,192,88305,1,0,0:0:0:0:
64,192,88375,1,0,0:0:0:0:
320,192,88446,1,0,0:0:0:0:
448,192,88446,1,0,0:0:0:0:
192,192,88516,1,0,0:0:0:0:
64,192,88586,1,2,0:0:0:93:
320,192,88586,1,0,0:0:0:0:
448,192,88586,1,0,0:0:0:0:
192,192,88657,1,0,0:0:0:0:
64,192,88727,1,0,0:0:0:0:
448,192,88727,1,0,0:0:0:0:
192,192,88798,1,0,0:0:0:0:
320,192,88798,1,0,0:0:0:0:
64,192,88868,1,2,0:0:0:46:
448,192,88868,1,8,0:0:0:46:
320,192,88939,1,0,0:0:0:0:
64,192,89009,1,0,0:0:0:0:
192,192,89009,1,0,0:0:0:0:
448,192,89079,1,0,0:0:0:0:
64,192,89150,1,2,0:0:0:93:
192,192,89150,1,0,0:0:0:0:
320,192,89150,1,0,0:0:0:0:
448,192,89220,1,0,0:0:0:0:
192,192,89291,1,0,0:0:0:0:
320,192,89291,1,0,0:0:0:0:
64,192,89361,1,0,0:0:0:0:
192,192,89432,1,2,0:0:0:46:
320,192,89432,1,8,0:0:0:46:
448,192,89432,1,0,0:0:0:0:
64,192,89502,1,0,0:0:0:0:
320,192,89572,1,0,0:0:0:0:
448,192,89572,1,0,0:0:0:0:
192,192,89643,1,0,0:0:0:0:
64,192,89713,1,2,0:0:0:93:
448,192,89713,1,0,0:0:0:0:
320,192,89784,1,0,0:0:0:0:
192,192,89854,1,0,0:0:0:0:
448,192,89854,1,0,0:0:0:0:
320,192,89924,1,0,0:0:0:0:
64,192,89995,1,2,0:0:0:46:
192,192,89995,1,8,0:0:0:46:
448,192,89995,1,0,0:0:0:0:
320,192,90065,1,0,0:0:0:0:
64,192,90136,1,2,0:0:0:93:
192,192,90136,1,0,0:0:0:0:
448,192,90206,1,0,0:0:0:0:
64,192,90277,1,2,0:0:0:46:
192,192,90277,1,4,0:0:0:46:
320,192,90277,1,0,0:0:0:0:
448,192,90347,1,0,0:0:0:0:
64,192,90417,1,2,0:0:0:46:
192,192,90417,1,4,0:0:0:46:
320,192,90417,1,0,0:0:0:0:
448,192,90488,1,0,0:0:0:0:
192,192,90558,1,0,0:0:0:0:
320,192,90629,1,0,0:0:0:0:
64,192,90699,1,2,0:0:0:93:
192,192,90734,1,2,0:0:0:93:
320,192,90770,1,2,0:0:0:93:
448,192,90805,1,2,0:0:0:93:
64,192,90840,1,2,0:0:0:46:
192,192,90840,1,4,0:0:0:46:
320,192,90910,1,0,0:0:0:0:
64,192,90981,1,2,0:0:0:46:
192,192,90981,1,4,0:0:0:46:
448,192,90981,1,0,0:0:0:0:
320,192,91051,1,0,0:0:0:0:
64,192,91122,1,0,0:0:0:0:
192,192,91192,1,0,0:0:0:0:
448,192,91262,1,2,0:0:0:93:
320,192,91298,1,2,0:0:0:93:
192,192,91333,1,2,0:0:0:93:
64,192,91368,1,2,0:0:0:93:
320,192,91403,1,2,0:0:0:46:
448,192,91403,1,4,0:0:0:46:
192,192,91474,1,0,0:0:0:0:
64,192,91544,1,2,0:0:0:46:
320,192,91544,1,4,0:0:0:46:
448,192,91544,1,0,0:0:0:0:
192,192,91615,1,0,0:0:0:0:
448,192,91685,1,0,0:0:0:0:
320,192,91755,1,0,0:0:0:0:
64,192,91826,1,2,0:0:0:93:
192,192,91861,1,2,0:0:0:93:
320,192,91896,1,2,0:0:0:93:
448,192,91932,1,2,0:0:0:93:
64,192,91967,1,2,0:0:0:46:
192,192,91967,1,4,0:0:0:46:
320,192,92037,1,0,0:0:0:0:
64,192,92108,1,2,0:0:0:46:
192,192,92108,1,4,0:0:0:46:
448,192,92108,1,0,0:0:0:0:
320,192,92178,1,0,0:0:0:0:
192,192,92248,1,0,0:0:0:0:
64,192,92319,1,0,0:0:0:0:
448,192,92389,1,2,0:0:0:93:
320,192,92424,1,2,0:0:0:93:
192,192,92460,1,2,0:0:0:93:
64,192,92495,1,2,0:0:0:93:
320,192,92530,1,2,0:0:0:46:
448,192,92530,1,4,0:0:0:46:
192,192,92601,1,0,0:0:0:0:
64,192,92671,1,2,0:0:0:93:
448,192,92671,1,0,0:0:0:0:
320,192,92741,1,0,0:0:0:0:
64,192,92812,1,2,0:0:0:46:
192,192,92812,1,8,0:0:0:46:
448,192,92882,1,0,0:0:0:0:
192,192,92953,1,2,0:0:0:93:
320,192,92953,1,0,0:0:0:0:
64,192,93023,1,0,0:0:0:0:
192,192,93093,1,2,0:0:0:46:
320,192,93093,1,4,0:0:0:46:
448,192,93093,1,0,0:0:0:0:
64,192,93164,1,0,0:0:0:0:
192,192,93234,1,2,0:0:0:93:
448,192,93234,1,0,0:0:0:0:
320,192,93305,1,0,0:0:0:0:
64,192,93375,1,2,0:0:0:46:
192,192,93375,1,8,0:0:0:46:
320,192,93446,1,0,0:0:0:0:
64,192,93516,1,2,0:0:0:93:
448,192,93516,1,0,0:0:0:0:
192,192,93586,1,0,0:0:0:0:
64,192,93657,1,2,0:0:0:46:
320,192,93657,1,4,0:0:0:46:
448,192,93657,1,0,0:0:0:0:
192,192,93727,1,2,0:0:0:93:
320,192,93798,1,2,0:0:0:93:
448,192,93798,1,0,0:0:0:0:
192,192,93868,1,2,0:0:0:93:
64,192,93939,1,2,0:0:0:31:
320,192,93939,1,8,0:0:0:31:
448,192,93939,1,4,0:0:0:31:
192,192,94009,1,2,0:0:0:93:
320,192,94079,1,2,0:0:0:93:
448,192,94079,1,0,0:0:0:0:
192,192,94150,1,2,0:0:0:93:
64,192,94220,1,2,0:0:0:46:
320,192,94220,1,4,0:0:0:46:
448,192,94220,1,0,0:0:0:0:
192,192,94291,1,0,0:0:0:0:
448,192,94361,1,2,0:0:0:93:
320,192,94396,1,2,0:0:0:93:
192,192,94432,1,2,0:0:0:93:
64,192,94467,1,2,0:0:0:93:
320,192,94502,1,10,0:0:0:31:
448,192,94502,1,4,0:0:0:31:
64,192,94643,1,2,0:0:0:93:
192,192,94678,1,2,0:0:0:93:
320,192,94713,1,2,0:0:0:93:
448,192,94748,1,2,0:0:0:93:
64,192,94784,1,4,0:0:0:46:
192,192,94784,1,2,0:0:0:46:
320,192,94854,1,0,0:0:0:0:
448,192,94924,1,0,0:0:0:0:
192,192,94995,1,0,0:0:0:0:
320,192,95065,1,0,0:0:0:0:
64,192,95136,1,0,0:0:0:0:
320,192,95206,1,2,0:0:0:93:
448,192,95206,1,0,0:0:0:0:
64,192,95277,1,2,0:0:0:93:
192,192,95277,1,0,0:0:0:0:
320,192,95347,1,2,0:0:0:93:
448,192,95347,1,0,0:0:0:0:
192,192,95417,1,0,0:0:0:0:
64,192,95488,1,0,0:0:0:0:
320,192,95558,1,0,0:0:0:0:
448,192,95629,1,0,0:0:0:0:
64,192,95699,1,0,0:0:0:0:
192,192,95770,1,2,0:0:0:93:
320,192,95770,1,0,0:0:0:0:
320,192,95910,1,2,0:0:0:93:
448,192,95910,1,0,0:0:0:0:
64,192,95981,1,2,0:0:0:93:
192,192,95981,1,0,0:0:0:0:
320,192,96051,1,2,0:0:0:93:
448,192,96051,1,0,0:0:0:0:
64,192,96122,1,2,0:0:0:93:
192,192,96122,1,0,0:0:0:0:
320,192,96192,1,2,0:0:0:93:
448,192,96192,1,0,0:0:0:0:
64,192,96262,1,2,0:0:0:93:
192,192,96262,1,0,0:0:0:0:
320,192,96333,1,2,0:0:0:93:
448,192,96333,1,0,0:0:0:0:
64,192,96403,1,2,0:0:0:93:
192,192,96403,1,0,0:0:0:0:
320,192,96474,1,2,0:0:0:93:
448,192,96474,1,0,0:0:0:0:
64,192,96544,1,2,0:0:0:93:
192,192,96544,1,0,0:0:0:0:
320,192,96615,1,2,0:0:0:93:
448,192,96615,1,0,0:0:0:0:
64,192,96685,1,2,0:0:0:93:
192,192,96755,1,2,0:0:0:46:
320,192,96755,1,8,0:0:0:46:
448,192,96755,1,0,0:0:0:0:
64,192,97037,1,2,0:0:0:46:
192,192,97037,1,4,0:0:0:46:
320,192,97037,1,0,0:0:0:0:
448,192,97108,1,0,0:0:0:0:
64,192,97178,1,0,0:0:0:0:
192,192,97178,1,0,0:0:0:0:
320,192,97248,1,0,0:0:0:0:
64,192,97319,1,2,0:0:0:46:
192,192,97319,1,8,0:0:0:46:
448,192,97319,1,0,0:0:0:0:
320,192,97389,1,0,0:0:0:0:
64,192,97460,1,0,0:0:0:0:
448,192,97460,1,0,0:0:0:0:
192,192,97530,1,0,0:0:0:0:
320,192,97530,1,0,0:0:0:0:
64,192,97601,1,2,0:0:0:93:
448,192,97601,1,0,0:0:0:0:
320,192,97741,1,0,0:0:0:0:
448,192,97741,1,0,0:0:0:0:
64,192,97812,1,0,0:0:0:0:
192,192,97882,1,2,0:0:0:46:
320,192,97882,1,8,0:0:0:46:
448,192,97882,1,0,0:0:0:0:
64,192,97953,1,0,0:0:0:0:
192,192,98023,1,0,0:0:0:0:
320,192,98023,1,0,0:0:0:0:
64,192,98093,1,0,0:0:0:0:
448,192,98093,1,0,0:0:0:0:
192,192,98164,1,2,0:0:0:93:
320,192,98164,1,0,0:0:0:0:
64,192,98305,1,0,0:0:0:0:
192,192,98305,1,0,0:0:0:0:
320,192,98375,1,0,0:0:0:0:
64,192,98446,1,2,0:0:0:46:
192,192,98446,1,8,0:0:0:46:
448,192,98446,1,0,0:0:0:0:
320,192,98516,1,0,0:0:0:0:
64,192,98586,1,0,0:0:0:0:
448,192,98586,1,0,0:0:0:0:
192,192,98657,1,0,0:0:0:0:
320,192,98657,1,0,0:0:0:0:
64,192,98727,1,2,0:0:0:93:
448,192,98727,1,0,0:0:0:0:
192,192,98868,1,0,0:0:0:0:
320,192,98868,1,0,0:0:0:0:
64,192,98939,1,0,0:0:0:0:
192,192,99009,1,2,0:0:0:46:
320,192,99009,1,8,0:0:0:46:
448,192,99009,1,0,0:0:0:0:
64,192,99079,1,0,0:0:0:0:
320,192,99150,1,0,0:0:0:0:
448,192,99150,1,0,0:0:0:0:
64,192,99220,1,0,0:0:0:0:
192,192,99220,1,0,0:0:0:0:
320,192,99291,1,2,0:0:0:93:
448,192,99291,1,0,0:0:0:0:
64,192,99432,1,0,0:0:0:0:
448,192,99432,1,0,0:0:0:0:
320,192,99502,1,0,0:0:0:0:
64,192,99572,1,2,0:0:0:46:
192,192,99572,1,8,0:0:0:46:
448,192,99572,1,0,0:0:0:0:
320,192,99643,1,0,0:0:0:0:
64,192,99713,1,0,0:0:0:0:
192,192,99713,1,0,0:0:0:0:
320,192,99784,1,0,0:0:0:0:
448,192,99784,1,0,0:0:0:0:
64,192,99854,1,2,0:0:0:93:
192,192,99854,1,0,0:0:0:0:
320,192,99995,1,0,0:0:0:0:
448,192,99995,1,0,0:0:0:0:
64,192,100065,1,0,0:0:0:0:
192,192,100136,1,2,0:0:0:46:
320,192,100136,1,8,0:0:0:46:
448,192,100136,1,0,0:0:0:0:
64,192,100206,1,0,0:0:0:0:
192,192,100277,1,0,0:0:0:0:
320,192,100277,1,0,0:0:0:0:
64,192,100347,1,0,0:0:0:0:
448,192,100347,1,0,0:0:0:0:
192,192,100417,1,2,0:0:0:93:
320,192,100417,1,0,0:0:0:0:
64,192,100558,1,0,0:0:0:0:
448,192,100558,1,0,0:0:0:0:
192,192,100629,1,0,0:0:0:0:
64,192,100699,1,2,0:0:0:46:
320,192,100699,1,8,0:0:0:46:
448,192,100699,1,0,0:0:0:0:
192,192,100770,1,0,0:0:0:0:
320,192,100840,1,0,0:0:0:0:
448,192,100840,1,0,0:0:0:0:
64,192,100910,1,0,0:0:0:0:
192,192,100910,1,0,0:0:0:0:
320,192,100981,1,2,0:0:0:93:
448,192,100981,1,0,0:0:0:0:
64,192,101122,1,0,0:0:0:0:
448,192,101122,1,0,0:0:0:0:
320,192,101192,1,0,0:0:0:0:
64,192,101262,1,2,0:0:0:46:
192,192,101262,1,8,0:0:0:46:
448,192,101262,1,0,0:0:0:0:
320,192,101333,1,0,0:0:0:0:
64,192,101403,1,2,0:0:0:93:
192,192,101403,1,0,0:0:0:0:
320,192,101474,1,0,0:0:0:0:
448,192,101474,1,0,0:0:0:0:
64,192,101544,1,2,0:0:0:93:
192,192,101544,1,0,0:0:0:0:
320,192,101685,1,0,0:0:0:0:
448,192,101685,1,0,0:0:0:0:
192,192,101755,1,0,0:0:0:0:
64,192,101826,1,2,0:0:0:46:
320,192,101826,1,8,0:0:0:46:
448,192,101826,1,0,0:0:0:0:
192,192,101896,1,0,0:0:0:0:
64,192,101967,1,0,0:0:0:0:
448,192,101967,1,0,0:0:0:0:
192,192,102037,1,0,0:0:0:0:
320,192,102037,1,0,0:0:0:0:
64,192,102108,1,2,0:0:0:93:
448,192,102108,1,0,0:0:0:0:
192,192,102248,1,0,0:0:0:0:
320,192,102248,1,0,0:0:0:0:
64,192,102319,1,0,0:0:0:0:
192,192,102389,1,2,0:0:0:46:
320,192,102389,1,8,0:0:0:46:
448,192,102389,1,0,0:0:0:0:
64,192,102460,1,0,0:0:0:0:
320,192,102530,1,0,0:0:0:0:
448,192,102530,1,0,0:0:0:0:
64,192,102601,1,0,0:0:0:0:
192,192,102601,1,0,0:0:0:0:
320,192,102671,1,2,0:0:0:93:
448,192,102671,1,0,0:0:0:0:
64,192,102812,1,0,0:0:0:0:
192,192,102812,1,0,0:0:0:0:
320,192,102882,1,0,0:0:0:0:
64,192,102953,1,2,0:0:0:46:
192,192,102953,1,8,0:0:0:46:
448,192,102953,1,0,0:0:0:0:
320,192,103023,1,0,0:0:0:0:
64,192,103093,1,0,0:0:0:0:
448,192,103093,1,0,0:0:0:0:
192,192,103164,1,0,0:0:0:0:
320,192,103164,1,0,0:0:0:0:
64,192,103234,1,2,0:0:0:93:
448,192,103234,1,0,0:0:0:0:
320,192,103375,1,0,0:0:0:0:
448,192,103375,1,0,0:0:0:0:
192,192,103446,1,0,0:0:0:0:
64,192,103516,1,2,0:0:0:46:
320,192,103516,1,8,0:0:0:46:
448,192,103516,1,0,0:0:0:0:
192,192,103586,1,0,0:0:0:0:
64,192,103657,1,0,0:0:0:0:
448,192,103657,1,0,0:0:0:0:
192,192,103727,1,0,0:0:0:0:
320,192,103727,1,0,0:0:0:0:
64,192,103798,1,2,0:0:0:93:
448,192,103798,1,0,0:0:0:0:
64,192,103939,1,0,0:0:0:0:
192,192,103939,1,0,0:0:0:0:
448,192,104009,1,0,0:0:0:0:
64,192,104079,1,2,0:0:0:46:
192,192,104079,1,8,0:0:0:46:
320,192,104079,1,0,0:0:0:0:
448,192,104150,1,0,0:0:0:0:
192,192,104220,1,0,0:0:0:0:
320,192,104220,1,0,0:0:0:0:
64,192,104291,1,0,0:0:0:0:
448,192,104291,1,0,0:0:0:0:
192,192,104361,1,2,0:0:0:93:
320,192,104361,1,0,0:0:0:0:
64,192,104502,1,0,0:0:0:0:
448,192,104502,1,0,0:0:0:0:
192,192,104572,1,0,0:0:0:0:
64,192,104643,1,2,0:0:0:46:
320,192,104643,1,8,0:0:0:46:
448,192,104643,1,0,0:0:0:0:
192,192,104713,1,0,0:0:0:0:
320,192,104784,1,0,0:0:0:0:
448,192,104784,1,0,0:0:0:0:
64,192,104854,1,0,0:0:0:0:
192,192,104854,1,0,0:0:0:0:
320,192,104924,1,2,0:0:0:93:
448,192,104924,1,0,0:0:0:0:
320,192,105065,1,2,0:0:0:93:
448,192,105065,1,0,0:0:0:0:
192,192,105136,1,0,0:0:0:0:
64,192,105206,1,2,0:0:0:46:
320,192,105206,1,8,0:0:0:46:
448,192,105206,1,0,0:0:0:0:
192,192,105277,1,0,0:0:0:0:
64,192,105347,1,0,0:0:0:0:
320,192,105347,1,0,0:0:0:0:
448,192,105417,1,0,0:0:0:0:
64,192,105488,1,2,0:0:0:46:
192,192,105488,1,4,0:0:0:46:
320,192,105488,1,0,0:0:0:0:
64,192,105629,1,2,0:0:0:46:
192,192,105629,1,4,0:0:0:46:
448,192,105629,1,8,0:0:0:46:
320,192,105699,1,2,0:0:0:93:
192,192,105770,1,2,0:0:0:93:
448,192,105770,1,0,0:0:0:0:
64,192,105910,1,2,0:0:0:46:
320,192,105910,1,4,0:0:0:46:
448,192,105910,1,0,0:0:0:0:
192,192,105981,1,0,0:0:0:0:
64,192,106051,1,2,0:0:0:93:
320,192,106051,1,0,0:0:0:0:
192,192,106122,1,0,0:0:0:0:
320,192,106192,1,2,0:0:0:93:
448,192,106192,1,0,0:0:0:0:
64,192,106262,1,2,0:0:0:93:
192,192,106333,1,6,0:0:0:31:
320,192,106333,1,8,0:0:0:31:
448,192,106351,1,0,0:0:0:0:
320,192,106474,1,0,0:0:0:0:
448,192,106491,1,0,0:0:0:0:
64,192,106615,1,2,0:0:0:93:
192,192,106615,1,0,0:0:0:0:
448,192,106615,1,0,0:0:0:0:
64,192,106755,1,0,0:0:0:0:
64,192,106826,1,0,0:0:0:0:
192,192,106896,128,2,107178:0:0:0:46:
320,192,106896,1,8,0:0:0:46:
448,192,106896,1,0,0:0:0:0:
64,192,107037,1,0,0:0:0:0:
320,192,107178,1,2,0:0:0:93:
448,192,107178,1,0,0:0:0:0:
64,192,107248,1,0,0:0:0:0:
448,192,107319,1,0,0:0:0:0:
320,192,107389,1,0,0:0:0:0:
64,192,107460,1,2,0:0:0:46:
192,192,107460,1,8,0:0:0:46:
448,192,107460,1,0,0:0:0:0:
192,192,107601,1,0,0:0:0:0:
320,192,107601,1,0,0:0:0:0:
64,192,107671,1,0,0:0:0:0:
320,192,107741,1,2,0:0:0:93:
448,192,107741,1,0,0:0:0:0:
192,192,107882,1,0,0:0:0:0:
192,192,107953,1,0,0:0:0:0:
64,192,108023,128,2,108305:0:0:0:46:
320,192,108023,1,8,0:0:0:46:
448,192,108023,1,0,0:0:0:0:
192,192,108164,1,0,0:0:0:0:
192,192,108305,1,2,0:0:0:93:
320,192,108305,1,0,0:0:0:0:
448,192,108305,1,0,0:0:0:0:
64,192,108375,1,0,0:0:0:0:
192,192,108446,1,0,0:0:0:0:
320,192,108516,1,0,0:0:0:0:
192,192,108586,1,2,0:0:0:46:
448,192,108586,1,8,0:0:0:46:
64,192,108604,1,0,0:0:0:0:
192,192,108727,1,0,0:0:0:0:
64,192,108745,1,0,0:0:0:0:
64,192,108868,1,2,0:0:0:93:
320,192,108868,1,0,0:0:0:0:
448,192,108868,1,0,0:0:0:0:
448,192,109009,1,0,0:0:0:0:
448,192,109079,1,0,0:0:0:0:
64,192,109150,1,2,0:0:0:46:
192,192,109150,1,8,0:0:0:46:
320,192,109150,128,0,109432:0:0:0:0:
448,192,109291,1,0,0:0:0:0:
64,192,109432,128,2,109502:0:0:0:93:
192,192,109432,128,0,109502:0:0:0:0:
320,192,109502,1,0,0:0:0:0:
64,192,109572,128,0,109643:0:0:0:0:
448,192,109572,128,0,109643:0:0:0:0:
192,192,109643,1,0,0:0:0:0:
64,192,109713,1,2,0:0:0:46:
320,192,109713,128,8,109784:0:0:0:46:
448,192,109713,128,0,109784:0:0:0:0:
192,192,109784,1,0,0:0:0:0:
320,192,109854,128,0,109924:0:0:0:0:
448,192,109854,128,0,109924:0:0:0:0:
64,192,109995,128,2,110277:0:0:0:93:
192,192,109995,1,0,0:0:0:0:
320,192,110136,1,0,0:0:0:0:
192,192,110277,1,2,0:0:0:46:
320,192,110277,1,8,0:0:0:46:
448,192,110277,128,0,110558:0:0:0:0:
64,192,110417,1,2,0:0:0:93:
192,192,110417,1,0,0:0:0:0:
64,192,110558,1,2,0:0:0:46:
192,192,110558,1,4,0:0:0:46:
320,192,110558,1,0,0:0:0:0:
320,192,110699,1,2,0:0:0:93:
448,192,110699,1,0,0:0:0:0:
64,192,110770,1,2,0:0:0:93:
192,192,110770,1,0,0:0:0:0:
320,192,110840,1,10,0:0:0:46:
448,192,110858,1,0,0:0:0:0:
320,192,110981,1,0,0:0:0:0:
448,192,110998,1,0,0:0:0:0:
64,192,111122,1,2,0:0:0:93:
192,192,111122,1,0,0:0:0:0:
448,192,111122,1,0,0:0:0:0:
64,192,111262,1,0,0:0:0:0:
64,192,111333,1,0,0:0:0:0:
192,192,111403,128,2,111685:0:0:0:46:
320,192,111403,1,8,0:0:0:46:
448,192,111403,1,0,0:0:0:0:
64,192,111544,1,0,0:0:0:0:
64,192,111685,1,2,0:0:0:93:
448,192,111685,1,0,0:0:0:0:
320,192,111755,1,0,0:0:0:0:
192,192,111826,1,0,0:0:0:0:
448,192,111896,1,0,0:0:0:0:
64,192,111967,1,2,0:0:0:46:
192,192,111967,1,8,0:0:0:46:
320,192,111967,1,0,0:0:0:0:
448,192,112037,1,0,0:0:0:0:
64,192,112108,1,0,0:0:0:0:
320,192,112108,1,0,0:0:0:0:
192,192,112178,1,0,0:0:0:0:
320,192,112248,1,2,0:0:0:93:
448,192,112248,1,0,0:0:0:0:
64,192,112319,1,0,0:0:0:0:
192,192,112389,1,0,0:0:0:0:
320,192,112389,1,0,0:0:0:0:
192,192,112460,1,0,0:0:0:0:
64,192,112530,1,2,0:0:0:46:
320,192,112530,128,8,112812:0:0:0:46:
448,192,112530,1,0,0:0:0:0:
64,192,112812,1,2,0:0:0:46:
192,192,112812,1,4,0:0:0:46:
448,192,112812,1,0,0:0:0:0:
320,192,112882,1,0,0:0:0:0:
64,192,112953,1,2,0:0:0:93:
192,192,112953,1,0,0:0:0:0:
448,192,113023,1,0,0:0:0:0:
192,192,113093,1,2,0:0:0:46:
320,192,113093,1,8,0:0:0:46:
64,192,113164,1,0,0:0:0:0:
320,192,113234,1,2,0:0:0:93:
448,192,113234,1,0,0:0:0:0:
192,192,113305,1,0,0:0:0:0:
64,192,113375,1,2,0:0:0:46:
320,192,113375,128,4,113446:0:0:0:46:
448,192,113375,128,0,113446:0:0:0:0:
192,192,113446,1,0,0:0:0:0:
320,192,113516,128,2,113586:0:0:0:93:
448,192,113516,128,0,113586:0:0:0:0:
192,192,113586,128,0,113657:0:0:0:0:
64,192,113657,1,2,0:0:0:46:
320,192,113657,1,8,0:0:0:46:
448,192,113657,1,0,0:0:0:0:
192,192,113727,1,0,0:0:0:0:
64,192,113798,1,2,0:0:0:93:
448,192,113798,1,0,0:0:0:0:
320,192,113868,1,0,0:0:0:0:
64,192,113939,128,2,114009:0:0:0:46:
192,192,113939,128,4,114009:0:0:0:46:
448,192,113939,1,0,0:0:0:0:
320,192,114009,1,2,0:0:0:93:
64,192,114079,128,2,114150:0:0:0:93:
192,192,114079,128,0,114150:0:0:0:0:
320,192,114150,1,2,0:0:0:93:
64,192,114220,128,4,114291:0:0:0:31:
192,192,114220,128,2,114291:0:0:0:31:
448,192,114220,1,8,0:0:0:31:
320,192,114291,1,2,0:0:0:93:
64,192,114361,128,2,114432:0:0:0:93:
192,192,114361,128,0,114432:0:0:0:0:
448,192,114432,1,2,0:0:0:93:
64,192,114502,128,2,114572:0:0:0:31:
192,192,114502,128,4,114572:0:0:0:31:
320,192,114502,128,8,114572:0:0:0:31:
64,192,114643,128,2,114784:0:0:0:0:
192,192,114643,128,4,114784:0:0:0:0:
320,192,114643,128,8,114784:0:0:0:0:
