osu file format v14

[General]
AudioFilename: audio.mp3
AudioLeadIn: 0
PreviewTime: 76755
Countdown: 0
SampleSet: Normal
StackLeniency: 0.7
Mode: 3
LetterboxInBreaks: 0
EpilepsyWarning: 1
SpecialStyle: 0
WidescreenStoryboard: 1

[Editor]
DistanceSpacing: 1
BeatDivisor: 4
GridSize: 4
TimelineZoom: 2.699999

[Metadata]
Title:Run*2 Run To You!!
TitleUnicode:Run*2 Run To You!!
Artist:Umeboshi Chazuke
ArtistUnicode:梅干茶漬け
Creator:[Crz]Alleyne
Version:Normal!!
Source:MUSYNX
Tags:fa featured artist [RT]Alleyne happycore happy hardcore electronic instrumental stream handstream jumpstream chiptune chipstyle bitpop 8bit 8-bit mg mappers' guild 同步音律喵赛克 MUSYNC
BeatmapID:3665476
BeatmapSetID:1788950

[Difficulty]
HPDrainRate:7
CircleSize:4
OverallDifficulty:7
ApproachRate:5
SliderMultiplier:1.4
SliderTickRate:1

[Events]
//Background and Video events
0,0,"bg.jpg",0,0
//Break Periods
//Storyboard Layer 0 (Background)
//Storyboard Layer 1 (Fail)
//Storyboard Layer 2 (Pass)
//Storyboard Layer 3 (Foreground)
//Storyboard Layer 4 (Overlay)
//Storyboard Sound Samples

[TimingPoints]
1263,281.69014084507,4,1,1,70,1,0
76755,-100.0,4,1,1,70,0,1
97037,-100.0,4,1,1,70,0,0

[HitObjects]
64,192,840,1,0,0:0:0:0:
192,192,981,1,0,0:0:0:0:
320,192,1122,1,0,0:0:0:0:
64,192,1263,1,0,0:0:0:0:
448,192,1263,1,0,0:0:0:0:
64,192,1544,1,0,0:0:0:93:LR_Clap Fast Low.wav
192,192,1544,1,0,0:0:0:0:
448,192,1826,1,0,0:0:0:0:
320,192,2108,1,0,0:0:0:93:LR_Clap Fast Low.wav
448,192,2108,1,0,0:0:0:0:
192,192,2248,1,0,0:0:0:0:
64,192,2389,1,0,0:0:0:0:
448,192,2530,1,0,0:0:0:0:
64,192,2671,1,0,0:0:0:93:LR_Clap Fast Low.wav
320,192,2671,1,0,0:0:0:0:
192,192,2812,1,0,0:0:0:0:
320,192,3093,1,0,0:0:0:0:
64,192,3234,1,0,0:0:0:93:LR_Clap Fast Low.wav
192,192,3234,1,0,0:0:0:0:
448,192,3375,1,0,0:0:0:0:
320,192,3516,1,0,0:0:0:0:
64,192,3798,1,0,0:0:0:93:LR_Clap Fast Low.wav
192,192,3798,1,0,0:0:0:0:
192,192,4079,1,0,0:0:0:0:
320,192,4361,1,0,0:0:0:93:LR_Clap Fast Low.wav
448,192,4361,1,0,0:0:0:0:
192,192,4502,1,0,0:0:0:0:
64,192,4643,1,0,0:0:0:0:
320,192,4784,1,0,0:0:0:0:
64,192,4924,1,0,0:0:0:93:LR_Clap Fast Low.wav
192,192,4924,1,0,0:0:0:0:
448,192,5065,1,0,0:0:0:0:
192,192,5347,1,0,0:0:0:0:
320,192,5488,1,0,0:0:0:93:LR_Clap Fast Low.wav
448,192,5488,1,0,0:0:0:0:
64,192,5629,1,0,0:0:0:0:
192,192,5770,1,0,0:0:0:0:
320,192,6051,1,0,0:0:0:93:LR_Clap Fast Low.wav
448,192,6051,1,0,0:0:0:0:
192,192,6192,1,0,0:0:0:0:
64,192,6262,1,0,0:0:0:0:
320,192,6333,1,0,0:0:0:0:
64,192,6615,1,0,0:0:0:93:LR_Clap Fast Low.wav
192,192,6615,1,0,0:0:0:0:
448,192,6755,1,0,0:0:0:0:
320,192,6826,1,0,0:0:0:0:
64,192,6896,128,0,7037:0:0:0:0:
192,192,6896,1,0,0:0:0:0:
448,192,7037,128,0,7178:0:0:0:0:
192,192,7178,128,0,7319:0:0:0:93:LR_Clap Fast Low.wav
320,192,7319,128,0,7460:0:0:0:93:LR_Clap Fast Low.wav
64,192,7601,1,0,0:0:0:0:
192,192,7671,1,0,0:0:0:0:
448,192,7741,1,0,0:0:0:0:
64,192,7882,1,0,0:0:0:0:
320,192,8023,1,2,0:0:0:46:
448,192,8023,1,4,0:0:0:46:
64,192,8164,1,0,0:0:0:0:
192,192,8305,1,2,0:0:0:93:
320,192,8305,1,0,0:0:0:0:
448,192,8446,128,0,8586:0:0:0:0:
64,192,8586,128,2,9995:0:0:0:93:
192,192,8586,1,0,0:0:0:0:
320,192,8868,1,2,0:0:0:93:
192,192,9150,1,2,0:0:0:93:
448,192,9432,1,2,0:0:0:93:
320,192,9713,1,2,0:0:0:93:
192,192,9995,1,2,0:0:0:93:
448,192,9995,128,0,10277:0:0:0:0:
64,192,10277,1,2,0:0:0:46:
192,192,10277,1,4,0:0:0:46:
320,192,10417,1,2,0:0:0:93:
448,192,10558,1,2,0:0:0:93:
192,192,10699,1,2,0:0:0:93:
64,192,10840,1,2,0:0:0:46:
320,192,10840,1,4,0:0:0:46:
448,192,10981,1,2,0:0:0:93:
192,192,11122,1,2,0:0:0:93:
320,192,11262,1,2,0:0:0:93:
64,192,11403,128,2,11685:0:0:0:46:
192,192,11403,1,4,0:0:0:46:
320,192,11685,128,6,11967:0:0:0:46:
192,192,11967,128,2,12248:0:0:0:93:
64,192,12248,1,8,0:0:0:46:
448,192,12248,128,2,12530:0:0:0:46:
64,192,12530,128,2,14784:0:0:0:93:
320,192,12530,1,0,0:0:0:0:
448,192,14784,1,0,0:0:0:93:ride07.wav
192,192,14924,1,0,0:0:0:0:
64,192,15065,1,0,0:0:0:0:
320,192,15206,1,0,0:0:0:0:
64,192,15347,1,0,0:0:0:0:
448,192,15417,1,0,0:0:0:0:
192,192,15488,1,0,0:0:0:0:
320,192,15629,1,0,0:0:0:0:
448,192,15770,1,0,0:0:0:0:
64,192,15910,1,0,0:0:0:93:LR_Chm_Soft_NLV.wav
320,192,16051,1,0,0:0:0:0:
448,192,16192,1,0,0:0:0:93:LR_Chm_Soft_NLV.wav
192,192,16333,1,0,0:0:0:0:
64,192,16474,1,0,0:0:0:93:LR_Chm_Soft_NLV.wav
320,192,16544,1,0,0:0:0:0:
192,192,16615,1,0,0:0:0:93:LR_Chm_Soft_NLV.wav
448,192,16755,1,0,0:0:0:93:LR_Chm_Soft_NLV.wav
320,192,16896,1,0,0:0:0:0:
64,192,17037,1,2,0:0:0:46:
192,192,17037,1,4,0:0:0:46:
320,192,17178,1,0,0:0:0:0:
192,192,17319,1,8,0:0:0:46:
448,192,17319,1,2,0:0:0:46:
64,192,17460,1,0,0:0:0:0:
320,192,17601,1,2,0:0:0:93:
192,192,17741,1,0,0:0:0:0:
320,192,17882,1,8,0:0:0:46:
448,192,17882,1,2,0:0:0:46:
64,192,18023,1,0,0:0:0:0:
192,192,18164,1,2,0:0:0:93:
448,192,18305,1,0,0:0:0:0:
64,192,18446,1,8,0:0:0:46:
192,192,18446,1,2,0:0:0:46:
320,192,18586,1,0,0:0:0:0:
448,192,18727,1,2,0:0:0:93:
64,192,18868,1,0,0:0:0:0:
192,192,19009,1,8,0:0:0:46:
320,192,19009,1,2,0:0:0:46:
448,192,19150,1,0,0:0:0:0:
64,192,19291,1,2,0:0:0:46:
192,192,19291,1,4,0:0:0:46:
320,192,19432,1,2,0:0:0:93:
64,192,19572,1,8,0:0:0:46:
448,192,19572,1,2,0:0:0:46:
320,192,19854,1,2,0:0:0:46:
448,192,19854,1,4,0:0:0:46:
64,192,20065,1,2,0:0:0:93:
192,192,20136,1,10,0:0:0:46:
320,192,20277,1,2,0:0:0:93:
64,192,20417,128,2,21403:0:0:0:46:
192,192,20417,1,4,0:0:0:46:
448,192,20558,128,0,20840:0:0:0:0:
320,192,20840,128,0,21122:0:0:0:0:
192,192,21122,128,0,21403:0:0:0:0:
448,192,21403,1,0,0:0:0:0:
192,192,21544,1,2,0:0:0:46:
320,192,21544,1,4,0:0:0:46:
64,192,21685,1,0,0:0:0:0:
192,192,21755,1,0,0:0:0:0:
448,192,21826,1,10,0:0:0:93:
320,192,22108,1,0,0:0:0:0:
192,192,22248,1,2,0:0:0:93:
64,192,22389,1,10,0:0:0:46:
320,192,22530,1,0,0:0:0:0:
192,192,22601,1,0,0:0:0:0:
448,192,22671,1,2,0:0:0:93:
64,192,22812,1,2,0:0:0:93:
320,192,22953,1,10,0:0:0:46:
192,192,23093,1,0,0:0:0:0:
448,192,23234,1,0,0:0:0:0:
320,192,23305,1,0,0:0:0:0:
192,192,23375,1,2,0:0:0:93:
64,192,23516,1,10,0:0:0:46:
320,192,23657,1,0,0:0:0:0:
192,192,23798,1,2,0:0:0:93:
448,192,23939,1,0,0:0:0:0:
320,192,24009,1,0,0:0:0:0:
192,192,24079,1,10,0:0:0:46:
64,192,24361,1,0,0:0:0:0:
320,192,24502,1,2,0:0:0:93:
192,192,24643,1,10,0:0:0:46:
64,192,24784,1,0,0:0:0:0:
320,192,24854,1,0,0:0:0:0:
192,192,24924,1,2,0:0:0:93:
448,192,25065,1,2,0:0:0:93:
192,192,25206,1,10,0:0:0:46:
320,192,25347,1,0,0:0:0:0:
64,192,25488,1,0,0:0:0:0:
192,192,25629,1,2,0:0:0:93:
320,192,25770,1,10,0:0:0:46:
448,192,25910,1,0,0:0:0:0:
64,192,26051,1,2,0:0:0:93:
320,192,26192,1,0,0:0:0:0:
192,192,26262,1,0,0:0:0:0:
64,192,26333,1,10,0:0:0:46:
448,192,26615,1,0,0:0:0:0:
192,192,26755,1,2,0:0:0:93:
64,192,26896,1,10,0:0:0:46:
192,192,27037,1,0,0:0:0:0:
448,192,27108,1,0,0:0:0:0:
320,192,27178,1,2,0:0:0:93:
64,192,27319,1,2,0:0:0:93:
192,192,27460,1,10,0:0:0:46:
448,192,27601,1,0,0:0:0:0:
320,192,27741,1,0,0:0:0:0:
64,192,27882,1,2,0:0:0:93:
320,192,28023,1,10,0:0:0:46:
192,192,28164,1,0,0:0:0:0:
448,192,28305,1,2,0:0:0:93:
448,192,28446,1,0,0:0:0:0:
64,192,28586,1,10,0:0:0:46:
64,192,28727,1,0,0:0:0:0:
320,192,28868,1,0,0:0:0:0:
320,192,29009,1,2,0:0:0:93:
192,192,29079,1,0,0:0:0:0:
64,192,29150,1,10,0:0:0:46:
320,192,29291,1,0,0:0:0:0:
448,192,29432,1,2,0:0:0:93:
64,192,29572,1,2,0:0:0:93:
192,192,29643,1,0,0:0:0:0:
320,192,29713,1,10,0:0:0:46:
448,192,29854,1,0,0:0:0:0:
64,192,29924,1,2,0:0:0:93:
192,192,29995,1,0,0:0:0:0:
320,192,30136,1,2,0:0:0:93:
448,192,30206,1,0,0:0:0:0:
192,192,30277,1,10,0:0:0:46:
320,192,30417,1,2,0:0:0:93:
64,192,30558,1,2,0:0:0:46:
192,192,30558,1,4,0:0:0:46:
448,192,30699,1,0,0:0:0:0:
320,192,30770,1,0,0:0:0:0:
192,192,30840,1,10,0:0:0:46:
64,192,30981,1,0,0:0:0:0:
320,192,31122,1,2,0:0:0:93:
448,192,31262,1,0,0:0:0:0:
192,192,31403,1,10,0:0:0:46:
320,192,31544,1,0,0:0:0:0:
64,192,31615,1,0,0:0:0:0:
192,192,31685,1,2,0:0:0:93:
448,192,31826,1,0,0:0:0:0:
64,192,31967,1,10,0:0:0:46:
320,192,32108,1,0,0:0:0:0:
192,192,32248,1,2,0:0:0:93:
64,192,32319,1,0,0:0:0:0:
448,192,32389,1,0,0:0:0:0:
320,192,32530,1,10,0:0:0:46:
192,192,32671,1,0,0:0:0:0:
448,192,32812,1,2,0:0:0:93:
64,192,32953,1,0,0:0:0:0:
192,192,33023,1,0,0:0:0:0:
320,192,33093,1,10,0:0:0:46:
448,192,33234,1,0,0:0:0:0:
64,192,33375,1,2,0:0:0:93:
320,192,33516,1,0,0:0:0:0:
192,192,33657,1,10,0:0:0:46:
448,192,33798,1,0,0:0:0:0:
320,192,33868,1,0,0:0:0:0:
192,192,33939,1,2,0:0:0:93:
64,192,34079,1,0,0:0:0:0:
320,192,34220,1,10,0:0:0:46:
448,192,34361,1,0,0:0:0:0:
64,192,34502,1,2,0:0:0:93:
192,192,34643,1,0,0:0:0:0:
320,192,34784,1,10,0:0:0:46:
448,192,34924,1,2,0:0:0:93:
64,192,35065,1,2,0:0:0:93:
320,192,35206,1,0,0:0:0:0:
192,192,35277,1,0,0:0:0:0:
64,192,35347,1,10,0:0:0:46:
448,192,35488,1,0,0:0:0:0:
320,192,35629,1,2,0:0:0:93:
64,192,35770,1,0,0:0:0:0:
192,192,35910,1,10,0:0:0:46:
448,192,36051,1,0,0:0:0:0:
64,192,36122,1,0,0:0:0:0:
192,192,36192,1,2,0:0:0:93:
320,192,36333,1,0,0:0:0:0:
448,192,36403,1,0,0:0:0:0:
64,192,36474,1,10,0:0:0:46:
192,192,36615,1,0,0:0:0:0:
448,192,36755,1,2,0:0:0:93:
320,192,36896,1,0,0:0:0:0:
64,192,37037,1,10,0:0:0:46:
192,192,37178,1,0,0:0:0:0:
448,192,37319,1,2,0:0:0:93:
448,192,37460,1,0,0:0:0:0:
192,192,37601,1,10,0:0:0:46:
192,192,37741,1,0,0:0:0:0:
320,192,37882,1,2,0:0:0:93:
320,192,38023,1,0,0:0:0:0:
192,192,38093,1,0,0:0:0:0:
64,192,38164,1,10,0:0:0:46:
448,192,38305,1,0,0:0:0:0:
192,192,38446,1,2,0:0:0:93:
320,192,38586,1,2,0:0:0:93:
192,192,38657,1,0,0:0:0:0:
64,192,38727,1,10,0:0:0:46:
448,192,38868,1,0,0:0:0:0:
192,192,38939,1,0,0:0:0:0:
320,192,39009,1,2,0:0:0:93:
64,192,39150,1,0,0:0:0:0:
192,192,39220,1,2,0:0:0:93:
320,192,39291,1,10,0:0:0:46:
448,192,39432,1,2,0:0:0:93:
64,192,39572,1,2,0:0:0:46:
192,192,39572,1,4,0:0:0:46:
320,192,39995,1,2,0:0:0:93:
192,192,40065,1,2,0:0:0:93:
64,192,40136,1,2,0:0:0:46:
448,192,40136,1,8,0:0:0:46:
192,192,40558,1,2,0:0:0:93:
320,192,40840,1,2,0:0:0:93:
192,192,41122,1,2,0:0:0:93:
64,192,41192,1,2,0:0:0:93:
320,192,41262,1,2,0:0:0:46:
448,192,41262,1,8,0:0:0:46:
192,192,41544,1,2,0:0:0:93:
448,192,41826,1,2,0:0:0:93:
192,192,42248,1,2,0:0:0:93:
320,192,42319,1,2,0:0:0:93:
64,192,42389,1,2,0:0:0:46:
448,192,42389,1,8,0:0:0:46:
192,192,42812,1,2,0:0:0:93:
320,192,43093,1,2,0:0:0:93:
448,192,43375,1,2,0:0:0:93:
320,192,43446,1,2,0:0:0:93:
64,192,43516,1,2,0:0:0:46:
192,192,43516,1,8,0:0:0:46:
320,192,43798,1,2,0:0:0:93:
448,192,44079,1,2,0:0:0:93:
64,192,44502,1,2,0:0:0:93:
192,192,44572,1,2,0:0:0:93:
320,192,44643,1,2,0:0:0:46:
448,192,44643,1,8,0:0:0:46:
192,192,45065,1,2,0:0:0:93:
448,192,45347,1,2,0:0:0:93:
64,192,45629,1,2,0:0:0:93:
448,192,45699,1,2,0:0:0:93:
192,192,45770,1,2,0:0:0:46:
320,192,45770,1,8,0:0:0:46:
64,192,46051,1,2,0:0:0:93:
192,192,46122,1,2,0:0:0:93:
320,192,46192,1,2,0:0:0:93:
448,192,46262,1,2,0:0:0:93:
64,192,46333,128,2,48586:0:0:0:46:
192,192,46333,1,4,0:0:0:46:
320,192,46615,1,10,0:0:0:46:
192,192,46896,1,10,0:0:0:46:
448,192,47178,1,10,0:0:0:46:
320,192,47460,1,10,0:0:0:46:
192,192,47741,1,10,0:0:0:46:
448,192,48023,1,10,0:0:0:46:
320,192,48305,1,10,0:0:0:46:
192,192,48586,1,10,0:0:0:31:
448,192,48586,128,4,49713:0:0:0:31:
320,192,48868,1,10,0:0:0:46:
64,192,49150,1,10,0:0:0:31:
192,192,49150,1,4,0:0:0:31:
192,192,49432,1,10,0:0:0:46:
64,192,49713,1,2,0:0:0:46:
320,192,49713,1,4,0:0:0:46:
192,192,50136,1,2,0:0:0:93:
64,192,50206,1,2,0:0:0:93:
320,192,50277,1,2,0:0:0:93:
448,192,50277,1,0,0:0:0:0:
192,192,50488,1,2,0:0:0:93:
320,192,50488,1,0,0:0:0:0:
64,192,50699,1,2,0:0:0:93:
192,192,50699,1,0,0:0:0:0:
320,192,50840,1,2,0:0:0:46:
448,192,50840,1,4,0:0:0:46:
192,192,50981,1,0,0:0:0:0:
64,192,51122,1,0,0:0:0:93:LR_Chm_Soft_NLV.wav
320,192,51262,1,0,0:0:0:0:
64,192,51403,1,0,0:0:0:0:
448,192,51474,1,0,0:0:0:0:
192,192,51544,1,0,0:0:0:0:
320,192,51685,1,0,0:0:0:93:LR_Chm_Soft_NLV.wav
448,192,51826,1,0,0:0:0:0:
64,192,51967,1,0,0:0:0:0:
320,192,52108,1,0,0:0:0:0:
448,192,52248,1,0,0:0:0:93:LR_Chm_Soft_NLV.wav
192,192,52389,1,0,0:0:0:0:
64,192,52530,1,0,0:0:0:0:
320,192,52601,1,0,0:0:0:0:
192,192,52671,1,0,0:0:0:0:
448,192,52812,1,0,0:0:0:93:LR_Chm_Soft_NLV.wav
320,192,52953,1,0,0:0:0:93:LR_Chm_Soft_NLV.wav
192,192,53093,1,0,0:0:0:93:LR_Chm_Soft_NLV.wav
320,192,53234,1,0,0:0:0:0:
448,192,53375,1,0,0:0:0:93:LR_Chm_Soft_NLV.wav
192,192,53516,1,0,0:0:0:0:
448,192,53657,1,0,0:0:0:0:
64,192,53727,1,0,0:0:0:0:
320,192,53798,1,0,0:0:0:0:
192,192,53939,1,0,0:0:0:93:LR_Chm_Soft_NLV.wav
64,192,54079,1,0,0:0:0:0:
448,192,54220,1,0,0:0:0:93:LR_Chm_Soft_NLV.wav
192,192,54361,1,0,0:0:0:0:
64,192,54502,1,0,0:0:0:93:LR_Chm_Soft_NLV.wav
320,192,54643,1,0,0:0:0:0:
448,192,54784,1,0,0:0:0:93:LR_Chm_Soft_NLV.wav
192,192,54854,1,0,0:0:0:0:
320,192,54924,1,0,0:0:0:93:LR_Chm_Soft_NLV.wav
64,192,55065,1,0,0:0:0:93:LR_Chm_Soft_NLV.wav
192,192,55206,1,0,0:0:0:0:
320,192,55347,1,2,0:0:0:46:
448,192,55347,1,4,0:0:0:46:
192,192,55488,1,0,0:0:0:0:
64,192,55629,1,2,0:0:0:46:
320,192,55629,1,8,0:0:0:46:
448,192,55770,1,0,0:0:0:0:
192,192,55910,1,2,0:0:0:93:
320,192,56051,1,0,0:0:0:0:
64,192,56192,1,2,0:0:0:46:
192,192,56192,1,8,0:0:0:46:
448,192,56333,1,0,0:0:0:0:
320,192,56474,1,2,0:0:0:93:
64,192,56615,1,0,0:0:0:0:
320,192,56755,1,2,0:0:0:46:
448,192,56755,1,8,0:0:0:46:
192,192,56896,1,0,0:0:0:0:
64,192,57037,1,2,0:0:0:93:
448,192,57178,1,0,0:0:0:0:
192,192,57319,1,2,0:0:0:46:
320,192,57319,1,8,0:0:0:46:
64,192,57460,1,2,0:0:0:93:
320,192,57601,1,2,0:0:0:46:
448,192,57601,1,4,0:0:0:46:
192,192,57741,1,2,0:0:0:93:
64,192,57882,1,2,0:0:0:46:
448,192,57882,1,8,0:0:0:46:
64,192,58164,1,2,0:0:0:46:
192,192,58164,1,4,0:0:0:46:
448,192,58375,1,2,0:0:0:93:
320,192,58446,1,10,0:0:0:46:
192,192,58586,1,2,0:0:0:93:
320,192,58727,1,2,0:0:0:46:
448,192,58727,128,4,59009:0:0:0:46:
64,192,59009,1,10,0:0:0:46:
192,192,59009,1,4,0:0:0:46:
64,192,59150,128,2,59291:0:0:0:93:
320,192,59291,1,4,0:0:0:46:
448,192,59291,1,2,0:0:0:46:
448,192,59432,128,2,59572:0:0:0:93:
64,192,59572,1,6,0:0:0:31:
192,192,59572,1,8,0:0:0:31:
192,192,59713,1,2,0:0:0:93:
320,192,59854,1,2,0:0:0:46:
448,192,59854,128,4,60417:0:0:0:46:
448,192,60558,1,0,0:0:0:0:
320,192,60699,1,0,0:0:0:0:
192,192,60840,1,0,0:0:0:0:
64,192,60981,1,0,0:0:0:93:LR_Clap Fast Low.wav
448,192,60981,1,0,0:0:0:0:
320,192,61262,1,0,0:0:0:93:LR_Clap Fast Low.wav
448,192,61262,1,0,0:0:0:0:
64,192,61544,1,0,0:0:0:0:
64,192,61826,1,0,0:0:0:93:LR_Clap Fast Low.wav
192,192,61826,1,0,0:0:0:0:
320,192,61967,1,0,0:0:0:0:
448,192,62108,1,0,0:0:0:0:
64,192,62248,1,0,0:0:0:0:
192,192,62389,1,0,0:0:0:93:LR_Clap Fast Low.wav
448,192,62389,1,0,0:0:0:0:
320,192,62530,1,0,0:0:0:0:
192,192,62812,1,0,0:0:0:0:
320,192,62953,1,0,0:0:0:93:LR_Clap Fast Low.wav
448,192,62953,1,0,0:0:0:0:
64,192,63093,1,0,0:0:0:0:
192,192,63234,1,0,0:0:0:0:
320,192,63516,1,0,0:0:0:93:LR_Clap Fast Low.wav
448,192,63516,1,0,0:0:0:0:
320,192,63798,1,0,0:0:0:0:
64,192,64079,1,0,0:0:0:93:LR_Clap Fast Low.wav
192,192,64079,1,0,0:0:0:0:
320,192,64220,1,0,0:0:0:0:
448,192,64361,1,0,0:0:0:0:
192,192,64502,1,0,0:0:0:0:
320,192,64643,1,0,0:0:0:93:LR_Clap Fast Low.wav
448,192,64643,1,0,0:0:0:0:
64,192,64784,1,0,0:0:0:0:
320,192,65065,1,0,0:0:0:0:
64,192,65206,1,0,0:0:0:93:LR_Clap Fast Low.wav
192,192,65206,1,0,0:0:0:0:
448,192,65347,1,0,0:0:0:0:
320,192,65488,1,0,0:0:0:0:
64,192,65770,1,0,0:0:0:93:LR_Clap Fast Low.wav
192,192,65770,1,0,0:0:0:0:
320,192,65910,1,0,0:0:0:0:
448,192,65981,1,0,0:0:0:0:
192,192,66051,1,0,0:0:0:0:
320,192,66333,1,0,0:0:0:93:LR_Clap Fast Low.wav
448,192,66333,1,0,0:0:0:0:
64,192,66474,1,0,0:0:0:0:
192,192,66544,1,0,0:0:0:0:
320,192,66615,1,0,0:0:0:0:
448,192,66615,128,0,66755:0:0:0:0:
64,192,66755,128,0,66896:0:0:0:0:
320,192,66896,128,0,67037:0:0:0:93:LR_Clap Fast Low.wav
192,192,67037,128,0,67178:0:0:0:93:LR_Clap Fast Low.wav
448,192,67319,1,0,0:0:0:0:
320,192,67389,1,0,0:0:0:0:
64,192,67460,1,0,0:0:0:0:
448,192,67601,1,0,0:0:0:0:
64,192,67741,1,2,0:0:0:46:
192,192,67741,1,4,0:0:0:46:
448,192,67882,1,0,0:0:0:0:
192,192,68023,1,2,0:0:0:93:
320,192,68023,1,0,0:0:0:0:
64,192,68164,128,0,68305:0:0:0:0:
320,192,68305,1,2,0:0:0:93:
448,192,68305,128,0,69713:0:0:0:0:
192,192,68586,1,2,0:0:0:93:
320,192,68868,1,2,0:0:0:93:
64,192,69150,1,2,0:0:0:93:
192,192,69432,1,2,0:0:0:93:
64,192,69713,128,2,69995:0:0:0:93:
320,192,69713,1,0,0:0:0:0:
320,192,69995,128,4,70417:0:0:0:46:
448,192,69995,1,2,0:0:0:46:
64,192,70277,1,2,0:0:0:93:
192,192,70417,128,0,70558:0:0:0:0:
64,192,70558,128,2,71967:0:0:0:93:
448,192,70558,1,0,0:0:0:0:
320,192,70840,1,2,0:0:0:93:
192,192,71122,1,2,0:0:0:93:
448,192,71403,1,2,0:0:0:93:
320,192,71685,1,2,0:0:0:93:
192,192,71967,1,2,0:0:0:93:
448,192,71967,128,0,72248:0:0:0:0:
64,192,72248,1,4,0:0:0:46:
320,192,72248,1,2,0:0:0:46:
192,192,72389,1,2,0:0:0:93:
448,192,72530,1,2,0:0:0:93:
320,192,72671,1,2,0:0:0:93:
64,192,72812,1,2,0:0:0:93:
448,192,72953,1,2,0:0:0:93:
192,192,73093,1,2,0:0:0:93:
320,192,73234,1,2,0:0:0:93:
64,192,73375,1,2,0:0:0:46:
192,192,73375,1,4,0:0:0:46:
448,192,73516,1,2,0:0:0:93:
192,192,73657,1,2,0:0:0:93:
320,192,73798,1,2,0:0:0:93:
64,192,73939,1,2,0:0:0:93:
448,192,74079,1,2,0:0:0:93:
192,192,74220,1,2,0:0:0:93:
320,192,74361,1,2,0:0:0:93:
64,192,74502,128,2,74784:0:0:0:46:
448,192,74502,1,4,0:0:0:46:
320,192,74784,128,2,75065:0:0:0:93:
64,192,75065,1,2,0:0:0:46:
192,192,75065,128,4,75347:0:0:0:46:
448,192,75347,128,2,75629:0:0:0:93:
64,192,75629,128,2,75910:0:0:0:46:
320,192,75629,1,4,0:0:0:46:
192,192,75910,128,4,76192:0:0:0:46:
448,192,75910,1,2,0:0:0:46:
320,192,76192,1,2,0:0:0:46:
448,192,76192,1,4,0:0:0:46:
64,192,76333,1,0,0:0:0:0:
192,192,76474,1,0,0:0:0:0:
320,192,76615,1,0,0:0:0:0:
64,192,76755,1,2,0:0:0:46:
448,192,76755,1,4,0:0:0:46:
192,192,76896,1,0,0:0:0:0:
320,192,77037,1,2,0:0:0:46:
448,192,77037,1,8,0:0:0:46:
64,192,77178,1,0,0:0:0:0:
192,192,77319,1,2,0:0:0:93:
448,192,77460,1,0,0:0:0:0:
64,192,77601,1,2,0:0:0:46:
192,192,77601,1,8,0:0:0:46:
192,192,77741,1,0,0:0:0:0:
448,192,77882,1,2,0:0:0:93:
448,192,78023,1,0,0:0:0:0:
192,192,78164,1,2,0:0:0:46:
320,192,78164,1,8,0:0:0:46:
192,192,78305,1,0,0:0:0:0:
448,192,78446,1,2,0:0:0:93:
192,192,78586,1,0,0:0:0:0:
64,192,78727,1,2,0:0:0:46:
320,192,78727,1,8,0:0:0:46:
448,192,78868,1,0,0:0:0:0:
192,192,79009,1,2,0:0:0:93:
64,192,79150,1,0,0:0:0:0:
320,192,79291,1,2,0:0:0:46:
448,192,79291,1,8,0:0:0:46:
192,192,79432,1,0,0:0:0:0:
64,192,79572,1,2,0:0:0:93:
320,192,79713,1,0,0:0:0:0:
192,192,79854,1,2,0:0:0:46:
448,192,79854,1,8,0:0:0:46:
192,192,79995,1,0,0:0:0:0:
448,192,80136,1,2,0:0:0:93:
448,192,80277,1,0,0:0:0:0:
64,192,80417,1,2,0:0:0:46:
192,192,80417,1,8,0:0:0:46:
64,192,80558,1,0,0:0:0:0:
320,192,80699,1,2,0:0:0:93:
448,192,80840,1,0,0:0:0:0:
64,192,80981,1,8,0:0:0:46:
192,192,80981,1,2,0:0:0:46:
192,192,81122,1,2,0:0:0:93:
448,192,81262,1,2,0:0:0:93:
192,192,81544,1,2,0:0:0:46:
320,192,81544,1,8,0:0:0:46:
448,192,81685,1,0,0:0:0:0:
64,192,81755,1,0,0:0:0:0:
192,192,81826,1,2,0:0:0:93:
64,192,82108,1,2,0:0:0:46:
448,192,82108,1,8,0:0:0:46:
192,192,82248,1,0,0:0:0:0:
320,192,82319,1,0,0:0:0:0:
64,192,82389,1,2,0:0:0:93:
448,192,82530,1,0,0:0:0:0:
192,192,82671,1,2,0:0:0:46:
320,192,82671,1,8,0:0:0:46:
192,192,82812,1,0,0:0:0:0:
448,192,82953,1,2,0:0:0:93:
64,192,83093,1,0,0:0:0:0:
192,192,83234,1,2,0:0:0:46:
448,192,83234,1,8,0:0:0:46:
320,192,83375,1,0,0:0:0:0:
64,192,83516,1,2,0:0:0:93:
192,192,83657,1,0,0:0:0:0:
320,192,83798,1,2,0:0:0:46:
448,192,83798,1,8,0:0:0:46:
64,192,83939,1,0,0:0:0:0:
192,192,84079,1,2,0:0:0:93:
448,192,84220,1,0,0:0:0:0:
320,192,84291,1,0,0:0:0:0:
64,192,84361,1,2,0:0:0:46:
192,192,84361,1,8,0:0:0:46:
448,192,84502,1,0,0:0:0:0:
64,192,84643,1,2,0:0:0:93:
64,192,84784,1,2,0:0:0:93:
320,192,84924,1,2,0:0:0:46:
448,192,84924,1,8,0:0:0:46:
320,192,85065,1,0,0:0:0:0:
192,192,85206,1,2,0:0:0:93:
448,192,85347,1,0,0:0:0:0:
64,192,85488,1,2,0:0:0:46:
320,192,85488,1,8,0:0:0:46:
192,192,85629,1,2,0:0:0:93:
64,192,85770,1,2,0:0:0:46:
448,192,85770,1,4,0:0:0:46:
320,192,85910,1,0,0:0:0:0:
64,192,86051,1,2,0:0:0:46:
192,192,86051,1,8,0:0:0:46:
448,192,86192,1,0,0:0:0:0:
320,192,86333,1,2,0:0:0:93:
64,192,86474,1,0,0:0:0:0:
192,192,86615,1,2,0:0:0:46:
448,192,86615,1,8,0:0:0:46:
192,192,86755,1,0,0:0:0:0:
320,192,86896,1,2,0:0:0:93:
320,192,87037,1,0,0:0:0:0:
64,192,87178,1,2,0:0:0:46:
448,192,87178,1,8,0:0:0:46:
64,192,87319,1,0,0:0:0:0:
320,192,87460,1,2,0:0:0:93:
192,192,87601,1,0,0:0:0:0:
64,192,87741,1,2,0:0:0:46:
320,192,87741,1,8,0:0:0:46:
448,192,87882,1,0,0:0:0:0:
192,192,88023,1,2,0:0:0:93:
320,192,88164,1,0,0:0:0:0:
64,192,88305,1,2,0:0:0:46:
192,192,88305,1,8,0:0:0:46:
448,192,88446,1,0,0:0:0:0:
320,192,88586,1,2,0:0:0:93:
64,192,88727,1,0,0:0:0:0:
192,192,88868,1,2,0:0:0:46:
448,192,88868,1,8,0:0:0:46:
448,192,89009,1,0,0:0:0:0:
320,192,89150,1,2,0:0:0:93:
320,192,89291,1,0,0:0:0:0:
64,192,89432,1,2,0:0:0:46:
192,192,89432,1,8,0:0:0:46:
64,192,89572,1,0,0:0:0:0:
320,192,89713,1,2,0:0:0:93:
448,192,89854,1,0,0:0:0:0:
64,192,89995,1,2,0:0:0:46:
192,192,89995,1,8,0:0:0:46:
192,192,90136,1,2,0:0:0:93:
320,192,90277,1,2,0:0:0:46:
448,192,90277,1,4,0:0:0:46:
64,192,90417,1,2,0:0:0:46:
192,192,90417,1,4,0:0:0:46:
448,192,90699,128,2,90840:0:0:0:93:
64,192,90840,1,2,0:0:0:46:
192,192,90840,1,4,0:0:0:46:
320,192,90981,1,2,0:0:0:46:
448,192,90981,1,4,0:0:0:46:
64,192,91262,128,2,91403:0:0:0:93:
320,192,91403,1,2,0:0:0:46:
448,192,91403,1,4,0:0:0:46:
64,192,91544,1,2,0:0:0:46:
192,192,91544,1,4,0:0:0:46:
448,192,91826,128,2,91967:0:0:0:93:
64,192,91967,1,2,0:0:0:46:
192,192,91967,1,4,0:0:0:46:
320,192,92108,1,2,0:0:0:46:
448,192,92108,1,4,0:0:0:46:
192,192,92389,128,2,92530:0:0:0:93:
64,192,92530,1,2,0:0:0:46:
448,192,92530,1,4,0:0:0:46:
320,192,92671,1,2,0:0:0:93:
64,192,92812,1,10,0:0:0:46:
192,192,92953,1,2,0:0:0:93:
320,192,93093,1,2,0:0:0:46:
448,192,93093,1,4,0:0:0:46:
64,192,93234,1,2,0:0:0:93:
448,192,93375,1,10,0:0:0:46:
192,192,93516,1,2,0:0:0:93:
64,192,93657,128,2,94784:0:0:0:46:
448,192,93657,1,4,0:0:0:46:
192,192,93939,1,14,0:0:0:31:
320,192,94220,1,6,0:0:0:46:
448,192,94502,1,14,0:0:0:31:
320,192,94784,128,6,95910:0:0:0:46:
64,192,95206,1,2,0:0:0:93:
192,192,95347,1,2,0:0:0:93:
64,192,95770,1,2,0:0:0:93:
448,192,95910,128,2,96192:0:0:0:93:
192,192,96192,128,2,96474:0:0:0:93:
320,192,96474,128,2,96755:0:0:0:93:
64,192,96755,128,2,97037:0:0:0:46:
192,192,96755,1,8,0:0:0:46:
320,192,97037,1,2,0:0:0:46:
448,192,97037,1,4,0:0:0:46:
192,192,97178,1,0,0:0:0:0:
64,192,97319,1,2,0:0:0:46:
448,192,97319,1,8,0:0:0:46:
320,192,97460,1,0,0:0:0:0:
192,192,97601,1,2,0:0:0:93:
448,192,97741,1,0,0:0:0:0:
64,192,97882,1,2,0:0:0:46:
320,192,97882,1,8,0:0:0:46:
192,192,98023,1,0,0:0:0:0:
448,192,98164,1,2,0:0:0:93:
320,192,98305,1,0,0:0:0:0:
192,192,98446,1,2,0:0:0:46:
448,192,98446,1,8,0:0:0:46:
64,192,98586,1,0,0:0:0:0:
448,192,98727,1,2,0:0:0:93:
320,192,98868,1,0,0:0:0:0:
64,192,99009,1,2,0:0:0:46:
192,192,99009,1,8,0:0:0:46:
448,192,99150,1,0,0:0:0:0:
64,192,99291,1,2,0:0:0:93:
192,192,99432,1,0,0:0:0:0:
320,192,99572,1,2,0:0:0:46:
448,192,99572,1,8,0:0:0:46:
192,192,99713,1,0,0:0:0:0:
64,192,99854,1,2,0:0:0:93:
448,192,99995,1,0,0:0:0:0:
192,192,100136,1,2,0:0:0:46:
320,192,100136,1,8,0:0:0:46:
64,192,100277,1,0,0:0:0:0:
448,192,100417,1,2,0:0:0:93:
192,192,100558,1,0,0:0:0:0:
64,192,100699,1,2,0:0:0:46:
320,192,100699,1,8,0:0:0:46:
448,192,100840,1,0,0:0:0:0:
64,192,100981,1,2,0:0:0:93:
192,192,101122,1,0,0:0:0:0:
320,192,101262,1,2,0:0:0:46:
448,192,101262,1,8,0:0:0:46:
320,192,101403,1,2,0:0:0:93:
64,192,101544,1,2,0:0:0:93:
192,192,101685,1,0,0:0:0:0:
64,192,101826,1,2,0:0:0:46:
448,192,101826,1,8,0:0:0:46:
320,192,101967,1,0,0:0:0:0:
192,192,102108,1,2,0:0:0:93:
448,192,102248,1,0,0:0:0:0:
64,192,102389,1,2,0:0:0:46:
320,192,102389,1,8,0:0:0:46:
192,192,102530,1,0,0:0:0:0:
448,192,102671,1,2,0:0:0:93:
64,192,102812,1,0,0:0:0:0:
192,192,102953,1,2,0:0:0:46:
320,192,102953,1,8,0:0:0:46:
448,192,103093,1,0,0:0:0:0:
64,192,103234,1,2,0:0:0:93:
320,192,103375,1,0,0:0:0:0:
192,192,103516,1,2,0:0:0:46:
448,192,103516,1,8,0:0:0:46:
64,192,103657,1,0,0:0:0:0:
448,192,103798,1,2,0:0:0:93:
320,192,103939,1,0,0:0:0:0:
64,192,104079,1,2,0:0:0:46:
192,192,104079,1,8,0:0:0:46:
320,192,104220,1,0,0:0:0:0:
448,192,104361,1,2,0:0:0:93:
64,192,104502,1,0,0:0:0:0:
192,192,104643,1,2,0:0:0:46:
320,192,104643,1,8,0:0:0:46:
448,192,104784,1,0,0:0:0:0:
64,192,104924,1,2,0:0:0:93:
64,192,105065,1,2,0:0:0:93:
320,192,105206,1,2,0:0:0:46:
448,192,105206,1,8,0:0:0:46:
192,192,105347,1,0,0:0:0:0:
64,192,105488,1,2,0:0:0:46:
448,192,105488,1,4,0:0:0:46:
192,192,105629,1,6,0:0:0:46:
320,192,105629,1,8,0:0:0:46:
320,192,105910,1,2,0:0:0:46:
448,192,105910,1,4,0:0:0:46:
64,192,106051,128,2,106333:0:0:0:93:
320,192,106333,1,6,0:0:0:31:
448,192,106333,1,8,0:0:0:31:
192,192,106474,1,0,0:0:0:0:
64,192,106615,1,2,0:0:0:93:
64,192,106755,1,0,0:0:0:0:
192,192,106896,128,2,107178:0:0:0:46:
320,192,106896,1,8,0:0:0:46:
448,192,107178,128,2,107319:0:0:0:93:
320,192,107319,128,0,107460:0:0:0:0:
64,192,107460,128,2,107601:0:0:0:46:
192,192,107460,1,8,0:0:0:46:
320,192,107741,1,2,0:0:0:93:
64,192,108023,1,2,0:0:0:46:
448,192,108023,128,8,108305:0:0:0:46:
320,192,108305,1,2,0:0:0:93:
448,192,108446,1,0,0:0:0:0:
64,192,108586,1,2,0:0:0:46:
192,192,108586,1,8,0:0:0:46:
320,192,108727,1,0,0:0:0:0:
448,192,108868,1,2,0:0:0:93:
448,192,109009,1,0,0:0:0:0:
192,192,109150,1,2,0:0:0:46:
320,192,109150,128,8,109432:0:0:0:46:
64,192,109432,128,2,109572:0:0:0:93:
192,192,109572,128,0,109713:0:0:0:0:
448,192,109713,128,10,109854:0:0:0:46:
320,192,109854,128,0,109995:0:0:0:0:
192,192,109995,128,2,110277:0:0:0:93:
64,192,110277,128,2,110558:0:0:0:46:
448,192,110277,1,8,0:0:0:46:
320,192,110417,1,2,0:0:0:93:
192,192,110558,1,2,0:0:0:46:
448,192,110558,1,4,0:0:0:46:
64,192,110699,1,2,0:0:0:93:
320,192,110840,1,2,0:0:0:46:
448,192,110840,1,8,0:0:0:46:
192,192,110981,1,0,0:0:0:0:
64,192,111122,1,2,0:0:0:93:
64,192,111262,1,0,0:0:0:0:
192,192,111403,128,2,111685:0:0:0:46:
320,192,111403,1,8,0:0:0:46:
448,192,111685,128,2,111826:0:0:0:93:
320,192,111826,128,0,111967:0:0:0:0:
64,192,111967,128,2,112108:0:0:0:46:
192,192,111967,1,8,0:0:0:46:
320,192,112248,1,2,0:0:0:93:
64,192,112530,1,2,0:0:0:46:
448,192,112530,128,8,112812:0:0:0:46:
192,192,112812,1,2,0:0:0:46:
320,192,112812,1,4,0:0:0:46:
64,192,112953,1,2,0:0:0:93:
448,192,113093,1,10,0:0:0:46:
320,192,113234,1,2,0:0:0:93:
64,192,113375,1,2,0:0:0:46:
192,192,113375,1,4,0:0:0:46:
448,192,113516,1,2,0:0:0:93:
320,192,113657,1,10,0:0:0:46:
192,192,113798,1,2,0:0:0:93:
64,192,113939,128,6,114079:0:0:0:46:
448,192,114079,128,2,114220:0:0:0:93:
192,192,114220,128,14,114361:0:0:0:31:
320,192,114361,128,2,114502:0:0:0:93:
64,192,114502,1,6,0:0:0:31:
192,192,114502,1,8,0:0:0:31:
320,192,114643,1,6,0:0:0:0:
448,192,114643,1,8,0:0:0:0:
