osu file format v14

[General]
AudioFilename: audio.mp3
AudioLeadIn: 0
PreviewTime: 76755
Countdown: 0
SampleSet: Normal
StackLeniency: 0.7
Mode: 3
LetterboxInBreaks: 0
EpilepsyWarning: 1
SpecialStyle: 0
WidescreenStoryboard: 1

[Editor]
DistanceSpacing: 1
BeatDivisor: 4
GridSize: 4
TimelineZoom: 2.699999

[Metadata]
Title:Run*2 Run To You!!
TitleUnicode:Run*2 Run To You!!
Artist:Umeboshi Chazuke
ArtistUnicode:梅干茶漬け
Creator:[Crz]Alleyne
Version:Easy!!
Source:MUSYNX
Tags:fa featured artist [RT]Alleyne happycore happy hardcore electronic instrumental stream handstream jumpstream chiptune chipstyle bitpop 8bit 8-bit mg mappers' guild 同步音律喵赛克 MUSYNC
BeatmapID:3665472
BeatmapSetID:1788950

[Difficulty]
HPDrainRate:6.5
CircleSize:4
OverallDifficulty:6.5
ApproachRate:5
SliderMultiplier:1.4
SliderTickRate:1

[Events]
//Background and Video events
0,0,"bg.jpg",0,0
//Break Periods
//Storyboard Layer 0 (Background)
//Storyboard Layer 1 (Fail)
//Storyboard Layer 2 (Pass)
//Storyboard Layer 3 (Foreground)
//Storyboard Layer 4 (Overlay)
//Storyboard Sound Samples

[TimingPoints]
1263,281.69014084507,4,1,1,70,1,0
76755,-100.0,4,1,1,70,0,1
97037,-100.0,4,1,1,70,0,0

[HitObjects]
448,192,1263,1,0,0:0:0:0:
64,192,1544,1,0,0:0:0:93:LR_Clap Fast Low.wav
448,192,1826,1,0,0:0:0:0:
64,192,2108,1,0,0:0:0:93:LR_Clap Fast Low.wav
320,192,2389,1,0,0:0:0:0:
448,192,2530,1,0,0:0:0:0:
192,192,2671,1,0,0:0:0:93:LR_Clap Fast Low.wav
64,192,2812,1,0,0:0:0:0:
448,192,3093,1,0,0:0:0:0:
320,192,3234,1,0,0:0:0:93:LR_Clap Fast Low.wav
192,192,3375,1,0,0:0:0:0:
64,192,3516,1,0,0:0:0:0:
448,192,3798,1,0,0:0:0:93:LR_Clap Fast Low.wav
64,192,4079,1,0,0:0:0:0:
448,192,4361,1,0,0:0:0:93:LR_Clap Fast Low.wav
192,192,4643,1,0,0:0:0:0:
64,192,4784,1,0,0:0:0:0:
320,192,4924,1,0,0:0:0:93:LR_Clap Fast Low.wav
448,192,5065,1,0,0:0:0:0:
192,192,5347,1,0,0:0:0:0:
448,192,5629,1,0,0:0:0:0:
320,192,5770,1,0,0:0:0:0:
64,192,6192,1,0,0:0:0:0:
192,192,6333,1,0,0:0:0:0:
320,192,6755,1,0,0:0:0:0:
64,192,6896,1,0,0:0:0:0:
192,192,7037,1,0,0:0:0:0:
448,192,7178,1,0,0:0:0:93:LR_Clap Fast Low.wav
320,192,7319,1,0,0:0:0:93:LR_Clap Fast Low.wav
64,192,7601,1,0,0:0:0:0:
192,192,7741,1,0,0:0:0:0:
320,192,8023,1,2,0:0:0:46:
448,192,8023,128,4,8446:0:0:0:46:
320,192,8446,1,0,0:0:0:0:
64,192,8586,1,2,0:0:0:93:
192,192,8868,1,2,0:0:0:93:
448,192,9150,1,2,0:0:0:93:
64,192,9432,1,2,0:0:0:93:
320,192,9713,1,2,0:0:0:93:
448,192,9995,128,2,10277:0:0:0:93:
64,192,10277,128,6,10840:0:0:0:46:
320,192,10840,128,6,11122:0:0:0:46:
448,192,11122,128,2,11403:0:0:0:93:
64,192,11403,128,6,11685:0:0:0:46:
192,192,11685,128,6,11967:0:0:0:46:
448,192,11967,128,2,12248:0:0:0:93:
320,192,12248,128,10,12530:0:0:0:46:
64,192,12530,128,2,14784:0:0:0:93:
448,192,14784,1,0,0:0:0:93:ride07.wav
192,192,15065,1,0,0:0:0:0:
320,192,15206,1,0,0:0:0:0:
448,192,15347,1,0,0:0:0:0:
64,192,15629,1,0,0:0:0:0:
320,192,15910,1,0,0:0:0:93:LR_Chm_Soft_NLV.wav
192,192,16192,1,0,0:0:0:93:LR_Chm_Soft_NLV.wav
64,192,16333,1,0,0:0:0:0:
320,192,16474,1,0,0:0:0:93:LR_Chm_Soft_NLV.wav
448,192,16755,1,0,0:0:0:93:LR_Chm_Soft_NLV.wav
64,192,17037,1,2,0:0:0:46:
192,192,17037,1,4,0:0:0:46:
448,192,17319,1,10,0:0:0:46:
320,192,17601,1,2,0:0:0:93:
192,192,17882,1,10,0:0:0:46:
64,192,18164,1,2,0:0:0:93:
320,192,18446,1,10,0:0:0:46:
192,192,18727,1,2,0:0:0:93:
448,192,19009,1,10,0:0:0:46:
64,192,19291,1,2,0:0:0:46:
192,192,19291,1,4,0:0:0:46:
320,192,19432,1,2,0:0:0:93:
448,192,19572,1,10,0:0:0:46:
192,192,19854,1,2,0:0:0:46:
320,192,19854,1,4,0:0:0:46:
64,192,20136,1,10,0:0:0:46:
320,192,20417,1,2,0:0:0:46:
448,192,20417,1,4,0:0:0:46:
64,192,20558,128,0,20840:0:0:0:0:
192,192,20840,128,0,21122:0:0:0:0:
448,192,21122,128,0,21544:0:0:0:0:
64,192,21544,1,2,0:0:0:46:
192,192,21544,1,4,0:0:0:46:
448,192,21685,1,0,0:0:0:0:
320,192,21826,1,10,0:0:0:93:
64,192,22108,1,0,0:0:0:0:
448,192,22389,1,10,0:0:0:46:
192,192,22530,1,0,0:0:0:0:
320,192,22671,1,2,0:0:0:93:
64,192,22953,1,10,0:0:0:46:
192,192,23234,128,0,23516:0:0:0:0:
320,192,23516,1,10,0:0:0:46:
192,192,23798,1,2,0:0:0:93:
448,192,23939,1,0,0:0:0:0:
320,192,24079,1,10,0:0:0:46:
64,192,24361,1,0,0:0:0:0:
320,192,24643,1,10,0:0:0:46:
192,192,24784,1,0,0:0:0:0:
64,192,24924,1,2,0:0:0:93:
320,192,25206,1,10,0:0:0:46:
448,192,25488,1,0,0:0:0:0:
64,192,25770,1,10,0:0:0:46:
192,192,26051,1,2,0:0:0:93:
320,192,26192,1,0,0:0:0:0:
448,192,26333,1,10,0:0:0:46:
64,192,26615,1,0,0:0:0:0:
320,192,26896,1,10,0:0:0:46:
192,192,27037,1,0,0:0:0:0:
64,192,27178,1,2,0:0:0:93:
320,192,27460,1,10,0:0:0:46:
448,192,27741,1,0,0:0:0:0:
192,192,28023,1,10,0:0:0:46:
64,192,28305,128,2,29432:0:0:0:93:
320,192,28586,1,10,0:0:0:46:
320,192,29150,1,10,0:0:0:46:
448,192,29432,1,2,0:0:0:93:
320,192,29713,1,10,0:0:0:46:
64,192,29995,1,0,0:0:0:0:
192,192,30277,1,10,0:0:0:46:
320,192,30558,1,2,0:0:0:46:
448,192,30558,1,4,0:0:0:46:
192,192,30699,1,0,0:0:0:0:
64,192,30840,1,10,0:0:0:46:
320,192,31122,1,2,0:0:0:93:
192,192,31403,1,10,0:0:0:46:
64,192,31544,1,0,0:0:0:0:
448,192,31685,1,2,0:0:0:93:
320,192,31967,1,10,0:0:0:46:
64,192,32248,1,2,0:0:0:93:
192,192,32389,1,0,0:0:0:0:
320,192,32530,1,10,0:0:0:46:
448,192,32812,1,2,0:0:0:93:
320,192,32953,1,0,0:0:0:0:
192,192,33093,1,10,0:0:0:46:
64,192,33375,1,2,0:0:0:93:
320,192,33657,1,10,0:0:0:46:
64,192,33798,1,0,0:0:0:0:
192,192,33939,1,2,0:0:0:93:
448,192,34220,1,10,0:0:0:46:
64,192,34502,1,2,0:0:0:93:
192,192,34784,1,10,0:0:0:46:
448,192,34924,1,2,0:0:0:93:
320,192,35065,1,2,0:0:0:93:
64,192,35206,1,0,0:0:0:0:
192,192,35347,1,10,0:0:0:46:
448,192,35629,1,2,0:0:0:93:
320,192,35910,1,10,0:0:0:46:
192,192,36051,1,0,0:0:0:0:
64,192,36192,1,2,0:0:0:93:
320,192,36474,1,10,0:0:0:46:
192,192,36755,1,2,0:0:0:93:
64,192,37037,1,10,0:0:0:46:
448,192,37319,128,2,38446:0:0:0:93:
192,192,37601,1,10,0:0:0:46:
192,192,38164,1,10,0:0:0:46:
64,192,38446,1,2,0:0:0:93:
320,192,38586,1,2,0:0:0:93:
192,192,38727,1,10,0:0:0:46:
448,192,39009,1,2,0:0:0:93:
64,192,39150,1,0,0:0:0:0:
192,192,39291,1,10,0:0:0:46:
320,192,39572,1,2,0:0:0:46:
448,192,39572,1,4,0:0:0:46:
192,192,39995,1,2,0:0:0:93:
320,192,40136,1,10,0:0:0:46:
64,192,40417,128,0,40699:0:0:0:0:
448,192,40699,128,0,41262:0:0:0:0:
320,192,41262,128,10,41826:0:0:0:46:
192,192,41826,128,2,42389:0:0:0:93:
448,192,42389,1,10,0:0:0:46:
320,192,42530,1,0,0:0:0:0:
64,192,42671,1,0,0:0:0:0:
192,192,42812,128,2,43093:0:0:0:93:
448,192,43093,1,2,0:0:0:93:
64,192,43234,1,0,0:0:0:0:
192,192,43375,1,2,0:0:0:93:
320,192,43516,128,10,43798:0:0:0:46:
64,192,43798,128,2,44079:0:0:0:93:
448,192,44079,128,2,44643:0:0:0:93:
192,192,44643,128,10,44924:0:0:0:46:
320,192,44924,1,0,0:0:0:0:
448,192,45065,128,2,45347:0:0:0:93:
192,192,45347,1,2,0:0:0:93:
64,192,45488,1,0,0:0:0:0:
320,192,45629,1,2,0:0:0:93:
192,192,45770,128,10,46051:0:0:0:46:
448,192,46051,128,2,46333:0:0:0:93:
64,192,46333,1,6,0:0:0:46:
192,192,46615,1,10,0:0:0:46:
320,192,46755,1,2,0:0:0:93:
448,192,46896,1,10,0:0:0:46:
64,192,47178,1,10,0:0:0:46:
320,192,47460,1,10,0:0:0:46:
192,192,47741,1,10,0:0:0:46:
448,192,48023,1,10,0:0:0:46:
320,192,48305,1,10,0:0:0:46:
64,192,48586,1,10,0:0:0:31:
192,192,48586,1,4,0:0:0:31:
448,192,48868,1,10,0:0:0:46:
192,192,49150,1,10,0:0:0:31:
320,192,49150,1,4,0:0:0:31:
64,192,49432,1,10,0:0:0:46:
320,192,49713,1,2,0:0:0:46:
448,192,49713,1,4,0:0:0:46:
64,192,50277,1,2,0:0:0:93:
192,192,50488,1,2,0:0:0:93:
320,192,50699,1,2,0:0:0:93:
64,192,50840,1,2,0:0:0:46:
448,192,50840,1,4,0:0:0:46:
192,192,51122,1,0,0:0:0:93:LR_Chm_Soft_NLV.wav
320,192,51262,1,0,0:0:0:0:
448,192,51403,1,0,0:0:0:0:
64,192,51685,1,0,0:0:0:93:LR_Chm_Soft_NLV.wav
320,192,51967,1,0,0:0:0:0:
192,192,52248,1,0,0:0:0:93:LR_Chm_Soft_NLV.wav
64,192,52389,1,0,0:0:0:0:
320,192,52530,1,0,0:0:0:0:
448,192,52812,1,0,0:0:0:93:LR_Chm_Soft_NLV.wav
64,192,53093,1,0,0:0:0:93:LR_Chm_Soft_NLV.wav
192,192,53093,1,0,0:0:0:0:
192,192,53375,1,0,0:0:0:93:LR_Chm_Soft_NLV.wav
320,192,53516,1,0,0:0:0:0:
448,192,53657,1,0,0:0:0:0:
64,192,53939,1,0,0:0:0:93:LR_Chm_Soft_NLV.wav
320,192,54220,1,0,0:0:0:93:LR_Chm_Soft_NLV.wav
192,192,54502,1,0,0:0:0:93:LR_Chm_Soft_NLV.wav
64,192,54643,1,0,0:0:0:0:
320,192,54784,1,0,0:0:0:93:LR_Chm_Soft_NLV.wav
448,192,55065,1,0,0:0:0:93:LR_Chm_Soft_NLV.wav
64,192,55347,1,2,0:0:0:46:
192,192,55347,1,4,0:0:0:46:
448,192,55629,1,10,0:0:0:46:
320,192,55910,1,2,0:0:0:93:
192,192,56192,1,10,0:0:0:46:
64,192,56474,1,2,0:0:0:93:
320,192,56755,1,10,0:0:0:46:
192,192,57037,1,2,0:0:0:93:
448,192,57319,1,10,0:0:0:46:
64,192,57601,1,2,0:0:0:46:
192,192,57601,1,4,0:0:0:46:
320,192,57741,1,2,0:0:0:93:
448,192,57882,1,10,0:0:0:46:
192,192,58164,1,2,0:0:0:46:
320,192,58164,1,4,0:0:0:46:
64,192,58446,1,10,0:0:0:46:
320,192,58727,1,2,0:0:0:46:
448,192,58727,1,4,0:0:0:46:
64,192,58868,128,2,59150:0:0:0:93:
192,192,59150,128,2,59432:0:0:0:93:
448,192,59432,128,2,59854:0:0:0:93:
64,192,59854,1,2,0:0:0:46:
192,192,59854,1,4,0:0:0:46:
64,192,60981,1,0,0:0:0:93:LR_Clap Fast Low.wav
448,192,61262,1,0,0:0:0:93:LR_Clap Fast Low.wav
64,192,61544,1,0,0:0:0:0:
448,192,61826,1,0,0:0:0:93:LR_Clap Fast Low.wav
192,192,62108,1,0,0:0:0:0:
64,192,62248,1,0,0:0:0:0:
320,192,62389,1,0,0:0:0:93:LR_Clap Fast Low.wav
448,192,62530,1,0,0:0:0:0:
64,192,62812,1,0,0:0:0:0:
192,192,62953,1,0,0:0:0:93:LR_Clap Fast Low.wav
320,192,63093,1,0,0:0:0:0:
448,192,63234,1,0,0:0:0:0:
64,192,63516,1,0,0:0:0:93:LR_Clap Fast Low.wav
448,192,63798,1,0,0:0:0:0:
64,192,64079,1,0,0:0:0:93:LR_Clap Fast Low.wav
320,192,64361,1,0,0:0:0:0:
448,192,64502,1,0,0:0:0:0:
192,192,64643,1,0,0:0:0:93:LR_Clap Fast Low.wav
64,192,64784,1,0,0:0:0:0:
320,192,65065,1,0,0:0:0:0:
64,192,65347,1,0,0:0:0:0:
192,192,65488,1,0,0:0:0:0:
448,192,65910,1,0,0:0:0:0:
320,192,66051,1,0,0:0:0:0:
192,192,66474,1,0,0:0:0:0:
448,192,66615,1,0,0:0:0:0:
320,192,66755,1,0,0:0:0:0:
64,192,66896,1,0,0:0:0:93:LR_Clap Fast Low.wav
192,192,67037,1,0,0:0:0:93:LR_Clap Fast Low.wav
448,192,67319,1,0,0:0:0:0:
320,192,67460,1,0,0:0:0:0:
64,192,67741,128,2,68164:0:0:0:46:
192,192,67741,1,4,0:0:0:46:
192,192,68164,1,0,0:0:0:0:
448,192,68305,1,2,0:0:0:93:
320,192,68586,1,2,0:0:0:93:
64,192,68868,1,2,0:0:0:93:
448,192,69150,1,2,0:0:0:93:
192,192,69432,1,2,0:0:0:93:
64,192,69713,128,2,69995:0:0:0:93:
448,192,69995,128,6,70417:0:0:0:46:
64,192,70417,1,0,0:0:0:0:
192,192,70558,1,2,0:0:0:93:
448,192,70840,1,2,0:0:0:93:
320,192,71122,1,2,0:0:0:93:
192,192,71403,1,2,0:0:0:93:
64,192,71685,1,2,0:0:0:93:
448,192,71967,128,2,72248:0:0:0:93:
64,192,72248,1,6,0:0:0:46:
192,192,72460,1,0,0:0:0:0:
448,192,72671,1,2,0:0:0:93:
320,192,72953,1,2,0:0:0:93:
192,192,73093,1,2,0:0:0:93:
448,192,73234,1,2,0:0:0:93:
64,192,73375,128,6,73939:0:0:0:46:
320,192,73939,128,2,74502:0:0:0:93:
192,192,74502,128,6,75629:0:0:0:46:
448,192,75629,128,6,76192:0:0:0:46:
64,192,76192,1,2,0:0:0:46:
320,192,76192,1,4,0:0:0:46:
64,192,76755,1,2,0:0:0:46:
192,192,76755,1,4,0:0:0:46:
448,192,77037,1,10,0:0:0:46:
192,192,77319,1,2,0:0:0:93:
320,192,77601,1,10,0:0:0:46:
448,192,77741,1,0,0:0:0:0:
64,192,77882,128,2,78164:0:0:0:93:
192,192,78164,1,10,0:0:0:46:
320,192,78305,1,0,0:0:0:0:
64,192,78586,1,0,0:0:0:0:
320,192,78727,1,10,0:0:0:46:
192,192,78868,1,0,0:0:0:0:
64,192,79009,1,2,0:0:0:93:
448,192,79291,1,10,0:0:0:46:
192,192,79572,1,2,0:0:0:93:
320,192,79854,1,10,0:0:0:46:
64,192,79995,1,0,0:0:0:0:
448,192,80136,128,2,80417:0:0:0:93:
192,192,80417,1,10,0:0:0:46:
320,192,80558,128,0,80840:0:0:0:0:
64,192,80840,128,0,81122:0:0:0:0:
448,192,81122,1,2,0:0:0:93:
320,192,81262,128,2,81544:0:0:0:93:
64,192,81685,1,0,0:0:0:0:
192,192,81826,128,2,82108:0:0:0:93:
448,192,82248,1,0,0:0:0:0:
320,192,82389,128,2,82671:0:0:0:93:
64,192,82671,1,10,0:0:0:46:
192,192,82812,1,0,0:0:0:0:
448,192,83093,1,0,0:0:0:0:
320,192,83234,1,10,0:0:0:46:
192,192,83375,1,0,0:0:0:0:
64,192,83516,1,2,0:0:0:93:
448,192,83798,1,10,0:0:0:46:
192,192,84079,1,2,0:0:0:93:
320,192,84361,1,10,0:0:0:46:
448,192,84502,1,0,0:0:0:0:
64,192,84643,128,2,84924:0:0:0:93:
320,192,84924,1,10,0:0:0:46:
192,192,85065,1,0,0:0:0:0:
320,192,85347,1,0,0:0:0:0:
192,192,85488,1,10,0:0:0:46:
64,192,85629,1,2,0:0:0:93:
320,192,85770,1,2,0:0:0:46:
448,192,85770,1,4,0:0:0:46:
64,192,86051,1,10,0:0:0:46:
320,192,86333,1,2,0:0:0:93:
192,192,86615,1,10,0:0:0:46:
64,192,86755,1,0,0:0:0:0:
448,192,86896,128,2,87178:0:0:0:93:
320,192,87178,1,10,0:0:0:46:
192,192,87319,1,0,0:0:0:0:
448,192,87601,1,0,0:0:0:0:
192,192,87741,1,10,0:0:0:46:
320,192,87882,1,0,0:0:0:0:
448,192,88023,1,2,0:0:0:93:
64,192,88305,1,10,0:0:0:46:
320,192,88586,1,2,0:0:0:93:
192,192,88868,1,10,0:0:0:46:
448,192,89009,1,0,0:0:0:0:
64,192,89150,128,2,89432:0:0:0:93:
320,192,89432,1,10,0:0:0:46:
192,192,89572,1,0,0:0:0:0:
64,192,89995,1,10,0:0:0:46:
448,192,90136,1,2,0:0:0:93:
192,192,90277,1,6,0:0:0:46:
320,192,90417,1,6,0:0:0:46:
448,192,90699,1,2,0:0:0:93:
64,192,90840,1,6,0:0:0:46:
192,192,90981,1,6,0:0:0:46:
320,192,91262,1,2,0:0:0:93:
64,192,91403,1,6,0:0:0:46:
192,192,91544,1,6,0:0:0:46:
192,192,91826,1,2,0:0:0:93:
448,192,91967,1,6,0:0:0:46:
320,192,92108,1,6,0:0:0:46:
64,192,92389,1,2,0:0:0:93:
448,192,92530,1,6,0:0:0:46:
320,192,92671,1,2,0:0:0:93:
192,192,92812,1,10,0:0:0:46:
320,192,93093,1,6,0:0:0:46:
448,192,93234,1,2,0:0:0:93:
64,192,93375,1,10,0:0:0:46:
448,192,93657,128,6,93939:0:0:0:46:
192,192,93939,128,14,94220:0:0:0:31:
320,192,94220,128,6,94502:0:0:0:46:
64,192,94502,128,14,94784:0:0:0:31:
448,192,94784,128,6,95910:0:0:0:46:
64,192,95347,1,2,0:0:0:93:
320,192,95910,128,2,96192:0:0:0:93:
64,192,96192,128,2,96474:0:0:0:93:
192,192,96474,128,2,96755:0:0:0:93:
448,192,96755,128,10,97037:0:0:0:46:
64,192,97037,1,2,0:0:0:46:
192,192,97037,1,4,0:0:0:46:
320,192,97319,1,10,0:0:0:46:
448,192,97601,1,2,0:0:0:93:
64,192,97882,1,10,0:0:0:46:
320,192,98164,1,2,0:0:0:93:
192,192,98446,1,10,0:0:0:46:
448,192,98727,1,2,0:0:0:93:
64,192,99009,1,10,0:0:0:46:
320,192,99291,1,2,0:0:0:93:
448,192,99572,1,10,0:0:0:46:
64,192,99854,1,2,0:0:0:93:
192,192,100136,1,10,0:0:0:46:
448,192,100417,1,2,0:0:0:93:
320,192,100699,1,10,0:0:0:46:
64,192,100981,1,2,0:0:0:93:
192,192,101262,1,10,0:0:0:46:
320,192,101403,1,2,0:0:0:93:
448,192,101544,1,2,0:0:0:93:
192,192,101826,1,10,0:0:0:46:
64,192,102108,1,2,0:0:0:93:
320,192,102389,1,10,0:0:0:46:
448,192,102671,1,2,0:0:0:93:
64,192,102953,1,10,0:0:0:46:
192,192,103234,1,2,0:0:0:93:
320,192,103516,1,10,0:0:0:46:
64,192,103798,1,2,0:0:0:93:
192,192,104079,1,10,0:0:0:46:
320,192,104361,1,2,0:0:0:93:
448,192,104643,1,10,0:0:0:46:
320,192,104924,1,2,0:0:0:93:
64,192,105065,1,2,0:0:0:93:
192,192,105206,1,10,0:0:0:46:
448,192,105488,1,6,0:0:0:46:
320,192,105629,1,14,0:0:0:46:
64,192,105910,1,6,0:0:0:46:
192,192,106051,128,2,106333:0:0:0:93:
320,192,106333,1,6,0:0:0:31:
448,192,106333,1,8,0:0:0:31:
64,192,106615,1,2,0:0:0:93:
192,192,106755,1,0,0:0:0:0:
320,192,106896,128,10,107178:0:0:0:46:
448,192,107178,128,2,107460:0:0:0:93:
192,192,107460,1,10,0:0:0:46:
320,192,107741,128,2,108023:0:0:0:93:
64,192,108023,128,2,108305:0:0:0:46:
192,192,108023,1,8,0:0:0:46:
448,192,108305,128,2,108586:0:0:0:93:
64,192,108586,1,2,0:0:0:46:
192,192,108586,1,8,0:0:0:46:
448,192,108868,1,2,0:0:0:93:
320,192,109009,1,0,0:0:0:0:
192,192,109150,128,10,109432:0:0:0:46:
64,192,109432,128,2,109713:0:0:0:93:
448,192,109713,128,10,109995:0:0:0:46:
192,192,109995,128,2,110277:0:0:0:93:
448,192,110277,1,10,0:0:0:46:
320,192,110417,1,2,0:0:0:93:
64,192,110558,128,2,110840:0:0:0:46:
192,192,110558,1,4,0:0:0:46:
320,192,110840,1,2,0:0:0:46:
448,192,110840,1,8,0:0:0:46:
64,192,111122,1,2,0:0:0:93:
192,192,111262,1,0,0:0:0:0:
320,192,111403,128,10,111685:0:0:0:46:
448,192,111685,128,2,111967:0:0:0:93:
192,192,111967,1,10,0:0:0:46:
320,192,112248,128,2,112530:0:0:0:93:
64,192,112530,128,2,112812:0:0:0:46:
192,192,112530,1,8,0:0:0:46:
320,192,112812,1,2,0:0:0:46:
448,192,112812,1,4,0:0:0:46:
192,192,112953,1,2,0:0:0:93:
320,192,113093,1,10,0:0:0:46:
64,192,113375,1,6,0:0:0:46:
192,192,113516,1,2,0:0:0:93:
320,192,113657,1,10,0:0:0:46:
448,192,113939,128,6,114220:0:0:0:46:
64,192,114220,128,14,114502:0:0:0:31:
320,192,114502,1,6,0:0:0:31:
448,192,114502,1,8,0:0:0:31:
64,192,114643,1,6,0:0:0:0:
192,192,114643,1,8,0:0:0:0:
