osu file format v14

[General]
AudioFilename: audio.mp3
AudioLeadIn: 0
PreviewTime: 77704
Countdown: 0
SampleSet: Soft
StackLeniency: 0.7
Mode: 3
LetterboxInBreaks: 0
SpecialStyle: 0
WidescreenStoryboard: 0

[Editor]
Bookmarks: 73,1020,1336,5125,6073,6389,8915,10178,11441,12704,13651,13967,19020,23757,24073,31020,31651,32283,32599,33862,34178,39230,43967,44283,51862,54388,59441,64494,67020,74599,76806,86609,87872,97345,97661,97977,103030,103345,108082,110609,118188,120714,125767,130505
DistanceSpacing: 1.4
BeatDivisor: 4
GridSize: 8
TimelineZoom: 1.599999

[Metadata]
Title:Panic! Pop'n! Picnic!
TitleUnicode:Panic! Pop'n! Picnic!
Artist:Umeboshi Chazuke
ArtistUnicode:梅干茶漬け
Creator:jakads
Version:Kawawa's Ex7ra!
Source:BMS
Tags:Lude Kawawa Wonki BOFU2016 - Legendary Again - ああ…翡翠茶漬け… ~もっと おかわり!~ Chipstyle Hi-Pop むらたむうた 8bit Chiptune
BeatmapID:1122312
BeatmapSetID:528031

[Difficulty]
HPDrainRate:8.5
CircleSize:7
OverallDifficulty:8.5
ApproachRate:9
SliderMultiplier:1.8
SliderTickRate:1

[Events]
//Background and Video events
Video,54,"PPP.mp4"
0,0,"maxresdefault.png",0,0
//Break Periods
//Storyboard Layer 0 (Background)
//Storyboard Layer 1 (Fail)
//Storyboard Layer 2 (Pass)
//Storyboard Layer 3 (Foreground)
//Storyboard Sound Samples

[TimingPoints]
73,315.789473684211,4,2,1,40,1,0
1020,-200,4,2,1,40,0,0
1099,-66.6666666666667,4,2,1,40,0,0
1178,-200,4,2,1,40,0,0
1258,-66.6666666666667,4,2,1,40,0,0
1336,-100,4,2,1,40,0,0
5125,-100,4,2,1,40,0,1
6073,-200,4,2,1,40,0,0
6230,-50,4,2,1,40,0,0
6309,-100,4,2,1,40,0,0
8915,-200,4,2,1,40,0,0
8994,-66.6666666666667,4,2,1,40,0,0
9073,-200,4,2,1,40,0,0
9152,-66.6666666666667,4,2,1,40,0,0
9230,-200,4,2,1,40,0,0
9309,-66.6666666666667,4,2,1,40,0,0
9388,-200,4,2,1,40,0,0
9467,-66.6666666666667,4,2,1,40,0,0
9546,-100,4,2,1,40,0,0
10178,-200,4,2,1,40,0,0
10257,-66.6666666666667,4,2,1,40,0,0
10336,-200,4,2,1,40,0,0
10415,-66.6666666666667,4,2,1,40,0,0
10494,-200,4,2,1,40,0,0
10573,-66.6666666666667,4,2,1,40,0,0
10651,-200,4,2,1,40,0,0
10730,-66.6666666666667,4,2,1,40,0,0
10809,-100,4,2,1,40,0,0
11441,-200,4,2,1,40,0,0
11520,-66.6666666666667,4,2,1,40,0,0
11599,-200,4,2,1,40,0,0
11678,-66.6666666666667,4,2,1,40,0,0
11757,-200,4,2,1,40,0,0
11836,-66.6666666666667,4,2,1,40,0,0
11914,-200,4,2,1,40,0,0
11993,-66.6666666666667,4,2,1,40,0,0
12072,-200,4,2,1,40,0,0
12112,-66.6666666666667,4,2,1,40,0,0
12151,-200,4,2,1,40,0,0
12230,-66.6666666666667,4,2,1,40,0,0
12309,-200,4,2,1,40,0,0
12349,-66.6666666666667,4,2,1,40,0,0
12388,-200,4,2,1,40,0,0
12467,-66.6666666666667,4,2,1,40,0,0
12546,-200,4,2,1,40,0,0
12625,-66.6666666666667,4,2,1,40,0,0
12704,-100,4,2,1,40,0,0
13020,-200,4,2,1,40,0,0
13099,-66.6666666666667,4,2,1,40,0,0
13178,-100,4,2,1,40,0,0
13494,-333.333333333333,4,2,1,40,0,1
13573,-58.8235294117647,4,2,1,40,0,1
13651,-100,4,2,1,40,0,0
23757,-100,4,2,1,40,0,1
24073,-100,4,2,1,40,0,0
31651,-100,4,2,1,40,0,1
31967,-100,4,2,1,40,0,0
32283,-100,4,2,1,40,0,1
32599,-100,4,2,1,40,0,0
33862,-100,4,2,1,40,0,1
34178,-100,4,2,1,40,0,0
43967,-100,4,2,1,40,0,1
44283,-100,4,2,1,40,0,0
51862,-100,4,2,1,40,0,1
54388,-200,4,2,1,40,0,0
54545,-50,4,2,1,40,0,0
54624,-100,4,2,1,40,0,0
59125,-100,4,2,1,40,0,1
59441,-100,4,2,1,40,0,0
62125,-66.6666666666667,4,2,1,40,0,0
62244,-200,4,2,1,40,0,0
62362,-66.6666666666667,4,2,1,40,0,0
62480,-200,4,2,1,40,0,0
62599,-66.6666666666667,4,2,1,40,0,0
62678,-200,4,2,1,40,0,0
62757,-100,4,2,1,40,0,0
62836,-66.6666666666667,4,2,1,40,0,0
62915,-200,4,2,1,40,0,0
62994,-100,4,2,1,40,0,0
63073,-66.6666666666667,4,2,1,40,0,0
63152,-200,4,2,1,40,0,0
63231,-100,4,2,1,40,0,0
63309,-66.6666666666667,4,2,1,40,0,0
63388,-200,4,2,1,40,0,0
63467,-100,4,2,1,40,0,0
63546,-66.6666666666667,4,2,1,40,0,0
63625,-200,4,2,1,40,0,0
63704,-100,4,2,1,40,0,0
63783,-66.6666666666667,4,2,1,40,0,0
63862,-200,4,2,1,40,0,0
63941,-100,4,2,1,40,0,0
64020,-66.6666666666667,4,2,1,40,0,0
64099,-200,4,2,1,40,0,0
64178,-66.6666666666667,4,2,1,40,0,0
64257,-200,4,2,1,40,0,0
64336,-66.6666666666667,4,2,1,40,0,0
64415,-200,4,2,1,40,0,0
64494,-100,4,2,1,40,0,0
65757,-66.6666666666667,4,2,1,40,0,0
65836,-200,4,2,1,40,0,0
65915,-100,4,2,1,40,0,0
66073,-66.6666666666667,4,2,1,40,0,0
66152,-200,4,2,1,40,0,0
66231,-100,4,2,1,40,0,0
66388,-66.6666666666667,4,2,1,40,0,0
66467,-200,4,2,1,40,0,0
66546,-100,4,2,1,40,0,0
74915,333.333333333333,4,2,1,40,1,0
74915,-94.7368421052633,4,2,1,40,0,0
75249,352.941176470588,4,2,1,40,1,0
75249,-89.4736842105264,4,2,1,40,0,0
75601,375,4,2,1,40,1,0
75601,-84.2105263157895,4,2,1,40,0,0
75977,400,4,2,1,40,1,0
75977,-78.9473684210526,4,2,1,40,0,0
76377,428.571428571429,4,2,1,40,1,0
76377,-73.6842105263157,4,2,1,40,0,0
76806,461.538461538462,4,2,1,40,1,0
76806,-68.4210526315789,4,2,1,40,0,0
77267,500,4,2,1,40,1,0
77267,-63.1578947368421,4,2,1,40,0,0
77769,315.789473684211,4,2,1,40,1,1
77847,-100,4,2,1,40,0,0
86611,-100,4,2,1,40,0,1
87874,-100,4,2,1,40,0,0
97347,-100,4,2,1,40,0,1
97663,-100,4,2,1,40,0,0
100979,-100,4,2,1,40,0,1
101137,-100,4,2,1,40,0,0
103032,-200,4,2,1,40,0,1
103111,-66.6666666666667,4,2,1,40,0,1
103190,-200,4,2,1,40,0,1
103269,-66.6666666666667,4,2,1,40,0,1
103347,-100,4,2,1,40,0,0
105558,-200,4,2,1,40,0,0
105637,-66.6666666666667,4,2,1,40,0,0
105716,-200,4,2,1,40,0,0
105795,-66.6666666666667,4,2,1,40,0,0
105874,-200,4,2,1,40,0,0
105953,-66.6666666666667,4,2,1,40,0,0
106032,-200,4,2,1,40,0,0
106111,-66.6666666666667,4,2,1,40,0,0
106190,-200,4,2,1,40,0,0
106269,-66.6666666666667,4,2,1,40,0,0
106347,-200,4,2,1,40,0,0
106426,-66.6666666666667,4,2,1,40,0,0
106505,-200,4,2,1,40,0,0
106584,-66.6666666666667,4,2,1,40,0,0
106663,-100,4,2,1,40,0,0
106821,-200,4,2,1,40,0,0
106900,-66.6666666666667,4,2,1,40,0,0
106979,-100,4,2,1,40,0,0
107137,-200,4,2,1,40,0,0
107216,-66.6666666666667,4,2,1,40,0,0
107295,-100,4,2,1,40,0,0
107453,-200,4,2,1,40,0,0
107532,-66.6666666666667,4,2,1,40,0,0
107611,-100,4,2,1,40,0,0
107769,-200,4,2,1,40,0,0
107848,-66.6666666666667,4,2,1,40,0,0
107927,-100,4,2,1,40,0,0
108084,-100,4,2,1,40,0,1
110611,-100,4,2,1,40,0,0
118190,-100,4,2,1,40,0,1
120716,-100,4,2,1,40,0,0
125769,-200,4,2,1,40,0,0
125848,-66.6666666666667,4,2,1,40,0,0
125927,-200,4,2,1,40,0,0
126006,-66.6666666666667,4,2,1,40,0,0
126084,-200,4,2,1,40,0,0
126163,-66.6666666666667,4,2,1,40,0,0
126242,-200,4,2,1,40,0,0
126321,-66.6666666666667,4,2,1,40,0,0
126400,-100,4,2,1,40,0,0
127032,-200,4,2,1,40,0,0
127111,-66.6666666666667,4,2,1,40,0,0
127190,-200,4,2,1,40,0,0
127269,-66.6666666666667,4,2,1,40,0,0
127348,-200,4,2,1,40,0,0
127427,-66.6666666666667,4,2,1,40,0,0
127505,-200,4,2,1,40,0,0
127584,-66.6666666666667,4,2,1,40,0,0
127663,-100,4,2,1,40,0,0
128295,-200,4,2,1,40,0,0
128374,-66.6666666666667,4,2,1,40,0,0
128453,-200,4,2,1,40,0,0
128532,-66.6666666666667,4,2,1,40,0,0
128611,-200,4,2,1,40,0,0
128690,-66.6666666666667,4,2,1,40,0,0
128768,-200,4,2,1,40,0,0
128847,-66.6666666666667,4,2,1,40,0,0
128926,-200,4,2,1,40,0,0
128966,-66.6666666666667,4,2,1,40,0,0
129005,-200,4,2,1,40,0,0
129084,-66.6666666666667,4,2,1,40,0,0
129163,-200,4,2,1,40,0,0
129203,-66.6666666666667,4,2,1,40,0,0
129242,-200,4,2,1,40,0,0
129321,-66.6666666666667,4,2,1,40,0,0
129400,-200,4,2,1,40,0,0
129479,-66.6666666666667,4,2,1,40,0,0
129558,-100,4,2,1,40,0,0
129874,-200,4,2,1,40,0,0
129953,-66.6666666666667,4,2,1,40,0,0
130032,-100,4,2,1,40,0,0
130347,-333.333333333333,4,2,1,40,0,1
130427,-58.8235294117647,4,2,1,40,0,1
130505,-100,4,2,1,40,0,0

[HitObjects]
182,192,73,5,8,0:0:0:0:
329,192,73,1,0,0:0:0:0:
109,192,151,1,0,0:0:0:0:
36,192,151,1,8,0:0:0:0:
475,192,230,1,2,0:0:0:0:
402,192,309,1,2,0:0:0:0:
182,192,388,1,8,0:0:0:0:
329,192,388,1,0,0:0:0:0:
36,192,467,1,8,0:0:0:0:
109,192,467,1,0,0:0:0:0:
475,192,546,1,2,0:0:0:0:
402,192,625,1,2,0:0:0:0:
182,192,704,1,8,0:0:0:0:
329,192,704,1,0,0:0:0:0:
36,192,783,1,8,0:0:0:0:
109,192,783,1,0,0:0:0:0:
475,192,862,1,2,0:0:0:0:
402,192,941,1,2,0:0:0:0:
329,192,1020,1,8,0:0:0:0:
36,192,1020,1,0,0:0:0:0:
182,192,1020,1,0,0:0:0:0:
109,192,1178,1,8,0:0:0:0:
256,192,1178,1,0,0:0:0:0:
402,192,1178,1,0,0:0:0:0:
475,192,1336,1,4,0:0:0:0:
182,192,1336,1,0,0:0:0:0:
329,192,1336,1,2,0:0:0:0:
109,192,1415,1,0,0:0:0:0:
36,192,1494,1,0,0:0:0:0:
256,192,1494,1,0,0:0:0:0:
329,192,1573,1,0,0:0:0:0:
402,192,1651,1,0,0:0:0:0:
109,192,1651,1,0,0:0:0:0:
182,192,1730,1,0,0:0:0:0:
475,192,1809,1,0,0:0:0:0:
256,192,1809,1,0,0:0:0:0:
402,192,1888,1,0,0:0:0:0:
329,192,1967,1,0,0:0:0:0:
182,192,1967,1,0,0:0:0:0:
109,192,2046,1,0,0:0:0:0:
36,192,2125,1,0,0:0:0:0:
329,192,2125,1,0,0:0:0:0:
402,192,2204,1,0,0:0:0:0:
475,192,2283,1,0,0:0:0:0:
182,192,2283,1,0,0:0:0:0:
256,192,2362,1,0,0:0:0:0:
329,192,2441,1,0,0:0:0:0:
36,192,2441,1,0,0:0:0:0:
109,192,2520,1,0,0:0:0:0:
475,192,2599,1,0,0:0:0:0:
182,192,2599,1,0,0:0:0:0:
402,192,2678,1,0,0:0:0:0:
182,192,2757,1,0,0:0:0:0:
329,192,2757,1,0,0:0:0:0:
109,192,2836,1,0,0:0:0:0:
329,192,2915,1,0,0:0:0:0:
36,192,2915,1,0,0:0:0:0:
402,192,2994,1,0,0:0:0:0:
36,192,3073,1,0,0:0:0:0:
475,192,3073,1,0,0:0:0:0:
109,192,3151,1,0,0:0:0:0:
182,192,3230,1,0,0:0:0:0:
475,192,3230,1,0,0:0:0:0:
402,192,3309,1,0,0:0:0:0:
329,192,3388,1,0,0:0:0:0:
182,192,3388,1,0,0:0:0:0:
109,192,3467,1,0,0:0:0:0:
36,192,3546,1,0,0:0:0:0:
329,192,3546,1,0,0:0:0:0:
256,192,3625,1,0,0:0:0:0:
36,192,3704,1,0,0:0:0:0:
182,192,3704,1,0,0:0:0:0:
329,192,3783,1,0,0:0:0:0:
475,192,3783,1,0,0:0:0:0:
36,192,3862,1,0,0:0:0:0:
182,192,3862,1,0,0:0:0:0:
256,192,3941,1,0,0:0:0:0:
329,192,4020,1,0,0:0:0:0:
109,192,4020,1,0,0:0:0:0:
402,192,4099,1,0,0:0:0:0:
475,192,4178,1,0,0:0:0:0:
182,192,4178,1,0,0:0:0:0:
109,192,4257,1,0,0:0:0:0:
36,192,4336,1,0,0:0:0:0:
475,192,4336,1,0,0:0:0:0:
402,192,4415,1,0,0:0:0:0:
109,192,4494,1,0,0:0:0:0:
329,192,4494,1,0,0:0:0:0:
256,192,4573,1,0,0:0:0:0:
402,192,4651,1,0,0:0:0:0:
182,192,4651,1,0,0:0:0:0:
109,192,4730,1,0,0:0:0:0:
475,192,4809,1,0,0:0:0:0:
36,192,4809,1,0,0:0:0:0:
109,192,4888,1,0,0:0:0:0:
182,192,4967,1,0,0:0:0:0:
475,192,4967,1,0,0:0:0:0:
402,192,5046,1,0,0:0:0:0:
329,192,5125,1,8,0:0:0:0:
182,192,5125,1,0,0:0:0:0:
475,192,5204,1,8,0:0:0:0:
36,192,5204,1,0,0:0:0:0:
182,192,5283,1,8,0:0:0:0:
329,192,5283,1,0,0:0:0:0:
475,192,5362,1,8,0:0:0:0:
36,192,5362,1,0,0:0:0:0:
402,192,5441,1,2,0:0:0:0:
109,192,5441,1,0,0:0:0:0:
329,192,5520,1,2,0:0:0:0:
182,192,5520,1,0,0:0:0:0:
402,192,5599,1,2,0:0:0:0:
475,192,5599,1,0,0:0:0:0:
182,192,5678,1,2,0:0:0:0:
329,192,5678,1,0,0:0:0:0:
109,192,5757,1,2,0:0:0:0:
36,192,5757,1,0,0:0:0:0:
256,192,5836,1,2,0:0:0:0:
402,192,5836,1,0,0:0:0:0:
36,192,5915,1,2,0:0:0:0:
109,192,5915,1,0,0:0:0:0:
402,192,5994,1,2,0:0:0:0:
256,192,5994,1,0,0:0:0:0:
329,192,6073,128,2,6309:0:0:0:0:
36,192,6073,128,4,6309:0:0:0:0:
182,192,6073,128,0,6309:0:0:0:0:
475,192,6073,128,0,6309:0:0:0:0:
475,192,6388,1,4,0:0:0:0:
329,192,6388,1,2,0:0:0:0:
182,192,6388,128,0,6467:0:0:0:0:
36,192,6388,128,0,6467:0:0:0:0:
36,192,6546,1,0,0:0:0:0:
182,192,6546,1,0,0:0:0:0:
475,192,6704,1,2,0:0:0:0:
402,192,6704,1,8,0:0:0:0:
109,192,6704,128,0,6783:0:0:0:0:
256,192,6704,128,0,6783:0:0:0:0:
109,192,6862,1,0,0:0:0:0:
256,192,6862,1,0,0:0:0:0:
36,192,7020,1,2,0:0:0:0:
475,192,7020,1,0,0:0:0:0:
182,192,7020,128,0,7099:0:0:0:0:
329,192,7020,128,0,7099:0:0:0:0:
182,192,7178,1,0,0:0:0:0:
329,192,7178,1,0,0:0:0:0:
36,192,7336,1,2,0:0:0:0:
109,192,7336,1,8,0:0:0:0:
256,192,7336,128,0,7415:0:0:0:0:
402,192,7336,128,0,7415:0:0:0:0:
402,192,7494,1,0,0:0:0:0:
256,192,7494,1,0,0:0:0:0:
475,192,7651,1,2,0:0:0:0:
329,192,7651,1,0,0:0:0:0:
182,192,7651,128,0,7730:0:0:0:0:
36,192,7651,128,0,7730:0:0:0:0:
182,192,7809,1,2,0:0:0:0:
329,192,7809,1,0,0:0:0:0:
36,192,7809,1,0,0:0:0:0:
402,192,7967,1,2,0:0:0:0:
256,192,7967,128,8,8046:0:0:0:0:
109,192,7967,128,0,8046:0:0:0:0:
475,192,7967,1,0,0:0:0:0:
256,192,8125,1,0,0:0:0:0:
109,192,8125,1,0,0:0:0:0:
475,192,8283,1,2,0:0:0:0:
36,192,8283,1,0,0:0:0:0:
182,192,8283,1,0,0:0:0:0:
329,192,8283,1,0,0:0:0:0:
256,192,8441,1,0,0:0:0:0:
329,192,8520,1,2,0:0:0:0:
182,192,8520,1,0,0:0:0:0:
402,192,8599,1,2,0:0:0:0:
109,192,8599,1,4,0:0:0:0:
36,192,8599,1,8,0:0:0:0:
475,192,8599,1,0,0:0:0:0:
109,192,8757,1,2,0:0:0:0:
256,192,8757,1,0,0:0:0:0:
402,192,8757,1,0,0:0:0:0:
36,192,8915,1,8,0:0:0:0:
182,192,8915,1,0,0:0:0:0:
329,192,8915,1,0,0:0:0:0:
475,192,8915,1,0,0:0:0:0:
36,192,9073,1,8,0:0:0:0:
182,192,9073,1,0,0:0:0:0:
329,192,9073,1,0,0:0:0:0:
475,192,9073,1,0,0:0:0:0:
475,192,9230,1,8,0:0:0:0:
329,192,9230,1,0,0:0:0:0:
182,192,9230,1,0,0:0:0:0:
36,192,9230,1,0,0:0:0:0:
36,192,9388,1,8,0:0:0:0:
182,192,9388,1,0,0:0:0:0:
329,192,9388,1,0,0:0:0:0:
475,192,9388,1,0,0:0:0:0:
475,192,9546,1,8,0:0:0:0:
329,192,9546,1,0,0:0:0:0:
36,192,9546,1,0,0:0:0:0:
182,192,9546,1,0,0:0:0:0:
36,192,9862,1,0,0:0:0:0:
182,192,9862,1,4,0:0:0:0:
475,192,9862,128,2,9941:0:0:0:0:
402,192,9901,128,0,9980:0:0:0:0:
329,192,9941,128,0,10020:0:0:0:0:
109,192,10020,1,0,0:0:0:0:
182,192,10059,1,0,0:0:0:0:
256,192,10099,1,0,0:0:0:0:
329,192,10138,1,0,0:0:0:0:
475,192,10178,1,2,0:0:0:0:
36,192,10178,1,0,0:0:0:0:
109,192,10178,1,0,0:0:0:0:
402,192,10178,1,0,0:0:0:0:
36,192,10336,1,2,0:0:0:0:
402,192,10336,1,0,0:0:0:0:
109,192,10336,1,0,0:0:0:0:
475,192,10336,1,0,0:0:0:0:
475,192,10494,1,2,0:0:0:0:
402,192,10494,1,0,0:0:0:0:
36,192,10494,1,0,0:0:0:0:
109,192,10494,1,0,0:0:0:0:
109,192,10651,1,2,0:0:0:0:
36,192,10651,1,0,0:0:0:0:
402,192,10651,1,0,0:0:0:0:
475,192,10651,1,0,0:0:0:0:
475,192,10809,1,2,0:0:0:0:
36,192,10809,1,0,0:0:0:0:
109,192,10809,1,0,0:0:0:0:
402,192,10809,1,0,0:0:0:0:
182,192,10967,128,0,11046:0:0:0:0:
329,192,10967,128,0,11046:0:0:0:0:
182,192,11125,128,4,11362:0:0:0:0:
329,192,11125,128,2,11362:0:0:0:0:
36,192,11125,128,0,11362:0:0:0:0:
475,192,11125,128,0,11362:0:0:0:0:
36,192,11441,1,4,0:0:0:0:
329,192,11441,1,2,0:0:0:0:
475,192,11441,1,0,0:0:0:0:
182,192,11441,1,0,0:0:0:0:
36,192,11599,1,8,0:0:0:0:
182,192,11599,1,0,0:0:0:0:
329,192,11599,1,0,0:0:0:0:
475,192,11599,1,0,0:0:0:0:
475,192,11757,1,2,0:0:0:0:
329,192,11757,1,0,0:0:0:0:
182,192,11757,1,0,0:0:0:0:
36,192,11757,1,0,0:0:0:0:
36,192,11915,1,2,0:0:0:0:
182,192,11915,1,0,0:0:0:0:
329,192,11915,1,0,0:0:0:0:
475,192,11915,1,0,0:0:0:0:
402,192,12073,1,4,0:0:0:0:
109,192,12073,1,8,0:0:0:0:
256,192,12073,1,0,0:0:0:0:
402,192,12151,1,8,0:0:0:0:
109,192,12151,1,0,0:0:0:0:
256,192,12151,1,0,0:0:0:0:
182,192,12309,1,8,0:0:0:0:
329,192,12309,1,0,0:0:0:0:
36,192,12388,1,8,0:0:0:0:
109,192,12388,1,4,0:0:0:0:
402,192,12388,1,0,0:0:0:0:
475,192,12388,1,0,0:0:0:0:
402,192,12546,1,8,0:0:0:0:
329,192,12546,1,0,0:0:0:0:
182,192,12546,1,0,0:0:0:0:
109,192,12546,1,0,0:0:0:0:
329,192,12704,1,8,0:0:0:0:
475,192,12704,1,4,0:0:0:0:
36,192,12704,1,0,0:0:0:0:
182,192,12704,1,0,0:0:0:0:
256,192,12704,1,0,0:0:0:0:
109,192,12862,1,2,0:0:0:0:
402,192,12862,1,0,0:0:0:0:
182,192,12941,1,2,0:0:0:0:
329,192,12941,1,0,0:0:0:0:
256,192,13020,1,8,0:0:0:0:
475,192,13020,1,0,0:0:0:0:
36,192,13020,1,0,0:0:0:0:
36,192,13178,1,8,0:0:0:0:
256,192,13178,1,0,0:0:0:0:
475,192,13178,1,0,0:0:0:0:
109,192,13494,1,2,0:0:0:0:
36,192,13494,1,8,0:0:0:0:
402,192,13494,1,4,0:0:0:0:
475,192,13494,1,0,0:0:0:0:
109,192,13651,1,4,0:0:0:0:
36,192,13651,1,8,0:0:0:0:
475,192,13651,128,2,13809:0:0:0:0:
402,192,13651,128,0,13809:0:0:0:0:
182,192,13809,1,0,0:0:0:0:
36,192,13967,1,2,0:0:0:0:
256,192,13967,1,0,0:0:0:0:
475,192,13967,1,0,0:0:0:0:
402,192,13967,1,0,0:0:0:0:
329,192,14125,128,0,14283:0:0:0:0:
36,192,14125,1,0,0:0:0:0:
109,192,14204,1,0,0:0:0:0:
475,192,14283,1,2,0:0:0:0:
182,192,14283,128,0,14362:0:0:0:0:
329,192,14441,128,0,14599:0:0:0:0:
109,192,14441,128,0,14520:0:0:0:0:
475,192,14599,1,2,0:0:0:0:
36,192,14599,128,0,14757:0:0:0:0:
329,192,14757,128,0,14915:0:0:0:0:
475,192,14915,1,2,0:0:0:0:
36,192,14915,1,0,0:0:0:0:
329,192,15073,128,0,15230:0:0:0:0:
109,192,15073,1,0,0:0:0:0:
475,192,15230,1,2,0:0:0:0:
182,192,15230,1,0,0:0:0:0:
182,192,15388,128,0,15546:0:0:0:0:
475,192,15388,1,0,0:0:0:0:
402,192,15467,1,0,0:0:0:0:
36,192,15546,1,2,0:0:0:0:
329,192,15546,128,0,15625:0:0:0:0:
182,192,15704,128,0,15862:0:0:0:0:
402,192,15704,128,0,15783:0:0:0:0:
36,192,15862,1,2,0:0:0:0:
475,192,15862,128,0,16020:0:0:0:0:
182,192,16020,128,0,16178:0:0:0:0:
36,192,16178,1,2,0:0:0:0:
475,192,16178,1,0,0:0:0:0:
182,192,16336,128,0,16494:0:0:0:0:
402,192,16336,1,0,0:0:0:0:
36,192,16494,1,2,0:0:0:0:
329,192,16494,1,0,0:0:0:0:
475,192,16651,128,0,16809:0:0:0:0:
182,192,16651,1,0,0:0:0:0:
109,192,16730,1,0,0:0:0:0:
329,192,16809,1,2,0:0:0:0:
36,192,16809,128,0,16888:0:0:0:0:
475,192,16967,128,0,17125:0:0:0:0:
109,192,16967,128,0,17046:0:0:0:0:
329,192,17125,1,2,0:0:0:0:
182,192,17125,128,0,17283:0:0:0:0:
475,192,17283,128,0,17441:0:0:0:0:
182,192,17441,1,2,0:0:0:0:
329,192,17441,1,0,0:0:0:0:
475,192,17599,128,0,17757:0:0:0:0:
109,192,17599,1,0,0:0:0:0:
329,192,17757,1,2,0:0:0:0:
36,192,17757,1,0,0:0:0:0:
36,192,17915,128,0,18073:0:0:0:0:
329,192,17915,1,0,0:0:0:0:
256,192,17994,1,0,0:0:0:0:
182,192,18073,1,2,0:0:0:0:
475,192,18073,128,0,18151:0:0:0:0:
36,192,18230,128,0,18388:0:0:0:0:
329,192,18230,128,0,18309:0:0:0:0:
182,192,18388,1,2,0:0:0:0:
475,192,18388,128,0,18546:0:0:0:0:
36,192,18546,128,0,18704:0:0:0:0:
182,192,18704,1,2,0:0:0:0:
329,192,18704,1,0,0:0:0:0:
36,192,18862,128,2,19020:0:0:0:0:
256,192,18862,1,0,0:0:0:0:
402,192,18862,1,0,0:0:0:0:
329,192,19020,1,2,0:0:0:0:
475,192,19020,1,0,0:0:0:0:
475,192,19178,128,0,19336:0:0:0:0:
36,192,19178,1,0,0:0:0:0:
109,192,19257,1,0,0:0:0:0:
329,192,19336,1,2,0:0:0:0:
182,192,19336,128,0,19415:0:0:0:0:
329,192,19494,128,0,19651:0:0:0:0:
109,192,19494,128,0,19573:0:0:0:0:
475,192,19651,1,2,0:0:0:0:
36,192,19651,128,0,19809:0:0:0:0:
475,192,19809,128,0,19967:0:0:0:0:
329,192,19967,1,2,0:0:0:0:
36,192,19967,1,0,0:0:0:0:
329,192,20125,128,0,20283:0:0:0:0:
109,192,20125,1,0,0:0:0:0:
475,192,20283,1,2,0:0:0:0:
182,192,20283,1,0,0:0:0:0:
475,192,20441,1,0,0:0:0:0:
182,192,20441,128,0,20599:0:0:0:0:
402,192,20520,1,0,0:0:0:0:
36,192,20599,1,2,0:0:0:0:
329,192,20599,128,0,20678:0:0:0:0:
36,192,20757,128,0,20915:0:0:0:0:
402,192,20757,128,0,20836:0:0:0:0:
182,192,20915,1,2,0:0:0:0:
475,192,20915,128,0,20994:0:0:0:0:
182,192,21073,128,0,21230:0:0:0:0:
402,192,21073,128,0,21151:0:0:0:0:
36,192,21230,1,2,0:0:0:0:
329,192,21230,128,0,21309:0:0:0:0:
36,192,21388,128,0,21546:0:0:0:0:
256,192,21388,128,0,21467:0:0:0:0:
182,192,21546,1,2,0:0:0:0:
475,192,21546,1,0,0:0:0:0:
329,192,21546,1,0,0:0:0:0:
36,192,21704,1,0,0:0:0:0:
475,192,21704,128,0,21862:0:0:0:0:
109,192,21783,1,0,0:0:0:0:
329,192,21862,1,2,0:0:0:0:
182,192,21862,1,0,0:0:0:0:
329,192,22020,128,0,22178:0:0:0:0:
109,192,22020,1,0,0:0:0:0:
36,192,22178,1,2,0:0:0:0:
475,192,22178,1,0,0:0:0:0:
109,192,22257,1,0,0:0:0:0:
182,192,22336,1,0,0:0:0:0:
475,192,22336,128,0,22494:0:0:0:0:
256,192,22415,1,0,0:0:0:0:
109,192,22494,1,2,0:0:0:0:
329,192,22494,1,0,0:0:0:0:
36,192,22651,1,0,0:0:0:0:
329,192,22651,128,0,22809:0:0:0:0:
182,192,22651,1,0,0:0:0:0:
36,192,22809,1,2,0:0:0:0:
475,192,22809,1,0,0:0:0:0:
182,192,22809,1,0,0:0:0:0:
475,192,22967,128,2,23046:0:0:0:0:
329,192,22967,128,0,23046:0:0:0:0:
182,192,22967,128,0,23046:0:0:0:0:
109,192,23125,128,2,23204:0:0:0:0:
256,192,23125,128,0,23204:0:0:0:0:
402,192,23125,128,0,23204:0:0:0:0:
329,192,23283,128,0,23362:0:0:0:0:
182,192,23283,128,0,23362:0:0:0:0:
36,192,23283,128,0,23362:0:0:0:0:
109,192,23441,1,2,0:0:0:0:
256,192,23441,1,0,0:0:0:0:
402,192,23441,128,0,23599:0:0:0:0:
475,192,23441,128,0,23599:0:0:0:0:
475,192,23678,1,2,0:0:0:0:
402,192,23678,1,0,0:0:0:0:
329,192,23757,1,2,0:0:0:0:
182,192,23757,1,0,0:0:0:0:
36,192,23757,1,0,0:0:0:0:
36,192,23915,1,2,0:0:0:0:
256,192,23915,1,0,0:0:0:0:
402,192,23915,1,0,0:0:0:0:
36,192,24073,1,2,0:0:0:0:
182,192,24073,1,4,0:0:0:0:
475,192,24073,1,0,0:0:0:0:
329,192,24073,1,0,0:0:0:0:
329,192,24230,1,0,0:0:0:0:
109,192,24230,1,0,0:0:0:0:
256,192,24309,1,0,0:0:0:0:
36,192,24388,1,0,0:0:0:0:
182,192,24388,1,8,0:0:0:0:
475,192,24388,1,2,0:0:0:0:
182,192,24546,1,0,0:0:0:0:
475,192,24546,1,0,0:0:0:0:
402,192,24625,1,0,0:0:0:0:
256,192,24625,1,0,0:0:0:0:
109,192,24704,1,0,0:0:0:0:
36,192,24704,1,2,0:0:0:0:
329,192,24704,1,0,0:0:0:0:
36,192,24862,1,0,0:0:0:0:
109,192,24862,1,0,0:0:0:0:
256,192,24941,1,0,0:0:0:0:
182,192,24941,1,0,0:0:0:0:
329,192,25020,128,8,25099:0:0:0:0:
475,192,25020,128,2,25099:0:0:0:0:
402,192,25020,128,0,25099:0:0:0:0:
329,192,25178,128,0,25257:0:0:0:0:
182,192,25178,128,0,25257:0:0:0:0:
36,192,25178,128,0,25257:0:0:0:0:
475,192,25336,1,2,0:0:0:0:
109,192,25336,1,0,0:0:0:0:
256,192,25336,1,0,0:0:0:0:
109,192,25494,1,0,0:0:0:0:
329,192,25494,1,0,0:0:0:0:
256,192,25573,1,0,0:0:0:0:
475,192,25651,1,2,0:0:0:0:
402,192,25651,1,8,0:0:0:0:
182,192,25651,1,0,0:0:0:0:
182,192,25809,1,0,0:0:0:0:
329,192,25809,1,0,0:0:0:0:
402,192,25888,1,0,0:0:0:0:
109,192,25888,1,0,0:0:0:0:
36,192,25967,1,2,0:0:0:0:
256,192,25967,1,0,0:0:0:0:
475,192,25967,1,0,0:0:0:0:
36,192,26125,1,0,0:0:0:0:
256,192,26125,1,0,0:0:0:0:
109,192,26204,1,0,0:0:0:0:
329,192,26204,1,0,0:0:0:0:
402,192,26283,128,0,26362:0:0:0:0:
475,192,26283,128,8,26362:0:0:0:0:
182,192,26283,128,2,26362:0:0:0:0:
329,192,26441,128,0,26520:0:0:0:0:
182,192,26441,128,0,26520:0:0:0:0:
36,192,26441,128,0,26520:0:0:0:0:
109,192,26599,1,2,0:0:0:0:
256,192,26599,1,0,0:0:0:0:
475,192,26599,1,0,0:0:0:0:
329,192,26757,1,0,0:0:0:0:
109,192,26757,1,0,0:0:0:0:
256,192,26836,1,0,0:0:0:0:
36,192,26915,1,2,0:0:0:0:
182,192,26915,1,8,0:0:0:0:
402,192,26915,1,0,0:0:0:0:
402,192,27073,1,0,0:0:0:0:
182,192,27073,1,0,0:0:0:0:
109,192,27151,1,0,0:0:0:0:
329,192,27151,1,0,0:0:0:0:
256,192,27230,1,2,0:0:0:0:
475,192,27230,1,0,0:0:0:0:
36,192,27230,1,0,0:0:0:0:
256,192,27388,1,0,0:0:0:0:
475,192,27388,1,0,0:0:0:0:
402,192,27467,1,0,0:0:0:0:
329,192,27467,1,0,0:0:0:0:
109,192,27546,128,0,27625:0:0:0:0:
36,192,27546,128,8,27625:0:0:0:0:
182,192,27546,128,2,27625:0:0:0:0:
475,192,27704,128,0,27783:0:0:0:0:
182,192,27704,128,0,27783:0:0:0:0:
329,192,27704,128,0,27783:0:0:0:0:
36,192,27862,1,2,0:0:0:0:
256,192,27862,1,0,0:0:0:0:
402,192,27862,1,0,0:0:0:0:
36,192,28020,1,0,0:0:0:0:
329,192,28020,1,0,0:0:0:0:
109,192,28099,1,0,0:0:0:0:
182,192,28178,1,2,0:0:0:0:
475,192,28178,1,0,0:0:0:0:
329,192,28178,1,8,0:0:0:0:
256,192,28336,1,0,0:0:0:0:
402,192,28336,1,0,0:0:0:0:
109,192,28336,1,0,0:0:0:0:
182,192,28494,128,0,28651:0:0:0:0:
36,192,28494,128,2,28651:0:0:0:0:
329,192,28494,1,0,0:0:0:0:
402,192,28651,1,0,0:0:0:0:
36,192,28809,1,2,0:0:0:0:
182,192,28809,1,8,0:0:0:0:
475,192,28809,1,0,0:0:0:0:
256,192,28967,1,2,0:0:0:0:
475,192,28967,1,0,0:0:0:0:
109,192,28967,1,0,0:0:0:0:
329,192,29125,1,2,0:0:0:0:
182,192,29125,1,0,0:0:0:0:
475,192,29125,1,0,0:0:0:0:
182,192,29283,1,0,0:0:0:0:
402,192,29283,1,0,0:0:0:0:
329,192,29362,1,0,0:0:0:0:
475,192,29441,1,2,0:0:0:0:
256,192,29441,1,8,0:0:0:0:
36,192,29441,1,0,0:0:0:0:
256,192,29599,1,0,0:0:0:0:
36,192,29599,1,0,0:0:0:0:
109,192,29678,1,0,0:0:0:0:
329,192,29678,1,0,0:0:0:0:
182,192,29757,1,2,0:0:0:0:
475,192,29757,1,0,0:0:0:0:
402,192,29757,1,0,0:0:0:0:
182,192,29915,1,0,0:0:0:0:
402,192,29915,1,0,0:0:0:0:
256,192,29994,1,0,0:0:0:0:
109,192,29994,1,0,0:0:0:0:
475,192,30073,128,0,30151:0:0:0:0:
329,192,30073,128,8,30151:0:0:0:0:
36,192,30073,128,2,30151:0:0:0:0:
36,192,30230,128,0,30309:0:0:0:0:
182,192,30230,128,0,30309:0:0:0:0:
329,192,30230,128,0,30309:0:0:0:0:
256,192,30388,1,2,0:0:0:0:
475,192,30388,1,0,0:0:0:0:
402,192,30388,1,0,0:0:0:0:
402,192,30546,1,0,0:0:0:0:
182,192,30546,1,0,0:0:0:0:
329,192,30625,1,0,0:0:0:0:
109,192,30704,1,2,0:0:0:0:
256,192,30704,1,4,0:0:0:0:
475,192,30704,1,8,0:0:0:0:
36,192,30704,1,0,0:0:0:0:
329,192,30862,1,0,0:0:0:0:
109,192,30862,1,0,0:0:0:0:
182,192,30862,1,0,0:0:0:0:
182,192,31020,128,2,31099:0:0:0:0:
256,192,31020,128,4,31099:0:0:0:0:
402,192,31020,128,8,31099:0:0:0:0:
475,192,31020,128,0,31494:0:0:0:0:
182,192,31178,128,0,31257:0:0:0:0:
109,192,31178,128,0,31257:0:0:0:0:
329,192,31178,128,0,31257:0:0:0:0:
36,192,31336,128,0,31415:0:0:0:0:
256,192,31336,128,0,31415:0:0:0:0:
109,192,31336,128,0,31415:0:0:0:0:
182,192,31494,1,0,0:0:0:0:
329,192,31494,1,0,0:0:0:0:
36,192,31494,1,0,0:0:0:0:
36,192,31651,5,2,0:0:0:0:
475,192,31651,1,4,0:0:0:0:
329,192,31651,1,0,0:0:0:0:
182,192,31651,1,0,0:0:0:0:
402,192,31730,1,0,0:0:0:0:
256,192,31730,1,0,0:0:0:0:
109,192,31809,1,0,0:0:0:0:
36,192,31809,1,0,0:0:0:0:
256,192,31888,1,0,0:0:0:0:
402,192,31888,1,0,0:0:0:0:
182,192,31967,1,2,0:0:0:0:
329,192,31967,1,8,0:0:0:0:
36,192,31967,1,0,0:0:0:0:
109,192,32125,1,0,0:0:0:0:
402,192,32125,1,0,0:0:0:0:
256,192,32125,1,0,0:0:0:0:
182,192,32283,1,2,0:0:0:0:
36,192,32283,1,4,0:0:0:0:
329,192,32283,1,0,0:0:0:0:
475,192,32283,1,0,0:0:0:0:
109,192,32362,1,0,0:0:0:0:
256,192,32362,1,0,0:0:0:0:
402,192,32441,1,0,0:0:0:0:
475,192,32441,1,0,0:0:0:0:
109,192,32520,1,0,0:0:0:0:
256,192,32520,1,0,0:0:0:0:
475,192,32599,1,8,0:0:0:0:
329,192,32599,1,2,0:0:0:0:
182,192,32599,1,0,0:0:0:0:
402,192,32757,1,0,0:0:0:0:
256,192,32757,1,0,0:0:0:0:
109,192,32757,1,0,0:0:0:0:
36,192,32915,1,2,0:0:0:0:
329,192,32915,1,0,0:0:0:0:
182,192,32915,1,0,0:0:0:0:
36,192,33073,128,8,33151:0:0:0:0:
182,192,33073,128,0,33151:0:0:0:0:
329,192,33073,128,0,33151:0:0:0:0:
109,192,33230,128,8,33309:0:0:0:0:
402,192,33230,128,0,33309:0:0:0:0:
475,192,33230,128,0,33309:0:0:0:0:
36,192,33388,128,2,33467:0:0:0:0:
182,192,33388,128,0,33467:0:0:0:0:
329,192,33388,128,0,33467:0:0:0:0:
402,192,33546,128,2,33704:0:0:0:0:
475,192,33546,128,0,33704:0:0:0:0:
109,192,33546,128,0,33704:0:0:0:0:
256,192,33862,128,2,34099:0:0:0:0:
109,192,33862,128,4,34099:0:0:0:0:
475,192,33862,1,8,0:0:0:0:
402,192,33862,1,0,0:0:0:0:
36,192,34178,1,2,0:0:0:0:
109,192,34178,1,0,0:0:0:0:
402,192,34178,1,0,0:0:0:0:
256,192,34178,1,0,0:0:0:0:
475,192,34178,1,0,0:0:0:0:
36,192,34336,1,0,0:0:0:0:
36,192,34494,1,2,0:0:0:0:
475,192,34494,1,8,0:0:0:0:
329,192,34494,128,0,34651:0:0:0:0:
182,192,34494,128,0,34651:0:0:0:0:
475,192,34651,1,0,0:0:0:0:
256,192,34809,1,2,0:0:0:0:
36,192,34809,1,0,0:0:0:0:
475,192,34809,1,0,0:0:0:0:
36,192,34967,1,0,0:0:0:0:
36,192,35125,1,2,0:0:0:0:
475,192,35125,1,8,0:0:0:0:
182,192,35125,128,0,35283:0:0:0:0:
329,192,35125,128,0,35283:0:0:0:0:
475,192,35283,1,0,0:0:0:0:
36,192,35441,1,2,0:0:0:0:
475,192,35441,1,0,0:0:0:0:
256,192,35441,1,0,0:0:0:0:
36,192,35599,1,0,0:0:0:0:
36,192,35757,1,2,0:0:0:0:
475,192,35757,1,8,0:0:0:0:
329,192,35757,128,0,35915:0:0:0:0:
182,192,35757,128,0,35915:0:0:0:0:
475,192,35915,1,0,0:0:0:0:
36,192,36073,1,2,0:0:0:0:
475,192,36073,1,0,0:0:0:0:
256,192,36073,1,0,0:0:0:0:
36,192,36230,1,0,0:0:0:0:
109,192,36309,1,0,0:0:0:0:
182,192,36388,1,2,0:0:0:0:
475,192,36388,128,8,36546:0:0:0:0:
402,192,36388,1,0,0:0:0:0:
329,192,36388,128,0,36546:0:0:0:0:
182,192,36546,1,0,0:0:0:0:
36,192,36704,1,2,0:0:0:0:
182,192,36704,1,0,0:0:0:0:
475,192,36704,1,0,0:0:0:0:
475,192,36862,1,0,0:0:0:0:
402,192,36941,1,0,0:0:0:0:
329,192,37020,1,2,0:0:0:0:
109,192,37020,1,8,0:0:0:0:
182,192,37020,128,0,37178:0:0:0:0:
36,192,37020,128,0,37178:0:0:0:0:
329,192,37178,1,0,0:0:0:0:
402,192,37257,1,0,0:0:0:0:
475,192,37336,1,2,0:0:0:0:
182,192,37336,1,0,0:0:0:0:
36,192,37336,1,0,0:0:0:0:
182,192,37494,1,0,0:0:0:0:
256,192,37546,1,0,0:0:0:0:
329,192,37599,1,0,0:0:0:0:
36,192,37651,1,2,0:0:0:0:
402,192,37651,128,8,37809:0:0:0:0:
475,192,37651,128,0,37809:0:0:0:0:
36,192,37809,1,0,0:0:0:0:
329,192,37967,1,2,0:0:0:0:
182,192,37967,1,0,0:0:0:0:
36,192,37967,1,0,0:0:0:0:
402,192,38046,1,0,0:0:0:0:
475,192,38125,1,0,0:0:0:0:
36,192,38283,128,8,38441:0:0:0:0:
109,192,38283,128,2,38441:0:0:0:0:
182,192,38283,1,0,0:0:0:0:
329,192,38283,1,0,0:0:0:0:
402,192,38362,1,0,0:0:0:0:
475,192,38441,1,0,0:0:0:0:
402,192,38494,1,0,0:0:0:0:
329,192,38546,1,0,0:0:0:0:
256,192,38599,1,2,0:0:0:0:
109,192,38599,1,0,0:0:0:0:
36,192,38599,1,0,0:0:0:0:
182,192,38757,1,0,0:0:0:0:
329,192,38757,1,0,0:0:0:0:
329,192,38836,1,0,0:0:0:0:
182,192,38836,1,0,0:0:0:0:
256,192,38915,1,2,0:0:0:0:
475,192,38915,1,8,0:0:0:0:
109,192,38915,1,0,0:0:0:0:
36,192,38915,1,0,0:0:0:0:
109,192,39073,1,2,0:0:0:0:
36,192,39073,1,0,0:0:0:0:
256,192,39073,1,0,0:0:0:0:
475,192,39230,1,2,0:0:0:0:
182,192,39230,1,0,0:0:0:0:
329,192,39230,1,0,0:0:0:0:
475,192,39388,1,0,0:0:0:0:
402,192,39467,1,0,0:0:0:0:
109,192,39546,1,2,0:0:0:0:
329,192,39546,1,8,0:0:0:0:
182,192,39546,128,0,39704:0:0:0:0:
36,192,39546,128,0,39704:0:0:0:0:
329,192,39704,1,0,0:0:0:0:
402,192,39783,1,0,0:0:0:0:
475,192,39862,1,2,0:0:0:0:
256,192,39862,1,0,0:0:0:0:
36,192,39862,1,0,0:0:0:0:
256,192,40020,1,0,0:0:0:0:
182,192,40073,1,0,0:0:0:0:
109,192,40125,1,0,0:0:0:0:
36,192,40178,1,2,0:0:0:0:
402,192,40178,128,8,40336:0:0:0:0:
475,192,40178,128,0,40336:0:0:0:0:
329,192,40178,1,0,0:0:0:0:
182,192,40336,1,0,0:0:0:0:
256,192,40494,1,2,0:0:0:0:
36,192,40494,1,0,0:0:0:0:
475,192,40494,1,0,0:0:0:0:
402,192,40573,1,0,0:0:0:0:
329,192,40651,1,0,0:0:0:0:
109,192,40809,1,2,0:0:0:0:
36,192,40809,1,8,0:0:0:0:
329,192,40809,128,0,40967:0:0:0:0:
475,192,40809,128,0,40967:0:0:0:0:
182,192,40888,1,0,0:0:0:0:
256,192,40967,1,0,0:0:0:0:
182,192,41020,1,0,0:0:0:0:
109,192,41073,1,0,0:0:0:0:
36,192,41125,1,2,0:0:0:0:
329,192,41125,1,0,0:0:0:0:
475,192,41125,1,0,0:0:0:0:
256,192,41204,1,0,0:0:0:0:
182,192,41283,1,0,0:0:0:0:
329,192,41362,1,0,0:0:0:0:
475,192,41441,1,2,0:0:0:0:
109,192,41441,1,8,0:0:0:0:
182,192,41441,128,0,41599:0:0:0:0:
36,192,41441,128,0,41599:0:0:0:0:
402,192,41520,1,0,0:0:0:0:
329,192,41599,1,0,0:0:0:0:
256,192,41678,1,0,0:0:0:0:
182,192,41757,1,2,0:0:0:0:
36,192,41757,1,0,0:0:0:0:
475,192,41757,1,0,0:0:0:0:
36,192,41915,1,0,0:0:0:0:
109,192,41994,1,0,0:0:0:0:
182,192,42073,1,2,0:0:0:0:
329,192,42073,1,8,0:0:0:0:
402,192,42073,128,0,42230:0:0:0:0:
475,192,42073,128,0,42230:0:0:0:0:
182,192,42230,1,0,0:0:0:0:
109,192,42309,1,0,0:0:0:0:
36,192,42388,1,2,0:0:0:0:
256,192,42388,1,0,0:0:0:0:
475,192,42388,1,0,0:0:0:0:
256,192,42546,1,0,0:0:0:0:
329,192,42599,1,0,0:0:0:0:
402,192,42651,1,0,0:0:0:0:
475,192,42704,1,2,0:0:0:0:
182,192,42704,1,8,0:0:0:0:
36,192,42704,128,0,42862:0:0:0:0:
109,192,42704,128,0,42862:0:0:0:0:
402,192,42862,1,0,0:0:0:0:
182,192,43020,1,2,0:0:0:0:
329,192,43020,1,0,0:0:0:0:
36,192,43020,1,0,0:0:0:0:
329,192,43178,1,2,0:0:0:0:
182,192,43178,1,0,0:0:0:0:
36,192,43178,1,0,0:0:0:0:
36,192,43336,1,2,0:0:0:0:
182,192,43336,1,8,0:0:0:0:
475,192,43336,1,0,0:0:0:0:
402,192,43336,1,0,0:0:0:0:
329,192,43415,1,0,0:0:0:0:
256,192,43494,1,0,0:0:0:0:
109,192,43494,1,0,0:0:0:0:
329,192,43546,1,0,0:0:0:0:
402,192,43599,1,0,0:0:0:0:
475,192,43651,1,2,0:0:0:0:
182,192,43651,1,0,0:0:0:0:
36,192,43651,1,0,0:0:0:0:
402,192,43730,1,0,0:0:0:0:
329,192,43809,1,0,0:0:0:0:
109,192,43888,1,2,0:0:0:0:
256,192,43888,1,0,0:0:0:0:
36,192,43888,1,0,0:0:0:0:
402,192,43967,1,2,0:0:0:0:
182,192,43967,1,8,0:0:0:0:
475,192,43967,1,0,0:0:0:0:
402,192,44125,1,2,0:0:0:0:
182,192,44125,1,0,0:0:0:0:
475,192,44125,1,0,0:0:0:0:
256,192,44283,128,2,44362:0:0:0:0:
329,192,44283,128,4,44362:0:0:0:0:
475,192,44283,1,0,0:0:0:0:
36,192,44283,1,0,0:0:0:0:
109,192,44283,1,0,0:0:0:0:
402,192,44441,128,2,44520:0:0:0:0:
329,192,44441,128,0,44520:0:0:0:0:
36,192,44441,1,0,0:0:0:0:
109,192,44441,1,0,0:0:0:0:
402,192,44599,128,2,44757:0:0:0:0:
475,192,44599,128,8,44757:0:0:0:0:
36,192,44599,1,0,0:0:0:0:
182,192,44599,1,0,0:0:0:0:
182,192,44757,1,0,0:0:0:0:
256,192,44836,1,0,0:0:0:0:
329,192,44915,1,2,0:0:0:0:
475,192,44915,1,0,0:0:0:0:
36,192,44915,128,0,45073:0:0:0:0:
109,192,44915,128,0,45073:0:0:0:0:
329,192,45073,1,0,0:0:0:0:
402,192,45151,1,0,0:0:0:0:
109,192,45151,1,0,0:0:0:0:
36,192,45151,1,0,0:0:0:0:
475,192,45230,1,8,0:0:0:0:
182,192,45230,1,2,0:0:0:0:
256,192,45230,1,0,0:0:0:0:
182,192,45388,1,0,0:0:0:0:
109,192,45388,1,0,0:0:0:0:
402,192,45388,1,0,0:0:0:0:
475,192,45546,1,2,0:0:0:0:
329,192,45546,1,0,0:0:0:0:
109,192,45546,128,0,45625:0:0:0:0:
36,192,45546,128,0,45625:0:0:0:0:
329,192,45704,1,0,0:0:0:0:
182,192,45704,128,0,45783:0:0:0:0:
109,192,45704,128,0,45783:0:0:0:0:
475,192,45862,1,2,0:0:0:0:
36,192,45862,1,8,0:0:0:0:
182,192,45862,128,0,46020:0:0:0:0:
256,192,45862,128,0,46020:0:0:0:0:
475,192,46020,1,0,0:0:0:0:
402,192,46073,1,0,0:0:0:0:
329,192,46125,1,0,0:0:0:0:
256,192,46178,1,2,0:0:0:0:
475,192,46178,1,0,0:0:0:0:
109,192,46178,128,0,46336:0:0:0:0:
36,192,46178,128,0,46336:0:0:0:0:
256,192,46336,1,0,0:0:0:0:
36,192,46415,1,0,0:0:0:0:
109,192,46415,1,0,0:0:0:0:
329,192,46415,1,0,0:0:0:0:
475,192,46494,1,2,0:0:0:0:
182,192,46494,1,8,0:0:0:0:
402,192,46494,1,0,0:0:0:0:
329,192,46651,1,0,0:0:0:0:
182,192,46651,1,0,0:0:0:0:
36,192,46651,1,0,0:0:0:0:
256,192,46809,1,2,0:0:0:0:
109,192,46809,1,0,0:0:0:0:
402,192,46809,128,0,46888:0:0:0:0:
475,192,46809,128,0,46888:0:0:0:0:
182,192,46967,1,0,0:0:0:0:
402,192,46967,128,0,47046:0:0:0:0:
329,192,46967,128,0,47046:0:0:0:0:
36,192,47125,1,2,0:0:0:0:
109,192,47125,1,8,0:0:0:0:
329,192,47125,128,0,47283:0:0:0:0:
256,192,47125,128,0,47283:0:0:0:0:
475,192,47283,1,0,0:0:0:0:
402,192,47362,1,0,0:0:0:0:
36,192,47441,1,2,0:0:0:0:
109,192,47441,1,0,0:0:0:0:
182,192,47441,128,0,47599:0:0:0:0:
329,192,47441,128,0,47599:0:0:0:0:
475,192,47599,1,0,0:0:0:0:
36,192,47678,1,0,0:0:0:0:
329,192,47678,1,0,0:0:0:0:
182,192,47678,1,0,0:0:0:0:
256,192,47757,1,2,0:0:0:0:
402,192,47757,1,8,0:0:0:0:
475,192,47757,1,0,0:0:0:0:
36,192,47915,1,0,0:0:0:0:
182,192,47915,1,0,0:0:0:0:
329,192,47915,1,0,0:0:0:0:
36,192,48073,1,2,0:0:0:0:
475,192,48073,1,0,0:0:0:0:
182,192,48073,128,0,48151:0:0:0:0:
256,192,48073,128,0,48151:0:0:0:0:
402,192,48230,1,0,0:0:0:0:
182,192,48230,128,0,48309:0:0:0:0:
109,192,48230,128,0,48309:0:0:0:0:
329,192,48388,1,2,0:0:0:0:
475,192,48388,1,8,0:0:0:0:
36,192,48388,128,0,48546:0:0:0:0:
109,192,48388,128,0,48546:0:0:0:0:
475,192,48546,1,0,0:0:0:0:
402,192,48599,1,0,0:0:0:0:
329,192,48651,1,0,0:0:0:0:
109,192,48704,1,2,0:0:0:0:
36,192,48704,1,0,0:0:0:0:
256,192,48704,128,0,48862:0:0:0:0:
182,192,48704,128,0,48862:0:0:0:0:
475,192,48862,1,0,0:0:0:0:
402,192,48941,1,0,0:0:0:0:
182,192,48941,1,0,0:0:0:0:
256,192,48941,1,0,0:0:0:0:
329,192,49020,1,2,0:0:0:0:
109,192,49020,1,8,0:0:0:0:
36,192,49020,1,0,0:0:0:0:
109,192,49178,1,2,0:0:0:0:
329,192,49178,1,0,0:0:0:0:
475,192,49178,1,0,0:0:0:0:
36,192,49178,1,0,0:0:0:0:
475,192,49336,1,2,0:0:0:0:
182,192,49336,1,0,0:0:0:0:
329,192,49336,128,0,49415:0:0:0:0:
36,192,49336,128,0,49415:0:0:0:0:
109,192,49494,128,0,49573:0:0:0:0:
402,192,49494,128,0,49573:0:0:0:0:
256,192,49494,1,0,0:0:0:0:
329,192,49651,1,2,0:0:0:0:
36,192,49651,1,8,0:0:0:0:
182,192,49651,128,0,49809:0:0:0:0:
475,192,49651,128,0,49809:0:0:0:0:
329,192,49809,1,0,0:0:0:0:
256,192,49888,1,0,0:0:0:0:
182,192,49967,1,2,0:0:0:0:
36,192,49967,1,0,0:0:0:0:
402,192,49967,128,0,50125:0:0:0:0:
475,192,49967,128,0,50125:0:0:0:0:
109,192,50125,1,0,0:0:0:0:
402,192,50204,1,0,0:0:0:0:
475,192,50204,1,0,0:0:0:0:
256,192,50204,1,0,0:0:0:0:
182,192,50283,1,2,0:0:0:0:
36,192,50283,1,8,0:0:0:0:
329,192,50283,1,0,0:0:0:0:
402,192,50441,1,0,0:0:0:0:
256,192,50441,1,0,0:0:0:0:
475,192,50441,1,0,0:0:0:0:
329,192,50599,1,2,0:0:0:0:
36,192,50599,1,0,0:0:0:0:
475,192,50599,128,0,50678:0:0:0:0:
182,192,50599,128,0,50678:0:0:0:0:
256,192,50757,1,0,0:0:0:0:
109,192,50757,128,0,50836:0:0:0:0:
402,192,50757,128,0,50836:0:0:0:0:
182,192,50915,1,8,0:0:0:0:
36,192,50915,128,2,51073:0:0:0:0:
329,192,50915,128,0,51073:0:0:0:0:
475,192,50915,1,0,0:0:0:0:
182,192,51073,1,0,0:0:0:0:
256,192,51125,1,0,0:0:0:0:
329,192,51178,1,0,0:0:0:0:
475,192,51230,1,2,0:0:0:0:
402,192,51230,1,0,0:0:0:0:
109,192,51230,128,0,51388:0:0:0:0:
36,192,51230,128,0,51388:0:0:0:0:
256,192,51388,1,0,0:0:0:0:
109,192,51467,1,0,0:0:0:0:
36,192,51467,1,0,0:0:0:0:
329,192,51467,1,0,0:0:0:0:
182,192,51546,1,2,0:0:0:0:
402,192,51546,1,8,0:0:0:0:
475,192,51546,1,0,0:0:0:0:
329,192,51704,1,0,0:0:0:0:
182,192,51704,1,0,0:0:0:0:
36,192,51704,1,0,0:0:0:0:
36,192,51862,1,2,0:0:0:0:
109,192,51862,1,0,0:0:0:0:
256,192,51862,128,0,51941:0:0:0:0:
329,192,51862,128,0,51941:0:0:0:0:
36,192,52020,1,2,0:0:0:0:
329,192,52020,128,0,52099:0:0:0:0:
402,192,52020,128,0,52099:0:0:0:0:
109,192,52020,1,0,0:0:0:0:
36,192,52178,1,2,0:0:0:0:
182,192,52178,1,8,0:0:0:0:
475,192,52178,128,0,52336:0:0:0:0:
402,192,52178,128,0,52336:0:0:0:0:
36,192,52336,1,2,0:0:0:0:
182,192,52336,1,0,0:0:0:0:
256,192,52415,1,0,0:0:0:0:
475,192,52494,1,2,0:0:0:0:
329,192,52494,1,0,0:0:0:0:
109,192,52494,128,0,52651:0:0:0:0:
36,192,52494,128,0,52651:0:0:0:0:
329,192,52651,1,2,0:0:0:0:
475,192,52651,1,0,0:0:0:0:
256,192,52730,1,0,0:0:0:0:
109,192,52730,1,0,0:0:0:0:
36,192,52730,1,0,0:0:0:0:
402,192,52809,1,8,0:0:0:0:
182,192,52809,1,2,0:0:0:0:
475,192,52809,1,0,0:0:0:0:
182,192,52967,1,2,0:0:0:0:
329,192,52967,1,0,0:0:0:0:
402,192,52967,1,0,0:0:0:0:
36,192,52967,1,0,0:0:0:0:
36,192,53125,1,2,0:0:0:0:
256,192,53125,1,0,0:0:0:0:
475,192,53125,1,0,0:0:0:0:
329,192,53125,1,0,0:0:0:0:
109,192,53204,1,2,0:0:0:0:
182,192,53204,1,0,0:0:0:0:
329,192,53283,1,2,0:0:0:0:
402,192,53283,1,0,0:0:0:0:
256,192,53362,1,2,0:0:0:0:
182,192,53362,1,0,0:0:0:0:
109,192,53441,1,2,0:0:0:0:
475,192,53441,1,8,0:0:0:0:
402,192,53441,1,0,0:0:0:0:
36,192,53441,1,0,0:0:0:0:
256,192,53520,1,2,0:0:0:0:
329,192,53520,1,0,0:0:0:0:
109,192,53599,1,2,0:0:0:0:
182,192,53599,1,0,0:0:0:0:
256,192,53678,1,2,0:0:0:0:
329,192,53678,1,0,0:0:0:0:
36,192,53757,1,2,0:0:0:0:
475,192,53757,1,0,0:0:0:0:
402,192,53757,1,0,0:0:0:0:
109,192,53757,1,0,0:0:0:0:
182,192,53796,1,2,0:0:0:0:
256,192,53836,1,2,0:0:0:0:
329,192,53875,1,2,0:0:0:0:
402,192,53915,1,2,0:0:0:0:
109,192,53915,1,0,0:0:0:0:
329,192,53994,1,2,0:0:0:0:
182,192,53994,1,0,0:0:0:0:
475,192,54073,1,2,0:0:0:0:
36,192,54073,1,8,0:0:0:0:
256,192,54073,1,0,0:0:0:0:
402,192,54151,1,2,0:0:0:0:
109,192,54151,1,0,0:0:0:0:
182,192,54230,1,2,0:0:0:0:
329,192,54230,1,0,0:0:0:0:
109,192,54309,1,2,0:0:0:0:
402,192,54309,1,0,0:0:0:0:
36,192,54388,128,0,54625:0:0:0:0:
475,192,54388,128,0,54625:0:0:0:0:
256,192,54388,128,0,54625:0:0:0:0:
329,192,54704,1,2,0:0:0:0:
36,192,54704,1,4,0:0:0:0:
182,192,54704,1,8,0:0:0:0:
475,192,54704,1,0,0:0:0:0:
329,192,54862,1,0,0:0:0:0:
182,192,55020,1,0,0:0:0:0:
329,192,55178,1,0,0:0:0:0:
475,192,55336,1,0,0:0:0:0:
329,192,55494,1,0,0:0:0:0:
182,192,55651,1,0,0:0:0:0:
36,192,55809,1,0,0:0:0:0:
182,192,55967,1,0,0:0:0:0:
36,192,56125,1,0,0:0:0:0:
109,192,56283,1,0,0:0:0:0:
182,192,56441,1,0,0:0:0:0:
256,192,56599,1,0,0:0:0:0:
329,192,56757,1,0,0:0:0:0:
36,192,56757,1,0,0:0:0:0:
182,192,56836,1,0,0:0:0:0:
402,192,56915,1,0,0:0:0:0:
36,192,56915,1,0,0:0:0:0:
256,192,57073,1,0,0:0:0:0:
402,192,57230,1,0,0:0:0:0:
256,192,57388,1,0,0:0:0:0:
329,192,57546,1,0,0:0:0:0:
402,192,57704,1,0,0:0:0:0:
475,192,57862,1,0,0:0:0:0:
329,192,58020,1,0,0:0:0:0:
182,192,58178,1,8,0:0:0:0:
36,192,58178,1,0,0:0:0:0:
402,192,58336,1,0,0:0:0:0:
182,192,58494,1,8,0:0:0:0:
36,192,58494,1,0,0:0:0:0:
402,192,58651,1,0,0:0:0:0:
182,192,58809,1,8,0:0:0:0:
36,192,58809,1,0,0:0:0:0:
256,192,58967,1,2,0:0:0:0:
36,192,58967,1,0,0:0:0:0:
475,192,58967,1,0,0:0:0:0:
109,192,59046,1,2,0:0:0:0:
402,192,59046,1,0,0:0:0:0:
182,192,59125,128,8,59362:0:0:0:0:
329,192,59125,128,4,59362:0:0:0:0:
182,192,59441,1,2,0:0:0:0:
36,192,59441,1,4,0:0:0:0:
329,192,59441,128,0,59520:0:0:0:0:
475,192,59441,128,0,59520:0:0:0:0:
329,192,59599,128,0,59678:0:0:0:0:
475,192,59599,128,0,59678:0:0:0:0:
182,192,59757,128,2,59836:0:0:0:0:
36,192,59757,128,8,59836:0:0:0:0:
36,192,59915,128,8,59994:0:0:0:0:
182,192,59915,128,0,59994:0:0:0:0:
256,192,60073,1,2,0:0:0:0:
402,192,60073,128,8,60151:0:0:0:0:
475,192,60073,128,0,60151:0:0:0:0:
182,192,60230,1,8,0:0:0:0:
402,192,60230,128,0,60309:0:0:0:0:
329,192,60230,128,0,60309:0:0:0:0:
109,192,60388,1,2,0:0:0:0:
329,192,60388,128,8,60467:0:0:0:0:
256,192,60388,128,0,60467:0:0:0:0:
36,192,60546,1,8,0:0:0:0:
182,192,60546,128,0,60625:0:0:0:0:
256,192,60546,128,0,60625:0:0:0:0:
402,192,60704,1,2,0:0:0:0:
109,192,60704,128,8,60783:0:0:0:0:
182,192,60704,128,0,60783:0:0:0:0:
402,192,60862,1,8,0:0:0:0:
182,192,60862,128,0,60941:0:0:0:0:
109,192,60862,128,0,60941:0:0:0:0:
109,192,61020,1,2,0:0:0:0:
402,192,61020,128,8,61099:0:0:0:0:
329,192,61020,128,0,61099:0:0:0:0:
109,192,61178,1,8,0:0:0:0:
329,192,61178,128,0,61257:0:0:0:0:
402,192,61178,128,0,61257:0:0:0:0:
329,192,61336,1,8,0:0:0:0:
36,192,61336,128,2,61415:0:0:0:0:
182,192,61336,128,0,61415:0:0:0:0:
402,192,61494,1,8,0:0:0:0:
256,192,61494,128,2,61573:0:0:0:0:
109,192,61494,128,0,61573:0:0:0:0:
475,192,61651,1,8,0:0:0:0:
329,192,61651,128,2,61730:0:0:0:0:
182,192,61651,128,0,61730:0:0:0:0:
36,192,61809,1,2,0:0:0:0:
256,192,61809,128,8,61888:0:0:0:0:
402,192,61809,128,0,61888:0:0:0:0:
36,192,61967,1,2,0:0:0:0:
329,192,61967,1,0,0:0:0:0:
475,192,61967,1,0,0:0:0:0:
182,192,61967,1,0,0:0:0:0:
109,192,62125,1,8,0:0:0:0:
256,192,62125,1,4,0:0:0:0:
402,192,62125,1,2,0:0:0:0:
475,192,62125,1,0,0:0:0:0:
36,192,62125,1,0,0:0:0:0:
109,192,62362,1,8,0:0:0:0:
182,192,62362,1,0,0:0:0:0:
329,192,62362,1,0,0:0:0:0:
402,192,62362,1,0,0:0:0:0:
256,192,62599,1,8,0:0:0:0:
402,192,62599,1,4,0:0:0:0:
475,192,62599,1,2,0:0:0:0:
109,192,62599,1,0,0:0:0:0:
36,192,62599,1,0,0:0:0:0:
475,192,62757,1,2,0:0:0:0:
36,192,62757,1,0,0:0:0:0:
329,192,62836,1,8,0:0:0:0:
402,192,62836,1,4,0:0:0:0:
182,192,62836,1,2,0:0:0:0:
109,192,62836,1,0,0:0:0:0:
329,192,62994,1,2,0:0:0:0:
182,192,62994,1,0,0:0:0:0:
256,192,63073,1,2,0:0:0:0:
402,192,63073,1,8,0:0:0:0:
475,192,63073,1,4,0:0:0:0:
109,192,63073,1,0,0:0:0:0:
36,192,63073,1,0,0:0:0:0:
475,192,63230,1,2,0:0:0:0:
36,192,63230,1,0,0:0:0:0:
182,192,63309,1,8,0:0:0:0:
109,192,63309,1,2,0:0:0:0:
329,192,63309,1,4,0:0:0:0:
402,192,63309,1,0,0:0:0:0:
109,192,63467,1,2,0:0:0:0:
402,192,63467,1,0,0:0:0:0:
329,192,63546,1,8,0:0:0:0:
475,192,63546,1,4,0:0:0:0:
182,192,63546,1,2,0:0:0:0:
36,192,63546,1,0,0:0:0:0:
256,192,63546,1,0,0:0:0:0:
182,192,63704,1,2,0:0:0:0:
329,192,63704,1,0,0:0:0:0:
36,192,63783,1,8,0:0:0:0:
109,192,63783,1,4,0:0:0:0:
402,192,63783,1,2,0:0:0:0:
475,192,63783,1,0,0:0:0:0:
109,192,63941,1,2,0:0:0:0:
402,192,63941,1,0,0:0:0:0:
329,192,64020,1,8,0:0:0:0:
256,192,64020,1,4,0:0:0:0:
475,192,64020,1,2,0:0:0:0:
36,192,64020,1,0,0:0:0:0:
182,192,64020,1,0,0:0:0:0:
329,192,64178,1,2,0:0:0:0:
475,192,64178,1,4,0:0:0:0:
182,192,64178,1,8,0:0:0:0:
36,192,64178,1,0,0:0:0:0:
109,192,64336,1,2,0:0:0:0:
182,192,64336,1,8,0:0:0:0:
402,192,64336,1,4,0:0:0:0:
329,192,64336,1,0,0:0:0:0:
256,192,64494,1,8,0:0:0:0:
402,192,64494,1,2,0:0:0:0:
109,192,64494,1,4,0:0:0:0:
36,192,64494,1,0,0:0:0:0:
475,192,64494,1,0,0:0:0:0:
402,192,64967,1,0,0:0:0:0:
109,192,64967,1,0,0:0:0:0:
402,192,65125,128,0,65283:0:0:0:0:
109,192,65125,128,0,65283:0:0:0:0:
402,192,65441,128,0,65599:0:0:0:0:
109,192,65441,128,0,65599:0:0:0:0:
329,192,65757,1,8,0:0:0:0:
182,192,65757,1,4,0:0:0:0:
36,192,65757,1,0,0:0:0:0:
475,192,65757,1,0,0:0:0:0:
182,192,65915,1,2,0:0:0:0:
329,192,65915,1,0,0:0:0:0:
329,192,65994,1,2,0:0:0:0:
182,192,65994,1,0,0:0:0:0:
402,192,66073,1,8,0:0:0:0:
475,192,66073,1,4,0:0:0:0:
36,192,66073,1,0,0:0:0:0:
109,192,66073,1,0,0:0:0:0:
329,192,66230,1,2,0:0:0:0:
182,192,66230,1,0,0:0:0:0:
475,192,66309,1,2,0:0:0:0:
402,192,66309,1,0,0:0:0:0:
109,192,66388,1,8,0:0:0:0:
36,192,66388,1,4,0:0:0:0:
182,192,66388,1,0,0:0:0:0:
329,192,66388,1,0,0:0:0:0:
256,192,66546,1,0,0:0:0:0:
475,192,66704,1,2,0:0:0:0:
182,192,66704,1,8,0:0:0:0:
329,192,66704,1,4,0:0:0:0:
36,192,66704,1,0,0:0:0:0:
182,192,66862,1,0,0:0:0:0:
256,192,66941,1,0,0:0:0:0:
329,192,67020,1,0,0:0:0:0:
36,192,67020,1,0,0:0:0:0:
36,192,67178,1,0,0:0:0:0:
329,192,67178,1,0,0:0:0:0:
402,192,67257,1,0,0:0:0:0:
182,192,67336,1,0,0:0:0:0:
475,192,67336,128,0,67415:0:0:0:0:
182,192,67494,1,0,0:0:0:0:
402,192,67494,128,0,67573:0:0:0:0:
36,192,67651,1,0,0:0:0:0:
329,192,67651,128,0,67730:0:0:0:0:
36,192,67809,1,0,0:0:0:0:
329,192,67809,128,0,67967:0:0:0:0:
182,192,67967,1,0,0:0:0:0:
182,192,68125,1,0,0:0:0:0:
475,192,68125,1,0,0:0:0:0:
109,192,68204,1,0,0:0:0:0:
329,192,68283,1,0,0:0:0:0:
36,192,68283,1,0,0:0:0:0:
329,192,68441,1,0,0:0:0:0:
182,192,68441,1,0,0:0:0:0:
109,192,68520,1,0,0:0:0:0:
475,192,68599,1,0,0:0:0:0:
36,192,68599,128,0,68678:0:0:0:0:
475,192,68757,1,0,0:0:0:0:
109,192,68757,128,0,68836:0:0:0:0:
329,192,68915,1,0,0:0:0:0:
182,192,68915,128,0,69230:0:0:0:0:
329,192,69073,1,0,0:0:0:0:
475,192,69230,1,0,0:0:0:0:
475,192,69388,1,0,0:0:0:0:
36,192,69388,1,0,0:0:0:0:
182,192,69467,1,0,0:0:0:0:
329,192,69546,1,0,0:0:0:0:
329,192,69704,1,0,0:0:0:0:
182,192,69704,1,0,0:0:0:0:
109,192,69783,1,0,0:0:0:0:
402,192,69862,1,0,0:0:0:0:
36,192,69862,128,0,69941:0:0:0:0:
402,192,70020,1,0,0:0:0:0:
109,192,70020,128,0,70099:0:0:0:0:
475,192,70178,1,0,0:0:0:0:
182,192,70178,128,0,70257:0:0:0:0:
475,192,70336,1,0,0:0:0:0:
256,192,70336,128,0,70415:0:0:0:0:
36,192,70494,1,0,0:0:0:0:
329,192,70494,128,0,70573:0:0:0:0:
36,192,70651,1,0,0:0:0:0:
402,192,70651,128,0,70730:0:0:0:0:
109,192,70809,1,0,0:0:0:0:
475,192,70809,128,0,70888:0:0:0:0:
109,192,70967,1,0,0:0:0:0:
329,192,70967,128,0,71046:0:0:0:0:
182,192,71125,1,0,0:0:0:0:
475,192,71125,128,0,71204:0:0:0:0:
182,192,71283,1,0,0:0:0:0:
329,192,71283,128,0,71362:0:0:0:0:
475,192,71441,1,0,0:0:0:0:
36,192,71441,128,0,71599:0:0:0:0:
475,192,71599,1,0,0:0:0:0:
329,192,71757,1,0,0:0:0:0:
109,192,71757,128,0,71915:0:0:0:0:
329,192,71915,1,0,0:0:0:0:
475,192,72073,1,0,0:0:0:0:
182,192,72073,128,0,72230:0:0:0:0:
475,192,72230,1,0,0:0:0:0:
36,192,72230,128,0,72309:0:0:0:0:
329,192,72388,1,0,0:0:0:0:
36,192,72388,128,0,72467:0:0:0:0:
329,192,72546,1,0,0:0:0:0:
36,192,72546,1,0,0:0:0:0:
109,192,72625,1,0,0:0:0:0:
475,192,72704,1,0,0:0:0:0:
182,192,72704,128,0,72783:0:0:0:0:
475,192,72862,1,0,0:0:0:0:
109,192,72862,128,0,72941:0:0:0:0:
36,192,73020,128,0,73099:0:0:0:0:
329,192,73020,1,0,0:0:0:0:
329,192,73178,1,0,0:0:0:0:
182,192,73178,128,0,73257:0:0:0:0:
329,192,73336,128,0,73415:0:0:0:0:
36,192,73336,1,0,0:0:0:0:
36,192,73494,1,0,0:0:0:0:
329,192,73494,1,0,0:0:0:0:
475,192,73573,1,0,0:0:0:0:
329,192,73651,128,0,73730:0:0:0:0:
182,192,73651,1,0,0:0:0:0:
402,192,73809,128,0,73888:0:0:0:0:
182,192,73809,1,0,0:0:0:0:
475,192,73967,128,0,74046:0:0:0:0:
36,192,73967,1,0,0:0:0:0:
36,192,74125,1,0,0:0:0:0:
329,192,74125,128,0,74204:0:0:0:0:
182,192,74283,128,0,74362:0:0:0:0:
475,192,74283,1,0,0:0:0:0:
36,192,74441,128,0,74520:0:0:0:0:
475,192,74441,1,0,0:0:0:0:
182,192,74599,1,0,0:0:0:0:
36,192,74599,128,0,75882:0:0:0:0:
475,192,74599,128,0,75882:0:0:0:0:
329,192,74678,1,0,0:0:0:0:
182,192,74757,1,0,0:0:0:0:
329,192,74836,1,0,0:0:0:0:
182,192,74915,1,0,0:0:0:0:
329,192,74998,1,0,0:0:0:0:
182,192,75081,1,0,0:0:0:0:
329,192,75165,1,0,0:0:0:0:
402,192,75248,128,0,75882:0:0:0:0:
109,192,75249,128,0,75882:0:0:0:0:
182,192,75249,1,0,0:0:0:0:
329,192,75337,1,0,0:0:0:0:
182,192,75425,1,0,0:0:0:0:
329,192,75513,1,0,0:0:0:0:
182,192,75601,1,0,0:0:0:0:
329,192,75694,1,0,0:0:0:0:
182,192,75788,1,0,0:0:0:0:
329,192,75882,1,0,0:0:0:0:
36,192,75976,128,0,76805:0:0:0:0:
109,192,75976,1,0,0:0:0:0:
475,192,75976,128,0,76805:0:0:0:0:
256,192,75976,1,0,0:0:0:0:
402,192,76077,1,0,0:0:0:0:
109,192,76177,1,0,0:0:0:0:
256,192,76177,1,0,0:0:0:0:
402,192,76277,1,0,0:0:0:0:
109,192,76377,1,0,0:0:0:0:
256,192,76377,1,0,0:0:0:0:
402,192,76484,1,0,0:0:0:0:
109,192,76591,1,0,0:0:0:0:
256,192,76591,1,0,0:0:0:0:
402,192,76698,1,0,0:0:0:0:
256,192,76805,128,0,76921:0:0:0:0:
109,192,76806,128,0,76921:0:0:0:0:
182,192,77036,128,0,77152:0:0:0:0:
329,192,77036,128,0,77152:0:0:0:0:
256,192,77267,128,0,77392:0:0:0:0:
402,192,77267,128,0,77392:0:0:0:0:
329,192,77517,128,0,77642:0:0:0:0:
475,192,77517,128,0,77642:0:0:0:0:
475,192,77769,1,2,0:0:0:0:
182,192,77769,1,4,0:0:0:0:
329,192,77769,1,0,0:0:0:0:
109,192,77769,1,0,0:0:0:0:
36,192,77769,1,0,0:0:0:0:
182,192,77926,1,2,0:0:0:0:
329,192,77926,1,0,0:0:0:0:
402,192,78005,1,0,0:0:0:0:
256,192,78005,1,0,0:0:0:0:
109,192,78084,1,8,0:0:0:0:
36,192,78084,1,0,0:0:0:0:
329,192,78084,128,0,78163:0:0:0:0:
475,192,78084,128,0,78163:0:0:0:0:
402,192,78242,128,0,78321:0:0:0:0:
256,192,78242,128,0,78321:0:0:0:0:
329,192,78400,128,2,78479:0:0:0:0:
36,192,78400,1,0,0:0:0:0:
182,192,78400,128,0,78479:0:0:0:0:
329,192,78558,128,2,78874:0:0:0:0:
475,192,78558,128,0,78874:0:0:0:0:
36,192,78558,1,0,0:0:0:0:
36,192,78716,1,8,0:0:0:0:
182,192,78716,1,0,0:0:0:0:
36,192,78874,1,2,0:0:0:0:
182,192,78874,1,0,0:0:0:0:
256,192,78953,1,0,0:0:0:0:
109,192,78953,1,0,0:0:0:0:
329,192,79032,1,0,0:0:0:0:
182,192,79032,1,0,0:0:0:0:
182,192,79190,1,2,0:0:0:0:
329,192,79190,1,0,0:0:0:0:
402,192,79269,1,0,0:0:0:0:
256,192,79269,1,0,0:0:0:0:
36,192,79347,1,0,0:0:0:0:
109,192,79347,1,0,0:0:0:0:
329,192,79347,128,0,79426:0:0:0:0:
475,192,79347,128,8,79426:0:0:0:0:
402,192,79505,128,0,79584:0:0:0:0:
256,192,79505,128,0,79584:0:0:0:0:
182,192,79663,128,0,79979:0:0:0:0:
329,192,79663,128,0,79979:0:0:0:0:
36,192,79663,1,2,0:0:0:0:
36,192,79821,1,2,0:0:0:0:
36,192,79979,1,8,0:0:0:0:
475,192,79979,1,0,0:0:0:0:
36,192,80137,1,0,0:0:0:0:
329,192,80137,1,0,0:0:0:0:
256,192,80216,1,0,0:0:0:0:
109,192,80216,1,0,0:0:0:0:
182,192,80295,1,0,0:0:0:0:
402,192,80295,1,0,0:0:0:0:
475,192,80295,1,2,0:0:0:0:
329,192,80453,1,2,0:0:0:0:
182,192,80453,1,0,0:0:0:0:
402,192,80532,1,0,0:0:0:0:
256,192,80532,1,0,0:0:0:0:
109,192,80611,1,8,0:0:0:0:
36,192,80611,1,0,0:0:0:0:
475,192,80611,128,0,80690:0:0:0:0:
329,192,80611,128,0,80690:0:0:0:0:
329,192,80769,128,0,80847:0:0:0:0:
182,192,80769,128,0,80847:0:0:0:0:
475,192,80926,1,2,0:0:0:0:
182,192,80926,128,0,81005:0:0:0:0:
36,192,80926,128,0,81005:0:0:0:0:
256,192,81084,128,0,81163:0:0:0:0:
402,192,81084,1,2,0:0:0:0:
109,192,81084,128,0,81163:0:0:0:0:
329,192,81242,1,8,0:0:0:0:
36,192,81242,128,0,81321:0:0:0:0:
182,192,81242,128,0,81321:0:0:0:0:
475,192,81242,1,0,0:0:0:0:
36,192,81400,1,2,0:0:0:0:
182,192,81400,128,0,81479:0:0:0:0:
329,192,81400,128,0,81479:0:0:0:0:
329,192,81558,128,0,81637:0:0:0:0:
475,192,81558,128,0,81637:0:0:0:0:
256,192,81716,128,0,81795:0:0:0:0:
36,192,81716,1,2,0:0:0:0:
402,192,81716,128,0,81795:0:0:0:0:
475,192,81874,1,8,0:0:0:0:
329,192,81874,1,0,0:0:0:0:
182,192,81874,128,0,81953:0:0:0:0:
36,192,81874,128,0,81953:0:0:0:0:
109,192,82032,128,0,82111:0:0:0:0:
256,192,82032,128,0,82111:0:0:0:0:
182,192,82190,128,2,82505:0:0:0:0:
329,192,82190,128,0,82505:0:0:0:0:
475,192,82190,1,0,0:0:0:0:
475,192,82347,1,2,0:0:0:0:
475,192,82505,1,8,0:0:0:0:
36,192,82505,1,4,0:0:0:0:
109,192,82545,1,0,0:0:0:0:
256,192,82584,1,0,0:0:0:0:
329,192,82624,1,0,0:0:0:0:
109,192,82663,1,0,0:0:0:0:
182,192,82703,1,0,0:0:0:0:
329,192,82742,1,0,0:0:0:0:
402,192,82782,1,0,0:0:0:0:
36,192,82821,1,2,0:0:0:0:
109,192,82821,1,4,0:0:0:0:
182,192,82821,128,0,82900:0:0:0:0:
475,192,82821,128,0,82900:0:0:0:0:
182,192,82979,128,0,83058:0:0:0:0:
402,192,82979,128,0,83058:0:0:0:0:
475,192,83137,1,2,0:0:0:0:
36,192,83137,1,8,0:0:0:0:
182,192,83137,128,0,83216:0:0:0:0:
329,192,83137,128,0,83216:0:0:0:0:
182,192,83295,1,0,0:0:0:0:
329,192,83295,1,0,0:0:0:0:
109,192,83374,1,0,0:0:0:0:
402,192,83374,1,0,0:0:0:0:
475,192,83453,1,2,0:0:0:0:
36,192,83453,128,0,83532:0:0:0:0:
256,192,83453,128,0,83532:0:0:0:0:
182,192,83611,128,0,83690:0:0:0:0:
329,192,83611,128,0,83690:0:0:0:0:
475,192,83769,1,2,0:0:0:0:
329,192,83769,1,8,0:0:0:0:
36,192,83769,128,0,83847:0:0:0:0:
182,192,83769,128,0,83847:0:0:0:0:
182,192,83926,128,0,84005:0:0:0:0:
329,192,83926,128,0,84005:0:0:0:0:
36,192,84084,1,2,0:0:0:0:
329,192,84084,128,0,84163:0:0:0:0:
475,192,84084,128,0,84163:0:0:0:0:
182,192,84242,1,0,0:0:0:0:
329,192,84242,1,0,0:0:0:0:
256,192,84321,1,0,0:0:0:0:
109,192,84321,1,0,0:0:0:0:
475,192,84400,1,2,0:0:0:0:
402,192,84400,1,8,0:0:0:0:
36,192,84400,128,0,84479:0:0:0:0:
182,192,84400,128,0,84479:0:0:0:0:
109,192,84558,128,0,84637:0:0:0:0:
256,192,84558,128,0,84637:0:0:0:0:
475,192,84716,1,2,0:0:0:0:
182,192,84716,128,0,84795:0:0:0:0:
329,192,84716,128,0,84795:0:0:0:0:
182,192,84874,128,0,84953:0:0:0:0:
475,192,84874,128,0,84953:0:0:0:0:
182,192,85032,1,2,0:0:0:0:
329,192,85032,128,8,85111:0:0:0:0:
475,192,85032,1,0,0:0:0:0:
36,192,85032,128,0,85111:0:0:0:0:
402,192,85190,128,0,85269:0:0:0:0:
109,192,85190,128,0,85269:0:0:0:0:
182,192,85347,128,2,85663:0:0:0:0:
475,192,85347,128,0,85663:0:0:0:0:
329,192,85347,1,0,0:0:0:0:
329,192,85663,1,2,0:0:0:0:
36,192,85663,1,8,0:0:0:0:
182,192,85821,1,0,0:0:0:0:
329,192,85821,1,0,0:0:0:0:
109,192,85900,1,0,0:0:0:0:
256,192,85900,1,0,0:0:0:0:
182,192,85979,128,2,86058:0:0:0:0:
36,192,85979,128,0,86058:0:0:0:0:
402,192,85979,128,0,86058:0:0:0:0:
402,192,86137,128,0,86216:0:0:0:0:
256,192,86137,128,0,86216:0:0:0:0:
109,192,86137,128,0,86216:0:0:0:0:
329,192,86295,128,2,86374:0:0:0:0:
475,192,86295,128,8,86374:0:0:0:0:
182,192,86295,128,0,86374:0:0:0:0:
182,192,86453,128,0,86532:0:0:0:0:
36,192,86453,128,0,86532:0:0:0:0:
329,192,86453,128,0,86532:0:0:0:0:
182,192,86611,1,2,0:0:0:0:
329,192,86611,1,0,0:0:0:0:
475,192,86611,1,0,0:0:0:0:
36,192,86690,1,0,0:0:0:0:
109,192,86690,1,0,0:0:0:0:
329,192,86769,1,0,0:0:0:0:
182,192,86769,1,0,0:0:0:0:
475,192,86847,1,0,0:0:0:0:
402,192,86847,1,0,0:0:0:0:
256,192,86926,1,2,0:0:0:0:
109,192,86926,1,8,0:0:0:0:
36,192,86926,1,0,0:0:0:0:
182,192,87005,1,0,0:0:0:0:
329,192,87005,1,0,0:0:0:0:
256,192,87084,1,0,0:0:0:0:
402,192,87084,1,0,0:0:0:0:
475,192,87163,1,8,0:0:0:0:
329,192,87163,1,0,0:0:0:0:
109,192,87242,1,2,0:0:0:0:
182,192,87242,1,0,0:0:0:0:
36,192,87242,1,0,0:0:0:0:
329,192,87321,1,0,0:0:0:0:
256,192,87321,1,0,0:0:0:0:
475,192,87400,1,0,0:0:0:0:
402,192,87400,1,0,0:0:0:0:
329,192,87479,1,0,0:0:0:0:
256,192,87479,1,0,0:0:0:0:
475,192,87558,1,8,0:0:0:0:
36,192,87558,1,4,0:0:0:0:
182,192,87558,1,2,0:0:0:0:
329,192,87637,1,0,0:0:0:0:
402,192,87637,1,0,0:0:0:0:
182,192,87716,1,0,0:0:0:0:
256,192,87716,1,0,0:0:0:0:
109,192,87795,1,0,0:0:0:0:
36,192,87795,1,0,0:0:0:0:
329,192,87874,1,2,0:0:0:0:
475,192,87874,1,0,0:0:0:0:
182,192,87874,1,0,0:0:0:0:
182,192,88032,1,2,0:0:0:0:
329,192,88032,1,0,0:0:0:0:
402,192,88111,1,2,0:0:0:0:
256,192,88111,1,0,0:0:0:0:
475,192,88190,128,8,88269:0:0:0:0:
329,192,88190,128,0,88269:0:0:0:0:
109,192,88190,128,4,88505:0:0:0:0:
36,192,88190,128,0,88505:0:0:0:0:
256,192,88347,128,0,88426:0:0:0:0:
402,192,88347,128,0,88426:0:0:0:0:
475,192,88505,1,2,0:0:0:0:
329,192,88505,128,0,88584:0:0:0:0:
182,192,88505,128,0,88584:0:0:0:0:
475,192,88663,1,2,0:0:0:0:
109,192,88663,128,0,88979:0:0:0:0:
256,192,88663,128,0,88979:0:0:0:0:
475,192,88821,1,8,0:0:0:0:
329,192,88821,1,0,0:0:0:0:
329,192,88979,1,2,0:0:0:0:
36,192,88979,1,0,0:0:0:0:
256,192,89058,1,0,0:0:0:0:
109,192,89058,1,0,0:0:0:0:
475,192,89137,1,0,0:0:0:0:
182,192,89137,1,0,0:0:0:0:
182,192,89295,1,2,0:0:0:0:
475,192,89295,1,0,0:0:0:0:
256,192,89374,1,0,0:0:0:0:
402,192,89374,1,0,0:0:0:0:
109,192,89453,1,8,0:0:0:0:
36,192,89453,1,0,0:0:0:0:
182,192,89453,128,0,89532:0:0:0:0:
329,192,89453,128,0,89532:0:0:0:0:
402,192,89611,128,0,89690:0:0:0:0:
256,192,89611,128,0,89690:0:0:0:0:
182,192,89769,1,2,0:0:0:0:
475,192,89769,128,0,90084:0:0:0:0:
329,192,89769,128,0,90084:0:0:0:0:
182,192,89926,1,2,0:0:0:0:
36,192,90084,1,8,0:0:0:0:
182,192,90084,1,0,0:0:0:0:
182,192,90242,1,0,0:0:0:0:
402,192,90242,1,0,0:0:0:0:
109,192,90321,1,0,0:0:0:0:
329,192,90321,1,0,0:0:0:0:
256,192,90400,1,2,0:0:0:0:
475,192,90400,1,0,0:0:0:0:
36,192,90400,1,0,0:0:0:0:
36,192,90558,1,2,0:0:0:0:
256,192,90558,1,0,0:0:0:0:
109,192,90637,1,0,0:0:0:0:
329,192,90637,1,0,0:0:0:0:
402,192,90716,1,8,0:0:0:0:
475,192,90716,1,0,0:0:0:0:
182,192,90716,128,0,90795:0:0:0:0:
36,192,90716,128,0,90795:0:0:0:0:
109,192,90874,128,0,90953:0:0:0:0:
256,192,90874,128,0,90953:0:0:0:0:
475,192,91032,1,2,0:0:0:0:
182,192,91032,128,0,91111:0:0:0:0:
329,192,91032,128,0,91111:0:0:0:0:
475,192,91190,1,2,0:0:0:0:
256,192,91190,128,0,91269:0:0:0:0:
109,192,91190,128,0,91269:0:0:0:0:
36,192,91347,1,8,0:0:0:0:
182,192,91347,1,0,0:0:0:0:
475,192,91347,128,0,91426:0:0:0:0:
329,192,91347,128,0,91426:0:0:0:0:
109,192,91505,1,2,0:0:0:0:
402,192,91505,128,0,91584:0:0:0:0:
256,192,91505,128,0,91584:0:0:0:0:
182,192,91663,128,0,91742:0:0:0:0:
329,192,91663,128,0,91742:0:0:0:0:
109,192,91821,1,2,0:0:0:0:
402,192,91821,128,0,91900:0:0:0:0:
256,192,91821,128,0,91900:0:0:0:0:
475,192,91979,1,8,0:0:0:0:
329,192,91979,1,0,0:0:0:0:
182,192,91979,128,0,92058:0:0:0:0:
36,192,91979,128,0,92058:0:0:0:0:
109,192,92137,128,0,92216:0:0:0:0:
256,192,92137,128,0,92216:0:0:0:0:
475,192,92295,1,2,0:0:0:0:
182,192,92295,128,0,92611:0:0:0:0:
329,192,92295,128,0,92611:0:0:0:0:
475,192,92453,1,2,0:0:0:0:
36,192,92611,1,8,0:0:0:0:
475,192,92611,1,4,0:0:0:0:
402,192,92650,1,0,0:0:0:0:
256,192,92690,1,0,0:0:0:0:
182,192,92729,1,0,0:0:0:0:
402,192,92769,1,0,0:0:0:0:
329,192,92808,1,0,0:0:0:0:
182,192,92847,1,0,0:0:0:0:
109,192,92887,1,0,0:0:0:0:
475,192,92926,1,2,0:0:0:0:
402,192,92926,1,4,0:0:0:0:
36,192,92926,128,0,93005:0:0:0:0:
329,192,92926,128,0,93005:0:0:0:0:
109,192,93084,128,0,93163:0:0:0:0:
256,192,93084,128,0,93163:0:0:0:0:
475,192,93242,1,2,0:0:0:0:
402,192,93242,1,8,0:0:0:0:
109,192,93242,128,0,93321:0:0:0:0:
256,192,93242,128,0,93321:0:0:0:0:
109,192,93400,1,0,0:0:0:0:
256,192,93400,1,0,0:0:0:0:
182,192,93479,1,0,0:0:0:0:
329,192,93479,1,0,0:0:0:0:
256,192,93558,1,2,0:0:0:0:
402,192,93558,128,0,93637:0:0:0:0:
475,192,93558,128,0,93637:0:0:0:0:
182,192,93716,128,0,93795:0:0:0:0:
329,192,93716,128,0,93795:0:0:0:0:
475,192,93874,1,2,0:0:0:0:
402,192,93874,1,8,0:0:0:0:
36,192,93874,128,0,93953:0:0:0:0:
109,192,93874,128,0,93953:0:0:0:0:
182,192,94032,128,0,94111:0:0:0:0:
329,192,94032,128,0,94111:0:0:0:0:
36,192,94190,1,2,0:0:0:0:
402,192,94190,128,0,94269:0:0:0:0:
475,192,94190,128,0,94269:0:0:0:0:
36,192,94347,1,0,0:0:0:0:
182,192,94347,1,0,0:0:0:0:
256,192,94426,1,0,0:0:0:0:
109,192,94426,1,0,0:0:0:0:
475,192,94505,1,2,0:0:0:0:
402,192,94505,1,8,0:0:0:0:
182,192,94505,128,0,94584:0:0:0:0:
329,192,94505,128,0,94584:0:0:0:0:
109,192,94663,128,0,94742:0:0:0:0:
256,192,94663,128,0,94742:0:0:0:0:
475,192,94821,1,2,0:0:0:0:
182,192,94821,128,0,94900:0:0:0:0:
36,192,94821,128,0,94900:0:0:0:0:
256,192,94979,128,0,95058:0:0:0:0:
109,192,94979,128,0,95058:0:0:0:0:
36,192,95137,1,2,0:0:0:0:
329,192,95137,128,8,95216:0:0:0:0:
182,192,95137,128,0,95216:0:0:0:0:
475,192,95137,1,0,0:0:0:0:
256,192,95295,128,0,95374:0:0:0:0:
402,192,95295,128,0,95374:0:0:0:0:
475,192,95453,128,2,95769:0:0:0:0:
36,192,95453,128,0,95769:0:0:0:0:
329,192,95453,1,0,0:0:0:0:
182,192,95453,1,0,0:0:0:0:
182,192,95769,1,2,0:0:0:0:
329,192,95769,1,8,0:0:0:0:
182,192,95926,1,0,0:0:0:0:
329,192,95926,1,0,0:0:0:0:
109,192,96005,1,0,0:0:0:0:
402,192,96005,1,0,0:0:0:0:
256,192,96084,128,2,96163:0:0:0:0:
36,192,96084,128,0,96163:0:0:0:0:
475,192,96084,128,0,96163:0:0:0:0:
402,192,96242,128,0,96321:0:0:0:0:
182,192,96242,128,0,96321:0:0:0:0:
36,192,96242,128,0,96321:0:0:0:0:
329,192,96400,128,2,96479:0:0:0:0:
475,192,96400,128,8,96479:0:0:0:0:
109,192,96400,128,0,96479:0:0:0:0:
256,192,96558,128,0,96637:0:0:0:0:
109,192,96558,128,0,96637:0:0:0:0:
402,192,96558,128,0,96637:0:0:0:0:
475,192,96716,128,2,96953:0:0:0:0:
182,192,96716,1,0,0:0:0:0:
36,192,96716,128,0,96953:0:0:0:0:
329,192,96716,1,0,0:0:0:0:
329,192,96874,1,2,0:0:0:0:
329,192,97032,128,2,97269:0:0:0:0:
475,192,97032,1,8,0:0:0:0:
36,192,97032,128,0,97269:0:0:0:0:
182,192,97032,1,0,0:0:0:0:
182,192,97347,1,2,0:0:0:0:
36,192,97347,1,0,0:0:0:0:
329,192,97347,1,0,0:0:0:0:
402,192,97387,1,0,0:0:0:0:
475,192,97426,1,0,0:0:0:0:
109,192,97466,1,0,0:0:0:0:
182,192,97505,1,0,0:0:0:0:
256,192,97545,1,0,0:0:0:0:
329,192,97584,1,2,0:0:0:0:
402,192,97624,1,0,0:0:0:0:
475,192,97663,1,2,0:0:0:0:
36,192,97663,128,4,97821:0:0:0:0:
182,192,97663,128,8,97821:0:0:0:0:
329,192,97821,128,2,97900:0:0:0:0:
475,192,97821,128,0,97900:0:0:0:0:
182,192,97900,128,0,97979:0:0:0:0:
36,192,97900,128,0,97979:0:0:0:0:
329,192,97979,1,2,0:0:0:0:
475,192,97979,1,4,0:0:0:0:
256,192,97979,128,0,98295:0:0:0:0:
36,192,98453,1,2,0:0:0:0:
182,192,98453,1,0,0:0:0:0:
475,192,98453,128,0,98847:0:0:0:0:
36,192,98532,1,2,0:0:0:0:
182,192,98532,1,0,0:0:0:0:
402,192,98611,128,8,98847:0:0:0:0:
109,192,98611,1,0,0:0:0:0:
256,192,98611,1,0,0:0:0:0:
402,192,98926,128,0,99242:0:0:0:0:
475,192,98926,128,0,99242:0:0:0:0:
36,192,99084,1,2,0:0:0:0:
182,192,99084,1,0,0:0:0:0:
36,192,99242,128,0,99558:0:0:0:0:
329,192,99400,1,2,0:0:0:0:
182,192,99400,1,0,0:0:0:0:
182,192,99558,128,0,99874:0:0:0:0:
475,192,99716,1,2,0:0:0:0:
329,192,99716,1,0,0:0:0:0:
329,192,99874,128,8,100190:0:0:0:0:
109,192,99874,1,0,0:0:0:0:
36,192,99874,1,0,0:0:0:0:
475,192,99874,1,0,0:0:0:0:
475,192,100190,128,0,100505:0:0:0:0:
36,192,100347,1,2,0:0:0:0:
109,192,100347,1,0,0:0:0:0:
256,192,100505,128,2,100821:0:0:0:0:
329,192,100505,1,0,0:0:0:0:
182,192,100505,1,0,0:0:0:0:
36,192,100505,1,0,0:0:0:0:
402,192,100979,1,2,0:0:0:0:
109,192,100979,1,0,0:0:0:0:
402,192,101058,1,2,0:0:0:0:
109,192,101058,1,0,0:0:0:0:
402,192,101137,128,8,101374:0:0:0:0:
109,192,101137,128,0,101374:0:0:0:0:
182,192,101374,128,0,101611:0:0:0:0:
329,192,101374,128,0,101611:0:0:0:0:
475,192,101611,128,2,101769:0:0:0:0:
402,192,101611,128,0,101769:0:0:0:0:
36,192,101611,1,0,0:0:0:0:
109,192,101611,1,0,0:0:0:0:
36,192,101769,128,0,102400:0:0:0:0:
109,192,101769,128,0,102400:0:0:0:0:
256,192,101926,1,2,0:0:0:0:
402,192,101926,1,0,0:0:0:0:
256,192,102084,1,2,0:0:0:0:
402,192,102084,1,0,0:0:0:0:
402,192,102400,128,8,103032:0:0:0:0:
475,192,102400,128,4,103032:0:0:0:0:
182,192,102400,1,0,0:0:0:0:
329,192,102400,1,0,0:0:0:0:
109,192,102558,1,2,0:0:0:0:
36,192,102558,1,0,0:0:0:0:
182,192,102716,1,8,0:0:0:0:
329,192,102716,1,4,0:0:0:0:
36,192,103032,1,2,0:0:0:0:
109,192,103032,1,0,0:0:0:0:
256,192,103032,1,0,0:0:0:0:
109,192,103190,1,2,0:0:0:0:
256,192,103190,1,0,0:0:0:0:
36,192,103190,1,0,0:0:0:0:
182,192,103347,1,8,0:0:0:0:
329,192,103347,1,2,0:0:0:0:
402,192,103347,1,4,0:0:0:0:
475,192,103347,1,0,0:0:0:0:
36,192,103347,1,0,0:0:0:0:
36,192,104137,1,0,0:0:0:0:
475,192,104137,1,0,0:0:0:0:
109,192,104216,1,0,0:0:0:0:
402,192,104216,1,0,0:0:0:0:
182,192,104295,1,0,0:0:0:0:
329,192,104295,1,0,0:0:0:0:
36,192,104453,1,0,0:0:0:0:
475,192,104453,1,0,0:0:0:0:
109,192,104532,1,0,0:0:0:0:
402,192,104532,1,0,0:0:0:0:
182,192,104611,1,0,0:0:0:0:
329,192,104611,1,0,0:0:0:0:
256,192,104769,1,0,0:0:0:0:
402,192,104769,1,0,0:0:0:0:
329,192,104926,128,0,105005:0:0:0:0:
475,192,104926,128,0,105005:0:0:0:0:
182,192,105084,128,0,105163:0:0:0:0:
36,192,105084,128,0,105163:0:0:0:0:
329,192,105242,128,0,105321:0:0:0:0:
475,192,105242,128,0,105321:0:0:0:0:
182,192,105400,128,0,105479:0:0:0:0:
36,192,105400,128,0,105479:0:0:0:0:
36,192,105558,1,4,0:0:0:0:
182,192,105558,1,8,0:0:0:0:
329,192,105558,1,0,0:0:0:0:
475,192,105558,1,0,0:0:0:0:
256,192,105716,1,0,0:0:0:0:
402,192,105716,1,0,0:0:0:0:
182,192,105874,1,8,0:0:0:0:
36,192,105874,1,0,0:0:0:0:
329,192,105874,1,0,0:0:0:0:
475,192,105874,1,0,0:0:0:0:
256,192,106032,1,2,0:0:0:0:
109,192,106032,1,0,0:0:0:0:
182,192,106190,1,8,0:0:0:0:
36,192,106190,1,0,0:0:0:0:
329,192,106190,1,0,0:0:0:0:
475,192,106190,1,0,0:0:0:0:
256,192,106347,1,2,0:0:0:0:
402,192,106347,1,0,0:0:0:0:
182,192,106505,1,8,0:0:0:0:
36,192,106505,1,0,0:0:0:0:
329,192,106505,1,0,0:0:0:0:
475,192,106505,1,0,0:0:0:0:
182,192,106663,1,2,0:0:0:0:
36,192,106663,1,0,0:0:0:0:
256,192,106742,1,2,0:0:0:0:
109,192,106742,1,0,0:0:0:0:
182,192,106821,1,8,0:0:0:0:
475,192,106821,1,4,0:0:0:0:
329,192,106821,1,0,0:0:0:0:
402,192,106821,1,0,0:0:0:0:
475,192,106979,1,2,0:0:0:0:
329,192,106979,1,0,0:0:0:0:
256,192,107058,1,2,0:0:0:0:
402,192,107058,1,0,0:0:0:0:
329,192,107137,1,8,0:0:0:0:
109,192,107137,1,0,0:0:0:0:
36,192,107137,1,0,0:0:0:0:
182,192,107137,1,0,0:0:0:0:
182,192,107295,1,2,0:0:0:0:
36,192,107295,1,0,0:0:0:0:
109,192,107374,1,2,0:0:0:0:
256,192,107374,1,0,0:0:0:0:
329,192,107453,1,8,0:0:0:0:
475,192,107453,1,4,0:0:0:0:
402,192,107453,1,0,0:0:0:0:
182,192,107453,1,0,0:0:0:0:
475,192,107611,1,2,0:0:0:0:
329,192,107611,1,0,0:0:0:0:
256,192,107690,1,2,0:0:0:0:
402,192,107690,1,0,0:0:0:0:
329,192,107769,1,8,0:0:0:0:
182,192,107769,1,4,0:0:0:0:
109,192,107769,1,0,0:0:0:0:
36,192,107769,1,0,0:0:0:0:
182,192,107926,1,2,0:0:0:0:
36,192,107926,1,0,0:0:0:0:
256,192,108005,1,2,0:0:0:0:
109,192,108005,1,0,0:0:0:0:
402,192,108084,1,2,0:0:0:0:
182,192,108084,1,4,0:0:0:0:
329,192,108084,1,0,0:0:0:0:
475,192,108084,128,0,110611:0:0:0:0:
182,192,108242,1,0,0:0:0:0:
36,192,108242,1,0,0:0:0:0:
109,192,108400,1,2,0:0:0:0:
36,192,108400,1,8,0:0:0:0:
256,192,108400,1,0,0:0:0:0:
402,192,108400,1,0,0:0:0:0:
256,192,108558,1,0,0:0:0:0:
402,192,108558,1,0,0:0:0:0:
182,192,108716,1,2,0:0:0:0:
36,192,108716,1,0,0:0:0:0:
329,192,108716,1,0,0:0:0:0:
109,192,108874,1,0,0:0:0:0:
256,192,108874,1,0,0:0:0:0:
182,192,109032,1,8,0:0:0:0:
36,192,109032,128,2,109347:0:0:0:0:
329,192,109032,1,0,0:0:0:0:
182,192,109190,1,0,0:0:0:0:
329,192,109190,1,0,0:0:0:0:
256,192,109347,1,2,0:0:0:0:
402,192,109347,1,0,0:0:0:0:
109,192,109347,128,0,109663:0:0:0:0:
402,192,109505,1,0,0:0:0:0:
256,192,109505,1,0,0:0:0:0:
182,192,109663,1,2,0:0:0:0:
36,192,109663,1,8,0:0:0:0:
329,192,109663,1,0,0:0:0:0:
256,192,109821,1,0,0:0:0:0:
402,192,109821,1,0,0:0:0:0:
109,192,109821,128,0,109979:0:0:0:0:
329,192,109979,1,2,0:0:0:0:
182,192,109979,1,0,0:0:0:0:
36,192,109979,1,0,0:0:0:0:
329,192,110137,1,0,0:0:0:0:
182,192,110137,1,0,0:0:0:0:
182,192,110216,1,0,0:0:0:0:
329,192,110216,1,0,0:0:0:0:
256,192,110295,1,2,0:0:0:0:
109,192,110295,1,8,0:0:0:0:
36,192,110295,1,0,0:0:0:0:
182,192,110453,1,0,0:0:0:0:
329,192,110453,1,0,0:0:0:0:
36,192,110611,1,2,0:0:0:0:
109,192,110611,1,0,0:0:0:0:
256,192,110611,1,0,0:0:0:0:
402,192,110611,1,0,0:0:0:0:
256,192,110769,1,0,0:0:0:0:
109,192,110769,1,0,0:0:0:0:
329,192,110926,1,2,0:0:0:0:
475,192,110926,1,8,0:0:0:0:
182,192,110926,1,0,0:0:0:0:
36,192,110926,1,0,0:0:0:0:
182,192,111084,1,0,0:0:0:0:
329,192,111084,1,0,0:0:0:0:
256,192,111242,1,2,0:0:0:0:
36,192,111242,1,0,0:0:0:0:
402,192,111242,1,0,0:0:0:0:
109,192,111242,1,0,0:0:0:0:
256,192,111400,1,0,0:0:0:0:
402,192,111400,1,0,0:0:0:0:
182,192,111479,1,0,0:0:0:0:
109,192,111558,1,2,0:0:0:0:
36,192,111558,1,8,0:0:0:0:
329,192,111558,128,0,111795:0:0:0:0:
475,192,111558,128,0,111795:0:0:0:0:
36,192,111716,1,0,0:0:0:0:
109,192,111716,1,0,0:0:0:0:
36,192,111874,128,2,111953:0:0:0:0:
329,192,111874,1,0,0:0:0:0:
475,192,111874,1,0,0:0:0:0:
109,192,111874,128,0,111953:0:0:0:0:
36,192,112032,128,0,112111:0:0:0:0:
475,192,112032,1,0,0:0:0:0:
329,192,112032,1,0,0:0:0:0:
109,192,112032,128,0,112111:0:0:0:0:
36,192,112190,128,8,112269:0:0:0:0:
402,192,112190,1,2,0:0:0:0:
256,192,112190,1,0,0:0:0:0:
109,192,112190,128,0,112269:0:0:0:0:
36,192,112347,128,0,112426:0:0:0:0:
109,192,112347,128,0,112426:0:0:0:0:
256,192,112347,1,0,0:0:0:0:
402,192,112347,1,0,0:0:0:0:
475,192,112505,128,2,112663:0:0:0:0:
329,192,112505,1,0,0:0:0:0:
182,192,112505,1,0,0:0:0:0:
36,192,112505,1,0,0:0:0:0:
182,192,112663,1,0,0:0:0:0:
329,192,112663,1,0,0:0:0:0:
475,192,112821,128,2,112979:0:0:0:0:
109,192,112821,1,8,0:0:0:0:
256,192,112821,1,0,0:0:0:0:
36,192,112821,1,0,0:0:0:0:
329,192,112979,1,2,0:0:0:0:
182,192,112979,1,0,0:0:0:0:
36,192,112979,1,0,0:0:0:0:
256,192,113137,1,2,0:0:0:0:
402,192,113137,1,0,0:0:0:0:
475,192,113137,1,0,0:0:0:0:
36,192,113137,128,0,113295:0:0:0:0:
256,192,113295,1,0,0:0:0:0:
402,192,113295,1,0,0:0:0:0:
182,192,113453,1,8,0:0:0:0:
36,192,113453,1,2,0:0:0:0:
329,192,113453,128,0,113532:0:0:0:0:
475,192,113453,128,0,113532:0:0:0:0:
182,192,113611,1,0,0:0:0:0:
36,192,113611,1,0,0:0:0:0:
329,192,113611,128,0,113690:0:0:0:0:
475,192,113611,128,0,113690:0:0:0:0:
109,192,113769,1,2,0:0:0:0:
256,192,113769,1,0,0:0:0:0:
109,192,113926,1,0,0:0:0:0:
256,192,113926,1,0,0:0:0:0:
329,192,114005,1,0,0:0:0:0:
182,192,114084,1,2,0:0:0:0:
36,192,114084,1,8,0:0:0:0:
402,192,114084,128,0,114321:0:0:0:0:
475,192,114084,128,0,114321:0:0:0:0:
182,192,114242,1,0,0:0:0:0:
36,192,114242,1,0,0:0:0:0:
256,192,114400,1,2,0:0:0:0:
475,192,114400,1,0,0:0:0:0:
402,192,114400,1,0,0:0:0:0:
36,192,114400,1,0,0:0:0:0:
109,192,114479,1,0,0:0:0:0:
402,192,114558,1,0,0:0:0:0:
182,192,114558,1,0,0:0:0:0:
475,192,114558,1,0,0:0:0:0:
256,192,114637,1,0,0:0:0:0:
329,192,114716,1,2,0:0:0:0:
475,192,114716,1,8,0:0:0:0:
109,192,114716,1,0,0:0:0:0:
36,192,114716,1,0,0:0:0:0:
109,192,114874,1,0,0:0:0:0:
36,192,114874,1,0,0:0:0:0:
329,192,114874,128,0,115032:0:0:0:0:
475,192,114874,128,0,115032:0:0:0:0:
36,192,115032,1,2,0:0:0:0:
182,192,115032,1,0,0:0:0:0:
36,192,115190,1,0,0:0:0:0:
182,192,115190,1,0,0:0:0:0:
402,192,115190,1,0,0:0:0:0:
329,192,115269,1,0,0:0:0:0:
256,192,115347,1,2,0:0:0:0:
475,192,115347,1,8,0:0:0:0:
36,192,115347,128,0,115584:0:0:0:0:
182,192,115347,128,0,115584:0:0:0:0:
329,192,115505,1,0,0:0:0:0:
475,192,115505,1,0,0:0:0:0:
182,192,115663,1,2,0:0:0:0:
36,192,115663,1,0,0:0:0:0:
402,192,115663,128,0,115821:0:0:0:0:
475,192,115663,128,0,115821:0:0:0:0:
182,192,115821,1,0,0:0:0:0:
36,192,115821,1,0,0:0:0:0:
475,192,115979,1,2,0:0:0:0:
402,192,115979,1,8,0:0:0:0:
109,192,115979,128,0,116058:0:0:0:0:
256,192,115979,128,0,116058:0:0:0:0:
402,192,116137,1,0,0:0:0:0:
475,192,116137,1,0,0:0:0:0:
109,192,116137,128,0,116216:0:0:0:0:
256,192,116137,128,0,116216:0:0:0:0:
182,192,116295,1,2,0:0:0:0:
36,192,116295,1,0,0:0:0:0:
329,192,116295,1,0,0:0:0:0:
475,192,116295,1,0,0:0:0:0:
36,192,116453,1,0,0:0:0:0:
182,192,116453,1,0,0:0:0:0:
402,192,116453,1,0,0:0:0:0:
256,192,116532,1,0,0:0:0:0:
109,192,116611,1,2,0:0:0:0:
36,192,116611,1,8,0:0:0:0:
329,192,116611,128,0,116847:0:0:0:0:
475,192,116611,128,0,116847:0:0:0:0:
36,192,116769,1,0,0:0:0:0:
109,192,116769,1,0,0:0:0:0:
329,192,116926,1,2,0:0:0:0:
475,192,116926,1,0,0:0:0:0:
109,192,116926,128,0,117005:0:0:0:0:
36,192,116926,128,0,117005:0:0:0:0:
36,192,117084,128,2,117163:0:0:0:0:
109,192,117084,128,0,117163:0:0:0:0:
256,192,117084,1,0,0:0:0:0:
402,192,117084,1,0,0:0:0:0:
109,192,117242,128,8,117321:0:0:0:0:
36,192,117242,128,2,117321:0:0:0:0:
329,192,117242,1,0,0:0:0:0:
475,192,117242,1,0,0:0:0:0:
36,192,117400,128,0,117479:0:0:0:0:
109,192,117400,128,0,117479:0:0:0:0:
256,192,117400,1,0,0:0:0:0:
402,192,117400,1,0,0:0:0:0:
475,192,117558,128,2,117716:0:0:0:0:
182,192,117558,1,0,0:0:0:0:
329,192,117558,1,0,0:0:0:0:
36,192,117558,1,0,0:0:0:0:
36,192,117716,1,0,0:0:0:0:
182,192,117716,1,0,0:0:0:0:
256,192,117795,1,2,0:0:0:0:
329,192,117874,1,2,0:0:0:0:
475,192,117874,128,8,118032:0:0:0:0:
36,192,117874,1,4,0:0:0:0:
109,192,117874,1,0,0:0:0:0:
36,192,118032,1,2,0:0:0:0:
109,192,118032,1,0,0:0:0:0:
329,192,118032,1,0,0:0:0:0:
475,192,118190,1,2,0:0:0:0:
329,192,118190,1,4,0:0:0:0:
402,192,118190,1,0,0:0:0:0:
36,192,118190,1,0,0:0:0:0:
109,192,118269,1,0,0:0:0:0:
182,192,118347,1,0,0:0:0:0:
475,192,118347,1,0,0:0:0:0:
109,192,118426,1,0,0:0:0:0:
36,192,118505,1,2,0:0:0:0:
402,192,118505,1,8,0:0:0:0:
329,192,118505,1,0,0:0:0:0:
182,192,118584,1,0,0:0:0:0:
109,192,118663,1,0,0:0:0:0:
475,192,118663,1,0,0:0:0:0:
182,192,118742,1,0,0:0:0:0:
36,192,118821,1,2,0:0:0:0:
329,192,118821,1,0,0:0:0:0:
475,192,118821,1,0,0:0:0:0:
109,192,118900,1,0,0:0:0:0:
182,192,118979,1,0,0:0:0:0:
329,192,118979,1,0,0:0:0:0:
109,192,119058,1,0,0:0:0:0:
475,192,119137,1,8,0:0:0:0:
36,192,119137,1,2,0:0:0:0:
402,192,119137,1,0,0:0:0:0:
182,192,119216,1,0,0:0:0:0:
109,192,119295,1,0,0:0:0:0:
329,192,119295,1,0,0:0:0:0:
182,192,119374,1,0,0:0:0:0:
36,192,119453,1,2,0:0:0:0:
475,192,119453,1,0,0:0:0:0:
329,192,119453,1,0,0:0:0:0:
109,192,119532,1,0,0:0:0:0:
182,192,119611,1,0,0:0:0:0:
475,192,119611,1,0,0:0:0:0:
109,192,119690,1,0,0:0:0:0:
329,192,119769,1,2,0:0:0:0:
36,192,119769,1,8,0:0:0:0:
402,192,119769,1,0,0:0:0:0:
182,192,119847,1,0,0:0:0:0:
109,192,119926,1,0,0:0:0:0:
475,192,119926,1,0,0:0:0:0:
182,192,120005,1,0,0:0:0:0:
36,192,120084,1,2,0:0:0:0:
475,192,120084,1,0,0:0:0:0:
329,192,120084,1,0,0:0:0:0:
109,192,120163,1,0,0:0:0:0:
182,192,120242,1,0,0:0:0:0:
329,192,120242,1,0,0:0:0:0:
109,192,120321,1,0,0:0:0:0:
36,192,120400,1,2,0:0:0:0:
475,192,120400,1,8,0:0:0:0:
402,192,120400,1,0,0:0:0:0:
182,192,120479,1,0,0:0:0:0:
109,192,120558,1,0,0:0:0:0:
329,192,120558,1,0,0:0:0:0:
182,192,120637,1,0,0:0:0:0:
36,192,120716,1,2,0:0:0:0:
329,192,120716,128,0,120953:0:0:0:0:
475,192,120716,128,0,120953:0:0:0:0:
109,192,120795,1,0,0:0:0:0:
182,192,120874,1,0,0:0:0:0:
256,192,120953,1,0,0:0:0:0:
109,192,121032,128,2,121111:0:0:0:0:
36,192,121032,128,8,121111:0:0:0:0:
329,192,121032,1,0,0:0:0:0:
475,192,121032,1,0,0:0:0:0:
402,192,121111,1,0,0:0:0:0:
36,192,121190,128,0,121269:0:0:0:0:
109,192,121190,128,0,121269:0:0:0:0:
256,192,121190,1,0,0:0:0:0:
329,192,121269,1,0,0:0:0:0:
475,192,121347,1,2,0:0:0:0:
182,192,121347,1,0,0:0:0:0:
36,192,121347,1,0,0:0:0:0:
402,192,121347,1,0,0:0:0:0:
256,192,121426,1,0,0:0:0:0:
109,192,121505,1,0,0:0:0:0:
402,192,121505,1,0,0:0:0:0:
182,192,121584,1,0,0:0:0:0:
329,192,121584,1,0,0:0:0:0:
256,192,121663,1,2,0:0:0:0:
36,192,121663,1,8,0:0:0:0:
402,192,121663,128,0,121900:0:0:0:0:
475,192,121663,128,0,121900:0:0:0:0:
109,192,121742,1,0,0:0:0:0:
182,192,121821,1,0,0:0:0:0:
256,192,121900,1,0,0:0:0:0:
475,192,121979,1,2,0:0:0:0:
36,192,121979,1,0,0:0:0:0:
329,192,121979,128,0,122058:0:0:0:0:
402,192,121979,128,0,122058:0:0:0:0:
109,192,122058,1,0,0:0:0:0:
182,192,122137,1,0,0:0:0:0:
329,192,122137,128,0,122216:0:0:0:0:
402,192,122137,128,0,122216:0:0:0:0:
109,192,122216,1,0,0:0:0:0:
36,192,122295,1,2,0:0:0:0:
402,192,122295,128,8,122374:0:0:0:0:
475,192,122295,128,0,122374:0:0:0:0:
256,192,122295,1,0,0:0:0:0:
182,192,122374,1,0,0:0:0:0:
402,192,122453,128,0,122532:0:0:0:0:
475,192,122453,128,0,122532:0:0:0:0:
109,192,122453,1,0,0:0:0:0:
182,192,122532,1,0,0:0:0:0:
256,192,122611,1,2,0:0:0:0:
402,192,122611,1,0,0:0:0:0:
475,192,122611,1,0,0:0:0:0:
36,192,122611,1,0,0:0:0:0:
109,192,122690,1,0,0:0:0:0:
182,192,122769,1,0,0:0:0:0:
329,192,122769,1,0,0:0:0:0:
402,192,122847,1,0,0:0:0:0:
475,192,122926,1,2,0:0:0:0:
256,192,122926,1,8,0:0:0:0:
36,192,122926,1,0,0:0:0:0:
109,192,122926,1,0,0:0:0:0:
402,192,123005,1,0,0:0:0:0:
182,192,123084,1,2,0:0:0:0:
329,192,123084,1,0,0:0:0:0:
36,192,123084,1,0,0:0:0:0:
402,192,123163,1,0,0:0:0:0:
475,192,123242,1,2,0:0:0:0:
256,192,123242,1,4,0:0:0:0:
109,192,123242,1,0,0:0:0:0:
36,192,123242,1,0,0:0:0:0:
329,192,123321,1,0,0:0:0:0:
182,192,123400,1,0,0:0:0:0:
402,192,123400,1,0,0:0:0:0:
256,192,123479,1,0,0:0:0:0:
329,192,123558,128,8,123637:0:0:0:0:
475,192,123558,128,2,123637:0:0:0:0:
36,192,123558,1,0,0:0:0:0:
109,192,123558,1,0,0:0:0:0:
182,192,123637,1,0,0:0:0:0:
329,192,123716,128,0,123795:0:0:0:0:
475,192,123716,128,0,123795:0:0:0:0:
36,192,123716,1,0,0:0:0:0:
109,192,123795,1,0,0:0:0:0:
182,192,123874,1,2,0:0:0:0:
256,192,123874,1,0,0:0:0:0:
402,192,123874,1,0,0:0:0:0:
475,192,123874,1,0,0:0:0:0:
109,192,123953,1,0,0:0:0:0:
36,192,124032,1,0,0:0:0:0:
329,192,124032,1,0,0:0:0:0:
402,192,124111,1,0,0:0:0:0:
256,192,124111,1,0,0:0:0:0:
182,192,124190,1,2,0:0:0:0:
475,192,124190,1,8,0:0:0:0:
109,192,124190,128,0,124426:0:0:0:0:
36,192,124190,128,0,124426:0:0:0:0:
256,192,124269,1,0,0:0:0:0:
329,192,124347,1,0,0:0:0:0:
402,192,124426,1,0,0:0:0:0:
109,192,124505,1,2,0:0:0:0:
36,192,124505,1,0,0:0:0:0:
182,192,124505,1,0,0:0:0:0:
475,192,124505,1,0,0:0:0:0:
402,192,124584,1,0,0:0:0:0:
256,192,124584,1,0,0:0:0:0:
329,192,124663,1,2,0:0:0:0:
182,192,124663,1,0,0:0:0:0:
256,192,124742,1,0,0:0:0:0:
109,192,124742,1,0,0:0:0:0:
36,192,124821,1,2,0:0:0:0:
182,192,124821,1,8,0:0:0:0:
402,192,124821,1,0,0:0:0:0:
475,192,124821,1,0,0:0:0:0:
329,192,124900,1,0,0:0:0:0:
256,192,124979,1,0,0:0:0:0:
36,192,124979,128,0,125137:0:0:0:0:
109,192,124979,128,0,125137:0:0:0:0:
329,192,125058,1,0,0:0:0:0:
402,192,125137,1,2,0:0:0:0:
182,192,125137,1,0,0:0:0:0:
475,192,125137,1,0,0:0:0:0:
256,192,125216,1,0,0:0:0:0:
329,192,125295,1,0,0:0:0:0:
36,192,125295,1,0,0:0:0:0:
109,192,125295,1,0,0:0:0:0:
182,192,125374,1,2,0:0:0:0:
402,192,125374,1,0,0:0:0:0:
256,192,125453,1,2,0:0:0:0:
475,192,125453,1,8,0:0:0:0:
36,192,125453,1,4,0:0:0:0:
109,192,125453,1,0,0:0:0:0:
402,192,125532,1,0,0:0:0:0:
182,192,125611,1,2,0:0:0:0:
36,192,125611,1,0,0:0:0:0:
329,192,125611,1,0,0:0:0:0:
256,192,125690,1,0,0:0:0:0:
36,192,125769,1,8,0:0:0:0:
182,192,125769,1,0,0:0:0:0:
329,192,125769,1,0,0:0:0:0:
475,192,125769,1,0,0:0:0:0:
36,192,125926,1,8,0:0:0:0:
182,192,125926,1,0,0:0:0:0:
329,192,125926,1,0,0:0:0:0:
475,192,125926,1,0,0:0:0:0:
475,192,126084,1,8,0:0:0:0:
329,192,126084,1,0,0:0:0:0:
182,192,126084,1,0,0:0:0:0:
36,192,126084,1,0,0:0:0:0:
36,192,126242,1,8,0:0:0:0:
182,192,126242,1,0,0:0:0:0:
329,192,126242,1,0,0:0:0:0:
475,192,126242,1,0,0:0:0:0:
475,192,126400,1,8,0:0:0:0:
329,192,126400,1,0,0:0:0:0:
36,192,126400,1,0,0:0:0:0:
182,192,126400,1,0,0:0:0:0:
329,192,126716,1,4,0:0:0:0:
475,192,126716,1,0,0:0:0:0:
36,192,126716,128,2,126795:0:0:0:0:
109,192,126755,128,0,126834:0:0:0:0:
182,192,126795,128,0,126874:0:0:0:0:
402,192,126874,1,0,0:0:0:0:
329,192,126913,1,0,0:0:0:0:
256,192,126953,1,0,0:0:0:0:
182,192,126992,1,0,0:0:0:0:
36,192,127032,1,2,0:0:0:0:
475,192,127032,1,0,0:0:0:0:
402,192,127032,1,0,0:0:0:0:
109,192,127032,1,0,0:0:0:0:
475,192,127190,1,2,0:0:0:0:
109,192,127190,1,0,0:0:0:0:
402,192,127190,1,0,0:0:0:0:
36,192,127190,1,0,0:0:0:0:
36,192,127347,1,2,0:0:0:0:
109,192,127347,1,0,0:0:0:0:
475,192,127347,1,0,0:0:0:0:
402,192,127347,1,0,0:0:0:0:
402,192,127505,1,2,0:0:0:0:
475,192,127505,1,0,0:0:0:0:
109,192,127505,1,0,0:0:0:0:
36,192,127505,1,0,0:0:0:0:
36,192,127663,1,2,0:0:0:0:
475,192,127663,1,0,0:0:0:0:
402,192,127663,1,0,0:0:0:0:
109,192,127663,1,0,0:0:0:0:
329,192,127821,128,0,127900:0:0:0:0:
182,192,127821,128,0,127900:0:0:0:0:
329,192,127979,128,4,128216:0:0:0:0:
182,192,127979,128,2,128216:0:0:0:0:
475,192,127979,128,0,128216:0:0:0:0:
36,192,127979,128,0,128216:0:0:0:0:
475,192,128295,1,4,0:0:0:0:
109,192,128295,1,2,0:0:0:0:
36,192,128295,1,0,0:0:0:0:
256,192,128295,1,0,0:0:0:0:
402,192,128295,1,0,0:0:0:0:
475,192,128453,1,8,0:0:0:0:
402,192,128453,1,0,0:0:0:0:
36,192,128453,1,0,0:0:0:0:
109,192,128453,1,0,0:0:0:0:
36,192,128611,1,2,0:0:0:0:
109,192,128611,1,0,0:0:0:0:
402,192,128611,1,0,0:0:0:0:
475,192,128611,1,0,0:0:0:0:
475,192,128769,1,2,0:0:0:0:
402,192,128769,1,0,0:0:0:0:
109,192,128769,1,0,0:0:0:0:
36,192,128769,1,0,0:0:0:0:
402,192,128926,1,4,0:0:0:0:
109,192,128926,1,8,0:0:0:0:
256,192,128926,1,0,0:0:0:0:
402,192,129005,1,8,0:0:0:0:
109,192,129005,1,0,0:0:0:0:
256,192,129005,1,0,0:0:0:0:
182,192,129163,1,8,0:0:0:0:
329,192,129163,1,0,0:0:0:0:
36,192,129242,1,8,0:0:0:0:
109,192,129242,1,4,0:0:0:0:
402,192,129242,1,0,0:0:0:0:
475,192,129242,1,0,0:0:0:0:
402,192,129400,1,8,0:0:0:0:
329,192,129400,1,0,0:0:0:0:
182,192,129400,1,0,0:0:0:0:
109,192,129400,1,0,0:0:0:0:
329,192,129558,1,8,0:0:0:0:
475,192,129558,1,4,0:0:0:0:
36,192,129558,1,0,0:0:0:0:
182,192,129558,1,0,0:0:0:0:
256,192,129558,1,0,0:0:0:0:
109,192,129716,1,2,0:0:0:0:
402,192,129716,1,0,0:0:0:0:
182,192,129795,1,2,0:0:0:0:
329,192,129795,1,0,0:0:0:0:
256,192,129874,1,8,0:0:0:0:
475,192,129874,1,0,0:0:0:0:
36,192,129874,1,0,0:0:0:0:
36,192,130032,1,8,0:0:0:0:
256,192,130032,1,0,0:0:0:0:
475,192,130032,1,0,0:0:0:0:
109,192,130347,1,2,0:0:0:0:
36,192,130347,1,8,0:0:0:0:
402,192,130347,1,4,0:0:0:0:
475,192,130347,1,0,0:0:0:0:
182,192,130347,1,0,0:0:0:0:
329,192,130347,1,0,0:0:0:0:
109,192,130505,1,4,0:0:0:0:
36,192,130505,1,8,0:0:0:0:
402,192,130505,1,2,0:0:0:0:
475,192,130505,1,0,0:0:0:0:
182,192,130505,1,0,0:0:0:0:
329,192,130505,1,0,0:0:0:0:
