osu file format v14

[General]
AudioFilename: audio.mp3
AudioLeadIn: 0
PreviewTime: 77704
Countdown: 0
SampleSet: Soft
StackLeniency: 0.7
Mode: 3
LetterboxInBreaks: 0
SpecialStyle: 0
WidescreenStoryboard: 0

[Editor]
DistanceSpacing: 1.4
BeatDivisor: 1
GridSize: 8
TimelineZoom: 0.8000001

[Metadata]
Title:Panic! Pop'n! Picnic!
TitleUnicode:Panic! Pop'n! Picnic!
Artist:Umeboshi Chazuke
ArtistUnicode:梅干茶漬け
Creator:jakads
Version:Beginner!
Source:BMS
Tags:Lude Kawawa Wonki BOFU2016 - Legendary Again - ああ…翡翠茶漬け… ~もっと おかわり!~ Chipstyle Hi-Pop むらたむうた 8bit Chiptune
BeatmapID:1122254
BeatmapSetID:528031

[Difficulty]
HPDrainRate:7
CircleSize:7
OverallDifficulty:7
ApproachRate:9
SliderMultiplier:1.8
SliderTickRate:1

[Events]
//Background and Video events
Video,0,"PPP.mp4"
0,0,"maxresdefault.png",0,0
//Break Periods
//Storyboard Layer 0 (Background)
//Storyboard Layer 1 (Fail)
//Storyboard Layer 2 (Pass)
//Storyboard Layer 3 (Foreground)
//Storyboard Sound Samples

[TimingPoints]
73,315.789473684211,4,2,1,40,1,0
9862,-100,4,2,1,40,0,1
9941,-100,4,2,1,40,0,0
10967,-100,4,2,1,40,0,1
11046,-100,4,2,1,40,0,0
11125,-100,4,2,1,40,0,1
11204,-100,4,2,1,40,0,0
13494,-100,4,2,1,40,0,1
13573,-100,4,2,1,40,0,0
13651,-100,4,2,1,40,0,1
13730,-100,4,2,1,40,0,0
24073,-100,4,2,1,40,0,1
33546,-100,4,2,1,40,0,0
33862,-100,4,2,1,40,0,1
33941,-100,4,2,1,40,0,0
44283,-100,4,2,1,40,0,1
54388,-100,4,2,1,40,0,0
54704,-100,4,2,1,40,0,1
54783,-100,4,2,1,40,0,0
62125,-100,4,2,1,40,0,1
64494,-100,4,2,1,40,0,0
74915,333.333333333333,4,2,1,40,1,0
74915,-94.7368421052633,4,2,1,40,0,0
75249,352.941176470588,4,2,1,40,1,0
75249,-89.4736842105264,4,2,1,40,0,0
75601,375,4,2,1,40,1,0
75601,-84.2105263157895,4,2,1,40,0,0
75977,400,4,2,1,40,1,0
75977,-78.9473684210526,4,2,1,40,0,0
76377,428.571428571429,4,2,1,40,1,0
76377,-73.6842105263157,4,2,1,40,0,0
76806,461.538461538462,4,2,1,40,1,0
76806,-68.4210526315789,4,2,1,40,0,0
77267,500,4,2,1,40,1,0
77267,-63.1578947368421,4,2,1,40,0,0
77769,315.789473684211,4,2,1,40,1,1
87874,-100,4,2,1,40,0,0
88190,-100,4,2,1,40,0,1
97979,-100,4,2,1,40,0,0
103032,-100,4,2,1,40,0,1
103663,-100,4,2,1,40,0,0
108084,-100,4,2,1,40,0,1
117874,-100,4,2,1,40,0,0
118190,-100,4,2,1,40,0,1
125769,-100,4,2,1,40,0,0
126716,-100,4,2,1,40,0,1
126795,-100,4,2,1,40,0,0
127821,-100,4,2,1,40,0,1
127900,-100,4,2,1,40,0,0
127979,-100,4,2,1,40,0,1
128058,-100,4,2,1,40,0,0
130347,-100,4,2,1,40,0,1
130426,-100,4,2,1,40,0,0
130505,-100,4,2,1,40,0,1
130584,-100,4,2,1,40,0,0

[HitObjects]
402,192,73,128,8,388:0:0:0:0:
109,192,388,128,8,704:0:0:0:0:
402,192,704,128,8,1020:0:0:0:0:
109,192,1020,1,8,0:0:0:0:
182,192,1178,1,8,0:0:0:0:
256,192,1336,1,2,0:0:0:0:
329,192,1336,1,4,0:0:0:0:
36,192,1651,1,0,0:0:0:0:
109,192,1967,1,0,0:0:0:0:
182,192,2283,1,0,0:0:0:0:
256,192,2599,1,0,0:0:0:0:
109,192,2915,1,0,0:0:0:0:
182,192,3230,1,0,0:0:0:0:
256,192,3546,1,0,0:0:0:0:
329,192,3862,1,0,0:0:0:0:
182,192,4178,1,0,0:0:0:0:
256,192,4494,1,0,0:0:0:0:
329,192,4809,1,0,0:0:0:0:
402,192,5125,128,8,5441:0:0:0:0:
256,192,5441,128,2,5757:0:0:0:0:
329,192,5757,128,2,6073:0:0:0:0:
402,192,6073,1,4,0:0:0:0:
109,192,6073,1,2,0:0:0:0:
475,192,6388,1,4,0:0:0:0:
36,192,6388,1,2,0:0:0:0:
109,192,6704,1,10,0:0:0:0:
256,192,7020,1,2,0:0:0:0:
402,192,7336,1,10,0:0:0:0:
475,192,7651,1,2,0:0:0:0:
329,192,7967,1,10,0:0:0:0:
182,192,8283,1,2,0:0:0:0:
36,192,8599,1,10,0:0:0:0:
475,192,8599,1,4,0:0:0:0:
329,192,8915,128,8,9546:0:0:0:0:
182,192,9546,1,8,0:0:0:0:
36,192,9862,1,4,0:0:0:0:
475,192,9862,1,2,0:0:0:0:
109,192,10178,128,2,10809:0:0:0:0:
402,192,10809,1,2,0:0:0:0:
182,192,11125,1,4,0:0:0:0:
329,192,11125,1,2,0:0:0:0:
36,192,11441,1,4,0:0:0:0:
475,192,11441,128,2,12388:0:0:0:0:
329,192,12073,128,12,12388:0:0:0:0:
182,192,12388,1,12,0:0:0:0:
402,192,12704,1,8,0:0:0:0:
109,192,12704,1,4,0:0:0:0:
182,192,13020,1,8,0:0:0:0:
329,192,13178,1,8,0:0:0:0:
182,192,13494,1,2,0:0:0:0:
109,192,13494,1,12,0:0:0:0:
329,192,13651,1,4,0:0:0:0:
402,192,13651,1,10,0:0:0:0:
36,192,13967,1,2,0:0:0:0:
256,192,13967,1,0,0:0:0:0:
329,192,14283,1,2,0:0:0:0:
36,192,14599,1,2,0:0:0:0:
329,192,14915,1,2,0:0:0:0:
182,192,15230,1,2,0:0:0:0:
475,192,15546,1,2,0:0:0:0:
182,192,15862,1,2,0:0:0:0:
475,192,16178,1,2,0:0:0:0:
109,192,16494,1,2,0:0:0:0:
402,192,16809,1,2,0:0:0:0:
109,192,17125,1,2,0:0:0:0:
402,192,17441,1,2,0:0:0:0:
182,192,17757,1,2,0:0:0:0:
329,192,18073,1,2,0:0:0:0:
182,192,18388,1,2,0:0:0:0:
475,192,18704,1,2,0:0:0:0:
402,192,18862,1,2,0:0:0:0:
329,192,19020,1,2,0:0:0:0:
36,192,19336,1,2,0:0:0:0:
329,192,19651,1,2,0:0:0:0:
36,192,19967,1,2,0:0:0:0:
402,192,20283,1,2,0:0:0:0:
109,192,20599,1,2,0:0:0:0:
402,192,20915,1,2,0:0:0:0:
109,192,21230,1,2,0:0:0:0:
475,192,21546,1,2,0:0:0:0:
329,192,21862,1,2,0:0:0:0:
36,192,22178,1,2,0:0:0:0:
182,192,22494,1,2,0:0:0:0:
329,192,22809,1,2,0:0:0:0:
402,192,22967,1,2,0:0:0:0:
475,192,23125,1,2,0:0:0:0:
256,192,23441,1,2,0:0:0:0:
182,192,23757,1,2,0:0:0:0:
109,192,23915,1,2,0:0:0:0:
36,192,24073,1,2,0:0:0:0:
475,192,24073,1,4,0:0:0:0:
182,192,24388,1,10,0:0:0:0:
402,192,24704,1,2,0:0:0:0:
109,192,25020,1,10,0:0:0:0:
329,192,25336,1,2,0:0:0:0:
36,192,25651,1,10,0:0:0:0:
402,192,25967,1,2,0:0:0:0:
109,192,26283,1,10,0:0:0:0:
256,192,26599,1,2,0:0:0:0:
475,192,26915,1,10,0:0:0:0:
182,192,27230,1,2,0:0:0:0:
402,192,27546,1,10,0:0:0:0:
36,192,27862,1,2,0:0:0:0:
256,192,28178,1,10,0:0:0:0:
109,192,28494,1,2,0:0:0:0:
329,192,28809,1,10,0:0:0:0:
256,192,28967,1,2,0:0:0:0:
182,192,29125,1,2,0:0:0:0:
475,192,29441,1,10,0:0:0:0:
109,192,29757,1,2,0:0:0:0:
402,192,30073,1,10,0:0:0:0:
36,192,30388,1,2,0:0:0:0:
182,192,30704,1,2,0:0:0:0:
329,192,30704,1,12,0:0:0:0:
402,192,31020,1,10,0:0:0:0:
109,192,31020,1,4,0:0:0:0:
329,192,31651,1,2,0:0:0:0:
475,192,31651,1,4,0:0:0:0:
182,192,32283,1,2,0:0:0:0:
36,192,32283,1,4,0:0:0:0:
256,192,32915,1,2,0:0:0:0:
402,192,33073,1,8,0:0:0:0:
329,192,33230,1,8,0:0:0:0:
182,192,33388,1,2,0:0:0:0:
109,192,33546,1,2,0:0:0:0:
36,192,33862,1,2,0:0:0:0:
475,192,33862,1,4,0:0:0:0:
182,192,34178,1,2,0:0:0:0:
329,192,34178,1,0,0:0:0:0:
402,192,34494,1,10,0:0:0:0:
109,192,34809,1,2,0:0:0:0:
402,192,35125,1,10,0:0:0:0:
256,192,35441,1,2,0:0:0:0:
329,192,35757,1,10,0:0:0:0:
256,192,36073,1,2,0:0:0:0:
182,192,36388,1,10,0:0:0:0:
402,192,36704,1,2,0:0:0:0:
109,192,37020,1,10,0:0:0:0:
402,192,37336,1,2,0:0:0:0:
109,192,37651,1,10,0:0:0:0:
475,192,37967,1,2,0:0:0:0:
256,192,38283,1,10,0:0:0:0:
36,192,38599,1,2,0:0:0:0:
256,192,38915,1,10,0:0:0:0:
329,192,39073,1,2,0:0:0:0:
402,192,39230,1,2,0:0:0:0:
182,192,39546,1,10,0:0:0:0:
329,192,39862,1,2,0:0:0:0:
109,192,40178,1,10,0:0:0:0:
256,192,40494,1,2,0:0:0:0:
475,192,40809,1,10,0:0:0:0:
256,192,41125,1,2,0:0:0:0:
36,192,41441,1,10,0:0:0:0:
182,192,41757,1,2,0:0:0:0:
402,192,42073,1,10,0:0:0:0:
109,192,42388,1,2,0:0:0:0:
329,192,42704,1,10,0:0:0:0:
36,192,43020,1,2,0:0:0:0:
182,192,43178,1,2,0:0:0:0:
329,192,43336,1,10,0:0:0:0:
109,192,43651,1,2,0:0:0:0:
402,192,43967,128,10,44283:0:0:0:0:
36,192,44283,1,2,0:0:0:0:
329,192,44283,1,4,0:0:0:0:
256,192,44441,1,2,0:0:0:0:
182,192,44599,1,10,0:0:0:0:
402,192,44915,1,2,0:0:0:0:
109,192,45230,1,10,0:0:0:0:
475,192,45546,1,2,0:0:0:0:
329,192,45862,1,10,0:0:0:0:
36,192,46178,1,2,0:0:0:0:
182,192,46494,1,10,0:0:0:0:
256,192,46809,1,2,0:0:0:0:
402,192,47125,1,10,0:0:0:0:
109,192,47441,1,2,0:0:0:0:
256,192,47757,1,10,0:0:0:0:
475,192,48073,1,2,0:0:0:0:
182,192,48388,1,10,0:0:0:0:
36,192,48704,1,2,0:0:0:0:
329,192,49020,1,10,0:0:0:0:
256,192,49178,1,2,0:0:0:0:
182,192,49336,1,2,0:0:0:0:
109,192,49651,1,10,0:0:0:0:
329,192,49967,1,2,0:0:0:0:
402,192,50283,1,10,0:0:0:0:
36,192,50599,1,2,0:0:0:0:
182,192,50915,1,10,0:0:0:0:
475,192,51230,1,2,0:0:0:0:
329,192,51546,1,10,0:0:0:0:
402,192,51862,128,2,52494:0:0:0:0:
182,192,52178,1,10,0:0:0:0:
109,192,52494,128,2,53125:0:0:0:0:
329,192,52809,1,10,0:0:0:0:
475,192,53125,128,2,53757:0:0:0:0:
182,192,53441,128,10,53757:0:0:0:0:
36,192,53757,128,2,54388:0:0:0:0:
329,192,54073,128,10,54388:0:0:0:0:
256,192,54388,128,0,54704:0:0:0:0:
109,192,54704,1,10,0:0:0:0:
402,192,54704,1,4,0:0:0:0:
182,192,56757,1,0,0:0:0:0:
329,192,56915,1,0,0:0:0:0:
256,192,58178,1,8,0:0:0:0:
256,192,58494,1,8,0:0:0:0:
256,192,58809,1,8,0:0:0:0:
109,192,58967,1,2,0:0:0:0:
402,192,59125,1,8,0:0:0:0:
256,192,59125,1,4,0:0:0:0:
182,192,59441,1,2,0:0:0:0:
36,192,59441,1,4,0:0:0:0:
329,192,59757,128,10,60073:0:0:0:0:
109,192,60073,128,10,60388:0:0:0:0:
402,192,60388,128,10,60704:0:0:0:0:
182,192,60704,128,10,61020:0:0:0:0:
475,192,61020,128,10,61336:0:0:0:0:
36,192,61336,128,10,61651:0:0:0:0:
329,192,61651,128,10,61967:0:0:0:0:
475,192,62125,1,10,0:0:0:0:
36,192,62125,1,4,0:0:0:0:
402,192,62362,1,8,0:0:0:0:
329,192,62599,1,14,0:0:0:0:
256,192,62836,1,14,0:0:0:0:
182,192,63073,1,14,0:0:0:0:
109,192,63309,1,14,0:0:0:0:
36,192,63546,1,14,0:0:0:0:
475,192,63783,1,14,0:0:0:0:
329,192,64020,1,14,0:0:0:0:
182,192,64178,1,14,0:0:0:0:
36,192,64336,1,14,0:0:0:0:
402,192,64494,1,8,0:0:0:0:
256,192,64494,1,6,0:0:0:0:
109,192,65757,1,8,0:0:0:0:
182,192,65757,1,4,0:0:0:0:
402,192,66073,1,8,0:0:0:0:
329,192,66073,1,4,0:0:0:0:
109,192,66388,1,8,0:0:0:0:
182,192,66388,1,4,0:0:0:0:
402,192,66704,1,6,0:0:0:0:
329,192,66704,1,8,0:0:0:0:
475,192,67020,128,0,68283:0:0:0:0:
36,192,68283,128,0,69546:0:0:0:0:
182,192,69546,128,0,70809:0:0:0:0:
329,192,70809,128,0,72073:0:0:0:0:
109,192,72073,128,0,73336:0:0:0:0:
402,192,73336,128,0,74599:0:0:0:0:
36,192,74599,128,0,75977:0:0:0:0:
256,192,75977,128,0,77769:0:0:0:0:
36,192,77769,1,4,0:0:0:0:
109,192,77769,1,2,0:0:0:0:
402,192,78084,1,8,0:0:0:0:
109,192,78400,1,2,0:0:0:0:
402,192,78716,1,8,0:0:0:0:
36,192,78874,1,2,0:0:0:0:
182,192,79190,1,2,0:0:0:0:
329,192,79347,1,8,0:0:0:0:
36,192,79663,1,2,0:0:0:0:
329,192,79979,1,8,0:0:0:0:
182,192,80295,1,2,0:0:0:0:
475,192,80611,1,8,0:0:0:0:
182,192,80926,1,2,0:0:0:0:
475,192,81242,1,8,0:0:0:0:
109,192,81400,1,2,0:0:0:0:
256,192,81716,1,2,0:0:0:0:
402,192,81874,1,8,0:0:0:0:
182,192,82190,1,2,0:0:0:0:
329,192,82505,1,12,0:0:0:0:
36,192,82821,1,2,0:0:0:0:
475,192,82821,1,4,0:0:0:0:
182,192,83137,1,10,0:0:0:0:
36,192,83453,1,2,0:0:0:0:
182,192,83769,1,10,0:0:0:0:
475,192,84084,1,2,0:0:0:0:
329,192,84400,1,10,0:0:0:0:
475,192,84716,1,2,0:0:0:0:
329,192,85032,1,10,0:0:0:0:
109,192,85347,1,2,0:0:0:0:
182,192,85663,1,10,0:0:0:0:
402,192,85979,1,2,0:0:0:0:
329,192,86295,1,10,0:0:0:0:
475,192,86611,128,2,86926:0:0:0:0:
329,192,86926,128,10,87242:0:0:0:0:
182,192,87242,128,2,87558:0:0:0:0:
36,192,87558,128,14,87874:0:0:0:0:
256,192,87874,1,2,0:0:0:0:
109,192,88190,1,8,0:0:0:0:
402,192,88190,1,4,0:0:0:0:
402,192,88505,1,2,0:0:0:0:
109,192,88821,1,8,0:0:0:0:
475,192,88979,1,2,0:0:0:0:
329,192,89295,1,2,0:0:0:0:
182,192,89453,1,8,0:0:0:0:
475,192,89769,1,2,0:0:0:0:
182,192,90084,1,8,0:0:0:0:
329,192,90400,1,2,0:0:0:0:
36,192,90716,1,8,0:0:0:0:
329,192,91032,1,2,0:0:0:0:
36,192,91347,1,8,0:0:0:0:
402,192,91505,1,2,0:0:0:0:
256,192,91821,1,2,0:0:0:0:
109,192,91979,1,8,0:0:0:0:
329,192,92295,1,2,0:0:0:0:
182,192,92611,1,12,0:0:0:0:
475,192,92926,1,2,0:0:0:0:
36,192,92926,1,4,0:0:0:0:
329,192,93242,1,10,0:0:0:0:
475,192,93558,1,2,0:0:0:0:
329,192,93874,1,10,0:0:0:0:
36,192,94190,1,2,0:0:0:0:
182,192,94505,1,10,0:0:0:0:
36,192,94821,1,2,0:0:0:0:
182,192,95137,1,10,0:0:0:0:
402,192,95453,1,2,0:0:0:0:
329,192,95769,1,10,0:0:0:0:
109,192,96084,1,2,0:0:0:0:
182,192,96400,1,10,0:0:0:0:
36,192,96716,128,2,97032:0:0:0:0:
475,192,97032,128,10,97347:0:0:0:0:
329,192,97347,128,2,97663:0:0:0:0:
182,192,97663,128,14,97979:0:0:0:0:
109,192,97979,1,2,0:0:0:0:
402,192,97979,1,4,0:0:0:0:
329,192,98453,1,2,0:0:0:0:
182,192,98611,1,8,0:0:0:0:
402,192,99084,1,2,0:0:0:0:
256,192,99400,1,2,0:0:0:0:
109,192,99716,1,2,0:0:0:0:
402,192,99874,1,8,0:0:0:0:
36,192,100347,1,2,0:0:0:0:
182,192,100505,1,2,0:0:0:0:
475,192,100979,1,2,0:0:0:0:
329,192,101137,1,8,0:0:0:0:
256,192,101611,1,2,0:0:0:0:
109,192,101926,1,2,0:0:0:0:
402,192,102084,1,2,0:0:0:0:
109,192,102400,1,8,0:0:0:0:
182,192,102400,1,4,0:0:0:0:
402,192,102716,1,8,0:0:0:0:
329,192,102716,1,4,0:0:0:0:
36,192,103032,1,2,0:0:0:0:
182,192,103190,1,2,0:0:0:0:
329,192,103347,1,12,0:0:0:0:
475,192,103347,1,2,0:0:0:0:
36,192,104611,128,0,104926:0:0:0:0:
182,192,104926,128,0,105242:0:0:0:0:
329,192,105242,128,0,105558:0:0:0:0:
475,192,105558,1,4,0:0:0:0:
36,192,105558,1,8,0:0:0:0:
182,192,105874,1,8,0:0:0:0:
329,192,106190,1,8,0:0:0:0:
475,192,106505,1,8,0:0:0:0:
109,192,106821,1,8,0:0:0:0:
402,192,106821,1,4,0:0:0:0:
329,192,107137,1,8,0:0:0:0:
36,192,107453,1,8,0:0:0:0:
256,192,107453,1,4,0:0:0:0:
182,192,107769,1,8,0:0:0:0:
402,192,107769,1,4,0:0:0:0:
109,192,108084,1,2,0:0:0:0:
475,192,108084,128,4,110611:0:0:0:0:
329,192,108400,1,10,0:0:0:0:
36,192,108716,1,2,0:0:0:0:
256,192,109032,1,10,0:0:0:0:
182,192,109347,1,2,0:0:0:0:
402,192,109663,1,10,0:0:0:0:
109,192,109979,1,2,0:0:0:0:
329,192,110295,1,10,0:0:0:0:
256,192,110611,1,2,0:0:0:0:
36,192,110926,1,10,0:0:0:0:
182,192,111242,1,2,0:0:0:0:
256,192,111558,1,10,0:0:0:0:
402,192,111874,1,2,0:0:0:0:
109,192,112190,1,10,0:0:0:0:
256,192,112505,1,2,0:0:0:0:
329,192,112821,1,10,0:0:0:0:
402,192,112979,1,2,0:0:0:0:
475,192,113137,1,2,0:0:0:0:
329,192,113453,1,10,0:0:0:0:
256,192,113769,1,2,0:0:0:0:
109,192,114084,1,10,0:0:0:0:
36,192,114400,1,2,0:0:0:0:
402,192,114716,1,10,0:0:0:0:
329,192,115032,1,2,0:0:0:0:
182,192,115347,1,10,0:0:0:0:
109,192,115663,1,2,0:0:0:0:
475,192,115979,1,10,0:0:0:0:
402,192,116295,1,2,0:0:0:0:
256,192,116611,1,10,0:0:0:0:
182,192,116926,1,2,0:0:0:0:
109,192,117084,1,2,0:0:0:0:
36,192,117242,1,10,0:0:0:0:
256,192,117558,1,2,0:0:0:0:
402,192,117874,1,6,0:0:0:0:
329,192,117874,1,8,0:0:0:0:
182,192,118190,1,2,0:0:0:0:
36,192,118190,128,4,120716:0:0:0:0:
256,192,118505,1,10,0:0:0:0:
475,192,118821,1,2,0:0:0:0:
402,192,119137,1,10,0:0:0:0:
109,192,119453,1,2,0:0:0:0:
182,192,119769,1,10,0:0:0:0:
402,192,120084,1,2,0:0:0:0:
329,192,120400,1,10,0:0:0:0:
182,192,120716,1,2,0:0:0:0:
475,192,121032,1,10,0:0:0:0:
329,192,121347,1,2,0:0:0:0:
256,192,121663,1,10,0:0:0:0:
109,192,121979,1,2,0:0:0:0:
402,192,122295,1,10,0:0:0:0:
256,192,122611,1,2,0:0:0:0:
182,192,122926,1,10,0:0:0:0:
109,192,123084,1,2,0:0:0:0:
36,192,123242,1,6,0:0:0:0:
182,192,123558,1,10,0:0:0:0:
256,192,123874,1,2,0:0:0:0:
402,192,124190,1,10,0:0:0:0:
475,192,124505,1,2,0:0:0:0:
402,192,124663,1,2,0:0:0:0:
329,192,124821,1,10,0:0:0:0:
182,192,125137,1,2,0:0:0:0:
109,192,125453,1,2,0:0:0:0:
402,192,125453,1,12,0:0:0:0:
182,192,125769,128,8,126400:0:0:0:0:
329,192,126400,1,8,0:0:0:0:
475,192,126716,1,4,0:0:0:0:
36,192,126716,1,2,0:0:0:0:
402,192,127032,128,2,127663:0:0:0:0:
109,192,127663,1,2,0:0:0:0:
329,192,127979,1,4,0:0:0:0:
182,192,127979,1,2,0:0:0:0:
475,192,128295,1,4,0:0:0:0:
36,192,128295,128,2,129242:0:0:0:0:
182,192,128926,128,12,129242:0:0:0:0:
329,192,129242,1,12,0:0:0:0:
402,192,129558,1,8,0:0:0:0:
109,192,129558,1,4,0:0:0:0:
329,192,129874,1,8,0:0:0:0:
182,192,130032,1,8,0:0:0:0:
402,192,130347,1,6,0:0:0:0:
109,192,130347,1,8,0:0:0:0:
402,192,130505,1,4,0:0:0:0:
109,192,130505,1,10,0:0:0:0:
