osu file format v14

[General]
AudioFilename: audio.mp3
AudioLeadIn: 0
PreviewTime: 77704
Countdown: 0
SampleSet: Soft
StackLeniency: 0.7
Mode: 3
LetterboxInBreaks: 0
SpecialStyle: 0
WidescreenStoryboard: 0

[Editor]
DistanceSpacing: 1.4
BeatDivisor: 4
GridSize: 8
TimelineZoom: 1.299999

[Metadata]
Title:Panic! Pop'n! Picnic!
TitleUnicode:Panic! Pop'n! Picnic!
Artist:Umeboshi Chazuke
ArtistUnicode:梅干茶漬け
Creator:jakads
Version:Another!
Source:BMS
Tags:Lude Kawawa Wonki BOFU2016 - Legendary Again - ああ…翡翠茶漬け… ~もっと おかわり!~ Chipstyle Hi-Pop むらたむうた 8bit Chiptune
BeatmapID:1122253
BeatmapSetID:528031

[Difficulty]
HPDrainRate:8.3
CircleSize:7
OverallDifficulty:8
ApproachRate:9
SliderMultiplier:1.8
SliderTickRate:1

[Events]
//Background and Video events
Video,0,"PPP.mp4"
0,0,"maxresdefault.png",0,0
//Break Periods
//Storyboard Layer 0 (Background)
//Storyboard Layer 1 (Fail)
//Storyboard Layer 2 (Pass)
//Storyboard Layer 3 (Foreground)
//Storyboard Sound Samples

[TimingPoints]
73,315.789473684211,4,2,1,40,1,0
1020,-52.6315789473684,4,2,1,40,0,0
1059,-142.857142857143,4,2,1,40,0,0
1178,-52.6315789473684,4,2,1,40,0,0
1217,-142.857142857143,4,2,1,40,0,0
1336,-100,4,2,1,40,0,0
6073,-45.4545454545455,4,2,1,40,0,0
6151,-166.666666666667,4,2,1,40,0,0
6388,-100,4,2,1,40,0,0
8915,-52.6315789473684,4,2,1,40,0,0
8954,-142.857142857143,4,2,1,40,0,0
9073,-52.6315789473684,4,2,1,40,0,0
9112,-142.857142857143,4,2,1,40,0,0
9230,-52.6315789473684,4,2,1,40,0,0
9270,-142.857142857143,4,2,1,40,0,0
9388,-52.6315789473684,4,2,1,40,0,0
9428,-142.857142857143,4,2,1,40,0,0
9546,-45.4545454545455,4,2,1,40,0,0
9625,-166.666666666667,4,2,1,40,0,0
9862,-45.4545454545455,4,2,1,40,0,1
9941,-166.666666666667,4,2,1,40,0,0
10178,-52.6315789473684,4,2,1,40,0,0
10217,-142.857142857143,4,2,1,40,0,0
10336,-52.6315789473684,4,2,1,40,0,0
10375,-142.857142857143,4,2,1,40,0,0
10494,-52.6315789473684,4,2,1,40,0,0
10533,-142.857142857143,4,2,1,40,0,0
10651,-52.6315789473684,4,2,1,40,0,0
10691,-142.857142857143,4,2,1,40,0,0
10809,-45.4545454545455,4,2,1,40,0,0
10849,-166.666666666667,4,2,1,40,0,0
10967,-52.6315789473684,4,2,1,40,0,1
11007,-142.857142857143,4,2,1,40,0,1
11046,-142.857142857143,4,2,1,40,0,0
11125,-45.4545454545455,4,2,1,40,0,1
11204,-166.666666666667,4,2,1,40,0,0
11441,-100,4,2,1,40,0,0
13178,-45.4545454545455,4,2,1,40,0,0
13257,-166.666666666667,4,2,1,40,0,0
13494,-66.6666666666667,4,2,1,40,0,1
13573,-200,4,2,1,40,0,0
13651,-66.6666666666667,4,2,1,40,0,1
13730,-200,4,2,1,40,0,0
13809,-111.111111111111,4,2,1,40,0,0
13967,-100,4,2,1,40,0,0
24073,-100,4,2,1,40,0,1
33546,-100,4,2,1,40,0,0
33862,-45.4545454545455,4,2,1,40,0,1
33941,-166.666666666667,4,2,1,40,0,0
34178,-100,4,2,1,40,0,0
44283,-100,4,2,1,40,0,1
54388,-100,4,2,1,40,0,0
54704,-90.9090909090909,4,2,1,40,0,1
54744,-95.2380952380952,4,2,1,40,0,1
54783,-100,4,2,1,40,0,0
54823,-105.263157894737,4,2,1,40,0,0
54862,-111.111111111111,4,2,1,40,0,0
59441,-108.695652173913,4,2,1,40,0,0
60073,-105.263157894737,4,2,1,40,0,0
60704,-103.092783505155,4,2,1,40,0,0
61336,-100,4,2,1,40,0,0
62125,-100,4,2,1,40,0,1
64494,-100,4,2,1,40,0,0
65757,-100,4,2,1,40,0,1
66704,-102.040816326531,4,2,1,40,0,1
66783,-104.166666666667,4,2,1,40,0,1
66862,-106.382978723404,4,2,1,40,0,0
66941,-108.695652173913,4,2,1,40,0,0
67020,-111.111111111111,4,2,1,40,0,0
74915,333.333333333333,4,2,1,40,1,0
74915,-105.263157894737,4,2,1,40,0,0
75249,352.941176470588,4,2,1,40,1,0
75249,-99.009900990099,4,2,1,40,0,0
75601,375,4,2,1,40,1,0
75601,-93.5672514619883,4,2,1,40,0,0
75977,400,4,2,1,40,1,0
75977,-87.719298245614,4,2,1,40,0,0
76377,428.571428571429,4,2,1,40,1,0
76377,-81.9672131147541,4,2,1,40,0,0
76806,461.538461538462,4,2,1,40,1,0
76806,-76.0282825210979,4,2,1,40,0,0
77267,500,4,2,1,40,1,0
77267,-70.1754385964912,4,2,1,40,0,0
77769,315.789473684211,4,2,1,40,1,1
87874,-101.010101010101,4,2,1,40,0,0
87913,-102.040816326531,4,2,1,40,0,0
87953,-103.092783505155,4,2,1,40,0,0
87992,-104.166666666667,4,2,1,40,0,0
88032,-105.263157894737,4,2,1,40,0,0
88071,-106.382978723404,4,2,1,40,0,0
88111,-107.52688172043,4,2,1,40,0,0
88150,-108.695652173913,4,2,1,40,0,0
88190,-100,4,2,1,40,0,1
97979,-100,4,2,1,40,0,0
103032,-45.4545454545455,4,2,1,40,0,1
103071,-166.666666666667,4,2,1,40,0,1
103190,-45.4545454545455,4,2,1,40,0,1
103229,-166.666666666667,4,2,1,40,0,1
103347,-10,4,2,1,40,0,1
103387,-111.111111111111,4,2,1,40,0,1
103663,-111.111111111111,4,2,1,40,0,0
104137,-109.89010989011,4,2,1,40,0,0
104295,-108.695652173913,4,2,1,40,0,0
104453,-107.52688172043,4,2,1,40,0,0
104611,-106.382978723404,4,2,1,40,0,0
104769,-105.263157894737,4,2,1,40,0,0
104926,-104.166666666667,4,2,1,40,0,0
105084,-103.092783505155,4,2,1,40,0,0
105242,-102.040816326531,4,2,1,40,0,0
105400,-101.010101010101,4,2,1,40,0,0
105558,-100,4,2,1,40,0,0
108084,-100,4,2,1,40,0,1
117874,-100,4,2,1,40,0,0
118190,-100,4,2,1,40,0,1
125769,-52.6315789473684,4,2,1,40,0,0
125808,-142.857142857143,4,2,1,40,0,0
125926,-52.6315789473684,4,2,1,40,0,0
125966,-142.857142857143,4,2,1,40,0,0
126084,-52.6315789473684,4,2,1,40,0,0
126124,-142.857142857143,4,2,1,40,0,0
126242,-52.6315789473684,4,2,1,40,0,0
126282,-142.857142857143,4,2,1,40,0,0
126400,-45.4545454545455,4,2,1,40,0,0
126479,-166.666666666667,4,2,1,40,0,0
126716,-45.4545454545455,4,2,1,40,0,1
126795,-166.666666666667,4,2,1,40,0,0
127032,-52.6315789473684,4,2,1,40,0,0
127071,-142.857142857143,4,2,1,40,0,0
127190,-52.6315789473684,4,2,1,40,0,0
127229,-142.857142857143,4,2,1,40,0,0
127347,-52.6315789473684,4,2,1,40,0,0
127387,-142.857142857143,4,2,1,40,0,0
127505,-52.6315789473684,4,2,1,40,0,0
127545,-142.857142857143,4,2,1,40,0,0
127663,-45.4545454545455,4,2,1,40,0,0
127703,-166.666666666667,4,2,1,40,0,0
127821,-52.6315789473684,4,2,1,40,0,1
127861,-142.857142857143,4,2,1,40,0,1
127900,-142.857142857143,4,2,1,40,0,0
127979,-45.4545454545455,4,2,1,40,0,1
128058,-166.666666666667,4,2,1,40,0,0
128295,-100,4,2,1,40,0,0
130032,-45.4545454545455,4,2,1,40,0,0
130111,-166.666666666667,4,2,1,40,0,0
130347,-66.6666666666667,4,2,1,40,0,1
130426,-200,4,2,1,40,0,0
130505,-66.6666666666667,4,2,1,40,0,1
130584,-200,4,2,1,40,0,0

[HitObjects]
402,192,73,5,8,0:0:0:0:
475,192,73,1,0,0:0:0:0:
36,192,151,1,8,0:0:0:0:
109,192,151,1,0,0:0:0:0:
329,192,230,1,2,0:0:0:0:
182,192,309,1,2,0:0:0:0:
109,192,388,1,8,0:0:0:0:
36,192,388,1,0,0:0:0:0:
402,192,467,1,8,0:0:0:0:
475,192,467,1,0,0:0:0:0:
182,192,546,1,2,0:0:0:0:
329,192,625,1,2,0:0:0:0:
402,192,704,1,8,0:0:0:0:
475,192,704,1,0,0:0:0:0:
109,192,783,1,8,0:0:0:0:
36,192,783,1,0,0:0:0:0:
329,192,862,1,2,0:0:0:0:
182,192,941,1,2,0:0:0:0:
109,192,1020,1,8,0:0:0:0:
36,192,1020,1,0,0:0:0:0:
402,192,1178,1,8,0:0:0:0:
475,192,1178,1,0,0:0:0:0:
36,192,1336,1,2,0:0:0:0:
109,192,1336,1,4,0:0:0:0:
475,192,1336,1,0,0:0:0:0:
402,192,1336,1,0,0:0:0:0:
182,192,1415,1,0,0:0:0:0:
256,192,1494,1,0,0:0:0:0:
329,192,1573,1,0,0:0:0:0:
475,192,1651,1,0,0:0:0:0:
402,192,1730,1,0,0:0:0:0:
329,192,1809,1,0,0:0:0:0:
256,192,1888,1,0,0:0:0:0:
109,192,1967,1,0,0:0:0:0:
182,192,2046,1,0,0:0:0:0:
256,192,2125,1,0,0:0:0:0:
329,192,2204,1,0,0:0:0:0:
402,192,2283,1,0,0:0:0:0:
329,192,2362,1,0,0:0:0:0:
256,192,2441,1,0,0:0:0:0:
182,192,2520,1,0,0:0:0:0:
36,192,2599,1,0,0:0:0:0:
109,192,2678,1,0,0:0:0:0:
182,192,2757,1,0,0:0:0:0:
256,192,2836,1,0,0:0:0:0:
402,192,2915,1,0,0:0:0:0:
329,192,2994,1,0,0:0:0:0:
256,192,3073,1,0,0:0:0:0:
182,192,3151,1,0,0:0:0:0:
36,192,3230,1,0,0:0:0:0:
109,192,3309,1,0,0:0:0:0:
182,192,3388,1,0,0:0:0:0:
256,192,3467,1,0,0:0:0:0:
329,192,3546,1,0,0:0:0:0:
256,192,3625,1,0,0:0:0:0:
182,192,3704,1,0,0:0:0:0:
475,192,3704,1,0,0:0:0:0:
109,192,3783,1,0,0:0:0:0:
402,192,3783,1,0,0:0:0:0:
36,192,3862,1,0,0:0:0:0:
329,192,3862,1,0,0:0:0:0:
256,192,3941,1,0,0:0:0:0:
182,192,4020,1,0,0:0:0:0:
109,192,4099,1,0,0:0:0:0:
36,192,4178,1,0,0:0:0:0:
182,192,4257,1,0,0:0:0:0:
256,192,4336,1,0,0:0:0:0:
329,192,4415,1,0,0:0:0:0:
402,192,4494,1,0,0:0:0:0:
256,192,4573,1,0,0:0:0:0:
182,192,4651,1,0,0:0:0:0:
109,192,4730,1,0,0:0:0:0:
36,192,4809,1,0,0:0:0:0:
256,192,4888,1,0,0:0:0:0:
329,192,4967,1,0,0:0:0:0:
402,192,5046,1,0,0:0:0:0:
182,192,5125,1,8,0:0:0:0:
475,192,5125,128,0,5441:0:0:0:0:
256,192,5204,1,8,0:0:0:0:
329,192,5283,1,8,0:0:0:0:
402,192,5362,1,8,0:0:0:0:
329,192,5441,128,2,5757:0:0:0:0:
36,192,5441,1,0,0:0:0:0:
109,192,5520,1,2,0:0:0:0:
182,192,5599,1,2,0:0:0:0:
256,192,5678,1,2,0:0:0:0:
475,192,5757,1,2,0:0:0:0:
182,192,5757,128,0,6073:0:0:0:0:
402,192,5836,1,2,0:0:0:0:
329,192,5915,1,2,0:0:0:0:
256,192,5994,1,2,0:0:0:0:
36,192,6073,1,4,0:0:0:0:
109,192,6073,1,2,0:0:0:0:
475,192,6073,1,0,0:0:0:0:
402,192,6073,1,0,0:0:0:0:
182,192,6388,1,4,0:0:0:0:
36,192,6388,1,2,0:0:0:0:
329,192,6388,1,0,0:0:0:0:
402,192,6388,1,0,0:0:0:0:
475,192,6546,1,0,0:0:0:0:
256,192,6704,1,2,0:0:0:0:
109,192,6704,1,8,0:0:0:0:
36,192,6704,1,0,0:0:0:0:
402,192,6862,1,0,0:0:0:0:
475,192,6862,1,0,0:0:0:0:
329,192,7020,1,2,0:0:0:0:
182,192,7020,1,0,0:0:0:0:
36,192,7020,1,0,0:0:0:0:
402,192,7178,1,0,0:0:0:0:
475,192,7178,1,0,0:0:0:0:
329,192,7336,1,2,0:0:0:0:
256,192,7336,1,8,0:0:0:0:
109,192,7336,1,0,0:0:0:0:
402,192,7494,1,0,0:0:0:0:
475,192,7494,1,0,0:0:0:0:
256,192,7651,1,2,0:0:0:0:
182,192,7651,1,0,0:0:0:0:
329,192,7651,1,0,0:0:0:0:
109,192,7809,1,2,0:0:0:0:
36,192,7809,1,0,0:0:0:0:
475,192,7809,1,0,0:0:0:0:
402,192,7967,1,2,0:0:0:0:
329,192,7967,1,8,0:0:0:0:
256,192,7967,1,0,0:0:0:0:
109,192,8125,1,0,0:0:0:0:
36,192,8125,1,0,0:0:0:0:
329,192,8283,1,2,0:0:0:0:
256,192,8283,1,0,0:0:0:0:
475,192,8283,1,0,0:0:0:0:
109,192,8441,1,0,0:0:0:0:
36,192,8441,1,0,0:0:0:0:
182,192,8520,1,2,0:0:0:0:
256,192,8520,1,0,0:0:0:0:
402,192,8599,1,2,0:0:0:0:
475,192,8599,1,4,0:0:0:0:
329,192,8599,1,8,0:0:0:0:
36,192,8599,1,0,0:0:0:0:
256,192,8757,1,2,0:0:0:0:
109,192,8757,1,0,0:0:0:0:
329,192,8915,1,8,0:0:0:0:
182,192,8915,1,0,0:0:0:0:
36,192,8915,1,0,0:0:0:0:
36,192,9073,1,8,0:0:0:0:
182,192,9073,1,0,0:0:0:0:
329,192,9073,1,0,0:0:0:0:
329,192,9230,1,8,0:0:0:0:
182,192,9230,1,0,0:0:0:0:
36,192,9230,1,0,0:0:0:0:
36,192,9388,1,8,0:0:0:0:
182,192,9388,1,0,0:0:0:0:
329,192,9388,1,0,0:0:0:0:
329,192,9546,128,8,9862:0:0:0:0:
182,192,9546,128,0,9862:0:0:0:0:
36,192,9546,128,0,9862:0:0:0:0:
109,192,9862,1,4,0:0:0:0:
256,192,9862,1,2,0:0:0:0:
475,192,9862,1,0,0:0:0:0:
402,192,9862,1,0,0:0:0:0:
256,192,10178,1,2,0:0:0:0:
109,192,10178,1,0,0:0:0:0:
402,192,10178,1,0,0:0:0:0:
402,192,10336,1,2,0:0:0:0:
256,192,10336,1,0,0:0:0:0:
109,192,10336,1,0,0:0:0:0:
109,192,10494,1,2,0:0:0:0:
256,192,10494,1,0,0:0:0:0:
402,192,10494,1,0,0:0:0:0:
402,192,10651,1,2,0:0:0:0:
256,192,10651,1,0,0:0:0:0:
109,192,10651,1,0,0:0:0:0:
109,192,10809,128,2,11125:0:0:0:0:
256,192,10809,128,0,11125:0:0:0:0:
402,192,10809,128,0,11125:0:0:0:0:
182,192,10967,1,0,0:0:0:0:
36,192,11125,1,4,0:0:0:0:
475,192,11125,1,2,0:0:0:0:
329,192,11125,1,0,0:0:0:0:
182,192,11125,1,0,0:0:0:0:
182,192,11441,1,4,0:0:0:0:
329,192,11441,1,2,0:0:0:0:
475,192,11441,1,0,0:0:0:0:
402,192,11441,1,0,0:0:0:0:
36,192,11599,1,8,0:0:0:0:
256,192,11599,1,0,0:0:0:0:
109,192,11678,1,8,0:0:0:0:
182,192,11757,1,2,0:0:0:0:
402,192,11757,1,0,0:0:0:0:
256,192,11915,1,2,0:0:0:0:
475,192,11915,1,0,0:0:0:0:
109,192,12073,1,4,0:0:0:0:
182,192,12073,1,8,0:0:0:0:
36,192,12073,1,0,0:0:0:0:
329,192,12151,1,8,0:0:0:0:
475,192,12151,1,0,0:0:0:0:
256,192,12230,1,0,0:0:0:0:
182,192,12309,1,8,0:0:0:0:
36,192,12309,1,0,0:0:0:0:
329,192,12388,1,8,0:0:0:0:
475,192,12388,1,4,0:0:0:0:
402,192,12388,1,0,0:0:0:0:
402,192,12546,1,8,0:0:0:0:
109,192,12546,1,0,0:0:0:0:
329,192,12704,1,8,0:0:0:0:
182,192,12704,1,4,0:0:0:0:
36,192,12704,1,0,0:0:0:0:
256,192,12704,1,0,0:0:0:0:
256,192,12862,1,2,0:0:0:0:
475,192,12862,1,0,0:0:0:0:
402,192,12941,1,2,0:0:0:0:
182,192,12941,1,0,0:0:0:0:
329,192,13020,1,8,0:0:0:0:
109,192,13020,1,0,0:0:0:0:
256,192,13178,1,8,0:0:0:0:
36,192,13178,1,0,0:0:0:0:
109,192,13494,1,2,0:0:0:0:
182,192,13494,1,8,0:0:0:0:
329,192,13494,1,4,0:0:0:0:
402,192,13494,1,0,0:0:0:0:
402,192,13651,1,4,0:0:0:0:
329,192,13651,1,8,0:0:0:0:
182,192,13651,1,2,0:0:0:0:
109,192,13651,1,0,0:0:0:0:
256,192,13809,1,0,0:0:0:0:
109,192,13967,1,2,0:0:0:0:
36,192,13967,1,0,0:0:0:0:
402,192,13967,1,0,0:0:0:0:
475,192,13967,1,0,0:0:0:0:
329,192,14125,1,0,0:0:0:0:
182,192,14204,1,0,0:0:0:0:
475,192,14283,1,2,0:0:0:0:
109,192,14283,1,0,0:0:0:0:
402,192,14283,1,0,0:0:0:0:
329,192,14441,1,0,0:0:0:0:
36,192,14441,1,0,0:0:0:0:
475,192,14599,1,2,0:0:0:0:
109,192,14599,1,0,0:0:0:0:
402,192,14599,1,0,0:0:0:0:
329,192,14757,1,0,0:0:0:0:
475,192,14915,1,2,0:0:0:0:
402,192,14915,1,0,0:0:0:0:
256,192,14915,1,0,0:0:0:0:
329,192,15073,1,0,0:0:0:0:
182,192,15073,1,0,0:0:0:0:
109,192,15230,1,2,0:0:0:0:
36,192,15230,1,0,0:0:0:0:
402,192,15230,1,0,0:0:0:0:
182,192,15388,1,0,0:0:0:0:
256,192,15467,1,0,0:0:0:0:
109,192,15546,1,2,0:0:0:0:
36,192,15546,1,0,0:0:0:0:
402,192,15546,1,0,0:0:0:0:
182,192,15704,1,0,0:0:0:0:
475,192,15704,1,0,0:0:0:0:
109,192,15862,1,2,0:0:0:0:
36,192,15862,1,0,0:0:0:0:
329,192,15862,1,0,0:0:0:0:
182,192,16020,1,0,0:0:0:0:
109,192,16178,1,2,0:0:0:0:
36,192,16178,1,0,0:0:0:0:
256,192,16178,1,0,0:0:0:0:
182,192,16336,1,0,0:0:0:0:
475,192,16336,1,0,0:0:0:0:
36,192,16494,1,2,0:0:0:0:
329,192,16494,1,0,0:0:0:0:
402,192,16494,1,0,0:0:0:0:
475,192,16651,1,0,0:0:0:0:
256,192,16730,1,0,0:0:0:0:
402,192,16809,1,2,0:0:0:0:
329,192,16809,1,0,0:0:0:0:
182,192,16809,1,0,0:0:0:0:
475,192,16967,1,0,0:0:0:0:
109,192,16967,1,0,0:0:0:0:
402,192,17125,1,2,0:0:0:0:
329,192,17125,1,0,0:0:0:0:
182,192,17125,1,0,0:0:0:0:
475,192,17283,1,0,0:0:0:0:
402,192,17441,1,2,0:0:0:0:
329,192,17441,1,0,0:0:0:0:
256,192,17441,1,0,0:0:0:0:
475,192,17599,1,0,0:0:0:0:
36,192,17599,1,0,0:0:0:0:
182,192,17757,1,2,0:0:0:0:
109,192,17757,1,0,0:0:0:0:
329,192,17757,1,0,0:0:0:0:
36,192,17915,1,0,0:0:0:0:
402,192,17915,1,0,0:0:0:0:
256,192,17994,1,0,0:0:0:0:
182,192,18073,1,2,0:0:0:0:
109,192,18073,1,0,0:0:0:0:
329,192,18073,1,0,0:0:0:0:
36,192,18230,1,0,0:0:0:0:
475,192,18230,1,0,0:0:0:0:
182,192,18388,1,2,0:0:0:0:
109,192,18388,1,0,0:0:0:0:
402,192,18388,1,0,0:0:0:0:
36,192,18546,1,0,0:0:0:0:
182,192,18704,1,2,0:0:0:0:
109,192,18704,1,0,0:0:0:0:
329,192,18704,1,0,0:0:0:0:
182,192,18862,1,2,0:0:0:0:
256,192,18862,1,0,0:0:0:0:
402,192,18862,1,0,0:0:0:0:
256,192,19020,1,2,0:0:0:0:
329,192,19020,1,0,0:0:0:0:
475,192,19020,1,0,0:0:0:0:
402,192,19178,1,0,0:0:0:0:
36,192,19257,1,0,0:0:0:0:
329,192,19336,1,2,0:0:0:0:
475,192,19336,1,0,0:0:0:0:
109,192,19336,1,0,0:0:0:0:
182,192,19494,1,0,0:0:0:0:
402,192,19494,1,0,0:0:0:0:
109,192,19651,1,2,0:0:0:0:
329,192,19651,1,0,0:0:0:0:
475,192,19651,1,0,0:0:0:0:
402,192,19809,1,0,0:0:0:0:
329,192,19967,1,2,0:0:0:0:
475,192,19967,1,0,0:0:0:0:
36,192,19967,1,0,0:0:0:0:
402,192,20125,1,0,0:0:0:0:
109,192,20125,1,0,0:0:0:0:
36,192,20283,1,2,0:0:0:0:
182,192,20283,1,0,0:0:0:0:
329,192,20283,1,0,0:0:0:0:
109,192,20441,1,0,0:0:0:0:
256,192,20520,1,0,0:0:0:0:
36,192,20599,1,2,0:0:0:0:
182,192,20599,1,0,0:0:0:0:
329,192,20599,1,0,0:0:0:0:
109,192,20757,1,0,0:0:0:0:
402,192,20757,1,0,0:0:0:0:
36,192,20915,1,2,0:0:0:0:
182,192,20915,1,0,0:0:0:0:
329,192,20915,1,0,0:0:0:0:
109,192,21073,1,0,0:0:0:0:
475,192,21073,1,0,0:0:0:0:
36,192,21230,1,2,0:0:0:0:
182,192,21230,1,0,0:0:0:0:
402,192,21230,1,0,0:0:0:0:
109,192,21388,1,0,0:0:0:0:
329,192,21388,1,0,0:0:0:0:
475,192,21546,1,2,0:0:0:0:
402,192,21546,1,0,0:0:0:0:
182,192,21546,1,0,0:0:0:0:
329,192,21704,1,0,0:0:0:0:
182,192,21704,1,0,0:0:0:0:
109,192,21783,1,0,0:0:0:0:
475,192,21862,1,2,0:0:0:0:
402,192,21862,1,0,0:0:0:0:
182,192,21862,1,0,0:0:0:0:
329,192,22020,1,0,0:0:0:0:
36,192,22020,1,0,0:0:0:0:
36,192,22178,1,2,0:0:0:0:
109,192,22178,1,0,0:0:0:0:
256,192,22178,1,0,0:0:0:0:
329,192,22257,1,0,0:0:0:0:
182,192,22336,1,0,0:0:0:0:
475,192,22336,1,0,0:0:0:0:
402,192,22415,1,0,0:0:0:0:
36,192,22494,1,2,0:0:0:0:
109,192,22494,1,0,0:0:0:0:
329,192,22494,1,0,0:0:0:0:
182,192,22651,1,0,0:0:0:0:
256,192,22651,1,0,0:0:0:0:
109,192,22809,1,2,0:0:0:0:
329,192,22809,1,0,0:0:0:0:
36,192,22809,1,0,0:0:0:0:
475,192,22967,1,2,0:0:0:0:
256,192,22967,1,0,0:0:0:0:
402,192,22967,1,0,0:0:0:0:
182,192,23125,1,2,0:0:0:0:
329,192,23125,1,0,0:0:0:0:
475,192,23125,1,0,0:0:0:0:
256,192,23283,1,0,0:0:0:0:
109,192,23283,1,0,0:0:0:0:
36,192,23441,1,2,0:0:0:0:
475,192,23441,1,0,0:0:0:0:
182,192,23441,1,0,0:0:0:0:
402,192,23599,1,0,0:0:0:0:
109,192,23678,1,2,0:0:0:0:
182,192,23678,1,0,0:0:0:0:
329,192,23757,1,2,0:0:0:0:
256,192,23757,1,0,0:0:0:0:
475,192,23757,1,0,0:0:0:0:
36,192,23915,1,2,0:0:0:0:
182,192,23915,1,0,0:0:0:0:
402,192,23915,1,0,0:0:0:0:
109,192,24073,1,2,0:0:0:0:
256,192,24073,1,4,0:0:0:0:
402,192,24073,1,0,0:0:0:0:
475,192,24073,1,0,0:0:0:0:
329,192,24230,1,0,0:0:0:0:
182,192,24230,1,0,0:0:0:0:
402,192,24309,1,0,0:0:0:0:
475,192,24388,1,8,0:0:0:0:
256,192,24388,1,2,0:0:0:0:
36,192,24388,1,0,0:0:0:0:
182,192,24546,1,0,0:0:0:0:
329,192,24546,1,0,0:0:0:0:
109,192,24704,1,2,0:0:0:0:
475,192,24704,1,0,0:0:0:0:
402,192,24704,1,0,0:0:0:0:
182,192,24862,1,0,0:0:0:0:
256,192,25020,1,2,0:0:0:0:
475,192,25020,1,8,0:0:0:0:
36,192,25020,1,0,0:0:0:0:
329,192,25178,1,0,0:0:0:0:
109,192,25178,1,0,0:0:0:0:
402,192,25336,1,2,0:0:0:0:
182,192,25336,1,0,0:0:0:0:
475,192,25336,1,0,0:0:0:0:
329,192,25494,1,0,0:0:0:0:
109,192,25494,1,0,0:0:0:0:
256,192,25573,1,0,0:0:0:0:
182,192,25651,1,2,0:0:0:0:
475,192,25651,1,8,0:0:0:0:
36,192,25651,1,0,0:0:0:0:
402,192,25809,1,0,0:0:0:0:
256,192,25809,1,0,0:0:0:0:
329,192,25967,1,2,0:0:0:0:
109,192,25967,1,0,0:0:0:0:
475,192,25967,1,0,0:0:0:0:
256,192,26125,1,0,0:0:0:0:
182,192,26283,1,2,0:0:0:0:
36,192,26283,1,8,0:0:0:0:
329,192,26283,1,0,0:0:0:0:
109,192,26441,1,0,0:0:0:0:
402,192,26441,1,0,0:0:0:0:
475,192,26599,1,2,0:0:0:0:
329,192,26599,1,0,0:0:0:0:
256,192,26599,1,0,0:0:0:0:
36,192,26757,1,0,0:0:0:0:
402,192,26757,1,0,0:0:0:0:
109,192,26836,1,0,0:0:0:0:
182,192,26915,1,2,0:0:0:0:
256,192,26915,1,8,0:0:0:0:
475,192,26915,1,0,0:0:0:0:
329,192,27073,1,0,0:0:0:0:
109,192,27073,1,0,0:0:0:0:
256,192,27230,1,2,0:0:0:0:
36,192,27230,1,0,0:0:0:0:
402,192,27230,1,0,0:0:0:0:
475,192,27388,1,0,0:0:0:0:
182,192,27388,1,0,0:0:0:0:
329,192,27546,1,2,0:0:0:0:
109,192,27546,1,8,0:0:0:0:
256,192,27546,1,0,0:0:0:0:
402,192,27704,1,0,0:0:0:0:
182,192,27704,1,0,0:0:0:0:
256,192,27862,1,2,0:0:0:0:
36,192,27862,1,0,0:0:0:0:
475,192,27862,1,0,0:0:0:0:
182,192,28020,1,0,0:0:0:0:
402,192,28020,1,0,0:0:0:0:
329,192,28099,1,0,0:0:0:0:
256,192,28178,1,2,0:0:0:0:
109,192,28178,1,8,0:0:0:0:
475,192,28178,1,0,0:0:0:0:
402,192,28336,1,0,0:0:0:0:
36,192,28336,1,0,0:0:0:0:
182,192,28494,1,2,0:0:0:0:
109,192,28494,1,0,0:0:0:0:
475,192,28494,1,0,0:0:0:0:
256,192,28651,1,0,0:0:0:0:
475,192,28809,1,2,0:0:0:0:
402,192,28809,1,8,0:0:0:0:
36,192,28809,1,0,0:0:0:0:
475,192,28967,1,2,0:0:0:0:
402,192,28967,1,0,0:0:0:0:
109,192,28967,1,0,0:0:0:0:
402,192,29125,1,2,0:0:0:0:
475,192,29125,1,0,0:0:0:0:
182,192,29125,1,0,0:0:0:0:
329,192,29283,1,0,0:0:0:0:
256,192,29283,1,0,0:0:0:0:
182,192,29362,1,0,0:0:0:0:
475,192,29441,1,2,0:0:0:0:
109,192,29441,1,8,0:0:0:0:
36,192,29441,1,0,0:0:0:0:
402,192,29599,1,0,0:0:0:0:
329,192,29599,1,0,0:0:0:0:
256,192,29757,1,2,0:0:0:0:
109,192,29757,1,0,0:0:0:0:
475,192,29757,1,0,0:0:0:0:
36,192,29915,1,0,0:0:0:0:
182,192,30073,1,2,0:0:0:0:
402,192,30073,1,8,0:0:0:0:
109,192,30073,1,0,0:0:0:0:
256,192,30230,1,0,0:0:0:0:
329,192,30230,1,0,0:0:0:0:
182,192,30388,1,2,0:0:0:0:
36,192,30388,1,0,0:0:0:0:
475,192,30388,1,0,0:0:0:0:
329,192,30546,1,0,0:0:0:0:
109,192,30546,1,0,0:0:0:0:
402,192,30625,1,0,0:0:0:0:
475,192,30704,1,2,0:0:0:0:
36,192,30704,1,4,0:0:0:0:
182,192,30704,1,8,0:0:0:0:
256,192,30704,1,0,0:0:0:0:
402,192,30862,1,0,0:0:0:0:
109,192,30862,1,0,0:0:0:0:
329,192,31020,1,2,0:0:0:0:
475,192,31020,1,4,0:0:0:0:
256,192,31020,1,8,0:0:0:0:
36,192,31020,1,0,0:0:0:0:
402,192,31336,1,0,0:0:0:0:
109,192,31494,1,0,0:0:0:0:
36,192,31651,1,2,0:0:0:0:
182,192,31651,1,4,0:0:0:0:
475,192,31651,1,0,0:0:0:0:
402,192,31651,1,0,0:0:0:0:
329,192,31730,1,0,0:0:0:0:
402,192,31809,1,0,0:0:0:0:
109,192,31809,1,0,0:0:0:0:
329,192,31888,1,0,0:0:0:0:
402,192,31967,1,2,0:0:0:0:
256,192,31967,1,8,0:0:0:0:
36,192,31967,1,0,0:0:0:0:
182,192,32125,1,0,0:0:0:0:
109,192,32283,1,2,0:0:0:0:
475,192,32283,1,4,0:0:0:0:
36,192,32283,1,0,0:0:0:0:
329,192,32283,1,0,0:0:0:0:
182,192,32362,1,0,0:0:0:0:
109,192,32441,1,0,0:0:0:0:
402,192,32441,1,0,0:0:0:0:
182,192,32520,1,0,0:0:0:0:
109,192,32599,1,8,0:0:0:0:
475,192,32599,1,2,0:0:0:0:
256,192,32599,1,0,0:0:0:0:
329,192,32757,1,0,0:0:0:0:
182,192,32915,1,2,0:0:0:0:
36,192,32915,1,0,0:0:0:0:
475,192,32915,1,0,0:0:0:0:
402,192,33073,1,8,0:0:0:0:
256,192,33073,1,0,0:0:0:0:
329,192,33230,1,8,0:0:0:0:
182,192,33230,1,0,0:0:0:0:
36,192,33230,1,0,0:0:0:0:
256,192,33388,1,2,0:0:0:0:
109,192,33388,1,0,0:0:0:0:
182,192,33546,1,2,0:0:0:0:
36,192,33546,1,0,0:0:0:0:
475,192,33546,1,0,0:0:0:0:
402,192,33862,128,2,34178:0:0:0:0:
109,192,33862,128,4,34178:0:0:0:0:
36,192,33862,1,8,0:0:0:0:
256,192,33862,1,0,0:0:0:0:
475,192,33862,1,0,0:0:0:0:
36,192,34178,1,2,0:0:0:0:
182,192,34178,1,0,0:0:0:0:
329,192,34178,1,0,0:0:0:0:
475,192,34178,1,0,0:0:0:0:
256,192,34336,1,0,0:0:0:0:
109,192,34494,1,2,0:0:0:0:
475,192,34494,1,8,0:0:0:0:
402,192,34494,1,0,0:0:0:0:
329,192,34651,1,0,0:0:0:0:
36,192,34809,1,2,0:0:0:0:
256,192,34809,1,0,0:0:0:0:
402,192,34809,1,0,0:0:0:0:
109,192,34967,1,0,0:0:0:0:
182,192,35125,1,2,0:0:0:0:
475,192,35125,1,8,0:0:0:0:
36,192,35125,1,0,0:0:0:0:
402,192,35283,1,0,0:0:0:0:
329,192,35441,1,2,0:0:0:0:
256,192,35441,1,0,0:0:0:0:
182,192,35441,1,0,0:0:0:0:
109,192,35599,1,0,0:0:0:0:
36,192,35757,1,2,0:0:0:0:
256,192,35757,1,8,0:0:0:0:
475,192,35757,1,0,0:0:0:0:
329,192,35915,1,0,0:0:0:0:
402,192,36073,1,2,0:0:0:0:
256,192,36073,1,0,0:0:0:0:
475,192,36073,1,0,0:0:0:0:
182,192,36230,1,0,0:0:0:0:
256,192,36309,1,0,0:0:0:0:
109,192,36388,1,2,0:0:0:0:
36,192,36388,1,8,0:0:0:0:
329,192,36388,1,0,0:0:0:0:
402,192,36546,1,0,0:0:0:0:
475,192,36704,1,2,0:0:0:0:
256,192,36704,1,0,0:0:0:0:
36,192,36704,1,0,0:0:0:0:
182,192,36862,1,0,0:0:0:0:
109,192,37020,1,2,0:0:0:0:
402,192,37020,1,8,0:0:0:0:
475,192,37020,1,0,0:0:0:0:
329,192,37178,1,0,0:0:0:0:
256,192,37336,1,2,0:0:0:0:
36,192,37336,1,0,0:0:0:0:
475,192,37336,1,0,0:0:0:0:
109,192,37494,1,0,0:0:0:0:
182,192,37651,1,2,0:0:0:0:
256,192,37651,1,8,0:0:0:0:
329,192,37651,1,0,0:0:0:0:
402,192,37809,1,0,0:0:0:0:
475,192,37967,1,2,0:0:0:0:
36,192,37967,1,0,0:0:0:0:
109,192,37967,1,0,0:0:0:0:
182,192,38125,1,0,0:0:0:0:
256,192,38283,1,8,0:0:0:0:
36,192,38283,1,2,0:0:0:0:
475,192,38283,1,0,0:0:0:0:
329,192,38441,1,0,0:0:0:0:
402,192,38599,1,2,0:0:0:0:
182,192,38599,1,0,0:0:0:0:
109,192,38599,1,0,0:0:0:0:
329,192,38757,1,0,0:0:0:0:
182,192,38836,1,0,0:0:0:0:
36,192,38915,1,2,0:0:0:0:
256,192,38915,1,8,0:0:0:0:
475,192,38915,1,0,0:0:0:0:
109,192,39073,1,2,0:0:0:0:
256,192,39073,1,0,0:0:0:0:
402,192,39073,1,0,0:0:0:0:
329,192,39230,1,2,0:0:0:0:
256,192,39230,1,0,0:0:0:0:
182,192,39230,1,0,0:0:0:0:
109,192,39388,1,0,0:0:0:0:
36,192,39546,1,2,0:0:0:0:
256,192,39546,1,8,0:0:0:0:
475,192,39546,1,0,0:0:0:0:
402,192,39704,1,0,0:0:0:0:
329,192,39862,1,2,0:0:0:0:
182,192,39862,1,0,0:0:0:0:
109,192,39862,1,0,0:0:0:0:
256,192,40020,1,0,0:0:0:0:
329,192,40178,1,2,0:0:0:0:
475,192,40178,1,8,0:0:0:0:
36,192,40178,1,0,0:0:0:0:
109,192,40336,1,0,0:0:0:0:
182,192,40494,1,2,0:0:0:0:
256,192,40494,1,0,0:0:0:0:
475,192,40494,1,0,0:0:0:0:
329,192,40651,1,0,0:0:0:0:
109,192,40809,1,2,0:0:0:0:
36,192,40809,1,8,0:0:0:0:
402,192,40809,1,0,0:0:0:0:
256,192,40967,1,0,0:0:0:0:
36,192,41125,1,2,0:0:0:0:
475,192,41125,1,0,0:0:0:0:
329,192,41125,1,0,0:0:0:0:
182,192,41283,1,0,0:0:0:0:
109,192,41362,1,0,0:0:0:0:
36,192,41441,1,2,0:0:0:0:
329,192,41441,1,8,0:0:0:0:
256,192,41441,1,0,0:0:0:0:
182,192,41599,1,0,0:0:0:0:
256,192,41757,1,2,0:0:0:0:
109,192,41757,1,0,0:0:0:0:
402,192,41757,1,0,0:0:0:0:
475,192,41915,1,0,0:0:0:0:
329,192,42073,1,2,0:0:0:0:
256,192,42073,1,8,0:0:0:0:
182,192,42073,1,0,0:0:0:0:
36,192,42230,1,0,0:0:0:0:
256,192,42388,1,2,0:0:0:0:
329,192,42388,1,0,0:0:0:0:
475,192,42388,1,0,0:0:0:0:
402,192,42546,1,0,0:0:0:0:
256,192,42704,1,2,0:0:0:0:
182,192,42704,1,8,0:0:0:0:
36,192,42704,1,0,0:0:0:0:
109,192,42862,1,0,0:0:0:0:
182,192,43020,1,2,0:0:0:0:
329,192,43020,1,0,0:0:0:0:
475,192,43020,1,0,0:0:0:0:
402,192,43178,1,2,0:0:0:0:
256,192,43178,1,0,0:0:0:0:
109,192,43178,1,0,0:0:0:0:
36,192,43336,1,2,0:0:0:0:
182,192,43336,1,8,0:0:0:0:
329,192,43336,1,0,0:0:0:0:
475,192,43494,1,0,0:0:0:0:
256,192,43651,1,2,0:0:0:0:
109,192,43651,1,0,0:0:0:0:
36,192,43651,1,0,0:0:0:0:
329,192,43809,1,0,0:0:0:0:
109,192,43888,1,2,0:0:0:0:
36,192,43888,1,0,0:0:0:0:
475,192,43967,128,2,44283:0:0:0:0:
256,192,43967,1,8,0:0:0:0:
182,192,43967,1,0,0:0:0:0:
329,192,44125,1,2,0:0:0:0:
402,192,44125,1,0,0:0:0:0:
182,192,44283,1,2,0:0:0:0:
36,192,44283,1,4,0:0:0:0:
109,192,44283,1,0,0:0:0:0:
256,192,44283,1,0,0:0:0:0:
329,192,44441,1,2,0:0:0:0:
402,192,44441,1,0,0:0:0:0:
475,192,44441,1,0,0:0:0:0:
475,192,44599,1,2,0:0:0:0:
109,192,44599,1,8,0:0:0:0:
36,192,44599,1,0,0:0:0:0:
182,192,44599,1,0,0:0:0:0:
329,192,44757,1,0,0:0:0:0:
475,192,44915,1,2,0:0:0:0:
256,192,44915,1,0,0:0:0:0:
36,192,44915,1,0,0:0:0:0:
182,192,45073,1,0,0:0:0:0:
475,192,45151,1,0,0:0:0:0:
36,192,45230,1,8,0:0:0:0:
109,192,45230,1,2,0:0:0:0:
329,192,45230,1,0,0:0:0:0:
256,192,45230,1,0,0:0:0:0:
475,192,45388,1,0,0:0:0:0:
329,192,45388,1,0,0:0:0:0:
36,192,45546,1,2,0:0:0:0:
256,192,45546,1,0,0:0:0:0:
109,192,45546,1,0,0:0:0:0:
402,192,45704,1,0,0:0:0:0:
329,192,45704,1,0,0:0:0:0:
36,192,45862,1,2,0:0:0:0:
402,192,45862,1,8,0:0:0:0:
256,192,45862,1,0,0:0:0:0:
182,192,45862,1,0,0:0:0:0:
109,192,46020,1,0,0:0:0:0:
329,192,46178,1,2,0:0:0:0:
402,192,46178,1,0,0:0:0:0:
182,192,46178,1,0,0:0:0:0:
182,192,46336,1,0,0:0:0:0:
402,192,46415,1,0,0:0:0:0:
36,192,46494,1,2,0:0:0:0:
329,192,46494,1,8,0:0:0:0:
109,192,46494,1,0,0:0:0:0:
256,192,46494,1,0,0:0:0:0:
402,192,46651,1,0,0:0:0:0:
182,192,46651,1,0,0:0:0:0:
475,192,46809,1,2,0:0:0:0:
256,192,46809,1,0,0:0:0:0:
329,192,46809,1,0,0:0:0:0:
36,192,46967,1,0,0:0:0:0:
402,192,46967,1,0,0:0:0:0:
475,192,47125,1,2,0:0:0:0:
36,192,47125,1,8,0:0:0:0:
182,192,47125,1,0,0:0:0:0:
329,192,47125,1,0,0:0:0:0:
256,192,47283,1,0,0:0:0:0:
475,192,47441,1,2,0:0:0:0:
36,192,47441,1,0,0:0:0:0:
182,192,47441,1,0,0:0:0:0:
329,192,47599,1,0,0:0:0:0:
36,192,47678,1,0,0:0:0:0:
475,192,47757,1,2,0:0:0:0:
256,192,47757,1,8,0:0:0:0:
182,192,47757,1,0,0:0:0:0:
402,192,47757,1,0,0:0:0:0:
36,192,47915,1,0,0:0:0:0:
402,192,47915,1,0,0:0:0:0:
475,192,48073,1,2,0:0:0:0:
182,192,48073,1,0,0:0:0:0:
329,192,48073,1,0,0:0:0:0:
109,192,48230,1,0,0:0:0:0:
256,192,48230,1,0,0:0:0:0:
475,192,48388,1,2,0:0:0:0:
109,192,48388,1,8,0:0:0:0:
329,192,48388,1,0,0:0:0:0:
182,192,48388,1,0,0:0:0:0:
402,192,48546,1,0,0:0:0:0:
475,192,48704,1,2,0:0:0:0:
182,192,48704,1,0,0:0:0:0:
36,192,48704,1,0,0:0:0:0:
329,192,48862,1,0,0:0:0:0:
182,192,48941,1,0,0:0:0:0:
36,192,48941,1,0,0:0:0:0:
475,192,49020,1,2,0:0:0:0:
256,192,49020,1,8,0:0:0:0:
402,192,49020,1,0,0:0:0:0:
329,192,49020,1,0,0:0:0:0:
182,192,49178,1,2,0:0:0:0:
36,192,49178,1,0,0:0:0:0:
402,192,49178,1,0,0:0:0:0:
109,192,49336,1,2,0:0:0:0:
256,192,49336,1,0,0:0:0:0:
475,192,49336,1,0,0:0:0:0:
329,192,49494,1,0,0:0:0:0:
182,192,49494,1,0,0:0:0:0:
329,192,49651,1,2,0:0:0:0:
36,192,49651,1,8,0:0:0:0:
475,192,49651,1,0,0:0:0:0:
402,192,49651,1,0,0:0:0:0:
109,192,49809,1,0,0:0:0:0:
329,192,49967,1,2,0:0:0:0:
182,192,49967,1,0,0:0:0:0:
475,192,49967,1,0,0:0:0:0:
256,192,50125,1,0,0:0:0:0:
329,192,50204,1,0,0:0:0:0:
182,192,50283,1,2,0:0:0:0:
475,192,50283,1,8,0:0:0:0:
402,192,50283,1,0,0:0:0:0:
36,192,50283,1,0,0:0:0:0:
329,192,50441,1,0,0:0:0:0:
109,192,50441,1,0,0:0:0:0:
36,192,50599,1,2,0:0:0:0:
256,192,50599,1,0,0:0:0:0:
475,192,50599,1,0,0:0:0:0:
182,192,50757,1,0,0:0:0:0:
402,192,50757,1,0,0:0:0:0:
182,192,50915,1,8,0:0:0:0:
329,192,50915,1,2,0:0:0:0:
109,192,50915,1,0,0:0:0:0:
475,192,50915,1,0,0:0:0:0:
256,192,51073,1,0,0:0:0:0:
182,192,51230,1,2,0:0:0:0:
36,192,51230,1,0,0:0:0:0:
402,192,51230,1,0,0:0:0:0:
329,192,51388,1,0,0:0:0:0:
182,192,51467,1,0,0:0:0:0:
256,192,51546,1,2,0:0:0:0:
475,192,51546,1,8,0:0:0:0:
109,192,51546,1,0,0:0:0:0:
36,192,51546,1,0,0:0:0:0:
402,192,51704,1,0,0:0:0:0:
182,192,51704,1,0,0:0:0:0:
256,192,51862,1,2,0:0:0:0:
36,192,51862,1,0,0:0:0:0:
475,192,51862,1,0,0:0:0:0:
182,192,52020,1,2,0:0:0:0:
402,192,52020,1,0,0:0:0:0:
329,192,52020,1,0,0:0:0:0:
475,192,52178,1,2,0:0:0:0:
256,192,52178,1,8,0:0:0:0:
109,192,52178,1,0,0:0:0:0:
36,192,52178,1,0,0:0:0:0:
182,192,52336,1,2,0:0:0:0:
329,192,52336,1,0,0:0:0:0:
402,192,52336,1,0,0:0:0:0:
256,192,52494,1,2,0:0:0:0:
475,192,52494,1,0,0:0:0:0:
36,192,52494,1,0,0:0:0:0:
182,192,52651,1,2,0:0:0:0:
109,192,52651,1,0,0:0:0:0:
329,192,52651,1,0,0:0:0:0:
256,192,52809,1,8,0:0:0:0:
36,192,52809,1,2,0:0:0:0:
475,192,52809,1,0,0:0:0:0:
402,192,52809,1,0,0:0:0:0:
109,192,52967,1,2,0:0:0:0:
182,192,52967,1,0,0:0:0:0:
329,192,52967,1,0,0:0:0:0:
475,192,53125,1,2,0:0:0:0:
402,192,53125,1,0,0:0:0:0:
109,192,53204,1,2,0:0:0:0:
36,192,53204,1,0,0:0:0:0:
475,192,53283,1,2,0:0:0:0:
402,192,53283,1,0,0:0:0:0:
109,192,53362,1,2,0:0:0:0:
36,192,53362,1,0,0:0:0:0:
402,192,53441,1,2,0:0:0:0:
329,192,53441,1,8,0:0:0:0:
256,192,53441,1,0,0:0:0:0:
182,192,53520,1,2,0:0:0:0:
109,192,53520,1,0,0:0:0:0:
329,192,53599,1,2,0:0:0:0:
402,192,53599,1,0,0:0:0:0:
182,192,53678,1,2,0:0:0:0:
109,192,53678,1,0,0:0:0:0:
475,192,53757,128,2,53915:0:0:0:0:
329,192,53757,128,0,53915:0:0:0:0:
109,192,53915,1,2,0:0:0:0:
182,192,53915,1,0,0:0:0:0:
329,192,53994,1,2,0:0:0:0:
402,192,53994,1,0,0:0:0:0:
182,192,54073,128,2,54230:0:0:0:0:
36,192,54073,128,8,54230:0:0:0:0:
256,192,54073,1,0,0:0:0:0:
329,192,54230,1,2,0:0:0:0:
402,192,54230,1,0,0:0:0:0:
182,192,54309,1,2,0:0:0:0:
109,192,54309,1,0,0:0:0:0:
402,192,54388,1,0,0:0:0:0:
109,192,54546,1,0,0:0:0:0:
182,192,54704,1,2,0:0:0:0:
256,192,54704,1,4,0:0:0:0:
329,192,54704,1,8,0:0:0:0:
475,192,54704,1,0,0:0:0:0:
36,192,54862,1,0,0:0:0:0:
256,192,55020,1,0,0:0:0:0:
475,192,55178,1,0,0:0:0:0:
402,192,55336,1,0,0:0:0:0:
182,192,55494,1,0,0:0:0:0:
329,192,55651,1,0,0:0:0:0:
109,192,55809,1,0,0:0:0:0:
182,192,55967,1,0,0:0:0:0:
36,192,56125,1,0,0:0:0:0:
256,192,56283,1,0,0:0:0:0:
329,192,56441,1,0,0:0:0:0:
402,192,56599,1,0,0:0:0:0:
475,192,56757,1,0,0:0:0:0:
182,192,56757,1,0,0:0:0:0:
256,192,56836,1,0,0:0:0:0:
36,192,56915,1,0,0:0:0:0:
329,192,56915,1,0,0:0:0:0:
109,192,57073,1,0,0:0:0:0:
182,192,57230,1,0,0:0:0:0:
36,192,57388,1,0,0:0:0:0:
256,192,57546,1,0,0:0:0:0:
475,192,57704,1,0,0:0:0:0:
402,192,57862,1,0,0:0:0:0:
182,192,58020,1,0,0:0:0:0:
256,192,58178,1,8,0:0:0:0:
329,192,58178,1,0,0:0:0:0:
109,192,58336,1,0,0:0:0:0:
182,192,58494,1,8,0:0:0:0:
256,192,58494,1,0,0:0:0:0:
36,192,58651,1,0,0:0:0:0:
256,192,58809,1,8,0:0:0:0:
402,192,58809,1,0,0:0:0:0:
109,192,58967,1,2,0:0:0:0:
182,192,58967,1,0,0:0:0:0:
329,192,59046,1,2,0:0:0:0:
402,192,59046,1,0,0:0:0:0:
36,192,59125,1,8,0:0:0:0:
256,192,59125,1,4,0:0:0:0:
475,192,59125,1,0,0:0:0:0:
109,192,59283,1,0,0:0:0:0:
182,192,59441,1,2,0:0:0:0:
402,192,59441,1,4,0:0:0:0:
475,192,59441,1,0,0:0:0:0:
256,192,59599,1,0,0:0:0:0:
402,192,59757,1,2,0:0:0:0:
329,192,59757,1,8,0:0:0:0:
109,192,59915,1,8,0:0:0:0:
182,192,60073,1,2,0:0:0:0:
329,192,60073,1,8,0:0:0:0:
256,192,60230,1,8,0:0:0:0:
475,192,60230,1,0,0:0:0:0:
402,192,60388,1,2,0:0:0:0:
109,192,60388,1,8,0:0:0:0:
329,192,60546,1,8,0:0:0:0:
36,192,60546,1,0,0:0:0:0:
182,192,60704,1,2,0:0:0:0:
256,192,60704,1,8,0:0:0:0:
475,192,60704,1,0,0:0:0:0:
109,192,60862,1,8,0:0:0:0:
329,192,60862,1,0,0:0:0:0:
256,192,61020,1,2,0:0:0:0:
36,192,61020,1,8,0:0:0:0:
475,192,61020,1,0,0:0:0:0:
182,192,61178,1,8,0:0:0:0:
402,192,61178,1,0,0:0:0:0:
36,192,61336,1,8,0:0:0:0:
256,192,61336,1,2,0:0:0:0:
475,192,61336,1,0,0:0:0:0:
109,192,61494,1,8,0:0:0:0:
402,192,61494,1,2,0:0:0:0:
329,192,61494,1,0,0:0:0:0:
36,192,61651,1,8,0:0:0:0:
256,192,61651,1,2,0:0:0:0:
475,192,61651,1,0,0:0:0:0:
182,192,61809,1,2,0:0:0:0:
109,192,61809,1,8,0:0:0:0:
402,192,61809,1,0,0:0:0:0:
36,192,61967,1,2,0:0:0:0:
329,192,62125,1,8,0:0:0:0:
256,192,62125,1,4,0:0:0:0:
402,192,62125,1,2,0:0:0:0:
475,192,62125,128,0,62283:0:0:0:0:
109,192,62283,1,8,0:0:0:0:
256,192,62362,1,8,0:0:0:0:
329,192,62362,1,0,0:0:0:0:
402,192,62362,128,0,62520:0:0:0:0:
475,192,62362,1,0,0:0:0:0:
182,192,62441,1,2,0:0:0:0:
329,192,62599,128,8,62757:0:0:0:0:
256,192,62599,1,4,0:0:0:0:
402,192,62599,1,2,0:0:0:0:
475,192,62599,1,0,0:0:0:0:
36,192,62757,1,2,0:0:0:0:
256,192,62836,128,8,62994:0:0:0:0:
182,192,62836,1,4,0:0:0:0:
329,192,62836,1,2,0:0:0:0:
402,192,62836,1,0,0:0:0:0:
475,192,62994,1,2,0:0:0:0:
182,192,63073,128,2,63230:0:0:0:0:
256,192,63073,1,8,0:0:0:0:
329,192,63073,1,4,0:0:0:0:
109,192,63073,1,0,0:0:0:0:
475,192,63230,1,2,0:0:0:0:
109,192,63309,128,8,63467:0:0:0:0:
36,192,63309,1,2,0:0:0:0:
256,192,63309,1,4,0:0:0:0:
182,192,63309,1,0,0:0:0:0:
402,192,63467,1,2,0:0:0:0:
36,192,63546,128,8,63704:0:0:0:0:
182,192,63546,1,4,0:0:0:0:
109,192,63546,1,2,0:0:0:0:
256,192,63546,1,0,0:0:0:0:
329,192,63704,1,2,0:0:0:0:
256,192,63783,128,8,63941:0:0:0:0:
109,192,63783,1,4,0:0:0:0:
182,192,63783,1,2,0:0:0:0:
36,192,63783,1,0,0:0:0:0:
402,192,63941,1,2,0:0:0:0:
475,192,64020,128,8,64178:0:0:0:0:
109,192,64020,1,4,0:0:0:0:
182,192,64020,1,2,0:0:0:0:
36,192,64020,1,0,0:0:0:0:
329,192,64178,128,2,64336:0:0:0:0:
36,192,64178,1,4,0:0:0:0:
182,192,64178,1,8,0:0:0:0:
109,192,64178,1,0,0:0:0:0:
182,192,64336,128,2,64494:0:0:0:0:
256,192,64336,1,8,0:0:0:0:
402,192,64336,1,4,0:0:0:0:
475,192,64336,1,0,0:0:0:0:
36,192,64494,128,8,64809:0:0:0:0:
256,192,64494,1,2,0:0:0:0:
402,192,64494,1,4,0:0:0:0:
475,192,64494,1,0,0:0:0:0:
182,192,64809,1,0,0:0:0:0:
329,192,64967,1,0,0:0:0:0:
329,192,65125,128,0,65283:0:0:0:0:
182,192,65125,1,0,0:0:0:0:
329,192,65441,128,0,65599:0:0:0:0:
182,192,65441,1,0,0:0:0:0:
109,192,65757,1,8,0:0:0:0:
36,192,65757,1,4,0:0:0:0:
329,192,65757,1,0,0:0:0:0:
475,192,65757,1,0,0:0:0:0:
256,192,65915,1,2,0:0:0:0:
329,192,65994,1,2,0:0:0:0:
182,192,66073,1,8,0:0:0:0:
402,192,66073,1,4,0:0:0:0:
36,192,66073,1,0,0:0:0:0:
475,192,66073,1,0,0:0:0:0:
256,192,66230,1,2,0:0:0:0:
182,192,66309,1,2,0:0:0:0:
329,192,66388,1,8,0:0:0:0:
36,192,66388,1,4,0:0:0:0:
109,192,66388,1,0,0:0:0:0:
475,192,66388,1,0,0:0:0:0:
36,192,66704,1,2,0:0:0:0:
182,192,66704,1,8,0:0:0:0:
402,192,66704,1,4,0:0:0:0:
475,192,66704,1,0,0:0:0:0:
109,192,66862,1,0,0:0:0:0:
182,192,66941,1,0,0:0:0:0:
256,192,67020,1,0,0:0:0:0:
329,192,67178,1,0,0:0:0:0:
36,192,67178,1,0,0:0:0:0:
109,192,67257,1,0,0:0:0:0:
402,192,67257,1,0,0:0:0:0:
182,192,67336,1,0,0:0:0:0:
475,192,67336,1,0,0:0:0:0:
256,192,67494,1,0,0:0:0:0:
402,192,67494,1,0,0:0:0:0:
329,192,67651,1,0,0:0:0:0:
475,192,67651,1,0,0:0:0:0:
182,192,67809,128,0,68125:0:0:0:0:
36,192,67809,1,0,0:0:0:0:
36,192,68125,128,0,68283:0:0:0:0:
256,192,68125,1,0,0:0:0:0:
329,192,68204,1,0,0:0:0:0:
402,192,68283,1,0,0:0:0:0:
109,192,68283,1,0,0:0:0:0:
109,192,68441,1,0,0:0:0:0:
402,192,68441,1,0,0:0:0:0:
329,192,68520,1,0,0:0:0:0:
182,192,68520,1,0,0:0:0:0:
109,192,68599,1,0,0:0:0:0:
402,192,68599,1,0,0:0:0:0:
329,192,68757,1,0,0:0:0:0:
182,192,68757,1,0,0:0:0:0:
36,192,68915,128,0,69230:0:0:0:0:
475,192,68915,128,0,69230:0:0:0:0:
182,192,69230,128,0,69546:0:0:0:0:
402,192,69388,1,0,0:0:0:0:
329,192,69467,1,0,0:0:0:0:
256,192,69546,1,0,0:0:0:0:
475,192,69546,128,0,69862:0:0:0:0:
36,192,69704,1,0,0:0:0:0:
109,192,69783,1,0,0:0:0:0:
182,192,69862,1,0,0:0:0:0:
36,192,70020,1,0,0:0:0:0:
256,192,70020,1,0,0:0:0:0:
329,192,70099,1,0,0:0:0:0:
402,192,70178,1,0,0:0:0:0:
182,192,70178,1,0,0:0:0:0:
475,192,70336,1,0,0:0:0:0:
329,192,70336,1,0,0:0:0:0:
182,192,70494,1,0,0:0:0:0:
402,192,70494,1,0,0:0:0:0:
329,192,70651,1,0,0:0:0:0:
109,192,70651,1,0,0:0:0:0:
182,192,70809,1,0,0:0:0:0:
36,192,70809,1,0,0:0:0:0:
329,192,70967,1,0,0:0:0:0:
256,192,70967,1,0,0:0:0:0:
402,192,71046,1,0,0:0:0:0:
109,192,71125,1,0,0:0:0:0:
329,192,71125,1,0,0:0:0:0:
256,192,71283,1,0,0:0:0:0:
475,192,71283,1,0,0:0:0:0:
402,192,71441,128,0,71757:0:0:0:0:
36,192,71441,1,0,0:0:0:0:
109,192,71757,128,0,72073:0:0:0:0:
475,192,71757,1,0,0:0:0:0:
182,192,72073,1,0,0:0:0:0:
402,192,72073,1,0,0:0:0:0:
109,192,72230,1,0,0:0:0:0:
329,192,72230,1,0,0:0:0:0:
182,192,72388,1,0,0:0:0:0:
329,192,72388,1,0,0:0:0:0:
256,192,72546,1,0,0:0:0:0:
36,192,72546,1,0,0:0:0:0:
329,192,72625,1,0,0:0:0:0:
109,192,72625,1,0,0:0:0:0:
402,192,72704,1,0,0:0:0:0:
182,192,72704,1,0,0:0:0:0:
109,192,72862,1,0,0:0:0:0:
329,192,72862,1,0,0:0:0:0:
36,192,73020,1,0,0:0:0:0:
256,192,73020,1,0,0:0:0:0:
182,192,73178,1,0,0:0:0:0:
329,192,73178,1,0,0:0:0:0:
402,192,73336,1,0,0:0:0:0:
109,192,73336,1,0,0:0:0:0:
329,192,73494,1,0,0:0:0:0:
182,192,73494,1,0,0:0:0:0:
475,192,73573,1,0,0:0:0:0:
36,192,73573,1,0,0:0:0:0:
329,192,73651,1,0,0:0:0:0:
182,192,73651,1,0,0:0:0:0:
109,192,73809,1,0,0:0:0:0:
402,192,73809,1,0,0:0:0:0:
182,192,73967,1,0,0:0:0:0:
475,192,73967,1,0,0:0:0:0:
402,192,74125,1,0,0:0:0:0:
109,192,74125,1,0,0:0:0:0:
36,192,74283,1,0,0:0:0:0:
329,192,74283,1,0,0:0:0:0:
109,192,74441,1,0,0:0:0:0:
402,192,74441,1,0,0:0:0:0:
475,192,74599,128,0,75249:0:0:0:0:
182,192,74599,1,0,0:0:0:0:
256,192,74678,1,0,0:0:0:0:
402,192,74757,1,0,0:0:0:0:
329,192,74836,1,0,0:0:0:0:
109,192,74915,1,0,0:0:0:0:
182,192,74998,1,0,0:0:0:0:
329,192,75081,1,0,0:0:0:0:
256,192,75165,1,0,0:0:0:0:
36,192,75249,128,0,75977:0:0:0:0:
109,192,75249,1,0,0:0:0:0:
182,192,75337,1,0,0:0:0:0:
402,192,75425,1,0,0:0:0:0:
329,192,75513,1,0,0:0:0:0:
182,192,75601,1,0,0:0:0:0:
256,192,75694,1,0,0:0:0:0:
402,192,75788,1,0,0:0:0:0:
329,192,75882,1,0,0:0:0:0:
182,192,75977,1,0,0:0:0:0:
256,192,75977,128,0,76805:0:0:0:0:
109,192,76077,1,0,0:0:0:0:
329,192,76177,1,0,0:0:0:0:
402,192,76277,1,0,0:0:0:0:
182,192,76377,1,0,0:0:0:0:
36,192,76484,1,0,0:0:0:0:
329,192,76591,1,0,0:0:0:0:
475,192,76698,1,0,0:0:0:0:
182,192,76806,128,0,76921:0:0:0:0:
36,192,76806,128,0,76921:0:0:0:0:
109,192,77036,128,0,77152:0:0:0:0:
256,192,77036,128,0,77152:0:0:0:0:
182,192,77267,128,0,77392:0:0:0:0:
329,192,77267,128,0,77392:0:0:0:0:
256,192,77517,128,0,77642:0:0:0:0:
402,192,77517,128,0,77642:0:0:0:0:
36,192,77769,1,2,0:0:0:0:
329,192,77769,1,4,0:0:0:0:
475,192,77769,1,0,0:0:0:0:
109,192,77769,1,0,0:0:0:0:
109,192,77926,1,2,0:0:0:0:
329,192,77926,1,0,0:0:0:0:
402,192,77926,1,0,0:0:0:0:
182,192,78005,1,0,0:0:0:0:
36,192,78084,1,8,0:0:0:0:
256,192,78084,1,0,0:0:0:0:
402,192,78084,1,0,0:0:0:0:
475,192,78242,1,0,0:0:0:0:
182,192,78400,1,2,0:0:0:0:
36,192,78400,1,0,0:0:0:0:
402,192,78400,1,0,0:0:0:0:
36,192,78558,1,2,0:0:0:0:
109,192,78558,1,0,0:0:0:0:
329,192,78558,1,0,0:0:0:0:
256,192,78716,1,8,0:0:0:0:
402,192,78716,1,0,0:0:0:0:
182,192,78716,1,0,0:0:0:0:
475,192,78874,1,2,0:0:0:0:
109,192,78874,1,0,0:0:0:0:
36,192,78874,1,0,0:0:0:0:
329,192,78953,1,0,0:0:0:0:
475,192,79032,1,0,0:0:0:0:
109,192,79190,1,2,0:0:0:0:
36,192,79190,1,0,0:0:0:0:
329,192,79190,1,0,0:0:0:0:
475,192,79269,1,0,0:0:0:0:
329,192,79347,1,8,0:0:0:0:
256,192,79347,1,0,0:0:0:0:
182,192,79347,1,0,0:0:0:0:
402,192,79505,1,0,0:0:0:0:
475,192,79663,128,2,79979:0:0:0:0:
36,192,79663,1,0,0:0:0:0:
109,192,79663,1,0,0:0:0:0:
256,192,79663,1,0,0:0:0:0:
109,192,79821,1,2,0:0:0:0:
36,192,79821,1,0,0:0:0:0:
256,192,79821,1,0,0:0:0:0:
182,192,79979,1,8,0:0:0:0:
329,192,79979,1,0,0:0:0:0:
402,192,79979,1,0,0:0:0:0:
256,192,80137,1,0,0:0:0:0:
182,192,80216,1,0,0:0:0:0:
109,192,80295,1,2,0:0:0:0:
36,192,80295,1,0,0:0:0:0:
402,192,80295,1,0,0:0:0:0:
475,192,80453,1,2,0:0:0:0:
36,192,80453,1,0,0:0:0:0:
256,192,80453,1,0,0:0:0:0:
329,192,80532,1,0,0:0:0:0:
402,192,80611,1,8,0:0:0:0:
475,192,80611,1,0,0:0:0:0:
109,192,80611,1,0,0:0:0:0:
329,192,80769,1,0,0:0:0:0:
402,192,80926,1,2,0:0:0:0:
36,192,80926,1,0,0:0:0:0:
182,192,80926,1,0,0:0:0:0:
475,192,81084,1,2,0:0:0:0:
182,192,81084,1,0,0:0:0:0:
36,192,81084,1,0,0:0:0:0:
329,192,81242,1,8,0:0:0:0:
109,192,81242,1,0,0:0:0:0:
256,192,81242,1,0,0:0:0:0:
475,192,81400,1,2,0:0:0:0:
182,192,81400,1,0,0:0:0:0:
36,192,81400,1,0,0:0:0:0:
256,192,81558,1,0,0:0:0:0:
402,192,81716,1,2,0:0:0:0:
109,192,81716,1,0,0:0:0:0:
36,192,81716,1,0,0:0:0:0:
182,192,81874,1,8,0:0:0:0:
256,192,81874,1,0,0:0:0:0:
475,192,81874,1,0,0:0:0:0:
329,192,82032,1,0,0:0:0:0:
182,192,82190,128,2,82505:0:0:0:0:
109,192,82190,1,0,0:0:0:0:
36,192,82190,1,0,0:0:0:0:
402,192,82190,1,0,0:0:0:0:
329,192,82347,1,2,0:0:0:0:
475,192,82347,1,0,0:0:0:0:
256,192,82347,1,0,0:0:0:0:
329,192,82505,128,8,82821:0:0:0:0:
36,192,82505,1,4,0:0:0:0:
402,192,82505,1,0,0:0:0:0:
475,192,82505,1,0,0:0:0:0:
109,192,82505,1,0,0:0:0:0:
475,192,82821,1,2,0:0:0:0:
109,192,82821,1,4,0:0:0:0:
36,192,82821,1,0,0:0:0:0:
256,192,82821,1,0,0:0:0:0:
402,192,82979,1,0,0:0:0:0:
402,192,83137,1,2,0:0:0:0:
36,192,83137,1,8,0:0:0:0:
109,192,83137,1,0,0:0:0:0:
182,192,83295,1,0,0:0:0:0:
329,192,83374,1,0,0:0:0:0:
402,192,83453,1,2,0:0:0:0:
109,192,83453,1,0,0:0:0:0:
36,192,83453,1,0,0:0:0:0:
182,192,83611,1,0,0:0:0:0:
109,192,83769,1,2,0:0:0:0:
36,192,83769,1,8,0:0:0:0:
329,192,83769,1,0,0:0:0:0:
256,192,83926,1,0,0:0:0:0:
402,192,84084,1,2,0:0:0:0:
475,192,84084,1,0,0:0:0:0:
182,192,84084,1,0,0:0:0:0:
182,192,84242,1,0,0:0:0:0:
109,192,84321,1,0,0:0:0:0:
475,192,84400,1,2,0:0:0:0:
402,192,84400,1,8,0:0:0:0:
182,192,84400,1,0,0:0:0:0:
329,192,84558,1,0,0:0:0:0:
402,192,84716,1,2,0:0:0:0:
475,192,84716,1,0,0:0:0:0:
36,192,84716,1,0,0:0:0:0:
109,192,84874,1,0,0:0:0:0:
475,192,85032,1,2,0:0:0:0:
402,192,85032,1,8,0:0:0:0:
182,192,85032,1,0,0:0:0:0:
109,192,85190,1,0,0:0:0:0:
36,192,85347,128,2,85821:0:0:0:0:
475,192,85347,1,0,0:0:0:0:
402,192,85347,1,0,0:0:0:0:
256,192,85347,1,0,0:0:0:0:
329,192,85505,1,0,0:0:0:0:
109,192,85663,128,2,85821:0:0:0:0:
182,192,85663,1,8,0:0:0:0:
256,192,85663,1,0,0:0:0:0:
402,192,85663,1,0,0:0:0:0:
475,192,85821,1,0,0:0:0:0:
402,192,85900,1,0,0:0:0:0:
329,192,85979,1,2,0:0:0:0:
36,192,85979,1,0,0:0:0:0:
109,192,85979,1,0,0:0:0:0:
256,192,86137,1,0,0:0:0:0:
182,192,86295,1,2,0:0:0:0:
402,192,86295,1,8,0:0:0:0:
475,192,86295,1,0,0:0:0:0:
36,192,86453,1,0,0:0:0:0:
109,192,86611,128,2,86926:0:0:0:0:
475,192,86611,1,0,0:0:0:0:
402,192,86611,1,0,0:0:0:0:
256,192,86611,1,0,0:0:0:0:
329,192,86769,1,0,0:0:0:0:
182,192,86926,128,2,87242:0:0:0:0:
256,192,86926,1,8,0:0:0:0:
36,192,86926,1,0,0:0:0:0:
475,192,86926,1,0,0:0:0:0:
402,192,87084,1,0,0:0:0:0:
329,192,87242,128,2,87558:0:0:0:0:
256,192,87242,1,0,0:0:0:0:
109,192,87242,1,0,0:0:0:0:
36,192,87242,1,0,0:0:0:0:
182,192,87400,1,0,0:0:0:0:
402,192,87558,128,8,87874:0:0:0:0:
109,192,87558,1,4,0:0:0:0:
36,192,87558,1,2,0:0:0:0:
256,192,87558,1,0,0:0:0:0:
475,192,87558,1,0,0:0:0:0:
329,192,87716,1,0,0:0:0:0:
182,192,87874,1,2,0:0:0:0:
109,192,87874,1,0,0:0:0:0:
36,192,87874,1,0,0:0:0:0:
329,192,88032,1,2,0:0:0:0:
256,192,88111,1,2,0:0:0:0:
36,192,88190,1,8,0:0:0:0:
182,192,88190,1,4,0:0:0:0:
402,192,88190,1,0,0:0:0:0:
475,192,88190,1,0,0:0:0:0:
109,192,88347,1,0,0:0:0:0:
402,192,88505,1,2,0:0:0:0:
475,192,88505,1,0,0:0:0:0:
36,192,88505,1,0,0:0:0:0:
475,192,88663,1,2,0:0:0:0:
329,192,88663,1,0,0:0:0:0:
256,192,88663,1,0,0:0:0:0:
182,192,88821,1,8,0:0:0:0:
109,192,88821,1,0,0:0:0:0:
329,192,88821,1,0,0:0:0:0:
36,192,88979,1,2,0:0:0:0:
402,192,88979,1,0,0:0:0:0:
475,192,88979,1,0,0:0:0:0:
182,192,89058,1,0,0:0:0:0:
36,192,89137,1,0,0:0:0:0:
402,192,89295,1,2,0:0:0:0:
475,192,89295,1,0,0:0:0:0:
182,192,89295,1,0,0:0:0:0:
36,192,89374,1,0,0:0:0:0:
182,192,89453,1,8,0:0:0:0:
256,192,89453,1,0,0:0:0:0:
329,192,89453,1,0,0:0:0:0:
109,192,89611,1,0,0:0:0:0:
36,192,89769,128,2,90084:0:0:0:0:
475,192,89769,1,0,0:0:0:0:
402,192,89769,1,0,0:0:0:0:
256,192,89769,1,0,0:0:0:0:
402,192,89926,1,2,0:0:0:0:
475,192,89926,1,0,0:0:0:0:
256,192,89926,1,0,0:0:0:0:
329,192,90084,1,8,0:0:0:0:
182,192,90084,1,0,0:0:0:0:
109,192,90084,1,0,0:0:0:0:
256,192,90242,1,0,0:0:0:0:
329,192,90321,1,0,0:0:0:0:
402,192,90400,1,2,0:0:0:0:
475,192,90400,1,0,0:0:0:0:
109,192,90400,1,0,0:0:0:0:
36,192,90558,1,2,0:0:0:0:
475,192,90558,1,0,0:0:0:0:
329,192,90558,1,0,0:0:0:0:
256,192,90637,1,0,0:0:0:0:
182,192,90716,1,8,0:0:0:0:
36,192,90716,1,0,0:0:0:0:
402,192,90716,1,0,0:0:0:0:
109,192,90874,1,0,0:0:0:0:
36,192,91032,1,2,0:0:0:0:
475,192,91032,1,0,0:0:0:0:
329,192,91032,1,0,0:0:0:0:
109,192,91190,1,2,0:0:0:0:
329,192,91190,1,0,0:0:0:0:
475,192,91190,1,0,0:0:0:0:
182,192,91347,1,8,0:0:0:0:
402,192,91347,1,0,0:0:0:0:
256,192,91347,1,0,0:0:0:0:
109,192,91505,1,2,0:0:0:0:
329,192,91505,1,0,0:0:0:0:
475,192,91505,1,0,0:0:0:0:
256,192,91663,1,0,0:0:0:0:
109,192,91821,1,2,0:0:0:0:
402,192,91821,1,0,0:0:0:0:
475,192,91821,1,0,0:0:0:0:
329,192,91979,1,8,0:0:0:0:
256,192,91979,1,0,0:0:0:0:
36,192,91979,1,0,0:0:0:0:
182,192,92137,1,0,0:0:0:0:
329,192,92295,128,2,92611:0:0:0:0:
402,192,92295,1,0,0:0:0:0:
475,192,92295,1,0,0:0:0:0:
109,192,92295,1,0,0:0:0:0:
182,192,92453,1,2,0:0:0:0:
36,192,92453,1,0,0:0:0:0:
256,192,92453,1,0,0:0:0:0:
182,192,92611,128,8,92926:0:0:0:0:
475,192,92611,1,4,0:0:0:0:
109,192,92611,1,0,0:0:0:0:
36,192,92611,1,0,0:0:0:0:
402,192,92611,1,0,0:0:0:0:
36,192,92926,1,2,0:0:0:0:
402,192,92926,1,4,0:0:0:0:
475,192,92926,1,0,0:0:0:0:
256,192,92926,1,0,0:0:0:0:
109,192,93084,1,0,0:0:0:0:
109,192,93242,1,2,0:0:0:0:
475,192,93242,1,8,0:0:0:0:
402,192,93242,1,0,0:0:0:0:
256,192,93400,1,0,0:0:0:0:
182,192,93479,1,0,0:0:0:0:
109,192,93558,1,2,0:0:0:0:
402,192,93558,1,0,0:0:0:0:
475,192,93558,1,0,0:0:0:0:
329,192,93716,1,0,0:0:0:0:
402,192,93874,1,2,0:0:0:0:
475,192,93874,1,8,0:0:0:0:
182,192,93874,1,0,0:0:0:0:
256,192,94032,1,0,0:0:0:0:
109,192,94190,1,2,0:0:0:0:
36,192,94190,1,0,0:0:0:0:
329,192,94190,1,0,0:0:0:0:
329,192,94347,1,0,0:0:0:0:
402,192,94426,1,0,0:0:0:0:
36,192,94505,1,2,0:0:0:0:
109,192,94505,1,8,0:0:0:0:
329,192,94505,1,0,0:0:0:0:
182,192,94663,1,0,0:0:0:0:
109,192,94821,1,2,0:0:0:0:
36,192,94821,1,0,0:0:0:0:
475,192,94821,1,0,0:0:0:0:
402,192,94979,1,0,0:0:0:0:
36,192,95137,1,2,0:0:0:0:
109,192,95137,1,8,0:0:0:0:
329,192,95137,1,0,0:0:0:0:
182,192,95295,1,0,0:0:0:0:
475,192,95453,128,2,95926:0:0:0:0:
36,192,95453,1,0,0:0:0:0:
109,192,95453,1,0,0:0:0:0:
256,192,95453,1,0,0:0:0:0:
329,192,95611,1,0,0:0:0:0:
402,192,95769,128,2,95926:0:0:0:0:
182,192,95769,1,8,0:0:0:0:
256,192,95769,1,0,0:0:0:0:
109,192,95769,1,0,0:0:0:0:
36,192,95926,1,0,0:0:0:0:
109,192,96005,1,0,0:0:0:0:
182,192,96084,1,2,0:0:0:0:
475,192,96084,1,0,0:0:0:0:
402,192,96084,1,0,0:0:0:0:
256,192,96242,1,0,0:0:0:0:
329,192,96400,1,2,0:0:0:0:
109,192,96400,1,8,0:0:0:0:
36,192,96400,1,0,0:0:0:0:
402,192,96558,1,0,0:0:0:0:
475,192,96716,128,2,97032:0:0:0:0:
329,192,96716,1,0,0:0:0:0:
256,192,96716,1,0,0:0:0:0:
36,192,96716,1,0,0:0:0:0:
182,192,96874,1,2,0:0:0:0:
402,192,96874,1,0,0:0:0:0:
109,192,96874,1,0,0:0:0:0:
36,192,97032,128,2,97347:0:0:0:0:
402,192,97032,1,8,0:0:0:0:
329,192,97032,1,0,0:0:0:0:
256,192,97032,1,0,0:0:0:0:
182,192,97190,1,0,0:0:0:0:
109,192,97347,128,2,97663:0:0:0:0:
329,192,97347,1,0,0:0:0:0:
402,192,97347,1,0,0:0:0:0:
475,192,97347,1,0,0:0:0:0:
256,192,97505,1,0,0:0:0:0:
475,192,97584,1,2,0:0:0:0:
402,192,97584,1,0,0:0:0:0:
182,192,97663,128,2,97821:0:0:0:0:
329,192,97663,1,4,0:0:0:0:
256,192,97663,1,8,0:0:0:0:
36,192,97663,1,0,0:0:0:0:
475,192,97821,1,2,0:0:0:0:
402,192,97821,1,0,0:0:0:0:
36,192,97821,1,0,0:0:0:0:
109,192,97900,1,0,0:0:0:0:
182,192,97979,1,2,0:0:0:0:
256,192,97979,1,4,0:0:0:0:
329,192,97979,1,0,0:0:0:0:
475,192,97979,128,0,98295:0:0:0:0:
182,192,98453,1,2,0:0:0:0:
109,192,98453,1,0,0:0:0:0:
329,192,98532,1,2,0:0:0:0:
402,192,98532,1,0,0:0:0:0:
36,192,98611,128,8,98926:0:0:0:0:
256,192,98611,1,0,0:0:0:0:
109,192,98611,1,0,0:0:0:0:
475,192,98611,1,0,0:0:0:0:
402,192,98926,1,0,0:0:0:0:
475,192,98966,128,0,99242:0:0:0:0:
109,192,99084,1,2,0:0:0:0:
182,192,99084,1,0,0:0:0:0:
402,192,99242,128,0,99558:0:0:0:0:
109,192,99400,1,2,0:0:0:0:
182,192,99400,1,0,0:0:0:0:
329,192,99558,128,0,99874:0:0:0:0:
109,192,99716,1,2,0:0:0:0:
182,192,99716,1,0,0:0:0:0:
36,192,99874,128,8,100190:0:0:0:0:
402,192,99874,1,0,0:0:0:0:
475,192,99874,1,0,0:0:0:0:
256,192,99874,1,0,0:0:0:0:
109,192,100190,128,0,100505:0:0:0:0:
329,192,100190,1,0,0:0:0:0:
475,192,100347,1,2,0:0:0:0:
402,192,100347,1,0,0:0:0:0:
182,192,100505,128,2,100821:0:0:0:0:
402,192,100505,1,0,0:0:0:0:
475,192,100505,1,0,0:0:0:0:
402,192,100979,1,2,0:0:0:0:
329,192,100979,1,0,0:0:0:0:
182,192,101058,1,2,0:0:0:0:
109,192,101058,1,0,0:0:0:0:
36,192,101137,1,8,0:0:0:0:
475,192,101137,128,0,101374:0:0:0:0:
256,192,101137,1,0,0:0:0:0:
402,192,101137,1,0,0:0:0:0:
256,192,101374,128,0,101611:0:0:0:0:
182,192,101374,1,0,0:0:0:0:
36,192,101611,128,2,101769:0:0:0:0:
329,192,101611,1,0,0:0:0:0:
475,192,101611,1,0,0:0:0:0:
109,192,101769,128,0,102400:0:0:0:0:
182,192,101769,1,0,0:0:0:0:
329,192,101926,1,2,0:0:0:0:
475,192,101926,1,0,0:0:0:0:
475,192,102084,1,2,0:0:0:0:
329,192,102084,1,0,0:0:0:0:
402,192,102400,128,8,103032:0:0:0:0:
182,192,102400,1,4,0:0:0:0:
36,192,102400,1,0,0:0:0:0:
256,192,102400,1,0,0:0:0:0:
329,192,102558,1,2,0:0:0:0:
109,192,102558,1,0,0:0:0:0:
36,192,102716,1,8,0:0:0:0:
182,192,102716,1,4,0:0:0:0:
256,192,102716,1,0,0:0:0:0:
36,192,103032,1,2,0:0:0:0:
256,192,103032,1,0,0:0:0:0:
475,192,103032,1,0,0:0:0:0:
256,192,103190,1,2,0:0:0:0:
36,192,103190,1,0,0:0:0:0:
475,192,103190,1,0,0:0:0:0:
402,192,103347,1,8,0:0:0:0:
329,192,103347,1,2,0:0:0:0:
182,192,103347,1,4,0:0:0:0:
109,192,103347,1,0,0:0:0:0:
329,192,104137,1,0,0:0:0:0:
402,192,104216,1,0,0:0:0:0:
475,192,104295,1,0,0:0:0:0:
109,192,104453,1,0,0:0:0:0:
182,192,104532,1,0,0:0:0:0:
256,192,104611,1,0,0:0:0:0:
36,192,104611,128,0,104926:0:0:0:0:
329,192,104769,1,0,0:0:0:0:
182,192,104926,128,0,105242:0:0:0:0:
402,192,104926,1,0,0:0:0:0:
256,192,105084,1,0,0:0:0:0:
475,192,105084,1,0,0:0:0:0:
402,192,105163,1,0,0:0:0:0:
329,192,105242,128,0,105558:0:0:0:0:
36,192,105242,1,0,0:0:0:0:
109,192,105242,1,0,0:0:0:0:
182,192,105400,1,0,0:0:0:0:
402,192,105558,128,4,105716:0:0:0:0:
256,192,105558,1,8,0:0:0:0:
109,192,105558,1,0,0:0:0:0:
36,192,105558,1,0,0:0:0:0:
475,192,105716,1,0,0:0:0:0:
182,192,105874,128,8,106032:0:0:0:0:
109,192,105874,1,0,0:0:0:0:
329,192,105874,1,0,0:0:0:0:
256,192,106032,1,2,0:0:0:0:
402,192,106032,1,0,0:0:0:0:
329,192,106190,128,8,106347:0:0:0:0:
36,192,106190,1,0,0:0:0:0:
475,192,106190,1,0,0:0:0:0:
182,192,106347,1,2,0:0:0:0:
109,192,106347,1,0,0:0:0:0:
475,192,106505,128,8,106663:0:0:0:0:
329,192,106505,1,0,0:0:0:0:
402,192,106505,1,0,0:0:0:0:
36,192,106663,1,2,0:0:0:0:
256,192,106663,1,0,0:0:0:0:
109,192,106742,1,2,0:0:0:0:
329,192,106742,1,0,0:0:0:0:
402,192,106821,128,8,106979:0:0:0:0:
182,192,106821,1,4,0:0:0:0:
475,192,106821,1,0,0:0:0:0:
36,192,106979,1,2,0:0:0:0:
256,192,106979,1,0,0:0:0:0:
109,192,107058,1,2,0:0:0:0:
329,192,107058,1,0,0:0:0:0:
256,192,107137,128,8,107295:0:0:0:0:
182,192,107137,1,0,0:0:0:0:
402,192,107137,1,0,0:0:0:0:
475,192,107295,1,2,0:0:0:0:
329,192,107295,1,0,0:0:0:0:
402,192,107374,1,2,0:0:0:0:
182,192,107374,1,0,0:0:0:0:
109,192,107453,128,8,107611:0:0:0:0:
329,192,107453,1,4,0:0:0:0:
36,192,107453,1,0,0:0:0:0:
475,192,107611,1,2,0:0:0:0:
256,192,107611,1,0,0:0:0:0:
402,192,107690,1,2,0:0:0:0:
182,192,107690,1,0,0:0:0:0:
36,192,107769,128,8,107926:0:0:0:0:
329,192,107769,1,4,0:0:0:0:
109,192,107769,1,0,0:0:0:0:
109,192,107926,1,2,0:0:0:0:
329,192,107926,1,0,0:0:0:0:
402,192,108005,1,2,0:0:0:0:
182,192,108005,1,0,0:0:0:0:
256,192,108084,1,2,0:0:0:0:
36,192,108084,1,4,0:0:0:0:
475,192,108084,128,0,110611:0:0:0:0:
329,192,108084,1,0,0:0:0:0:
182,192,108242,1,0,0:0:0:0:
109,192,108400,1,2,0:0:0:0:
329,192,108400,1,8,0:0:0:0:
402,192,108400,1,0,0:0:0:0:
402,192,108558,1,0,0:0:0:0:
329,192,108558,1,0,0:0:0:0:
182,192,108716,1,2,0:0:0:0:
36,192,108716,1,0,0:0:0:0:
256,192,108716,1,0,0:0:0:0:
182,192,108874,1,0,0:0:0:0:
329,192,108874,1,0,0:0:0:0:
109,192,108953,1,0,0:0:0:0:
36,192,109032,128,8,109347:0:0:0:0:
256,192,109032,1,2,0:0:0:0:
329,192,109032,1,0,0:0:0:0:
402,192,109032,1,0,0:0:0:0:
182,192,109190,1,0,0:0:0:0:
109,192,109347,1,2,0:0:0:0:
329,192,109347,1,0,0:0:0:0:
402,192,109347,1,0,0:0:0:0:
256,192,109426,1,0,0:0:0:0:
182,192,109505,1,0,0:0:0:0:
109,192,109584,1,0,0:0:0:0:
36,192,109663,1,2,0:0:0:0:
402,192,109663,1,8,0:0:0:0:
329,192,109663,1,0,0:0:0:0:
182,192,109821,1,0,0:0:0:0:
256,192,109821,1,0,0:0:0:0:
109,192,109979,1,2,0:0:0:0:
36,192,109979,1,0,0:0:0:0:
402,192,109979,1,0,0:0:0:0:
256,192,110137,1,0,0:0:0:0:
182,192,110137,1,0,0:0:0:0:
329,192,110216,1,0,0:0:0:0:
402,192,110295,1,2,0:0:0:0:
109,192,110295,1,0,0:0:0:0:
182,192,110295,128,0,110611:0:0:0:0:
256,192,110453,1,0,0:0:0:0:
109,192,110611,1,2,0:0:0:0:
36,192,110611,1,0,0:0:0:0:
329,192,110611,1,0,0:0:0:0:
182,192,110769,1,0,0:0:0:0:
256,192,110926,1,2,0:0:0:0:
402,192,110926,1,8,0:0:0:0:
475,192,110926,1,0,0:0:0:0:
475,192,111084,1,0,0:0:0:0:
402,192,111084,1,0,0:0:0:0:
329,192,111242,1,2,0:0:0:0:
182,192,111242,1,0,0:0:0:0:
36,192,111242,1,0,0:0:0:0:
329,192,111400,1,0,0:0:0:0:
109,192,111400,1,0,0:0:0:0:
256,192,111479,1,0,0:0:0:0:
182,192,111558,1,2,0:0:0:0:
109,192,111558,128,8,111874:0:0:0:0:
402,192,111558,1,0,0:0:0:0:
475,192,111558,1,0,0:0:0:0:
329,192,111716,1,0,0:0:0:0:
475,192,111874,128,2,112032:0:0:0:0:
256,192,111874,1,0,0:0:0:0:
36,192,111874,1,0,0:0:0:0:
402,192,111874,1,0,0:0:0:0:
329,192,112032,128,0,112190:0:0:0:0:
182,192,112032,1,0,0:0:0:0:
475,192,112190,128,8,112347:0:0:0:0:
109,192,112190,1,2,0:0:0:0:
36,192,112190,1,0,0:0:0:0:
402,192,112190,1,0,0:0:0:0:
329,192,112347,128,0,112505:0:0:0:0:
256,192,112347,1,0,0:0:0:0:
182,192,112505,128,2,112663:0:0:0:0:
109,192,112505,1,0,0:0:0:0:
36,192,112505,1,0,0:0:0:0:
402,192,112505,1,0,0:0:0:0:
256,192,112663,1,0,0:0:0:0:
182,192,112821,128,2,112979:0:0:0:0:
402,192,112821,1,8,0:0:0:0:
475,192,112821,1,0,0:0:0:0:
36,192,112821,1,0,0:0:0:0:
109,192,112979,1,2,0:0:0:0:
402,192,112979,1,0,0:0:0:0:
475,192,112979,1,0,0:0:0:0:
256,192,113137,128,2,113295:0:0:0:0:
402,192,113137,1,0,0:0:0:0:
475,192,113137,1,0,0:0:0:0:
182,192,113137,1,0,0:0:0:0:
329,192,113295,1,0,0:0:0:0:
109,192,113453,1,8,0:0:0:0:
36,192,113453,1,2,0:0:0:0:
402,192,113453,1,0,0:0:0:0:
109,192,113611,1,0,0:0:0:0:
36,192,113611,1,0,0:0:0:0:
329,192,113769,1,2,0:0:0:0:
475,192,113769,1,0,0:0:0:0:
256,192,113769,1,0,0:0:0:0:
329,192,113926,1,0,0:0:0:0:
109,192,113926,1,0,0:0:0:0:
402,192,114005,1,0,0:0:0:0:
475,192,114084,1,2,0:0:0:0:
36,192,114084,1,8,0:0:0:0:
256,192,114084,1,0,0:0:0:0:
182,192,114084,128,0,114400:0:0:0:0:
329,192,114242,1,0,0:0:0:0:
402,192,114400,1,2,0:0:0:0:
36,192,114400,1,0,0:0:0:0:
475,192,114400,1,0,0:0:0:0:
329,192,114479,1,0,0:0:0:0:
256,192,114558,1,0,0:0:0:0:
475,192,114558,1,0,0:0:0:0:
182,192,114637,1,0,0:0:0:0:
109,192,114716,1,2,0:0:0:0:
36,192,114716,1,8,0:0:0:0:
329,192,114716,1,0,0:0:0:0:
256,192,114874,1,0,0:0:0:0:
402,192,114874,1,0,0:0:0:0:
182,192,115032,1,2,0:0:0:0:
36,192,115032,1,0,0:0:0:0:
475,192,115032,1,0,0:0:0:0:
109,192,115190,1,0,0:0:0:0:
402,192,115190,1,0,0:0:0:0:
329,192,115269,1,0,0:0:0:0:
256,192,115347,1,2,0:0:0:0:
182,192,115347,1,8,0:0:0:0:
475,192,115347,128,0,115663:0:0:0:0:
36,192,115347,1,0,0:0:0:0:
329,192,115505,1,0,0:0:0:0:
256,192,115663,1,2,0:0:0:0:
36,192,115663,1,0,0:0:0:0:
109,192,115663,128,0,115979:0:0:0:0:
402,192,115663,1,0,0:0:0:0:
329,192,115821,1,0,0:0:0:0:
182,192,115979,1,2,0:0:0:0:
402,192,115979,1,8,0:0:0:0:
475,192,115979,1,0,0:0:0:0:
402,192,116137,1,0,0:0:0:0:
475,192,116137,1,0,0:0:0:0:
182,192,116295,1,2,0:0:0:0:
256,192,116295,1,0,0:0:0:0:
36,192,116295,1,0,0:0:0:0:
256,192,116453,1,0,0:0:0:0:
475,192,116453,1,0,0:0:0:0:
329,192,116532,1,0,0:0:0:0:
402,192,116611,128,2,116926:0:0:0:0:
109,192,116611,1,8,0:0:0:0:
36,192,116611,1,0,0:0:0:0:
182,192,116611,1,0,0:0:0:0:
256,192,116769,1,0,0:0:0:0:
36,192,116926,128,2,117084:0:0:0:0:
109,192,116926,1,0,0:0:0:0:
329,192,116926,1,0,0:0:0:0:
475,192,116926,1,0,0:0:0:0:
182,192,117084,128,2,117242:0:0:0:0:
329,192,117084,1,0,0:0:0:0:
475,192,117084,1,0,0:0:0:0:
256,192,117084,1,0,0:0:0:0:
36,192,117242,128,8,117400:0:0:0:0:
475,192,117242,1,2,0:0:0:0:
329,192,117242,1,0,0:0:0:0:
109,192,117242,1,0,0:0:0:0:
182,192,117400,128,0,117558:0:0:0:0:
256,192,117400,1,0,0:0:0:0:
475,192,117558,128,2,117716:0:0:0:0:
402,192,117558,1,0,0:0:0:0:
329,192,117558,1,0,0:0:0:0:
109,192,117558,1,0,0:0:0:0:
182,192,117716,1,0,0:0:0:0:
109,192,117795,1,2,0:0:0:0:
36,192,117795,1,0,0:0:0:0:
329,192,117874,1,2,0:0:0:0:
402,192,117874,1,8,0:0:0:0:
475,192,117874,1,4,0:0:0:0:
256,192,117874,1,0,0:0:0:0:
182,192,117953,1,0,0:0:0:0:
109,192,118032,1,2,0:0:0:0:
402,192,118032,1,0,0:0:0:0:
475,192,118032,1,0,0:0:0:0:
36,192,118111,1,0,0:0:0:0:
402,192,118190,1,2,0:0:0:0:
256,192,118190,1,4,0:0:0:0:
329,192,118190,128,0,118347:0:0:0:0:
182,192,118190,1,0,0:0:0:0:
475,192,118190,128,0,120716:0:0:0:0:
109,192,118347,1,0,0:0:0:0:
182,192,118505,1,2,0:0:0:0:
36,192,118505,1,8,0:0:0:0:
402,192,118505,1,0,0:0:0:0:
182,192,118663,1,0,0:0:0:0:
36,192,118663,1,0,0:0:0:0:
256,192,118821,1,2,0:0:0:0:
329,192,118821,1,0,0:0:0:0:
109,192,118821,1,0,0:0:0:0:
256,192,118979,1,0,0:0:0:0:
402,192,118979,1,0,0:0:0:0:
182,192,119058,1,0,0:0:0:0:
109,192,119137,128,8,119453:0:0:0:0:
36,192,119137,1,2,0:0:0:0:
329,192,119137,1,0,0:0:0:0:
402,192,119137,1,0,0:0:0:0:
256,192,119295,1,0,0:0:0:0:
182,192,119453,1,2,0:0:0:0:
36,192,119453,1,0,0:0:0:0:
402,192,119453,1,0,0:0:0:0:
256,192,119532,1,0,0:0:0:0:
329,192,119611,1,0,0:0:0:0:
109,192,119611,1,0,0:0:0:0:
402,192,119690,1,0,0:0:0:0:
36,192,119769,1,2,0:0:0:0:
182,192,119769,1,8,0:0:0:0:
256,192,119769,1,0,0:0:0:0:
109,192,119926,1,0,0:0:0:0:
329,192,119926,1,0,0:0:0:0:
329,192,120084,1,2,0:0:0:0:
402,192,120084,1,0,0:0:0:0:
36,192,120084,1,0,0:0:0:0:
182,192,120242,1,0,0:0:0:0:
256,192,120242,1,0,0:0:0:0:
329,192,120321,1,0,0:0:0:0:
402,192,120400,128,2,120716:0:0:0:0:
182,192,120400,1,8,0:0:0:0:
36,192,120400,1,0,0:0:0:0:
109,192,120400,1,0,0:0:0:0:
256,192,120558,1,0,0:0:0:0:
36,192,120716,1,2,0:0:0:0:
182,192,120716,1,0,0:0:0:0:
329,192,120716,1,0,0:0:0:0:
109,192,120874,1,0,0:0:0:0:
256,192,121032,1,2,0:0:0:0:
475,192,121032,1,8,0:0:0:0:
182,192,121032,1,0,0:0:0:0:
256,192,121190,1,0,0:0:0:0:
475,192,121190,1,0,0:0:0:0:
36,192,121347,1,2,0:0:0:0:
109,192,121347,1,0,0:0:0:0:
402,192,121347,1,0,0:0:0:0:
109,192,121505,1,0,0:0:0:0:
329,192,121505,1,0,0:0:0:0:
182,192,121584,1,0,0:0:0:0:
256,192,121663,128,2,121979:0:0:0:0:
475,192,121663,1,8,0:0:0:0:
402,192,121663,1,0,0:0:0:0:
36,192,121663,1,0,0:0:0:0:
182,192,121821,1,0,0:0:0:0:
329,192,121979,128,2,122137:0:0:0:0:
109,192,121979,1,0,0:0:0:0:
475,192,121979,1,0,0:0:0:0:
402,192,121979,1,0,0:0:0:0:
182,192,122137,128,0,122295:0:0:0:0:
256,192,122137,1,0,0:0:0:0:
329,192,122295,128,2,122453:0:0:0:0:
109,192,122295,1,8,0:0:0:0:
36,192,122295,1,0,0:0:0:0:
402,192,122295,1,0,0:0:0:0:
182,192,122453,128,0,122611:0:0:0:0:
256,192,122453,1,0,0:0:0:0:
402,192,122611,128,2,122769:0:0:0:0:
475,192,122611,1,0,0:0:0:0:
109,192,122611,1,0,0:0:0:0:
36,192,122611,1,0,0:0:0:0:
256,192,122769,1,0,0:0:0:0:
109,192,122926,128,2,123084:0:0:0:0:
36,192,122926,1,8,0:0:0:0:
402,192,122926,1,0,0:0:0:0:
475,192,122926,1,0,0:0:0:0:
475,192,123084,1,2,0:0:0:0:
402,192,123084,1,0,0:0:0:0:
182,192,123084,1,0,0:0:0:0:
256,192,123242,1,2,0:0:0:0:
475,192,123242,1,4,0:0:0:0:
36,192,123242,1,0,0:0:0:0:
329,192,123242,128,0,123400:0:0:0:0:
109,192,123242,1,0,0:0:0:0:
182,192,123400,1,0,0:0:0:0:
109,192,123558,1,8,0:0:0:0:
402,192,123558,1,2,0:0:0:0:
256,192,123558,1,0,0:0:0:0:
109,192,123716,1,0,0:0:0:0:
402,192,123716,1,0,0:0:0:0:
36,192,123874,1,2,0:0:0:0:
256,192,123874,1,0,0:0:0:0:
475,192,123874,1,0,0:0:0:0:
475,192,124032,1,0,0:0:0:0:
182,192,124032,1,0,0:0:0:0:
402,192,124111,1,0,0:0:0:0:
329,192,124190,128,2,124505:0:0:0:0:
36,192,124190,1,8,0:0:0:0:
109,192,124190,1,0,0:0:0:0:
256,192,124190,1,0,0:0:0:0:
475,192,124347,1,0,0:0:0:0:
182,192,124505,1,2,0:0:0:0:
36,192,124505,1,0,0:0:0:0:
109,192,124505,1,0,0:0:0:0:
256,192,124584,1,0,0:0:0:0:
329,192,124663,1,2,0:0:0:0:
109,192,124663,1,0,0:0:0:0:
36,192,124663,1,0,0:0:0:0:
402,192,124742,1,0,0:0:0:0:
475,192,124821,1,2,0:0:0:0:
109,192,124821,1,8,0:0:0:0:
36,192,124821,1,0,0:0:0:0:
329,192,124979,1,0,0:0:0:0:
256,192,124979,1,0,0:0:0:0:
182,192,125137,1,2,0:0:0:0:
402,192,125137,1,0,0:0:0:0:
475,192,125137,1,0,0:0:0:0:
329,192,125295,1,0,0:0:0:0:
109,192,125374,1,2,0:0:0:0:
36,192,125374,1,0,0:0:0:0:
182,192,125453,1,2,0:0:0:0:
475,192,125453,1,4,0:0:0:0:
402,192,125453,1,0,0:0:0:0:
256,192,125453,128,0,125769:0:0:0:0:
329,192,125611,1,2,0:0:0:0:
109,192,125611,1,0,0:0:0:0:
36,192,125611,1,0,0:0:0:0:
182,192,125769,1,8,0:0:0:0:
329,192,125769,1,0,0:0:0:0:
475,192,125769,1,0,0:0:0:0:
475,192,125926,1,8,0:0:0:0:
329,192,125926,1,0,0:0:0:0:
182,192,125926,1,0,0:0:0:0:
182,192,126084,1,8,0:0:0:0:
329,192,126084,1,0,0:0:0:0:
475,192,126084,1,0,0:0:0:0:
475,192,126242,1,8,0:0:0:0:
329,192,126242,1,0,0:0:0:0:
182,192,126242,1,0,0:0:0:0:
182,192,126400,128,8,126716:0:0:0:0:
329,192,126400,128,0,126716:0:0:0:0:
475,192,126400,128,0,126716:0:0:0:0:
402,192,126716,1,4,0:0:0:0:
256,192,126716,1,2,0:0:0:0:
109,192,126716,1,0,0:0:0:0:
36,192,126716,1,0,0:0:0:0:
109,192,127032,1,2,0:0:0:0:
256,192,127032,1,0,0:0:0:0:
402,192,127032,1,0,0:0:0:0:
402,192,127190,1,2,0:0:0:0:
256,192,127190,1,0,0:0:0:0:
109,192,127190,1,0,0:0:0:0:
109,192,127347,1,2,0:0:0:0:
256,192,127347,1,0,0:0:0:0:
402,192,127347,1,0,0:0:0:0:
402,192,127505,1,2,0:0:0:0:
256,192,127505,1,0,0:0:0:0:
109,192,127505,1,0,0:0:0:0:
109,192,127663,128,2,127979:0:0:0:0:
256,192,127663,128,0,127979:0:0:0:0:
402,192,127663,128,0,127979:0:0:0:0:
329,192,127821,1,0,0:0:0:0:
329,192,127979,1,4,0:0:0:0:
475,192,127979,1,2,0:0:0:0:
182,192,127979,1,0,0:0:0:0:
36,192,127979,1,0,0:0:0:0:
329,192,128295,1,4,0:0:0:0:
182,192,128295,1,2,0:0:0:0:
36,192,128295,1,0,0:0:0:0:
109,192,128295,1,0,0:0:0:0:
475,192,128453,1,8,0:0:0:0:
256,192,128453,1,0,0:0:0:0:
402,192,128532,1,8,0:0:0:0:
329,192,128611,1,2,0:0:0:0:
109,192,128611,1,0,0:0:0:0:
256,192,128769,1,2,0:0:0:0:
36,192,128769,1,0,0:0:0:0:
402,192,128926,1,4,0:0:0:0:
329,192,128926,1,8,0:0:0:0:
475,192,128926,1,0,0:0:0:0:
182,192,129005,1,8,0:0:0:0:
36,192,129005,1,0,0:0:0:0:
256,192,129084,1,0,0:0:0:0:
329,192,129163,1,8,0:0:0:0:
475,192,129163,1,0,0:0:0:0:
182,192,129242,1,8,0:0:0:0:
36,192,129242,1,4,0:0:0:0:
109,192,129242,1,0,0:0:0:0:
109,192,129400,1,8,0:0:0:0:
402,192,129400,1,0,0:0:0:0:
182,192,129558,1,8,0:0:0:0:
329,192,129558,1,4,0:0:0:0:
475,192,129558,1,0,0:0:0:0:
256,192,129558,1,0,0:0:0:0:
256,192,129716,1,2,0:0:0:0:
36,192,129716,1,0,0:0:0:0:
109,192,129795,1,2,0:0:0:0:
329,192,129795,1,0,0:0:0:0:
182,192,129874,1,8,0:0:0:0:
402,192,129874,1,0,0:0:0:0:
256,192,130032,1,8,0:0:0:0:
475,192,130032,1,0,0:0:0:0:
475,192,130347,1,2,0:0:0:0:
402,192,130347,1,8,0:0:0:0:
109,192,130347,1,4,0:0:0:0:
36,192,130347,1,0,0:0:0:0:
256,192,130347,1,0,0:0:0:0:
36,192,130505,1,4,0:0:0:0:
182,192,130505,1,8,0:0:0:0:
329,192,130505,1,2,0:0:0:0:
475,192,130505,1,0,0:0:0:0:
256,192,130505,1,0,0:0:0:0:
