osu file format v14

[General]
AudioFilename: audio.mp3
AudioLeadIn: 0
PreviewTime: 78253
Countdown: 0
SampleSet: Soft
StackLeniency: 0.7
Mode: 3
LetterboxInBreaks: 0
SpecialStyle: 0
WidescreenStoryboard: 1

[Editor]
DistanceSpacing: 1
BeatDivisor: 4
GridSize: 4
TimelineZoom: 2.2

[Metadata]
Title:Panic! Pop'n! Picnic! (2019 REMASTER)
TitleUnicode:Panic! Pop'n! Picnic! (2019 REMASTER)
Artist:Umeboshi Chazuke
ArtistUnicode:梅干茶漬け
Creator:Jakads
Version:Another!
Source:osu!
Tags:Video Game Instrumental FAMoss Featured Artist FA BMS BOFU2016 - Legendary Again - ああ…翡翠茶漬け… ~もっと おかわり!~ Chipstyle Hi-Pop むらたむうた 8bit Chiptune
BeatmapID:2654192
BeatmapSetID:1277503

[Difficulty]
HPDrainRate:8
CircleSize:4
OverallDifficulty:8
ApproachRate:5
SliderMultiplier:1.4
SliderTickRate:1

[Events]
//Background and Video events
0,0,"maxresdefault.png",0,0
//Break Periods
//Storyboard Layer 0 (Background)
//Storyboard Layer 1 (Fail)
//Storyboard Layer 2 (Pass)
//Storyboard Layer 3 (Foreground)
//Storyboard Layer 4 (Overlay)
//Storyboard Sound Samples
Sample,44518,0,"Clap.wav",100
Sample,54308,0,"Clap.wav",100
Sample,54624,0,"Clap.wav",100
Sample,60466,0,"Tom31.wav",100
Sample,60781,0,"Tom12.wav",100
Sample,61097,0,"Tom12.wav",100
Sample,61255,0,"Tom13.wav",100
Sample,61571,0,"Tom13.wav",100
Sample,61887,0,"Tom1.wav",100
Sample,62202,0,"Tom1.wav",100

[TimingPoints]
624,315.789473684211,4,2,1,60,1,0
10413,-100,4,2,1,60,0,1
10492,-100,4,2,1,60,0,0
11518,-100,4,2,1,60,0,1
11597,-100,4,2,1,60,0,0
11676,-100,4,2,1,60,0,1
11755,-100,4,2,1,60,0,0
14045,-100,4,2,1,60,0,1
14124,-100,4,2,1,60,0,0
14202,-100,4,2,1,60,0,1
14281,-100,4,2,1,60,0,0
24624,-100,4,2,1,60,0,1
34334,-100,4,2,1,60,0,0
34413,-100,4,2,1,60,0,1
34729,-100,4,2,1,60,0,0
44834,-100,4,2,1,60,0,1
54939,-100,4,2,1,60,0,0
55255,-100,4,2,1,60,0,1
55334,-100,4,2,1,60,0,0
62676,-100,4,2,1,60,0,1
65045,-100,4,2,1,60,0,0
66308,-100,4,2,1,60,0,1
67571,-100,4,2,2,50,0,0
75466,333.333333333334,4,2,2,50,1,0
75466,-94.3396226415094,4,2,2,50,0,0
75799,352.941176470589,4,2,2,50,1,0
75799,-89.2857142857143,4,2,2,50,0,0
76151,375.000000000001,4,2,2,50,1,0
76151,-84.0336134453782,4,2,2,50,0,0
76526,400.000000000001,4,2,2,50,1,0
76526,-78.740157480315,4,2,2,50,0,0
76926,428.571428571429,4,2,2,50,1,0
76926,-73.5294117647059,4,2,2,50,0,0
77354,461.538461538462,4,2,2,50,1,0
77354,-68.4931506849315,4,2,2,50,0,0
77815,500.000000000001,4,2,2,50,1,0
77815,-63.2911392405063,4,2,2,50,0,0
78315,315.789473684211,4,2,1,60,1,1
88420,-100,4,2,1,60,0,0
88736,-100,4,2,1,60,0,1
98525,-100,4,2,1,60,0,0
103578,-100,4,2,1,60,0,1
103657,-100,4,2,1,60,0,0
103736,-100,4,2,1,60,0,1
103815,-100,4,2,1,60,0,0
103893,-100,4,2,1,60,0,1
104209,-100,4,2,1,60,0,0
106104,-100,4,2,1,60,0,1
108630,-100,4,2,1,60,0,0
118736,-100,4,2,1,60,0,1
126315,-100,4,2,1,60,0,0
127262,-100,4,2,1,60,0,1
127341,-100,4,2,1,60,0,0
128367,-100,4,2,1,60,0,1
128446,-100,4,2,1,60,0,0
128525,-100,4,2,1,60,0,1
128604,-100,4,2,1,60,0,0
130893,-100,4,2,1,60,0,1
130972,-100,4,2,1,60,0,0
131051,-100,4,2,1,60,0,1
131130,-100,4,2,1,60,0,0

[HitObjects]
64,192,624,5,8,0:0:0:0:
192,192,624,1,0,0:0:0:0:
320,192,702,1,0,0:0:0:100:Dr Snare1.5.wav
448,192,702,1,0,0:0:0:0:
64,192,781,1,0,0:0:0:100:Dr Snare2.wav
192,192,860,1,0,0:0:0:100:Dr Snare2.wav
320,192,939,1,8,0:0:0:0:
448,192,939,1,0,0:0:0:0:
64,192,1018,1,0,0:0:0:100:Dr Snare1.5.wav
192,192,1018,1,0,0:0:0:0:
448,192,1097,1,0,0:0:0:100:Dr Snare2.wav
320,192,1176,1,0,0:0:0:100:Dr Snare2.wav
64,192,1255,1,8,0:0:0:0:
192,192,1255,1,0,0:0:0:0:
320,192,1334,1,0,0:0:0:100:Dr Snare1.5.wav
448,192,1334,1,0,0:0:0:0:
64,192,1413,1,0,0:0:0:100:Dr Snare2.wav
192,192,1492,1,0,0:0:0:100:Dr Snare2.wav
320,192,1571,1,8,0:0:0:0:
448,192,1571,1,0,0:0:0:0:
64,192,1729,1,8,0:0:0:0:
192,192,1729,1,0,0:0:0:0:
64,192,1887,1,2,0:0:0:0:
320,192,1887,1,0,0:0:0:100:Dr CrashL.wav
448,192,1887,1,0,0:0:0:0:
192,192,1966,1,0,0:0:0:0:
320,192,2045,1,0,0:0:0:0:
448,192,2124,1,0,0:0:0:0:
192,192,2202,1,0,0:0:0:0:
64,192,2281,1,0,0:0:0:0:
448,192,2360,1,0,0:0:0:0:
320,192,2439,1,0,0:0:0:0:
64,192,2518,1,0,0:0:0:0:
192,192,2597,1,0,0:0:0:0:
320,192,2676,1,0,0:0:0:0:
448,192,2755,1,0,0:0:0:0:
192,192,2834,1,0,0:0:0:0:
64,192,2913,1,0,0:0:0:0:
448,192,2992,1,0,0:0:0:0:
320,192,3071,1,0,0:0:0:0:
64,192,3150,1,0,0:0:0:0:
192,192,3229,1,0,0:0:0:0:
320,192,3308,1,0,0:0:0:0:
448,192,3387,1,0,0:0:0:0:
192,192,3466,1,0,0:0:0:0:
64,192,3545,1,0,0:0:0:0:
448,192,3624,1,0,0:0:0:0:
320,192,3702,1,0,0:0:0:0:
64,192,3781,1,0,0:0:0:0:
192,192,3860,1,0,0:0:0:0:
320,192,3939,1,0,0:0:0:0:
448,192,4018,1,0,0:0:0:0:
192,192,4097,1,0,0:0:0:0:
64,192,4176,1,0,0:0:0:0:
320,192,4255,1,0,0:0:0:0:
192,192,4334,1,0,0:0:0:0:
320,192,4413,1,0,0:0:0:0:
448,192,4492,1,0,0:0:0:0:
64,192,4571,1,0,0:0:0:0:
192,192,4650,1,0,0:0:0:0:
448,192,4729,1,0,0:0:0:0:
320,192,4808,1,0,0:0:0:0:
192,192,4887,1,0,0:0:0:0:
64,192,4966,1,0,0:0:0:0:
320,192,5045,1,0,0:0:0:0:
448,192,5124,1,0,0:0:0:0:
64,192,5202,1,0,0:0:0:0:
192,192,5281,1,0,0:0:0:0:
448,192,5360,1,0,0:0:0:0:
320,192,5439,1,0,0:0:0:0:
192,192,5518,1,0,0:0:0:0:
64,192,5597,1,0,0:0:0:0:
448,192,5676,1,0,0:0:0:100:Tom1.wav
320,192,5676,1,0,0:0:0:0:
192,192,5755,1,0,0:0:0:100:Tom1.wav
448,192,5834,1,0,0:0:0:100:Tom1.wav
192,192,5913,1,0,0:0:0:100:Tom1.wav
320,192,5992,1,0,0:0:0:100:Tom2.wav
448,192,5992,1,0,0:0:0:0:
64,192,6071,1,0,0:0:0:100:Tom2.wav
448,192,6150,1,0,0:0:0:100:Tom2.wav
64,192,6229,1,0,0:0:0:100:Tom2.wav
320,192,6308,1,0,0:0:0:100:Tom3.wav
192,192,6308,1,0,0:0:0:0:
64,192,6387,1,0,0:0:0:100:Tom3.wav
320,192,6466,1,0,0:0:0:100:Tom3.wav
64,192,6545,1,0,0:0:0:100:Tom3.wav
192,192,6624,1,8,0:0:0:0:
448,192,6624,1,0,0:0:0:100:Dr CrashR.wav
320,192,6624,1,0,0:0:0:0:
64,192,6939,1,2,0:0:0:0:
320,192,6939,1,0,0:0:0:100:Dr CrashL.wav
448,192,6939,1,0,0:0:0:0:
448,192,7097,1,0,0:0:0:0:
64,192,7255,1,8,0:0:0:0:
320,192,7255,1,2,0:0:0:0:
64,192,7413,1,0,0:0:0:0:
192,192,7571,1,2,0:0:0:0:
448,192,7571,1,0,0:0:0:0:
192,192,7729,1,0,0:0:0:0:
64,192,7887,1,8,0:0:0:0:
320,192,7887,1,2,0:0:0:0:
320,192,8045,1,0,0:0:0:0:
192,192,8202,1,2,0:0:0:0:
448,192,8202,1,0,0:0:0:0:
192,192,8360,1,2,0:0:0:0:
448,192,8360,1,0,0:0:0:0:
64,192,8518,1,2,0:0:0:0:
320,192,8518,1,8,0:0:0:0:
320,192,8676,1,0,0:0:0:0:
192,192,8834,1,2,0:0:0:0:
448,192,8834,1,0,0:0:0:0:
192,192,8992,1,0,0:0:0:0:
448,192,9071,1,2,0:0:0:0:
64,192,9150,1,8,0:0:0:0:
192,192,9150,1,0,0:0:0:100:Dr CrashR.wav
320,192,9150,1,0,0:0:0:0:
64,192,9308,1,2,0:0:0:0:
448,192,9308,1,0,0:0:0:0:
192,192,9466,1,2,0:0:0:0:
320,192,9466,1,0,0:0:0:100:Tom1.wav
448,192,9466,1,0,0:0:0:0:
192,192,9624,1,2,0:0:0:0:
320,192,9624,1,0,0:0:0:100:Tom1.wav
448,192,9624,1,0,0:0:0:0:
192,192,9781,1,2,0:0:0:0:
320,192,9781,1,0,0:0:0:100:Tom1.wav
448,192,9781,1,0,0:0:0:0:
192,192,9939,1,2,0:0:0:0:
320,192,9939,1,0,0:0:0:100:Tom1.wav
448,192,9939,1,0,0:0:0:0:
192,192,10097,1,2,0:0:0:0:
320,192,10097,128,0,10334:0:0:0:100:Tom1.wav
448,192,10097,128,0,10334:0:0:0:0:
64,192,10413,1,8,0:0:0:0:
320,192,10413,1,0,0:0:0:100:Dr CrashL.wav
448,192,10413,1,0,0:0:0:0:
64,192,10729,1,2,0:0:0:0:
192,192,10729,1,0,0:0:0:100:Tom3.wav
320,192,10729,1,0,0:0:0:0:
64,192,10887,1,2,0:0:0:0:
192,192,10887,1,0,0:0:0:100:Tom3.wav
320,192,10887,1,0,0:0:0:0:
64,192,11045,1,2,0:0:0:0:
192,192,11045,1,0,0:0:0:100:Tom3.wav
320,192,11045,1,0,0:0:0:0:
64,192,11202,1,2,0:0:0:0:
192,192,11202,1,0,0:0:0:100:Tom3.wav
320,192,11202,1,0,0:0:0:0:
64,192,11360,128,2,11597:0:0:0:0:
192,192,11360,128,0,11597:0:0:0:100:Tom3.wav
320,192,11360,1,0,0:0:0:0:
448,192,11518,1,0,0:0:0:0:
64,192,11676,1,8,0:0:0:0:
192,192,11676,1,0,0:0:0:100:Dr CrashR.wav
448,192,11676,1,0,0:0:0:0:
64,192,11992,1,2,0:0:0:0:
320,192,11992,1,0,0:0:0:100:Dr CrashL.wav
448,192,11992,1,0,0:0:0:0:
64,192,12150,1,0,0:0:0:100:Tom1.wav
192,192,12150,1,0,0:0:0:0:
448,192,12229,1,0,0:0:0:100:Tom1.wav
192,192,12308,1,0,0:0:0:100:Tom2.wav
320,192,12308,1,0,0:0:0:0:
320,192,12466,1,0,0:0:0:100:Tom3.wav
448,192,12466,1,0,0:0:0:0:
64,192,12624,1,8,0:0:0:0:
448,192,12624,1,0,0:0:0:100:Dr CrashR.wav
192,192,12702,1,0,0:0:0:100:Dr Snare1.5.wav
320,192,12702,1,0,0:0:0:0:
192,192,12860,1,0,0:0:0:100:Dr Snare1.5.wav
320,192,12860,1,0,0:0:0:0:
64,192,12939,1,8,0:0:0:0:
448,192,12939,1,0,0:0:0:100:Dr CrashR.wav
64,192,13097,1,8,0:0:0:0:
192,192,13097,1,0,0:0:0:0:
64,192,13255,1,8,0:0:0:0:
320,192,13255,1,0,0:0:0:100:Dr CrashL.wav
448,192,13255,1,0,0:0:0:0:
320,192,13413,1,2,0:0:0:0:
448,192,13413,1,0,0:0:0:0:
64,192,13492,1,2,0:0:0:0:
192,192,13492,1,0,0:0:0:0:
320,192,13571,1,0,0:0:0:100:Tom2.wav
448,192,13571,1,0,0:0:0:0:
192,192,13729,1,0,0:0:0:100:Tom2.wav
320,192,13729,1,0,0:0:0:0:
64,192,14045,1,8,0:0:0:0:
320,192,14045,1,0,0:0:0:100:Dr CrashR.wav
448,192,14045,1,0,0:0:0:0:
64,192,14202,1,8,0:0:0:0:
192,192,14202,1,0,0:0:0:100:Dr CrashR.wav
448,192,14202,1,0,0:0:0:0:
64,192,14518,1,2,0:0:0:0:
320,192,14518,1,0,0:0:0:100:Dr CrashL.wav
448,192,14518,1,0,0:0:0:0:
192,192,14755,1,0,0:0:0:0:
64,192,14834,1,2,0:0:0:0:
320,192,14834,1,0,0:0:0:0:
448,192,14992,1,0,0:0:0:0:
64,192,15150,1,2,0:0:0:0:
320,192,15150,1,0,0:0:0:0:
64,192,15466,1,2,0:0:0:0:
192,192,15466,1,0,0:0:0:0:
320,192,15624,1,0,0:0:0:0:
192,192,15781,1,2,0:0:0:0:
448,192,15781,1,0,0:0:0:0:
64,192,16018,1,0,0:0:0:0:
192,192,16097,1,2,0:0:0:0:
448,192,16097,1,0,0:0:0:0:
320,192,16255,1,0,0:0:0:0:
192,192,16413,1,2,0:0:0:0:
448,192,16413,1,0,0:0:0:0:
320,192,16729,1,2,0:0:0:0:
448,192,16729,1,0,0:0:0:0:
192,192,16887,1,0,0:0:0:0:
64,192,17045,1,2,0:0:0:0:
320,192,17045,1,0,0:0:0:0:
192,192,17281,1,0,0:0:0:0:
64,192,17360,1,2,0:0:0:0:
320,192,17360,1,0,0:0:0:0:
448,192,17518,1,0,0:0:0:0:
64,192,17676,1,2,0:0:0:0:
320,192,17676,1,0,0:0:0:0:
64,192,17992,1,2,0:0:0:0:
192,192,17992,1,0,0:0:0:0:
320,192,18150,1,0,0:0:0:0:
192,192,18308,1,2,0:0:0:0:
448,192,18308,1,0,0:0:0:0:
320,192,18466,1,0,0:0:0:0:
192,192,18545,1,0,0:0:0:0:
320,192,18624,1,2,0:0:0:0:
448,192,18624,1,0,0:0:0:0:
64,192,18781,1,0,0:0:0:0:
320,192,18939,1,2,0:0:0:0:
448,192,18939,1,0,0:0:0:0:
64,192,19255,1,2,0:0:0:0:
448,192,19255,1,0,0:0:0:0:
192,192,19413,1,2,0:0:0:0:
448,192,19413,1,0,0:0:0:0:
64,192,19571,1,2,0:0:0:0:
320,192,19571,1,0,0:0:0:0:
192,192,19808,1,0,0:0:0:0:
64,192,19887,1,2,0:0:0:0:
320,192,19887,1,0,0:0:0:0:
448,192,20045,1,0,0:0:0:0:
64,192,20202,1,2,0:0:0:0:
320,192,20202,1,0,0:0:0:0:
64,192,20518,1,2,0:0:0:0:
192,192,20518,1,0,0:0:0:0:
320,192,20676,1,0,0:0:0:0:
192,192,20834,1,2,0:0:0:0:
448,192,20834,1,0,0:0:0:0:
64,192,21071,1,0,0:0:0:0:
192,192,21150,1,2,0:0:0:0:
448,192,21150,1,0,0:0:0:0:
320,192,21308,1,0,0:0:0:0:
192,192,21466,1,2,0:0:0:0:
448,192,21466,1,0,0:0:0:0:
64,192,21624,1,0,0:0:0:0:
192,192,21781,1,2,0:0:0:0:
320,192,21781,1,0,0:0:0:0:
448,192,21939,1,0,0:0:0:0:
64,192,22097,1,2,0:0:0:0:
320,192,22097,1,0,0:0:0:0:
192,192,22255,1,0,0:0:0:0:
320,192,22334,1,0,0:0:0:0:
64,192,22413,1,2,0:0:0:0:
448,192,22413,1,0,0:0:0:0:
320,192,22571,1,0,0:0:0:0:
192,192,22729,1,2,0:0:0:0:
448,192,22729,1,0,0:0:0:0:
64,192,22808,1,0,0:0:0:0:
320,192,22887,1,0,0:0:0:0:
192,192,22966,1,0,0:0:0:0:
64,192,23045,1,2,0:0:0:0:
448,192,23045,1,0,0:0:0:0:
192,192,23202,1,0,0:0:0:0:
320,192,23360,1,2,0:0:0:0:
448,192,23360,1,0,0:0:0:0:
192,192,23518,1,2,0:0:0:0:
448,192,23518,128,0,23597:0:0:0:0:
64,192,23676,1,2,0:0:0:0:
320,192,23676,128,0,23755:0:0:0:0:
192,192,23834,128,0,23913:0:0:0:0:
64,192,23992,128,2,24150:0:0:0:0:
448,192,23992,1,0,0:0:0:0:
320,192,24150,1,0,0:0:0:0:
64,192,24229,1,2,0:0:0:0:
192,192,24229,1,0,0:0:0:0:
320,192,24308,1,2,0:0:0:0:
448,192,24308,1,0,0:0:0:0:
192,192,24466,1,2,0:0:0:0:
320,192,24466,1,0,0:0:0:0:
64,192,24624,1,2,0:0:0:0:
192,192,24624,1,0,0:0:0:100:Dr CrashL.wav
448,192,24624,1,0,0:0:0:0:
320,192,24781,1,0,0:0:0:0:
192,192,24860,1,0,0:0:0:0:
64,192,24939,1,2,0:0:0:0:
448,192,24939,1,8,0:0:0:0:
64,192,25097,1,0,0:0:0:0:
192,192,25176,1,0,0:0:0:0:
320,192,25255,1,2,0:0:0:0:
448,192,25255,1,0,0:0:0:0:
192,192,25413,1,0,0:0:0:0:
320,192,25492,1,0,0:0:0:0:
64,192,25571,1,2,0:0:0:0:
448,192,25571,1,8,0:0:0:0:
192,192,25729,1,0,0:0:0:0:
64,192,25887,1,2,0:0:0:0:
320,192,25887,1,0,0:0:0:0:
192,192,26045,1,0,0:0:0:0:
320,192,26124,1,0,0:0:0:0:
64,192,26202,1,2,0:0:0:0:
448,192,26202,1,8,0:0:0:0:
448,192,26360,1,0,0:0:0:0:
320,192,26439,1,0,0:0:0:0:
64,192,26518,1,2,0:0:0:0:
192,192,26518,1,0,0:0:0:0:
320,192,26676,1,0,0:0:0:0:
192,192,26755,1,0,0:0:0:0:
64,192,26834,1,2,0:0:0:0:
448,192,26834,1,8,0:0:0:0:
320,192,26992,1,0,0:0:0:0:
192,192,27150,1,2,0:0:0:0:
448,192,27150,1,0,0:0:0:0:
64,192,27308,1,0,0:0:0:0:
192,192,27387,1,0,0:0:0:0:
320,192,27466,1,8,0:0:0:0:
448,192,27466,1,2,0:0:0:0:
320,192,27624,1,0,0:0:0:0:
192,192,27702,1,0,0:0:0:0:
64,192,27781,1,2,0:0:0:0:
448,192,27781,1,0,0:0:0:0:
192,192,27939,1,0,0:0:0:0:
320,192,28018,1,0,0:0:0:0:
64,192,28097,1,8,0:0:0:0:
448,192,28097,1,2,0:0:0:0:
192,192,28255,1,0,0:0:0:0:
320,192,28413,1,2,0:0:0:0:
448,192,28413,1,0,0:0:0:0:
320,192,28571,1,0,0:0:0:0:
192,192,28650,1,0,0:0:0:0:
320,192,28729,1,2,0:0:0:0:
448,192,28729,1,8,0:0:0:0:
64,192,28887,1,0,0:0:0:0:
192,192,29045,1,2,0:0:0:0:
448,192,29045,1,0,0:0:0:0:
320,192,29202,1,0,0:0:0:0:
64,192,29360,1,2,0:0:0:0:
192,192,29360,1,8,0:0:0:0:
192,192,29518,1,2,0:0:0:0:
320,192,29518,1,0,0:0:0:0:
320,192,29676,1,2,0:0:0:0:
448,192,29676,1,0,0:0:0:0:
192,192,29834,1,0,0:0:0:0:
320,192,29913,1,0,0:0:0:0:
64,192,29992,1,8,0:0:0:0:
448,192,29992,1,2,0:0:0:0:
448,192,30150,1,0,0:0:0:0:
320,192,30229,1,0,0:0:0:0:
64,192,30308,1,2,0:0:0:0:
192,192,30308,1,0,0:0:0:0:
320,192,30466,1,0,0:0:0:0:
192,192,30545,1,0,0:0:0:0:
64,192,30624,1,8,0:0:0:0:
448,192,30624,1,2,0:0:0:0:
192,192,30781,1,0,0:0:0:0:
64,192,30939,1,2,0:0:0:0:
320,192,30939,1,0,0:0:0:0:
192,192,31097,1,0,0:0:0:0:
320,192,31176,1,0,0:0:0:0:
64,192,31255,1,2,0:0:0:0:
192,192,31255,1,8,0:0:0:0:
448,192,31255,1,0,0:0:0:100:Dr CrashR.wav
320,192,31413,1,0,0:0:0:0:
64,192,31571,1,8,0:0:0:0:
320,192,31571,1,2,0:0:0:0:
448,192,31571,1,0,0:0:0:100:Dr CrashR.wav
448,192,31887,1,0,0:0:0:0:
192,192,32045,1,0,0:0:0:0:
320,192,32202,1,2,0:0:0:0:
448,192,32202,1,0,0:0:0:100:Dr CrashL.wav
192,192,32281,1,0,0:0:0:0:
320,192,32360,1,0,0:0:0:0:
192,192,32439,1,0,0:0:0:0:
64,192,32518,1,2,0:0:0:0:
320,192,32518,1,8,0:0:0:0:
192,192,32676,1,0,0:0:0:0:
320,192,32834,1,2,0:0:0:0:
448,192,32834,1,0,0:0:0:100:Dr CrashR.wav
64,192,32913,1,0,0:0:0:0:
448,192,32992,1,0,0:0:0:0:
64,192,33071,1,0,0:0:0:0:
192,192,33150,1,2,0:0:0:0:
448,192,33150,1,8,0:0:0:0:
64,192,33308,1,0,0:0:0:0:
320,192,33466,1,2,0:0:0:0:
448,192,33466,1,0,0:0:0:0:
192,192,33624,1,0,0:0:0:100:Tom1.wav
448,192,33624,128,0,33702:0:0:0:0:
64,192,33781,1,0,0:0:0:100:Tom2.wav
320,192,33781,128,0,33860:0:0:0:0:
192,192,33939,128,0,34018:0:0:0:100:Tom3.wav
448,192,33939,1,0,0:0:0:0:
64,192,34097,128,2,34255:0:0:0:0:
320,192,34097,1,0,0:0:0:0:
64,192,34413,1,0,0:0:0:100:Gabba Kick_001.wav
192,192,34413,1,0,0:0:0:100:Dr CrashR.wav
320,192,34413,128,0,34650:0:0:0:0:
448,192,34413,128,0,34650:0:0:0:0:
64,192,34729,1,0,0:0:0:100:Gabba Kick_002.wav
320,192,34729,1,0,0:0:0:100:Dr CrashL.wav
448,192,34729,1,0,0:0:0:0:
192,192,34887,1,0,0:0:0:0:
320,192,35045,1,0,0:0:0:100:Gabba Kick_002.wav
448,192,35045,1,0,0:0:0:100:Clap.wav
448,192,35202,1,0,0:0:0:0:
64,192,35360,1,0,0:0:0:100:Gabba Kick_002.wav
192,192,35360,1,0,0:0:0:0:
320,192,35518,1,0,0:0:0:0:
64,192,35676,1,0,0:0:0:100:Gabba Kick_002.wav
192,192,35676,1,0,0:0:0:100:Clap.wav
64,192,35834,1,0,0:0:0:0:
320,192,35992,1,0,0:0:0:100:Gabba Kick_002.wav
448,192,35992,1,0,0:0:0:0:
64,192,36150,1,0,0:0:0:0:
320,192,36308,1,0,0:0:0:100:Gabba Kick_002.wav
448,192,36308,1,0,0:0:0:100:Clap.wav
320,192,36466,1,0,0:0:0:0:
64,192,36624,1,0,0:0:0:100:Gabba Kick_002.wav
192,192,36624,1,0,0:0:0:0:
448,192,36781,1,0,0:0:0:0:
320,192,36860,1,0,0:0:0:0:
64,192,36939,1,0,0:0:0:100:Gabba Kick_002.wav
192,192,36939,1,0,0:0:0:100:Clap.wav
192,192,37097,1,0,0:0:0:0:
320,192,37255,1,0,0:0:0:100:Gabba Kick_002.wav
448,192,37255,1,0,0:0:0:0:
64,192,37413,1,0,0:0:0:0:
320,192,37571,1,0,0:0:0:100:Gabba Kick_002.wav
448,192,37571,1,0,0:0:0:100:Clap.wav
448,192,37729,1,0,0:0:0:0:
64,192,37887,1,0,0:0:0:100:Gabba Kick_002.wav
192,192,37887,1,0,0:0:0:0:
448,192,38045,1,0,0:0:0:0:
64,192,38202,1,0,0:0:0:100:Gabba Kick_002.wav
192,192,38202,1,0,0:0:0:100:Clap.wav
64,192,38360,1,0,0:0:0:0:
320,192,38518,1,0,0:0:0:100:Gabba Kick_002.wav
448,192,38518,1,0,0:0:0:0:
192,192,38676,1,0,0:0:0:0:
320,192,38834,1,0,0:0:0:100:Gabba Kick_002.wav
448,192,38834,1,0,0:0:0:100:Clap.wav
320,192,38992,1,0,0:0:0:0:
64,192,39150,1,0,0:0:0:100:Gabba Kick_002.wav
192,192,39150,1,0,0:0:0:0:
320,192,39308,1,0,0:0:0:0:
448,192,39387,1,0,0:0:0:0:
64,192,39466,1,0,0:0:0:100:Gabba Kick_002.wav
192,192,39466,1,0,0:0:0:100:Clap.wav
192,192,39624,1,0,0:0:0:100:Gabba Kick_002.wav
320,192,39624,1,0,0:0:0:0:
320,192,39781,1,0,0:0:0:100:Gabba Kick_002.wav
448,192,39781,1,0,0:0:0:0:
64,192,39939,1,0,0:0:0:0:
192,192,40018,1,0,0:0:0:0:
320,192,40097,1,0,0:0:0:100:Gabba Kick_002.wav
448,192,40097,1,0,0:0:0:100:Clap.wav
320,192,40255,1,0,0:0:0:0:
192,192,40334,1,0,0:0:0:0:
64,192,40413,1,0,0:0:0:100:Gabba Kick_002.wav
448,192,40413,1,0,0:0:0:0:
64,192,40571,128,0,40729:0:0:0:0:
320,192,40729,1,0,0:0:0:100:Gabba Kick_002.wav
448,192,40729,1,0,0:0:0:100:Clap.wav
64,192,40887,1,0,0:0:0:0:
320,192,41045,1,0,0:0:0:100:Gabba Kick_002.wav
448,192,41045,1,0,0:0:0:0:
192,192,41124,1,0,0:0:0:0:
64,192,41202,1,0,0:0:0:0:
64,192,41360,1,0,0:0:0:100:Gabba Kick_002.wav
448,192,41360,1,0,0:0:0:100:Clap.wav
320,192,41439,1,0,0:0:0:0:
192,192,41518,128,0,41676:0:0:0:0:
64,192,41676,1,0,0:0:0:100:Gabba Kick_002.wav
448,192,41676,1,0,0:0:0:0:
192,192,41755,1,0,0:0:0:0:
448,192,41834,1,0,0:0:0:0:
320,192,41913,1,0,0:0:0:0:
64,192,41992,1,0,0:0:0:100:Gabba Kick_002.wav
192,192,41992,1,0,0:0:0:100:Clap.wav
448,192,42071,1,0,0:0:0:0:
320,192,42150,1,0,0:0:0:0:
192,192,42229,1,0,0:0:0:0:
64,192,42308,1,0,0:0:0:100:Gabba Kick_002.wav
448,192,42308,1,0,0:0:0:0:
448,192,42466,1,0,0:0:0:0:
320,192,42545,1,0,0:0:0:0:
64,192,42624,1,0,0:0:0:100:Gabba Kick_002.wav
192,192,42624,1,0,0:0:0:100:Clap.wav
192,192,42781,1,0,0:0:0:0:
320,192,42860,1,0,0:0:0:0:
64,192,42939,1,0,0:0:0:100:Gabba Kick_002.wav
448,192,42939,1,0,0:0:0:0:
448,192,43097,128,0,43255:0:0:0:0:
64,192,43255,1,0,0:0:0:100:Gabba Kick_002.wav
192,192,43255,1,0,0:0:0:100:Clap.wav
448,192,43413,1,0,0:0:0:0:
64,192,43571,1,0,0:0:0:100:Gabba Kick_002.wav
192,192,43571,1,0,0:0:0:0:
320,192,43650,1,0,0:0:0:0:
64,192,43729,1,0,0:0:0:100:Gabba Kick_002.wav
192,192,43729,1,0,0:0:0:0:
64,192,43887,1,0,0:0:0:100:Gabba Kick_002.wav
448,192,43887,1,0,0:0:0:100:Clap.wav
192,192,43966,1,0,0:0:0:0:
320,192,44045,128,0,44202:0:0:0:0:
64,192,44202,1,0,0:0:0:100:Gabba Kick_002.wav
192,192,44202,1,0,0:0:0:0:
320,192,44281,1,0,0:0:0:0:
448,192,44360,1,0,0:0:0:0:
64,192,44439,1,0,0:0:0:100:Gabba Kick_002.wav
192,192,44439,1,0,0:0:0:0:
448,192,44518,1,0,0:0:0:100:Gabba Kick_002.wav
320,192,44558,1,0,0:0:0:0:
192,192,44597,1,0,0:0:0:0:
64,192,44637,1,0,0:0:0:0:
448,192,44676,1,0,0:0:0:100:Gabba Kick_002.wav
320,192,44716,1,0,0:0:0:0:
192,192,44755,1,0,0:0:0:0:
64,192,44795,1,0,0:0:0:0:
320,192,44834,1,0,0:0:0:100:Gabba Kick_002.wav
448,192,44834,1,0,0:0:0:100:Dr CrashL.wav
64,192,44992,1,0,0:0:0:100:Gabba Kick_002.wav
192,192,44992,1,0,0:0:0:0:
64,192,45150,1,0,0:0:0:100:Gabba Kick_002.wav
192,192,45150,1,0,0:0:0:100:Clap.wav
448,192,45150,1,0,0:0:0:0:
320,192,45308,1,0,0:0:0:0:
448,192,45387,1,0,0:0:0:0:
64,192,45466,1,0,0:0:0:100:Gabba Kick_002.wav
192,192,45466,1,0,0:0:0:0:
320,192,45624,1,0,0:0:0:0:
64,192,45702,1,0,0:0:0:0:
192,192,45702,1,0,0:0:0:0:
320,192,45781,1,0,0:0:0:100:Gabba Kick_002.wav
448,192,45781,1,0,0:0:0:100:Clap.wav
64,192,45939,1,0,0:0:0:0:
192,192,45939,1,0,0:0:0:0:
64,192,46097,1,0,0:0:0:100:Gabba Kick_002.wav
448,192,46097,1,0,0:0:0:0:
192,192,46176,1,0,0:0:0:0:
320,192,46255,1,0,0:0:0:0:
448,192,46255,1,0,0:0:0:0:
192,192,46413,1,0,0:0:0:100:Gabba Kick_002.wav
320,192,46413,1,0,0:0:0:100:Clap.wav
448,192,46413,1,0,0:0:0:0:
64,192,46492,1,0,0:0:0:0:
192,192,46571,128,0,46729:0:0:0:0:
320,192,46729,1,0,0:0:0:100:Gabba Kick_002.wav
448,192,46729,1,0,0:0:0:0:
64,192,46808,1,0,0:0:0:0:
192,192,46887,1,0,0:0:0:0:
320,192,46966,1,0,0:0:0:0:
448,192,46966,1,0,0:0:0:0:
64,192,47045,1,0,0:0:0:100:Gabba Kick_002.wav
192,192,47045,1,0,0:0:0:100:Clap.wav
448,192,47124,1,0,0:0:0:0:
192,192,47202,1,0,0:0:0:0:
320,192,47202,1,0,0:0:0:0:
64,192,47281,1,0,0:0:0:0:
320,192,47360,1,0,0:0:0:100:Gabba Kick_002.wav
448,192,47360,1,0,0:0:0:0:
64,192,47518,1,0,0:0:0:0:
192,192,47518,1,0,0:0:0:0:
64,192,47676,1,0,0:0:0:100:Gabba Kick_002.wav
192,192,47676,1,0,0:0:0:100:Clap.wav
448,192,47676,1,0,0:0:0:0:
320,192,47834,1,0,0:0:0:0:
448,192,47913,1,0,0:0:0:0:
64,192,47992,1,0,0:0:0:100:Gabba Kick_002.wav
192,192,47992,1,0,0:0:0:0:
448,192,48150,1,0,0:0:0:0:
64,192,48229,1,0,0:0:0:0:
192,192,48229,1,0,0:0:0:0:
320,192,48308,1,0,0:0:0:100:Gabba Kick_002.wav
448,192,48308,1,0,0:0:0:100:Clap.wav
64,192,48466,1,0,0:0:0:0:
192,192,48466,1,0,0:0:0:0:
64,192,48624,1,0,0:0:0:100:Gabba Kick_002.wav
448,192,48624,1,0,0:0:0:0:
192,192,48702,1,0,0:0:0:0:
320,192,48781,1,0,0:0:0:0:
448,192,48781,1,0,0:0:0:0:
192,192,48939,1,0,0:0:0:100:Gabba Kick_002.wav
320,192,48939,1,0,0:0:0:100:Clap.wav
448,192,48939,1,0,0:0:0:0:
64,192,49018,1,0,0:0:0:0:
192,192,49097,128,0,49255:0:0:0:0:
320,192,49255,1,0,0:0:0:100:Gabba Kick_002.wav
448,192,49255,1,0,0:0:0:0:
192,192,49334,1,0,0:0:0:0:
320,192,49413,1,0,0:0:0:0:
64,192,49492,1,0,0:0:0:0:
192,192,49492,1,0,0:0:0:0:
320,192,49571,1,0,0:0:0:100:Gabba Kick_002.wav
448,192,49571,1,0,0:0:0:100:Clap.wav
64,192,49650,1,0,0:0:0:0:
192,192,49729,1,0,0:0:0:100:Gabba Kick_002.wav
320,192,49729,1,0,0:0:0:0:
448,192,49808,1,0,0:0:0:0:
64,192,49887,1,0,0:0:0:100:Gabba Kick_002.wav
192,192,49887,1,0,0:0:0:0:
320,192,50045,1,0,0:0:0:0:
448,192,50045,1,0,0:0:0:0:
64,192,50202,1,0,0:0:0:100:Gabba Kick_002.wav
320,192,50202,1,0,0:0:0:100:Clap.wav
448,192,50202,1,0,0:0:0:0:
192,192,50360,1,0,0:0:0:0:
64,192,50439,1,0,0:0:0:0:
320,192,50518,1,0,0:0:0:100:Gabba Kick_002.wav
448,192,50518,1,0,0:0:0:0:
192,192,50676,1,0,0:0:0:0:
320,192,50755,1,0,0:0:0:0:
448,192,50755,1,0,0:0:0:0:
64,192,50834,1,0,0:0:0:100:Gabba Kick_002.wav
192,192,50834,1,0,0:0:0:100:Clap.wav
320,192,50992,1,0,0:0:0:0:
448,192,50992,1,0,0:0:0:0:
64,192,51150,1,0,0:0:0:100:Gabba Kick_002.wav
448,192,51150,1,0,0:0:0:0:
320,192,51229,1,0,0:0:0:0:
64,192,51308,1,0,0:0:0:0:
192,192,51308,1,0,0:0:0:0:
64,192,51466,1,0,0:0:0:100:Gabba Kick_002.wav
192,192,51466,1,0,0:0:0:100:Clap.wav
320,192,51466,1,0,0:0:0:0:
448,192,51545,1,0,0:0:0:0:
320,192,51624,128,0,51781:0:0:0:0:
64,192,51781,1,0,0:0:0:100:Gabba Kick_002.wav
192,192,51781,1,0,0:0:0:0:
448,192,51860,1,0,0:0:0:0:
320,192,51939,1,0,0:0:0:0:
64,192,52018,1,0,0:0:0:0:
192,192,52018,1,0,0:0:0:0:
320,192,52097,1,0,0:0:0:100:Gabba Kick_002.wav
448,192,52097,1,0,0:0:0:100:Clap.wav
64,192,52176,1,0,0:0:0:0:
192,192,52255,1,0,0:0:0:0:
320,192,52255,1,0,0:0:0:0:
448,192,52334,1,0,0:0:0:0:
64,192,52413,1,0,0:0:0:100:Gabba Kick_002.wav
192,192,52413,1,0,0:0:0:0:
64,192,52571,1,0,0:0:0:100:Gabba Kick_002.wav
192,192,52571,1,0,0:0:0:0:
64,192,52729,1,0,0:0:0:100:Gabba Kick_002.wav
320,192,52729,1,0,0:0:0:100:Clap.wav
448,192,52729,1,0,0:0:0:0:
192,192,52887,1,0,0:0:0:100:Gabba Kick_002.wav
320,192,52887,1,0,0:0:0:0:
320,192,53045,1,0,0:0:0:100:Gabba Kick_002.wav
448,192,53045,1,0,0:0:0:0:
320,192,53202,1,0,0:0:0:100:Gabba Kick_002.wav
448,192,53202,1,0,0:0:0:0:
64,192,53360,1,0,0:0:0:100:Gabba Kick_002.wav
192,192,53360,1,0,0:0:0:100:Clap.wav
448,192,53360,1,0,0:0:0:0:
192,192,53518,1,0,0:0:0:100:Gabba Kick_002.wav
320,192,53518,1,0,0:0:0:0:
64,192,53676,1,0,0:0:0:100:Gabba Kick_002.wav
192,192,53676,1,0,0:0:0:0:
320,192,53755,1,0,0:0:0:100:Gabba Kick_002.wav
448,192,53755,1,0,0:0:0:0:
64,192,53834,1,0,0:0:0:100:Gabba Kick_002.wav
192,192,53834,1,0,0:0:0:0:
320,192,53913,1,0,0:0:0:100:Gabba Kick_002.wav
448,192,53913,1,0,0:0:0:0:
64,192,53992,1,0,0:0:0:100:Gabba Kick_002.wav
192,192,53992,1,0,0:0:0:100:Clap.wav
320,192,54071,1,0,0:0:0:100:Gabba Kick_002.wav
448,192,54071,1,0,0:0:0:0:
64,192,54150,1,0,0:0:0:100:Gabba Kick_002.wav
192,192,54150,1,0,0:0:0:0:
320,192,54229,1,0,0:0:0:100:Gabba Kick_002.wav
448,192,54229,1,0,0:0:0:0:
64,192,54308,1,0,0:0:0:75:Gabba Kick_002.wav
192,192,54347,1,0,0:0:0:75:Gabba Kick_002.wav
320,192,54387,1,0,0:0:0:75:Gabba Kick_002.wav
448,192,54426,1,0,0:0:0:75:Gabba Kick_002.wav
64,192,54466,1,0,0:0:0:100:Gabba Kick_002.wav
192,192,54466,1,0,0:0:0:0:
320,192,54545,1,0,0:0:0:100:Gabba Kick_002.wav
448,192,54545,1,0,0:0:0:0:
192,192,54624,1,0,0:0:0:75:Gabba Kick_002.wav
64,192,54663,1,0,0:0:0:75:Gabba Kick_002.wav
448,192,54702,1,0,0:0:0:75:Gabba Kick_002.wav
320,192,54742,1,0,0:0:0:75:Gabba Kick_002.wav
64,192,54781,1,0,0:0:0:100:Gabba Kick_002.wav
192,192,54781,1,0,0:0:0:0:
320,192,54860,1,0,0:0:0:100:Gabba Kick_002.wav
448,192,54860,1,0,0:0:0:0:
64,192,54939,128,0,55176:0:0:0:0:
192,192,54939,1,0,0:0:0:0:
320,192,55097,1,0,0:0:0:0:
192,192,55255,1,2,0:0:0:0:
64,192,55255,1,0,0:0:0:100:Dr CrashL.wav
448,192,55255,1,0,0:0:0:100:Impact.wav
320,192,55413,1,0,0:0:0:0:
192,192,55571,1,0,0:0:0:0:
448,192,55729,1,0,0:0:0:0:
320,192,55887,1,0,0:0:0:0:
64,192,56045,1,0,0:0:0:0:
448,192,56202,1,0,0:0:0:0:
192,192,56360,1,0,0:0:0:0:
320,192,56518,1,0,0:0:0:0:
64,192,56676,1,0,0:0:0:0:
192,192,56834,1,0,0:0:0:0:
320,192,56992,1,0,0:0:0:0:
448,192,57150,1,0,0:0:0:0:
320,192,57308,1,0,0:0:0:0:
64,192,57387,1,0,0:0:0:0:
448,192,57466,1,0,0:0:0:0:
192,192,57624,1,0,0:0:0:0:
320,192,57781,1,0,0:0:0:0:
64,192,57939,1,0,0:0:0:0:
192,192,58097,1,0,0:0:0:0:
448,192,58255,1,0,0:0:0:0:
320,192,58413,1,0,0:0:0:0:
64,192,58571,1,0,0:0:0:0:
192,192,58729,1,0,0:0:0:100:Dr Kan.wav
448,192,58729,1,0,0:0:0:0:
320,192,58887,1,0,0:0:0:0:
64,192,59045,1,0,0:0:0:100:Dr Kan.wav
448,192,59045,1,0,0:0:0:0:
192,192,59202,1,0,0:0:0:0:
64,192,59360,1,0,0:0:0:100:Dr Kan.wav
320,192,59360,1,0,0:0:0:0:
320,192,59518,1,2,0:0:0:0:
448,192,59518,1,0,0:0:0:0:
64,192,59597,1,2,0:0:0:0:
192,192,59597,1,0,0:0:0:0:
320,192,59676,1,8,0:0:0:0:
448,192,59676,1,0,0:0:0:100:Dr CrashR.wav
192,192,59834,1,0,0:0:0:0:
64,192,59992,1,2,0:0:0:0:
320,192,59992,1,0,0:0:0:100:Dr CrashL.wav
448,192,59992,1,0,0:0:0:0:
320,192,60150,1,0,0:0:0:0:
64,192,60308,1,2,0:0:0:0:
192,192,60308,1,0,0:0:0:100:Tom11.wav
448,192,60308,1,0,0:0:0:100:Tom31.wav
192,192,60466,1,0,0:0:0:100:Tom11.wav
64,192,60624,1,2,0:0:0:0:
320,192,60624,1,0,0:0:0:100:Tom32.wav
448,192,60624,1,0,0:0:0:100:Tom12.wav
448,192,60781,1,0,0:0:0:100:Tom32.wav
64,192,60939,1,2,0:0:0:0:
192,192,60939,1,0,0:0:0:100:Tom32.wav
320,192,60939,1,0,0:0:0:100:Tom12.wav
64,192,61097,1,0,0:0:0:100:Tom32.wav
320,192,61255,1,2,0:0:0:0:
448,192,61255,1,0,0:0:0:100:Tom33.wav
64,192,61413,1,0,0:0:0:100:Tom33.wav
192,192,61413,1,0,0:0:0:100:Tom13.wav
192,192,61571,1,2,0:0:0:0:
448,192,61571,1,0,0:0:0:100:Tom33.wav
64,192,61729,1,0,0:0:0:100:Tom33.wav
320,192,61729,1,0,0:0:0:100:Tom13.wav
320,192,61887,1,2,0:0:0:0:
448,192,61887,1,0,0:0:0:100:Tom3.wav
64,192,62045,1,0,0:0:0:100:Tom3.wav
192,192,62045,1,0,0:0:0:100:Tom1.wav
64,192,62202,1,2,0:0:0:0:
448,192,62202,1,0,0:0:0:100:Tom3.wav
320,192,62360,1,0,0:0:0:100:Tom3.wav
448,192,62360,1,0,0:0:0:100:Tom1.wav
192,192,62518,1,2,0:0:0:0:
64,192,62676,1,8,0:0:0:0:
192,192,62676,1,0,0:0:0:100:Dr CrashL.wav
448,192,62676,1,0,0:0:0:0:
320,192,62834,1,0,0:0:0:100:Tom2.wav
64,192,62913,1,0,0:0:0:100:Tom2.wav
192,192,62913,1,0,0:0:0:0:
320,192,62992,1,2,0:0:0:0:
448,192,62992,1,0,0:0:0:0:
64,192,63150,1,8,0:0:0:0:
192,192,63150,1,0,0:0:0:100:Dr CrashR.wav
448,192,63150,1,0,0:0:0:0:
192,192,63308,1,2,0:0:0:0:
64,192,63387,1,8,0:0:0:0:
320,192,63387,1,0,0:0:0:100:Dr CrashR.wav
448,192,63387,1,0,0:0:0:0:
448,192,63545,1,2,0:0:0:0:
64,192,63624,1,8,0:0:0:0:
192,192,63624,1,0,0:0:0:100:Dr CrashR.wav
320,192,63624,1,0,0:0:0:0:
64,192,63781,1,2,0:0:0:0:
192,192,63860,1,8,0:0:0:0:
320,192,63860,1,0,0:0:0:100:Dr CrashL.wav
448,192,63860,1,0,0:0:0:0:
320,192,64018,1,2,0:0:0:0:
64,192,64097,1,8,0:0:0:0:
192,192,64097,1,0,0:0:0:100:Dr CrashL.wav
448,192,64097,1,0,0:0:0:0:
192,192,64255,1,2,0:0:0:0:
64,192,64334,1,8,0:0:0:0:
320,192,64334,1,0,0:0:0:100:Dr CrashL.wav
448,192,64334,1,0,0:0:0:0:
448,192,64492,1,2,0:0:0:0:
64,192,64571,1,8,0:0:0:0:
192,192,64571,1,0,0:0:0:100:Dr CrashR.wav
320,192,64571,1,0,0:0:0:0:
64,192,64729,1,2,0:0:0:0:
192,192,64729,1,0,0:0:0:100:Dr CrashR.wav
448,192,64729,1,0,0:0:0:0:
64,192,64887,1,2,0:0:0:0:
320,192,64887,1,0,0:0:0:100:Dr CrashL.wav
448,192,64887,1,0,0:0:0:0:
192,192,65045,128,8,65360:0:0:0:0:
320,192,65045,1,0,0:0:0:100:Dr CrashR.wav
448,192,65045,1,0,0:0:0:0:
448,192,65360,1,0,0:0:0:100:Dr bell.wav
192,192,65518,128,0,65597:0:0:0:0:
192,192,65676,128,0,65834:0:0:0:100:Dr bell.wav
448,192,65676,1,0,0:0:0:0:
192,192,65992,128,0,66150:0:0:0:100:Dr bell.wav
448,192,65992,1,0,0:0:0:0:
64,192,66308,1,8,0:0:0:0:
192,192,66308,1,0,0:0:0:100:Dr CrashL.wav
448,192,66308,1,0,0:0:0:0:
320,192,66466,1,2,0:0:0:0:
448,192,66466,1,0,0:0:0:0:
192,192,66545,1,2,0:0:0:0:
64,192,66624,1,8,0:0:0:0:
320,192,66624,1,0,0:0:0:100:Dr CrashR.wav
448,192,66624,1,0,0:0:0:0:
64,192,66781,1,2,0:0:0:0:
192,192,66781,1,0,0:0:0:0:
320,192,66860,1,2,0:0:0:0:
64,192,66939,1,8,0:0:0:0:
192,192,66939,1,0,0:0:0:100:Dr CrashL.wav
448,192,66939,1,0,0:0:0:0:
64,192,67255,1,8,0:0:0:0:
320,192,67255,1,0,0:0:0:100:Dr CrashR.wav
448,192,67255,1,0,0:0:0:0:
192,192,67413,1,0,0:0:0:0:
320,192,67492,1,0,0:0:0:0:
448,192,67571,1,0,0:0:0:0:
64,192,67729,1,0,0:0:0:0:
192,192,67808,1,0,0:0:0:0:
320,192,67887,1,0,0:0:0:0:
448,192,68045,1,0,0:0:0:0:
192,192,68202,1,0,0:0:0:0:
64,192,68360,128,0,68518:0:0:0:0:
320,192,68676,1,0,0:0:0:0:
192,192,68755,1,0,0:0:0:0:
320,192,68834,1,0,0:0:0:0:
192,192,68992,1,0,0:0:0:0:
320,192,69071,1,0,0:0:0:0:
192,192,69150,1,0,0:0:0:0:
320,192,69308,1,0,0:0:0:0:
448,192,69466,128,0,69781:0:0:0:0:
320,192,69939,1,0,0:0:0:0:
192,192,70018,1,0,0:0:0:0:
64,192,70097,1,0,0:0:0:0:
64,192,70255,1,0,0:0:0:0:
192,192,70334,1,0,0:0:0:0:
320,192,70413,1,0,0:0:0:0:
448,192,70571,1,0,0:0:0:0:
192,192,70729,1,0,0:0:0:0:
448,192,70887,1,0,0:0:0:0:
320,192,71045,1,0,0:0:0:0:
448,192,71202,1,0,0:0:0:0:
192,192,71360,1,0,0:0:0:0:
320,192,71518,1,0,0:0:0:0:
64,192,71676,1,0,0:0:0:0:
192,192,71834,1,0,0:0:0:0:
64,192,71992,128,0,72150:0:0:0:0:
448,192,72308,128,0,72466:0:0:0:0:
320,192,72624,1,0,0:0:0:0:
64,192,72781,1,0,0:0:0:0:
64,192,72939,1,0,0:0:0:0:
448,192,73097,1,0,0:0:0:0:
320,192,73176,1,0,0:0:0:0:
64,192,73255,1,0,0:0:0:0:
448,192,73413,1,0,0:0:0:0:
64,192,73571,1,0,0:0:0:0:
192,192,73729,1,0,0:0:0:0:
320,192,73887,1,0,0:0:0:0:
320,192,74045,1,0,0:0:0:0:
448,192,74124,1,0,0:0:0:0:
192,192,74202,1,0,0:0:0:0:
64,192,74360,1,0,0:0:0:0:
448,192,74518,1,0,0:0:0:0:
320,192,74676,1,0,0:0:0:0:
192,192,74834,1,0,0:0:0:0:
320,192,74992,1,0,0:0:0:0:
192,192,75150,1,0,0:0:0:0:
320,192,75229,1,0,0:0:0:0:
192,192,75308,1,0,0:0:0:0:
320,192,75387,1,0,0:0:0:0:
192,192,75466,1,0,0:0:0:0:
320,192,75549,1,0,0:0:0:0:
192,192,75632,1,0,0:0:0:0:
320,192,75716,1,0,0:0:0:0:
192,192,75799,1,0,0:0:0:0:
320,192,75887,1,0,0:0:0:0:
192,192,75975,1,0,0:0:0:0:
320,192,76063,1,0,0:0:0:0:
192,192,76151,1,0,0:0:0:0:
320,192,76244,1,0,0:0:0:0:
192,192,76338,1,0,0:0:0:0:
320,192,76432,1,0,0:0:0:0:
64,192,76526,1,0,0:0:0:0:
448,192,76626,1,0,0:0:0:0:
64,192,76726,1,0,0:0:0:0:
448,192,76826,1,0,0:0:0:0:
64,192,76926,1,0,0:0:0:0:
448,192,77033,1,0,0:0:0:0:
64,192,77140,1,0,0:0:0:0:
448,192,77247,1,0,0:0:0:0:
64,192,77354,128,0,77469:0:0:0:0:
192,192,77584,128,0,77700:0:0:0:0:
320,192,77815,128,0,77940:0:0:0:0:
448,192,78065,128,0,78190:0:0:0:0:
64,192,78315,1,2,0:0:0:0:
192,192,78315,1,0,0:0:0:100:Dr CrashL.wav
448,192,78315,1,0,0:0:0:0:
64,192,78472,1,2,0:0:0:0:
192,192,78472,1,0,0:0:0:0:
320,192,78551,1,0,0:0:0:0:
64,192,78630,1,8,0:0:0:0:
448,192,78630,1,0,0:0:0:0:
320,192,78788,1,0,0:0:0:0:
64,192,78946,1,2,0:0:0:0:
192,192,78946,1,0,0:0:0:0:
64,192,79104,128,2,79420:0:0:0:0:
192,192,79104,1,0,0:0:0:0:
320,192,79262,1,8,0:0:0:0:
448,192,79262,1,0,0:0:0:0:
192,192,79420,1,2,0:0:0:0:
448,192,79420,1,0,0:0:0:0:
320,192,79499,1,0,0:0:0:0:
192,192,79578,1,0,0:0:0:0:
320,192,79736,1,2,0:0:0:0:
448,192,79736,1,0,0:0:0:0:
192,192,79815,1,0,0:0:0:0:
64,192,79893,1,8,0:0:0:0:
320,192,79893,1,0,0:0:0:0:
192,192,80051,1,0,0:0:0:0:
320,192,80209,128,2,80525:0:0:0:0:
448,192,80209,1,0,0:0:0:0:
64,192,80367,1,2,0:0:0:0:
192,192,80367,1,0,0:0:0:0:
64,192,80525,1,8,0:0:0:0:
448,192,80525,1,0,0:0:0:0:
320,192,80683,1,0,0:0:0:0:
192,192,80762,1,0,0:0:0:0:
64,192,80841,1,2,0:0:0:0:
448,192,80841,1,0,0:0:0:0:
64,192,80999,1,2,0:0:0:0:
320,192,80999,1,0,0:0:0:0:
192,192,81078,1,0,0:0:0:0:
320,192,81157,1,8,0:0:0:0:
448,192,81157,1,0,0:0:0:0:
192,192,81315,1,0,0:0:0:0:
320,192,81393,1,0,0:0:0:0:
64,192,81472,1,2,0:0:0:0:
448,192,81472,1,0,0:0:0:0:
192,192,81630,1,2,0:0:0:0:
448,192,81630,1,0,0:0:0:0:
64,192,81788,1,8,0:0:0:0:
320,192,81788,1,0,0:0:0:0:
64,192,81946,1,2,0:0:0:0:
448,192,81946,1,0,0:0:0:0:
320,192,82104,1,0,0:0:0:0:
192,192,82262,1,2,0:0:0:0:
448,192,82262,1,0,0:0:0:0:
320,192,82341,1,0,0:0:0:0:
64,192,82420,1,8,0:0:0:0:
192,192,82420,1,0,0:0:0:0:
320,192,82578,1,0,0:0:0:0:
320,192,82736,1,2,0:0:0:0:
448,192,82736,128,0,83051:0:0:0:0:
64,192,82893,1,2,0:0:0:0:
192,192,82893,1,0,0:0:0:0:
192,192,83051,1,0,0:0:0:100:Dr CrashR.wav
64,192,83051,1,8,0:0:0:0:
320,192,83130,1,0,0:0:0:0:
192,192,83209,1,0,0:0:0:0:
320,192,83288,1,0,0:0:0:0:
64,192,83367,1,2,0:0:0:0:
192,192,83367,1,0,0:0:0:100:Dr CrashL.wav
448,192,83367,1,0,0:0:0:0:
320,192,83525,1,0,0:0:0:0:
320,192,83683,1,2,0:0:0:0:
448,192,83683,1,8,0:0:0:0:
64,192,83841,1,0,0:0:0:0:
192,192,83920,1,0,0:0:0:0:
320,192,83999,1,2,0:0:0:0:
448,192,83999,1,0,0:0:0:0:
192,192,84157,1,0,0:0:0:0:
64,192,84315,1,2,0:0:0:0:
448,192,84315,1,8,0:0:0:0:
192,192,84472,1,0,0:0:0:0:
320,192,84630,1,2,0:0:0:0:
448,192,84630,1,0,0:0:0:0:
320,192,84788,1,0,0:0:0:0:
192,192,84867,1,0,0:0:0:0:
64,192,84946,1,2,0:0:0:0:
320,192,84946,1,8,0:0:0:0:
448,192,85104,1,0,0:0:0:0:
64,192,85262,1,2,0:0:0:0:
192,192,85262,1,0,0:0:0:0:
320,192,85420,1,0,0:0:0:0:
64,192,85578,1,2,0:0:0:0:
448,192,85578,1,8,0:0:0:0:
192,192,85736,1,0,0:0:0:0:
320,192,85893,128,2,86209:0:0:0:0:
448,192,85893,1,0,0:0:0:0:
192,192,86051,1,0,0:0:0:0:
64,192,86209,1,8,0:0:0:0:
448,192,86209,1,2,0:0:0:0:
192,192,86367,1,0,0:0:0:0:
320,192,86446,1,0,0:0:0:0:
64,192,86525,1,2,0:0:0:0:
448,192,86525,1,0,0:0:0:0:
192,192,86683,1,0,0:0:0:0:
64,192,86841,1,8,0:0:0:0:
320,192,86841,1,2,0:0:0:0:
448,192,86999,1,0,0:0:0:0:
320,192,87157,1,2,0:0:0:0:
448,192,87157,1,0,0:0:0:0:
192,192,87236,1,0,0:0:0:0:
64,192,87315,1,0,0:0:0:0:
448,192,87393,1,0,0:0:0:0:
192,192,87472,1,2,0:0:0:0:
320,192,87472,1,8,0:0:0:0:
64,192,87551,1,0,0:0:0:0:
448,192,87630,1,0,0:0:0:0:
320,192,87709,1,0,0:0:0:0:
64,192,87788,1,2,0:0:0:0:
192,192,87788,1,0,0:0:0:0:
448,192,87867,1,0,0:0:0:0:
320,192,87946,1,0,0:0:0:0:
192,192,88025,1,0,0:0:0:0:
64,192,88104,1,2,0:0:0:0:
320,192,88104,1,8,0:0:0:0:
448,192,88104,1,0,0:0:0:100:Dr CrashR.wav
192,192,88183,1,0,0:0:0:0:
320,192,88262,1,0,0:0:0:0:
448,192,88341,1,0,0:0:0:0:
64,192,88420,1,2,0:0:0:0:
192,192,88420,1,0,0:0:0:0:
320,192,88578,1,2,0:0:0:0:
448,192,88578,1,0,0:0:0:0:
192,192,88657,1,2,0:0:0:0:
64,192,88736,1,8,0:0:0:0:
320,192,88736,1,0,0:0:0:100:Dr CrashL.wav
448,192,88736,1,0,0:0:0:0:
192,192,88893,1,0,0:0:0:0:
320,192,89051,1,2,0:0:0:0:
448,192,89051,1,0,0:0:0:0:
320,192,89209,1,2,0:0:0:0:
448,192,89209,128,0,89525:0:0:0:0:
64,192,89367,1,8,0:0:0:0:
192,192,89367,1,0,0:0:0:0:
64,192,89525,1,2,0:0:0:0:
320,192,89525,1,0,0:0:0:0:
192,192,89604,1,0,0:0:0:0:
320,192,89683,1,0,0:0:0:0:
64,192,89841,1,2,0:0:0:0:
192,192,89841,1,0,0:0:0:0:
320,192,89920,1,0,0:0:0:0:
192,192,89999,1,8,0:0:0:0:
448,192,89999,1,0,0:0:0:0:
320,192,90157,1,0,0:0:0:0:
64,192,90315,1,2,0:0:0:0:
192,192,90315,128,0,90630:0:0:0:0:
320,192,90472,1,2,0:0:0:0:
448,192,90472,1,0,0:0:0:0:
64,192,90630,1,8,0:0:0:0:
448,192,90630,1,0,0:0:0:0:
192,192,90788,1,0,0:0:0:0:
320,192,90867,1,0,0:0:0:0:
64,192,90946,1,2,0:0:0:0:
448,192,90946,1,0,0:0:0:0:
192,192,91104,1,2,0:0:0:0:
448,192,91104,1,0,0:0:0:0:
320,192,91183,1,0,0:0:0:0:
64,192,91262,1,8,0:0:0:0:
192,192,91262,1,0,0:0:0:0:
320,192,91420,1,0,0:0:0:0:
192,192,91499,1,0,0:0:0:0:
64,192,91578,1,2,0:0:0:0:
448,192,91578,1,0,0:0:0:0:
64,192,91736,1,2,0:0:0:0:
320,192,91736,1,0,0:0:0:0:
192,192,91893,1,8,0:0:0:0:
448,192,91893,1,0,0:0:0:0:
64,192,92051,1,2,0:0:0:0:
448,192,92051,1,0,0:0:0:0:
192,192,92209,1,0,0:0:0:0:
64,192,92367,1,2,0:0:0:0:
320,192,92367,1,0,0:0:0:0:
192,192,92446,1,0,0:0:0:0:
320,192,92525,1,8,0:0:0:0:
448,192,92525,1,0,0:0:0:0:
192,192,92683,1,0,0:0:0:0:
64,192,92841,128,2,93157:0:0:0:0:
192,192,92841,1,0,0:0:0:0:
320,192,92999,1,2,0:0:0:0:
448,192,92999,1,0,0:0:0:0:
320,192,93157,1,0,0:0:0:100:Dr CrashR.wav
448,192,93157,1,8,0:0:0:0:
192,192,93236,1,0,0:0:0:0:
320,192,93315,1,0,0:0:0:0:
192,192,93393,1,0,0:0:0:0:
64,192,93472,1,2,0:0:0:0:
320,192,93472,1,0,0:0:0:100:Dr CrashL.wav
448,192,93472,1,0,0:0:0:0:
192,192,93630,1,0,0:0:0:0:
64,192,93788,1,2,0:0:0:0:
192,192,93788,1,8,0:0:0:0:
448,192,93946,1,0,0:0:0:0:
320,192,94025,1,0,0:0:0:0:
64,192,94104,1,2,0:0:0:0:
192,192,94104,1,0,0:0:0:0:
320,192,94262,1,0,0:0:0:0:
64,192,94420,1,2,0:0:0:0:
448,192,94420,1,8,0:0:0:0:
320,192,94578,1,0,0:0:0:0:
64,192,94736,1,2,0:0:0:0:
192,192,94736,1,0,0:0:0:0:
192,192,94893,1,0,0:0:0:0:
320,192,94972,1,0,0:0:0:0:
192,192,95051,1,2,0:0:0:0:
448,192,95051,1,8,0:0:0:0:
64,192,95209,1,0,0:0:0:0:
320,192,95367,1,2,0:0:0:0:
448,192,95367,1,0,0:0:0:0:
192,192,95525,1,0,0:0:0:0:
64,192,95683,1,2,0:0:0:0:
448,192,95683,1,8,0:0:0:0:
320,192,95841,1,0,0:0:0:0:
64,192,95999,1,2,0:0:0:0:
192,192,95999,128,0,96315:0:0:0:0:
320,192,96157,1,0,0:0:0:0:
64,192,96315,1,8,0:0:0:0:
448,192,96315,1,2,0:0:0:0:
320,192,96472,1,0,0:0:0:0:
192,192,96551,1,0,0:0:0:0:
64,192,96630,1,2,0:0:0:0:
448,192,96630,1,0,0:0:0:0:
192,192,96788,1,0,0:0:0:0:
64,192,96946,1,8,0:0:0:0:
320,192,96946,1,2,0:0:0:0:
448,192,97104,1,0,0:0:0:0:
192,192,97262,1,2,0:0:0:0:
64,192,97262,128,0,97578:0:0:0:0:
320,192,97420,1,2,0:0:0:0:
448,192,97420,1,0,0:0:0:0:
320,192,97578,1,2,0:0:0:0:
448,192,97578,128,8,97893:0:0:0:0:
64,192,97736,1,0,0:0:0:0:
64,192,97893,1,2,0:0:0:0:
192,192,97893,1,0,0:0:0:0:
320,192,97972,1,0,0:0:0:0:
192,192,98051,1,0,0:0:0:0:
448,192,98130,1,2,0:0:0:0:
320,192,98130,1,0,0:0:0:0:
192,192,98209,128,8,98367:0:0:0:0:
64,192,98209,1,0,0:0:0:100:Dr CrashR.wav
320,192,98367,1,2,0:0:0:0:
448,192,98367,1,0,0:0:0:0:
192,192,98446,1,0,0:0:0:0:
448,192,98525,1,2,0:0:0:0:
64,192,98525,128,0,98841:0:0:0:100:Dr CrashL.wav
320,192,98525,128,0,98841:0:0:0:0:
64,192,98999,1,2,0:0:0:0:
192,192,98999,1,0,0:0:0:0:
320,192,99078,1,2,0:0:0:0:
448,192,99078,1,0,0:0:0:0:
64,192,99157,128,8,99472:0:0:0:0:
192,192,99157,1,0,0:0:0:0:
320,192,99472,1,0,0:0:0:0:
448,192,99512,128,0,99788:0:0:0:0:
64,192,99630,1,2,0:0:0:0:
192,192,99630,1,0,0:0:0:0:
320,192,99788,128,0,100104:0:0:0:0:
64,192,99946,1,2,0:0:0:0:
192,192,99946,1,0,0:0:0:0:
192,192,100104,128,0,100420:0:0:0:0:
320,192,100262,1,2,0:0:0:0:
448,192,100262,1,0,0:0:0:0:
64,192,100420,128,8,100736:0:0:0:0:
448,192,100420,1,0,0:0:0:0:
320,192,100420,1,0,0:0:0:0:
320,192,100736,128,0,101051:0:0:0:0:
64,192,100893,1,2,0:0:0:0:
192,192,100893,1,0,0:0:0:0:
64,192,101051,1,2,0:0:0:0:
192,192,101051,1,0,0:0:0:0:
448,192,101051,128,0,101367:0:0:0:0:
64,192,101525,1,2,0:0:0:0:
192,192,101525,1,0,0:0:0:0:
320,192,101604,1,2,0:0:0:0:
448,192,101604,1,0,0:0:0:0:
64,192,101683,1,8,0:0:0:0:
192,192,101683,128,0,101920:0:0:0:0:
320,192,101920,128,0,102157:0:0:0:0:
64,192,102157,1,2,0:0:0:0:
192,192,102157,1,0,0:0:0:0:
448,192,102157,128,0,102315:0:0:0:0:
320,192,102315,128,0,102867:0:0:0:0:
64,192,102472,1,2,0:0:0:0:
192,192,102472,1,0,0:0:0:0:
64,192,102630,1,2,0:0:0:0:
192,192,102630,1,0,0:0:0:0:
192,192,102946,128,8,103499:0:0:0:0:
320,192,102946,1,0,0:0:0:100:Dr CrashL.wav
448,192,102946,1,0,0:0:0:0:
64,192,103104,1,2,0:0:0:0:
448,192,103104,1,0,0:0:0:0:
320,192,103262,1,8,0:0:0:0:
448,192,103262,1,0,0:0:0:100:Dr CrashR.wav
64,192,103578,128,2,103657:0:0:0:0:
192,192,103578,128,0,103657:0:0:0:0:
320,192,103578,128,0,103657:0:0:0:0:
448,192,103578,128,0,103657:0:0:0:0:
64,192,103736,128,2,103815:0:0:0:0:
192,192,103736,128,0,103815:0:0:0:0:
320,192,103736,128,0,103815:0:0:0:0:
448,192,103736,128,0,103815:0:0:0:0:
64,192,103893,128,8,104209:0:0:0:0:
192,192,103893,128,0,104209:0:0:0:100:Dr CrashL.wav
320,192,103893,128,0,104209:0:0:0:0:
448,192,103893,128,0,104209:0:0:0:0:
64,192,104683,1,0,0:0:0:0:
192,192,104762,1,0,0:0:0:0:
320,192,104841,1,0,0:0:0:0:
64,192,104999,1,0,0:0:0:0:
192,192,105078,1,0,0:0:0:0:
320,192,105157,1,0,0:0:0:0:
448,192,105315,1,0,0:0:0:0:
64,192,105472,1,0,0:0:0:0:
448,192,105630,1,0,0:0:0:0:
64,192,105788,1,0,0:0:0:0:
192,192,105946,1,0,0:0:0:0:
64,192,106104,1,8,0:0:0:0:
320,192,106104,1,0,0:0:0:100:Dr CrashL.wav
448,192,106104,1,0,0:0:0:0:
192,192,106262,1,0,0:0:0:0:
64,192,106420,1,8,0:0:0:0:
320,192,106420,1,0,0:0:0:0:
448,192,106420,1,0,0:0:0:0:
320,192,106578,1,2,0:0:0:0:
64,192,106736,1,8,0:0:0:0:
192,192,106736,1,0,0:0:0:0:
448,192,106736,1,0,0:0:0:0:
192,192,106893,1,2,0:0:0:0:
64,192,107051,1,8,0:0:0:0:
320,192,107051,1,0,0:0:0:0:
448,192,107051,1,0,0:0:0:0:
64,192,107209,1,2,0:0:0:0:
192,192,107209,1,0,0:0:0:0:
448,192,107288,1,2,0:0:0:0:
64,192,107367,1,8,0:0:0:0:
192,192,107367,1,0,0:0:0:100:Dr CrashL.wav
320,192,107367,1,0,0:0:0:0:
320,192,107525,1,2,0:0:0:0:
448,192,107525,1,0,0:0:0:0:
64,192,107604,1,2,0:0:0:0:
192,192,107604,1,0,0:0:0:0:
320,192,107683,1,8,0:0:0:0:
448,192,107683,1,0,0:0:0:0:
64,192,107841,1,2,0:0:0:0:
192,192,107841,1,0,0:0:0:0:
320,192,107920,1,2,0:0:0:0:
64,192,107999,1,8,0:0:0:0:
192,192,107999,1,0,0:0:0:100:Dr CrashL.wav
448,192,107999,1,0,0:0:0:0:
320,192,108157,1,2,0:0:0:0:
448,192,108157,1,0,0:0:0:0:
192,192,108236,1,2,0:0:0:0:
64,192,108315,1,8,0:0:0:0:
320,192,108315,1,0,0:0:0:100:Dr CrashR.wav
448,192,108315,1,0,0:0:0:0:
64,192,108472,1,2,0:0:0:0:
192,192,108472,1,0,0:0:0:0:
320,192,108551,1,2,0:0:0:0:
64,192,108630,1,2,0:0:0:0:
192,192,108630,128,0,108788:0:0:0:100:Dr CrashL.wav
448,192,108630,1,0,0:0:0:0:
320,192,108788,1,0,0:0:0:0:
192,192,108946,1,2,0:0:0:0:
448,192,108946,128,8,109025:0:0:0:0:
448,192,109104,128,0,109183:0:0:0:0:
64,192,109262,1,2,0:0:0:0:
320,192,109262,1,0,0:0:0:0:
64,192,109420,1,0,0:0:0:0:
192,192,109499,1,0,0:0:0:0:
320,192,109578,128,2,109815:0:0:0:0:
448,192,109578,1,8,0:0:0:0:
192,192,109736,1,0,0:0:0:0:
64,192,109893,1,2,0:0:0:0:
320,192,109893,1,0,0:0:0:0:
448,192,109972,1,0,0:0:0:0:
192,192,110051,1,0,0:0:0:0:
320,192,110130,1,0,0:0:0:0:
64,192,110209,1,8,0:0:0:0:
448,192,110209,1,2,0:0:0:0:
320,192,110367,128,0,110525:0:0:0:0:
64,192,110525,1,2,0:0:0:0:
192,192,110525,1,0,0:0:0:0:
192,192,110683,1,0,0:0:0:0:
320,192,110762,1,0,0:0:0:0:
64,192,110841,1,8,0:0:0:0:
448,192,110841,128,2,111078:0:0:0:0:
192,192,110999,1,0,0:0:0:0:
64,192,111157,128,2,111315:0:0:0:0:
448,192,111157,1,0,0:0:0:0:
320,192,111315,1,0,0:0:0:0:
192,192,111472,1,2,0:0:0:0:
448,192,111472,1,8,0:0:0:0:
192,192,111630,1,0,0:0:0:0:
64,192,111788,1,2,0:0:0:0:
320,192,111788,1,0,0:0:0:0:
320,192,111946,1,0,0:0:0:0:
448,192,112025,1,0,0:0:0:0:
64,192,112104,1,2,0:0:0:0:
192,192,112104,128,8,112341:0:0:0:0:
448,192,112262,1,0,0:0:0:0:
192,192,112420,1,2,0:0:0:0:
320,192,112420,128,0,112578:0:0:0:0:
448,192,112578,128,0,112736:0:0:0:0:
64,192,112736,1,8,0:0:0:0:
320,192,112736,128,2,112893:0:0:0:0:
448,192,112893,128,0,113051:0:0:0:0:
64,192,113051,128,2,113209:0:0:0:0:
192,192,113051,1,0,0:0:0:0:
320,192,113209,1,0,0:0:0:0:
64,192,113367,128,8,113525:0:0:0:0:
448,192,113367,1,2,0:0:0:0:
192,192,113525,1,2,0:0:0:0:
448,192,113525,1,0,0:0:0:0:
64,192,113683,1,2,0:0:0:0:
320,192,113683,128,0,113841:0:0:0:0:
192,192,113841,1,0,0:0:0:0:
64,192,113999,128,2,114078:0:0:0:0:
320,192,113999,1,8,0:0:0:0:
64,192,114157,128,0,114236:0:0:0:0:
192,192,114315,1,2,0:0:0:0:
448,192,114315,1,0,0:0:0:0:
448,192,114472,1,0,0:0:0:0:
320,192,114551,1,0,0:0:0:0:
64,192,114630,1,2,0:0:0:0:
192,192,114630,128,8,114867:0:0:0:0:
320,192,114788,1,0,0:0:0:0:
192,192,114946,1,2,0:0:0:0:
448,192,114946,1,0,0:0:0:0:
64,192,115025,1,0,0:0:0:0:
320,192,115104,1,0,0:0:0:0:
192,192,115183,1,0,0:0:0:0:
64,192,115262,1,8,0:0:0:0:
448,192,115262,1,2,0:0:0:0:
192,192,115420,128,0,115578:0:0:0:0:
320,192,115578,1,2,0:0:0:0:
448,192,115578,1,0,0:0:0:0:
320,192,115736,1,0,0:0:0:0:
192,192,115815,1,0,0:0:0:0:
64,192,115893,128,8,116130:0:0:0:0:
448,192,115893,1,2,0:0:0:0:
320,192,116051,1,0,0:0:0:0:
64,192,116209,1,2,0:0:0:0:
448,192,116209,128,0,116367:0:0:0:0:
192,192,116367,1,0,0:0:0:0:
64,192,116525,1,2,0:0:0:0:
320,192,116525,1,8,0:0:0:0:
320,192,116683,1,0,0:0:0:0:
192,192,116841,1,2,0:0:0:0:
448,192,116841,1,0,0:0:0:0:
192,192,116999,1,0,0:0:0:0:
64,192,117078,1,0,0:0:0:0:
320,192,117157,128,2,117393:0:0:0:0:
448,192,117157,1,8,0:0:0:0:
64,192,117315,1,0,0:0:0:0:
192,192,117472,128,2,117630:0:0:0:0:
320,192,117472,1,0,0:0:0:0:
64,192,117630,128,2,117788:0:0:0:0:
320,192,117630,1,0,0:0:0:0:
192,192,117788,128,8,117946:0:0:0:0:
448,192,117788,1,2,0:0:0:0:
64,192,117946,128,0,118104:0:0:0:0:
320,192,118104,1,2,0:0:0:0:
448,192,118104,128,0,118262:0:0:0:0:
192,192,118262,1,0,0:0:0:0:
320,192,118341,1,2,0:0:0:0:
448,192,118341,1,0,0:0:0:0:
64,192,118420,1,8,0:0:0:0:
192,192,118420,1,0,0:0:0:100:Dr CrashR.wav
320,192,118499,1,0,0:0:0:0:
64,192,118578,1,2,0:0:0:0:
448,192,118578,1,0,0:0:0:0:
192,192,118657,1,0,0:0:0:0:
320,192,118736,1,2,0:0:0:0:
448,192,118736,1,0,0:0:0:100:Dr CrashL.wav
64,192,118815,1,0,0:0:0:0:
192,192,118893,1,0,0:0:0:0:
320,192,118972,1,0,0:0:0:0:
64,192,119051,1,2,0:0:0:0:
448,192,119051,1,8,0:0:0:0:
320,192,119130,1,0,0:0:0:0:
192,192,119209,1,0,0:0:0:0:
64,192,119288,1,0,0:0:0:0:
320,192,119367,1,2,0:0:0:0:
448,192,119367,1,0,0:0:0:0:
64,192,119446,1,0,0:0:0:0:
192,192,119525,1,0,0:0:0:0:
320,192,119604,1,0,0:0:0:0:
64,192,119683,1,2,0:0:0:0:
448,192,119683,1,8,0:0:0:0:
192,192,119762,1,0,0:0:0:0:
320,192,119841,1,0,0:0:0:0:
448,192,119920,1,0,0:0:0:0:
64,192,119999,1,2,0:0:0:0:
192,192,119999,1,0,0:0:0:0:
448,192,120078,1,0,0:0:0:0:
320,192,120157,1,0,0:0:0:0:
192,192,120236,1,0,0:0:0:0:
64,192,120315,1,8,0:0:0:0:
448,192,120315,1,2,0:0:0:0:
192,192,120393,1,0,0:0:0:0:
320,192,120472,1,0,0:0:0:0:
448,192,120551,1,0,0:0:0:0:
64,192,120630,1,2,0:0:0:0:
192,192,120630,1,0,0:0:0:0:
448,192,120709,1,0,0:0:0:0:
320,192,120788,1,0,0:0:0:0:
192,192,120867,1,0,0:0:0:0:
64,192,120946,1,8,0:0:0:0:
448,192,120946,1,2,0:0:0:0:
320,192,121025,1,0,0:0:0:0:
192,192,121104,1,0,0:0:0:0:
64,192,121183,1,0,0:0:0:0:
320,192,121262,1,2,0:0:0:0:
448,192,121262,1,0,0:0:0:0:
192,192,121341,1,0,0:0:0:0:
320,192,121420,1,0,0:0:0:0:
448,192,121499,1,0,0:0:0:0:
64,192,121578,1,2,0:0:0:0:
192,192,121578,1,8,0:0:0:0:
320,192,121657,1,0,0:0:0:0:
192,192,121736,1,0,0:0:0:0:
64,192,121815,1,0,0:0:0:0:
320,192,121893,1,2,0:0:0:0:
448,192,121893,1,0,0:0:0:0:
192,192,121972,1,0,0:0:0:0:
448,192,122051,1,0,0:0:0:0:
320,192,122130,1,0,0:0:0:0:
64,192,122209,1,2,0:0:0:0:
192,192,122209,1,8,0:0:0:0:
320,192,122288,1,0,0:0:0:0:
64,192,122367,1,0,0:0:0:0:
192,192,122446,1,0,0:0:0:0:
320,192,122525,1,2,0:0:0:0:
448,192,122525,1,0,0:0:0:0:
64,192,122604,1,0,0:0:0:0:
448,192,122683,1,0,0:0:0:0:
320,192,122762,1,0,0:0:0:0:
64,192,122841,1,8,0:0:0:0:
192,192,122841,1,2,0:0:0:0:
448,192,122920,1,0,0:0:0:0:
64,192,122999,1,0,0:0:0:0:
192,192,123078,1,0,0:0:0:0:
320,192,123157,1,2,0:0:0:0:
448,192,123157,1,0,0:0:0:0:
64,192,123236,1,0,0:0:0:0:
192,192,123315,1,0,0:0:0:0:
320,192,123393,1,0,0:0:0:0:
64,192,123472,1,8,0:0:0:0:
448,192,123472,1,2,0:0:0:0:
192,192,123551,1,0,0:0:0:0:
320,192,123630,1,2,0:0:0:0:
448,192,123630,1,0,0:0:0:0:
192,192,123709,1,0,0:0:0:0:
64,192,123788,1,2,0:0:0:0:
320,192,123788,1,0,0:0:0:100:Dr CrashL.wav
448,192,123788,1,0,0:0:0:0:
192,192,123867,1,0,0:0:0:0:
320,192,123946,1,0,0:0:0:0:
448,192,124025,1,0,0:0:0:0:
64,192,124104,1,2,0:0:0:0:
192,192,124104,1,8,0:0:0:0:
320,192,124183,1,0,0:0:0:0:
448,192,124262,1,0,0:0:0:0:
192,192,124341,1,0,0:0:0:0:
64,192,124420,1,2,0:0:0:0:
448,192,124420,1,0,0:0:0:0:
320,192,124499,1,0,0:0:0:0:
192,192,124578,1,0,0:0:0:0:
448,192,124657,1,0,0:0:0:0:
64,192,124736,1,2,0:0:0:0:
320,192,124736,1,8,0:0:0:0:
192,192,124815,1,0,0:0:0:0:
448,192,124893,1,0,0:0:0:0:
320,192,124972,1,0,0:0:0:0:
64,192,125051,1,2,0:0:0:0:
192,192,125051,1,0,0:0:0:0:
448,192,125130,1,0,0:0:0:0:
192,192,125209,1,2,0:0:0:0:
320,192,125209,1,0,0:0:0:0:
64,192,125288,1,0,0:0:0:0:
320,192,125367,1,8,0:0:0:0:
448,192,125367,1,2,0:0:0:0:
192,192,125446,1,0,0:0:0:0:
64,192,125525,1,0,0:0:0:0:
320,192,125604,1,0,0:0:0:0:
64,192,125683,1,2,0:0:0:0:
448,192,125683,1,0,0:0:0:0:
192,192,125762,1,0,0:0:0:0:
320,192,125841,1,0,0:0:0:0:
64,192,125920,1,2,0:0:0:0:
192,192,125920,1,0,0:0:0:0:
320,192,125999,1,8,0:0:0:0:
448,192,125999,1,0,0:0:0:100:Dr CrashR.wav
192,192,126078,1,0,0:0:0:0:
64,192,126157,1,2,0:0:0:0:
448,192,126157,1,0,0:0:0:0:
320,192,126236,1,0,0:0:0:0:
64,192,126315,1,2,0:0:0:0:
192,192,126315,1,0,0:0:0:100:Tom1.wav
448,192,126315,1,0,0:0:0:0:
64,192,126472,1,2,0:0:0:0:
192,192,126472,1,0,0:0:0:100:Tom1.wav
448,192,126472,1,0,0:0:0:0:
64,192,126630,1,2,0:0:0:0:
192,192,126630,1,0,0:0:0:100:Tom1.wav
448,192,126630,1,0,0:0:0:0:
64,192,126788,1,2,0:0:0:0:
192,192,126788,1,0,0:0:0:100:Tom1.wav
448,192,126788,1,0,0:0:0:0:
64,192,126946,128,2,127183:0:0:0:0:
192,192,126946,128,0,127183:0:0:0:100:Tom1.wav
448,192,126946,1,0,0:0:0:0:
64,192,127262,1,8,0:0:0:0:
192,192,127262,1,0,0:0:0:100:Dr CrashL.wav
320,192,127262,1,0,0:0:0:0:
448,192,127262,1,0,0:0:0:0:
64,192,127578,1,2,0:0:0:0:
320,192,127578,1,0,0:0:0:100:Tom3.wav
448,192,127578,1,0,0:0:0:0:
64,192,127736,1,2,0:0:0:0:
320,192,127736,1,0,0:0:0:100:Tom3.wav
448,192,127736,1,0,0:0:0:0:
64,192,127893,1,2,0:0:0:0:
320,192,127893,1,0,0:0:0:100:Tom3.wav
448,192,127893,1,0,0:0:0:0:
64,192,128051,1,2,0:0:0:0:
320,192,128051,1,0,0:0:0:100:Tom3.wav
448,192,128051,1,0,0:0:0:0:
64,192,128209,1,2,0:0:0:0:
320,192,128209,128,0,128446:0:0:0:100:Tom3.wav
448,192,128209,128,0,128446:0:0:0:0:
192,192,128367,1,0,0:0:0:0:
64,192,128525,1,8,0:0:0:0:
192,192,128525,1,0,0:0:0:100:Dr CrashR.wav
320,192,128525,1,0,0:0:0:0:
448,192,128525,1,0,0:0:0:0:
64,192,128841,1,2,0:0:0:0:
192,192,128841,1,0,0:0:0:100:Dr CrashL.wav
448,192,128841,1,0,0:0:0:0:
320,192,128999,1,0,0:0:0:100:Tom1.wav
448,192,128999,1,0,0:0:0:0:
64,192,129078,1,0,0:0:0:100:Tom1.wav
192,192,129157,1,0,0:0:0:100:Tom2.wav
320,192,129157,1,0,0:0:0:0:
64,192,129315,1,0,0:0:0:100:Tom3.wav
192,192,129315,1,0,0:0:0:0:
64,192,129472,1,8,0:0:0:0:
448,192,129472,1,0,0:0:0:100:Dr CrashR.wav
192,192,129551,1,0,0:0:0:100:Dr Snare1.5.wav
320,192,129551,1,0,0:0:0:0:
192,192,129709,1,0,0:0:0:100:Dr Snare1.5.wav
320,192,129709,1,0,0:0:0:0:
64,192,129788,1,8,0:0:0:0:
448,192,129788,1,0,0:0:0:100:Dr CrashR.wav
320,192,129946,1,8,0:0:0:0:
448,192,129946,1,0,0:0:0:0:
64,192,130104,1,8,0:0:0:0:
192,192,130104,1,0,0:0:0:100:Dr CrashL.wav
448,192,130104,1,0,0:0:0:0:
64,192,130262,1,2,0:0:0:0:
192,192,130262,1,0,0:0:0:0:
320,192,130341,1,2,0:0:0:0:
448,192,130341,1,0,0:0:0:0:
64,192,130420,1,0,0:0:0:100:Tom2.wav
192,192,130420,1,0,0:0:0:0:
192,192,130578,1,0,0:0:0:100:Tom2.wav
320,192,130578,1,0,0:0:0:0:
64,192,130893,1,8,0:0:0:0:
192,192,130893,1,0,0:0:0:100:Dr CrashR.wav
320,192,130893,1,0,0:0:0:0:
448,192,130893,1,0,0:0:0:0:
64,192,131051,1,8,0:0:0:0:
192,192,131051,1,0,0:0:0:100:Dr CrashR.wav
320,192,131051,1,0,0:0:0:0:
448,192,131051,1,0,0:0:0:0:
