osu file format v14

[General]
AudioFilename: audio.mp3
AudioLeadIn: 0
PreviewTime: 58235
Countdown: 0
SampleSet: Soft
StackLeniency: 0.3
Mode: 0
LetterboxInBreaks: 0
WidescreenStoryboard: 1

[Editor]
Bookmarks: 1221,10773,20325,29877,39429,47788,58534,68086,77638,89579,99131,108683,118235,127788
DistanceSpacing: 1
BeatDivisor: 4
GridSize: 16
TimelineZoom: 2.100001

[Metadata]
Title:Owari to Hajimari no Oto
TitleUnicode:おわりとはじまりのおと
Artist:Umeboshi Chazuke
ArtistUnicode:梅干茶漬け
Creator:Yoshimaro
Version:Extra
Source:VOEZ
Tags:Rayark オワリトハジマリノオト 終わりと始まりの音 Affirmation Neoskylove Jezag Kyle73
BeatmapID:1658063
BeatmapSetID:790045

[Difficulty]
HPDrainRate:5.5
CircleSize:3.8
OverallDifficulty:9
ApproachRate:9.6
SliderMultiplier:2
SliderTickRate:1

[Events]
//Background and Video events
0,0,"ATDAN- Yumiko.jpg",0,0
//Break Periods
2,20525,29131
2,77839,78683
2,99331,106295
//Storyboard Layer 0 (Background)
//Storyboard Layer 1 (Fail)
//Storyboard Layer 2 (Pass)
//Storyboard Layer 3 (Foreground)
//Storyboard Sound Samples

[TimingPoints]
1221,298.507462686567,4,2,1,50,1,0
1221,-133.333333333333,4,2,1,50,0,0
10773,-100,4,2,1,65,0,0
19131,-71.4285714285714,4,2,1,65,0,0
19579,-71.4285714285714,4,2,1,5,0,0
19728,-80,4,2,1,65,0,0
20325,-76.9230769230769,4,2,1,5,0,0
29877,-80,4,2,2,50,0,0
29952,-80,4,2,2,5,0,0
30325,-80,4,2,2,50,0,0
30400,-80,4,2,2,5,0,0
30773,-80,4,2,2,50,0,0
30848,-80,4,2,2,5,0,0
31071,-80,4,2,2,50,0,0
31146,-80,4,2,2,5,0,0
31519,-80,4,2,2,50,0,0
31594,-80,4,2,2,5,0,0
31967,-80,4,2,2,50,0,0
32042,-80,4,2,2,5,0,0
32265,-80,4,2,2,50,0,0
32340,-80,4,2,2,5,0,0
32713,-80,4,2,2,50,0,0
32788,-80,4,2,2,5,0,0
33161,-80,4,2,2,50,0,0
33236,-80,4,2,2,5,0,0
33310,-80,4,2,2,50,0,0
33459,-80,4,2,2,50,0,0
33534,-80,4,2,2,5,0,0
33907,-80,4,2,2,50,0,0
33982,-80,4,2,2,5,0,0
34355,-80,4,2,2,50,0,0
34430,-80,4,2,2,5,0,0
34653,-80,4,2,2,50,0,0
34728,-80,4,2,2,5,0,0
35101,-80,4,2,2,50,0,0
35176,-80,4,2,2,5,0,0
35549,-80,4,2,2,50,0,0
35624,-80,4,2,2,5,0,0
35847,-80,4,2,2,50,0,0
35922,-80,4,2,2,5,0,0
36295,-80,4,2,2,50,0,0
36370,-80,4,2,2,5,0,0
36743,-80,4,2,2,50,0,0
36818,-80,4,2,2,5,0,0
37041,-80,4,2,2,50,0,0
37116,-80,4,2,2,5,0,0
37489,-80,4,2,2,50,0,0
37564,-80,4,2,2,5,0,0
37937,-80,4,2,2,50,0,0
38012,-80,4,2,2,5,0,0
39131,-57.1428571428571,4,2,2,75,0,0
39429,-80,4,2,1,75,0,0
46668,-80,4,2,1,5,0,0
46743,-80,4,2,1,75,0,0
56146,-44.4444444444445,4,2,1,75,0,0
56221,-44.4444444444445,4,2,1,5,0,0
56295,-44.4444444444445,4,2,1,75,0,0
56370,-44.4444444444445,4,2,1,5,0,0
56444,-44.4444444444445,4,2,1,75,0,0
56519,-44.4444444444445,4,2,1,5,0,0
56593,-44.4444444444445,4,2,1,75,0,0
56668,-44.4444444444445,4,2,1,5,0,0
56742,-44.4444444444445,4,2,1,75,0,0
56818,-44.4444444444445,4,2,1,5,0,0
56892,-44.4444444444445,4,2,1,75,0,0
56967,-44.4444444444445,4,2,1,5,0,0
57041,-66.6666666666667,4,2,1,75,0,0
58534,-71.4285714285714,4,2,2,85,0,1
62041,-71.4285714285714,4,2,2,5,0,1
62116,-71.4285714285714,4,2,2,85,0,1
65026,-71.4285714285714,4,2,2,5,0,1
65101,-71.4285714285714,4,2,2,85,0,1
77638,-100,4,2,2,75,0,0
80026,-71.4285714285714,4,2,2,75,0,0
84206,-57.1428571428571,4,2,2,75,0,0
84504,-71.4285714285714,4,2,2,75,0,0
87340,-200,4,2,2,75,0,0
87788,-158.730158730159,4,2,2,75,0,0
88235,-133.333333333333,4,2,2,75,0,0
88683,-114.285714285714,4,2,2,75,0,0
89579,-71.4285714285714,4,2,2,75,0,0
94653,-100,4,2,2,75,0,0
94803,-71.4285714285714,4,2,2,75,0,0
95101,-100,4,2,2,75,0,0
95250,-71.4285714285714,4,2,2,75,0,0
96743,-44.4444444444445,4,2,2,75,0,0
96818,-44.4444444444445,4,2,2,5,0,0
96892,-44.4444444444445,4,2,2,75,0,0
96967,-44.4444444444445,4,2,2,5,0,0
97041,-44.4444444444445,4,2,2,75,0,0
97116,-44.4444444444445,4,2,2,5,0,0
97190,-44.4444444444445,4,2,2,75,0,0
97265,-44.4444444444445,4,2,2,5,0,0
97339,-44.4444444444445,4,2,2,75,0,0
97415,-44.4444444444445,4,2,2,5,0,0
97489,-44.4444444444445,4,2,2,75,0,0
97564,-44.4444444444445,4,2,2,5,0,0
97638,-66.6666666666667,4,2,2,75,0,0
98534,-100,4,2,2,65,0,0
98683,-100,4,2,2,60,0,0
98832,-100,4,2,2,55,0,0
98982,-100,4,2,2,50,0,0
99131,-100,4,2,1,45,0,0
107489,-133.333333333333,4,2,1,40,0,0
107713,-133.333333333333,4,2,1,5,0,0
107788,-133.333333333333,4,2,1,40,0,0
108012,-133.333333333333,4,2,1,5,0,0
108087,-133.333333333333,4,2,1,40,0,0
108310,-133.333333333333,4,2,1,5,0,0
108385,-133.333333333333,4,2,1,40,0,0
108459,-133.333333333333,4,2,1,45,0,0
108534,-133.333333333333,4,2,1,50,0,0
108609,-133.333333333333,4,2,1,55,0,0
108683,-100,4,2,1,60,0,0
113459,-83.3333333333333,4,2,1,75,0,0
118235,-66.6666666666667,4,2,1,75,0,0
118497,-66.6666666666667,4,2,1,5,0,0
118534,-71.4285714285714,4,2,2,85,0,1
121743,-71.4285714285714,4,2,2,5,0,1
121818,-71.4285714285714,4,2,2,85,0,1
124728,-71.4285714285714,4,2,2,5,0,1
124803,-71.4285714285714,4,2,2,85,0,1
137377,-100,4,2,1,5,0,0

[Colours]
Combo1 : 255,53,124
Combo2 : 58,226,245
Combo3 : 238,244,9
Combo4 : 254,101,10

[HitObjects]
113,326,1221,6,0,L|110:288,3,37.5000014305115,8|0|0|0,3:2|0:0|0:0|0:0,0:0:0:0:
29,271,1519,2,0,L|26:233,3,37.5000014305115,8|0|0|0,3:2|0:0|0:0|0:0,0:0:0:0:
105,207,1818,2,0,L|102:169,3,37.5000014305115,8|0|0|0,3:2|0:0|0:0|0:0,0:0:0:0:
21,152,2116,2,0,L|18:114,3,37.5000014305115,8|0|0|0,3:2|0:0|0:0|0:0,0:0:0:0:
67,29,2415,6,0,P|85:25|103:26,3,37.5000014305115,8|0|0|0,3:2|0:0|0:0|0:0,0:0:0:0:
182,4,2713,2,0,P|199:9|215:20,3,37.5000014305115,8|0|0|0,3:2|0:0|0:0|0:0,0:0:0:0:
294,39,3012,2,0,P|306:52|314:69,3,37.5000014305115,8|0|0|0,3:2|0:0|0:0|0:0,0:0:0:0:
373,126,3310,2,0,P|376:144|375:162,3,37.5000014305115,8|0|0|0,3:2|0:0|0:0|0:0,0:0:0:0:
441,263,3609,6,0,B|426:253|426:253|408:255,3,37.5000014305115,8|0|0|0,3:2|0:0|0:0|0:0,0:0:0:0:
329,231,3907,2,0,B|310:229|310:229|295:240,3,37.5000014305115,8|0|0|0,3:2|0:0|0:0|0:0,0:0:0:0:
215,258,4206,2,0,B|198:266|198:266|190:282,3,37.5000014305115,8|0|0|0,3:2|0:0|0:0|0:0,0:0:0:0:
130,339,4504,2,0,B|120:354|120:354|121:372,3,37.5000014305115,8|0|0|0,3:2|0:0|0:0|0:0,0:0:0:0:
219,384,4803,6,0,L|256:380,3,37.5000014305115,8|0|0|0,3:2|0:0|0:0|0:0,0:0:0:0:
339,373,5101,2,0,L|376:369,3,37.5000014305115,8|0|0|0,3:2|0:0|0:0|0:0,0:0:0:0:
423,285,5400,6,0,L|385:288,3,37.5000014305115,8|0|0|0,3:2|0:0|0:0|0:0,0:0:0:0:
303,296,5698,2,0,L|265:299,3,37.5000014305115,8|0|0|0,3:2|0:0|0:0|0:0,0:0:0:0:
197,231,5997,6,0,P|187:213|182:196,3,37.5000014305115,8|0|0|0,3:2|0:0|0:0|0:0,0:0:0:0:
252,153,6295,2,0,P|257:134|266:118,3,37.5000014305115,8|0|0|0,3:2|0:0|0:0|0:0,0:0:0:0:
346,137,6594,2,0,P|363:127|380:122,3,37.5000014305115,8|0|0|0,3:2|0:0|0:0|0:0,0:0:0:0:
313,229,6892,6,0,P|331:234|347:243,3,37.5000014305115,8|0|0|0,3:2|0:0|0:0|0:0,0:0:0:0:
447,304,7191,6,0,L|449:266,3,37.5000014305115,8|0|0|0,3:2|0:0|0:0|0:0,0:0:0:0:
457,183,7489,2,0,L|459:145,3,37.5000014305115,8|0|0|0,3:2|0:0|0:0|0:0,0:0:0:0:
384,85,7788,6,0,L|380:122,3,37.5000014305115,8|0|0|0,3:2|0:0|0:0|0:0,0:0:0:0:
374,205,8086,2,0,L|370:242,3,37.5000014305115,8|0|0|0,3:2|0:0|0:0|0:0,0:0:0:0:
304,336,8385,6,0,P|286:335|268:328,3,37.5000014305115,8|0|0|0,3:2|0:0|0:0|0:0,0:0:0:0:
186,330,8683,2,0,P|170:319|158:305,3,37.5000014305115,8|0|0|0,3:2|0:0|0:0|0:0,0:0:0:0:
81,224,8982,6,0,P|98:223|116:216,3,37.5000014305115,8|0|0|0,3:2|0:0|0:0|0:0,0:0:0:0:
198,218,9280,2,0,P|214:207|226:193,3,37.5000014305115,8|0|0|0,3:2|0:0|0:0|0:0,0:0:0:0:
282,89,9579,6,0,B|263:87|263:87|248:97,3,37.5000014305115,8|0|0|0,3:2|0:0|0:0|0:0,0:0:0:0:
167,116,9877,2,0,B|150:123|150:123|142:141,3,37.5000014305115,8|0|0|0,3:2|0:0|0:0|0:0,0:0:0:0:
46,209,10176,6,0,B|64:207|64:207|79:217,3,37.5000014305115,8|0|0|0,3:2|0:0|0:0|0:0,0:0:0:0:
161,236,10474,2,0,B|177:243|177:243|185:261,3,37.5000014305115,8|0|0|0,3:2|0:0|0:0|0:0,0:0:0:0:
96,353,10773,6,0,P|141:333|190:344,1,100,12|2,3:2|0:0,0:0:0:0:
270,384,10997,1,0,0:0:0:0:
270,384,11071,2,0,L|278:284,1,100,8|2,3:2|0:0,0:0:0:0:
296,95,11370,5,10,3:2:0:0:
295,87,11445,1,2,0:0:0:0:
294,78,11519,1,2,0:0:0:0:
222,192,11668,1,8,3:2:0:0:
409,150,11818,1,2,0:0:0:0:
332,6,11967,6,0,P|283:-3|238:16,1,100,8|2,3:2|0:0,0:0:0:0:
214,93,12191,1,2,0:0:0:0:
214,93,12265,2,0,L|222:192,1,100,8|2,3:2|0:0,0:0:0:0:
308,367,12564,5,10,3:2:0:0:
307,375,12639,1,2,0:0:0:0:
306,384,12713,1,2,0:0:0:0:
229,274,12862,1,8,3:2:0:0:
413,307,13012,1,2,0:0:0:0:
208,369,13161,6,0,B|161:385|161:385|114:369,1,100,8|2,3:2|0:0,0:0:0:0:
38,334,13385,1,0,0:0:0:0:
38,334,13459,2,0,L|46:234,1,100,8|2,3:2|0:0,0:0:0:0:
64,45,13758,5,10,3:2:0:0:
63,37,13833,1,2,0:0:0:0:
62,28,13907,1,2,0:0:0:0:
182,90,14056,1,8,3:2:0:0:
0,148,14206,1,2,0:0:0:0:
204,213,14355,6,0,B|251:229|251:229|298:213,1,100,8|2,3:2|0:0,0:0:0:0:
383,175,14579,1,2,0:0:0:0:
383,175,14653,2,0,L|375:275,1,100,8|2,3:2|0:0,0:0:0:0:
186,345,14952,5,10,3:2:0:0:
178,344,15027,1,2,0:0:0:0:
169,343,15101,1,2,0:0:0:0:
299,378,15250,1,8,3:2:0:0:
204,213,15400,1,2,0:0:0:0:
381,379,15549,6,0,P|430:388|475:369,1,100,8|2,3:2|0:0,0:0:0:0:
499,292,15773,1,0,0:0:0:0:
499,292,15847,2,0,L|491:193,1,100,8|2,3:0|0:0,0:0:0:0:
499,17,16146,5,10,3:2:0:0:
500,9,16221,1,2,0:0:0:0:
501,0,16295,1,2,0:0:0:0:
490,179,16444,1,8,3:0:0:0:
373,45,16594,1,2,0:0:0:0:
278,221,16743,6,0,P|229:230|184:211,1,100,8|2,3:2|0:0,0:0:0:0:
110,108,17041,1,8,3:0:0:0:
321,150,17191,6,0,P|353:187|359:236,1,100,2|10,0:0|3:2,0:0:0:0:
307,351,17489,1,2,0:0:0:0:
239,149,17638,6,0,P|255:102|294:72,1,100,8|2,3:0|0:0,0:0:0:0:
504,55,17937,5,8,3:0:0:0:
321,150,18086,1,8,3:2:0:0:
507,285,18235,5,8,3:0:0:0:
412,102,18384,1,8,3:2:0:0:
325,328,18534,5,8,3:2:0:0:
317,333,18609,1,8,3:2:0:0:
308,336,18683,1,8,3:2:0:0:
298,337,18758,1,8,3:2:0:0:
289,337,18832,1,8,3:2:0:0:
279,335,18907,1,8,3:2:0:0:
270,332,18981,1,8,3:2:0:0:
262,326,19056,1,8,3:2:0:0:
255,320,19131,6,0,B|235:280|235:280|192:274|192:274|223:244|223:244|216:201|216:201|254:221|254:221|293:201|293:201|286:243|286:243|317:274|317:274|274:280|274:280|256:316,1,419.999987182618,8|0,3:2|0:0,0:0:0:0:
119,313,19728,6,0,B|34:275|34:275|119:238|119:238|53:200|53:200|100:163|100:163|62:125|62:125|90:88|90:88|72:51|72:51|81:13,1,500
295,315,29877,6,0,L|300:377,1,62.5,2|0,0:0|0:0,0:0:0:0:
219,237,30325,2,0,L|213:299,1,62.5,2|0,0:0|0:0,0:0:0:0:
295,159,30773,2,0,L|300:221,1,62.5,2|0,0:0|0:0,0:0:0:0:
170,64,31071,6,0,P|197:48|228:43,1,62.5,2|0,0:0|0:0,0:0:0:0:
62,119,31519,2,0,P|69:88|88:63,1,62.5,2|0,0:0|0:0,0:0:0:0:
24,234,31967,2,0,P|8:207|3:176,1,62.5,2|0,0:0|0:0,0:0:0:0:
95,371,32265,6,0,L|33:376,1,62.5,2|0,0:0|0:0,0:0:0:0:
173,295,32713,2,0,L|111:289,1,62.5,2|0,0:0|0:0,0:0:0:0:
251,371,33161,2,0,L|189:376,1,62.5,2|0,0:0|0:0,0:0:0:0:
333,261,33310,5,0,0:0:0:0:
333,261,33385,1,0,0:0:0:0:
333,261,33459,2,0,B|335:292|335:292|318:318,1,62.5,2|0,0:0|0:0,0:0:0:0:
372,165,33907,2,0,B|395:185|395:185|401:215,1,62.5,2|0,0:0|0:0,0:0:0:0:
331,69,34355,2,0,B|362:66|362:66|388:83,1,62.5,2|0,0:0|0:0,0:0:0:0:
164,5,34653,6,0,L|226:0,1,62.5,2|0,0:0|0:0,0:0:0:0:
86,81,35101,2,0,L|148:87,1,62.5,2|0,0:0|0:0,0:0:0:0:
8,5,35549,2,0,L|70:0,1,62.5,2|0,0:0|0:0,0:0:0:0:
45,198,35847,6,0,B|30:170|30:170|34:140,1,62.5,2|0,0:0|0:0,0:0:0:0:
48,299,36295,2,0,B|18:290|18:290|0:264,1,62.5,2|0,0:0|0:0,0:0:0:0:
127,370,36743,2,0,B|100:385|100:385|69:381,1,62.5,2|0,0:0|0:0,0:0:0:0:
262,245,37041,6,0,L|267:307,1,62.5,2|0,0:0|0:0,0:0:0:0:
186,167,37489,2,0,L|180:229,1,62.5,2|0,0:0|0:0,0:0:0:0:
262,89,37937,2,0,L|267:151,1,62.5,2|0,0:0|0:0,0:0:0:0:
256,192,38235,12,8,39131,0:3:0:0:
429,278,39429,6,0,B|477:285|502:240|490:188|436:172|372:196|341:247,1,250,12|10,3:2|0:0,0:0:0:0:
293,365,39877,1,0,0:0:0:0:
174,190,40026,6,0,P|117:167|60:191,1,125,8|0,3:2|0:0,0:0:0:0:
208,384,40325,2,0,L|218:259,1,125,10|0,0:0|0:0,0:0:0:0:
416,69,40623,6,0,B|462:89|462:89|364:171|284:98,1,250,8|10,3:2|0:0,0:0:0:0:
204,0,41071,1,0,0:0:0:0:
60,191,41220,6,0,P|117:167|174:190,1,125,8|0,3:2|0:0,0:0:0:0:
366,169,41519,2,0,P|310:193|254:172,1,125,10|0,0:0|0:0,0:0:0:0:
204,0,41818,6,0,L|225:249,1,250,8|10,3:2|0:0,0:0:0:0:
310,111,42265,1,0,0:0:0:0:
491,180,42415,6,0,L|366:169,1,125,8|0,3:2|0:0,0:0:0:0:
225,249,42713,2,0,L|100:259,1,125,10|0,0:0|0:0,0:0:0:0:
5,79,43012,5,8,3:2:0:0:
5,79,43161,1,0,0:0:0:0:
132,158,43310,1,10,0:0:0:0:
132,158,43459,1,0,0:0:0:0:
507,79,43609,1,8,3:2:0:0:
507,79,43758,1,0,0:0:0:0:
380,158,43907,1,10,0:0:0:0:
380,158,44056,1,0,0:0:0:0:
256,0,44206,6,0,L|256:125,1,125,8|0,3:2|0:0,0:0:0:0:
93,293,44504,6,0,P|150:269|207:292,1,125,10|0,0:0|0:0,0:0:0:0:
33,235,44803,2,0,P|144:185|259:226,1,250,8|10,3:2|0:0,0:0:0:0:
150,351,45251,1,0,0:0:0:0:
377,256,45400,5,8,3:2:0:0:
377,256,45549,1,0,0:0:0:0:
457,366,45698,1,10,0:0:0:0:
457,366,45847,1,0,0:0:0:0:
135,256,45997,1,8,3:2:0:0:
135,256,46146,1,0,0:0:0:0:
55,366,46295,1,10,0:0:0:0:
55,366,46444,1,0,0:0:0:0:
256,192,46594,6,0,L|256:67,1,125,8|0,3:2|0:0,0:0:0:0:
301,327,46892,6,0,L|303:358,2,31.25,10|0|0,0:0|0:0|0:0,0:0:0:0:
212,263,47191,2,0,L|209:294,2,31.25,8|0|0,3:2|0:0|0:0,0:0:0:0:
301,199,47489,2,0,L|304:230,2,31.25,10|0|0,0:0|0:0|0:0,0:0:0:0:
167,109,47788,6,0,P|197:116|227:113,3,62.5,8|0|0|0,3:2|0:0|0:0|0:0,0:0:0:0:
306,87,48086,2,0,P|336:79|366:82,3,62.5,10|0|0|0,0:0|0:0|0:0|0:0,0:0:0:0:
445,109,48385,5,8,3:2:0:0:
244,33,48534,1,8,3:2:0:0:
290,283,48683,5,10,3:2:0:0:
366,82,48832,1,8,3:2:0:0:
367,316,48982,5,12,3:2:0:0:
355,334,49056,1,0,0:0:0:0:
341,351,49131,1,0,0:0:0:0:
321,360,49205,1,0,0:0:0:0:
300,367,49280,1,10,0:0:0:0:
278,365,49354,1,0,0:0:0:0:
256,361,49429,1,0,0:0:0:0:
238,349,49503,1,0,0:0:0:0:
222,334,49579,6,0,B|212:209,1,125,8|0,3:2|0:0,0:0:0:0:
62,47,49877,1,10,0:0:0:0:
83,48,49952,1,0,0:0:0:0:
105,50,50026,1,0,0:0:0:0:
127,52,50101,1,0,0:0:0:0:
149,54,50176,6,0,P|167:112|140:167,1,125,8|0,3:2|0:0,0:0:0:0:
0,252,50400,1,0,0:0:0:0:
0,252,50474,2,0,P|54:225|112:245,1,125,10|0,0:0|0:0,0:0:0:0:
172,301,50773,5,8,3:2:0:0:
85,107,50922,1,0,0:0:0:0:
52,366,51071,5,10,0:0:0:0:
139,172,51220,1,0,0:0:0:0:
263,344,51370,6,0,L|294:341,6,31.25,8|0|0|0|0|0|0,3:2|0:0|0:0|0:0|0:0|0:0|0:0,0:0:0:0:
376,355,51668,5,10,0:0:0:0:
369,334,51742,1,0,0:0:0:0:
365,312,51817,1,0,0:0:0:0:
371,291,51891,1,0,0:0:0:0:
379,270,51967,6,0,L|410:272,6,31.25,8|0|0|0|0|0|0,3:2|0:0|0:0|0:0|0:0|0:0|0:0,0:0:0:0:
469,215,52265,5,10,0:0:0:0:
476,194,52339,1,0,0:0:0:0:
480,172,52414,1,0,0:0:0:0:
474,151,52488,1,0,0:0:0:0:
466,130,52564,6,0,L|434:132,6,31.25,8|0|0|0|0|0|0,3:2|0:0|0:0|0:0|0:0|0:0|0:0,0:0:0:0:
377,75,52862,5,10,0:0:0:0:
356,72,52937,1,0,0:0:0:0:
334,70,53011,1,0,0:0:0:0:
312,68,53086,1,0,0:0:0:0:
290,66,53161,6,0,L|287:97,6,31.25,8|0|0|0|0|0|0,3:2|0:0|0:0|0:0|0:0|0:0|0:0,0:0:0:0:
213,133,53459,5,10,0:0:0:0:
192,136,53534,1,0,0:0:0:0:
170,138,53608,1,0,0:0:0:0:
148,140,53683,1,0,0:0:0:0:
126,142,53758,6,0,L|120:79,1,62.5,8|0,3:2|0:0,0:0:0:0:
207,70,53907,2,0,L|213:133,1,62.5,0|0,0:0|0:0,0:0:0:0:
89,216,54056,6,0,P|119:223|149:220,1,62.5,10|0,0:0|0:0,0:0:0:0:
293,218,54206,2,0,P|263:210|233:214,1,62.5,0|0,0:0|0:0,0:0:0:0:
75,314,54355,5,8,3:2:0:0:
74,322,54430,1,0,0:0:0:0:
73,331,54505,1,0,0:0:0:0:
72,340,54580,1,0,0:0:0:0:
70,349,54653,5,10,0:0:0:0:
91,342,54727,1,0,0:0:0:0:
113,338,54802,1,0,0:0:0:0:
134,344,54876,1,0,0:0:0:0:
155,352,54952,6,0,L|218:357,3,62.5,8|0|0|0,3:2|0:0|0:0|0:0,0:0:0:0:
285,311,55250,2,0,L|348:305,3,62.5,10|0|0|0,0:0|0:0|0:0|0:0,0:0:0:0:
416,253,55549,5,8,3:2:0:0:
414,237,55623,1,0,3:0:0:0:
408,219,55698,1,0,3:0:0:0:
397,200,55772,1,0,3:0:0:0:
379,181,55847,1,10,3:2:0:0:
354,168,55922,1,0,3:0:0:0:
322,162,55996,1,0,3:0:0:0:
287,170,56071,1,0,3:0:0:0:
256,192,56146,6,0,B|244:235|186:232|186:232|220:194,1,112.500004291535,8|8,3:2|0:2,0:0:0:0:
256,192,56295,6,0,B|212:203|186:151|186:151|236:162,1,112.500004291535,8|8,3:2|0:2,0:0:0:0:
256,192,56444,6,0,B|224:160|256:111|256:111|272:160,1,112.500004291535,8|8,3:2|0:2,0:0:0:0:
256,192,56593,6,0,B|267:148|325:151|325:151|291:189,1,112.500004291535,8|8,3:2|0:2,0:0:0:0:
256,192,56743,6,0,B|299:180|325:232|325:232|275:221,1,112.500004291535,8|8,3:2|0:2,0:0:0:0:
256,192,56892,6,0,B|288:224|256:272|256:272|240:224,1,112.500004291535,8|8,3:2|0:2,0:0:0:0:
256,347,57191,6,0,L|256:384,20,37.5000014305115,0|0|0|0|0|0|0|0|0|0|0|0|0|0|0|0|0|0|0|0|0,3:2|0:0|0:0|0:0|0:0|0:0|0:0|0:0|0:0|0:0|0:0|0:0|0:0|0:0|0:0|0:0|0:0|0:0|0:0|0:0|0:0,0:0:0:0:
61,127,58235,5,0,0:0:0:0:
60,119,58310,1,0,0:0:0:0:
59,110,58385,1,0,0:0:0:0:
58,101,58460,1,0,0:0:0:0:
57,92,58534,6,0,P|119:62|185:80,1,139.999995727539,12|2,3:2|0:0,0:0:0:0:
299,205,58832,1,8,3:0:0:0:
401,17,58982,1,2,0:0:0:0:
400,9,59057,1,0,0:0:0:0:
399,0,59132,5,8,3:2:0:0:
485,157,59280,2,0,P|423:127|357:145,1,139.999995727539,2|8,0:0|3:0,0:0:0:0:
250,363,59579,1,2,0:0:0:0:
415,224,59728,6,0,L|408:293,1,69.9999978637696,8|0,3:2|0:0,0:0:0:0:
323,383,59877,2,0,L|330:314,1,69.9999978637696,2|0,0:0|0:0,0:0:0:0:
262,210,60026,2,0,L|256:280,1,69.9999978637696,8|0,3:0|0:0,0:0:0:0:
71,337,60176,6,0,B|54:358|54:358|168:350,1,139.999995727539,2|8,0:0|3:2,0:0:0:0:
256,280,60474,1,2,0:0:0:0:
175,93,60623,2,0,B|152:159|152:159|175:226,1,139.999995727539,8|2,3:0|0:0,0:0:0:0:
453,360,60922,6,0,B|483:372|518:361|526:319|506:282|460:264|430:284|412:323|432:326|373:349|323:327,1,279.999991455078,8|8,3:2|3:0,0:0:0:0:
238,159,61370,1,2,0:0:0:0:
239,151,61445,1,0,0:0:0:0:
240,142,61520,5,8,3:2:0:0:
178,308,61668,1,2,0:0:0:0:
433,110,61818,2,0,B|381:154|381:154|240:142,1,209.999993591309,8|0,3:0|0:0,0:0:0:0:
178,85,62116,6,0,P|208:147|190:213,1,139.999995727539,8|2,3:2|0:0,0:0:0:0:
35,299,62415,1,8,3:0:0:0:
274,383,62564,6,0,P|244:322|262:256,1,139.999995727539,2|8,0:0|3:2,0:0:0:0:
408,243,62862,2,0,P|437:304|420:370,1,139.999995727539,2|8,0:0|3:0,0:0:0:0:
261,126,63161,1,2,0:0:0:0:
341,313,63310,6,0,B|331:211|331:211|359:141|359:141|349:40,1,279.999991455078,8|8,3:2|3:0,0:0:0:0:
128,0,63758,1,2,0:0:0:0:
128,0,63832,1,0,0:0:0:0:
128,0,63907,6,0,B|119:34|119:34|128:68,1,69.9999978637696,8|0,3:2|0:0,0:0:0:0:
261,126,64056,2,0,L|191:119,1,69.9999978637696,2|0,0:0|0:0,0:0:0:0:
107,307,64206,6,0,B|104:271|104:271|118:240,1,69.9999978637696,8|0,3:0|0:0,0:0:0:0:
259,206,64355,2,0,L|188:200,1,69.9999978637696,2|0,0:0|0:0,0:0:0:0:
54,151,64504,5,8,3:2:0:0:
196,294,64653,1,2,0:0:0:0:
196,294,64728,1,0,0:0:0:0:
196,294,64803,2,0,B|272:319|298:294|323:268|400:294,1,209.999993591309,8|0,3:0|0:0,0:0:0:0:
463,357,65101,5,8,3:2:0:0:
259,206,65250,1,2,0:0:0:0:
512,78,65400,5,8,3:0:0:0:
361,282,65549,1,2,0:0:0:0:
246,45,65698,6,0,P|140:72|234:128,1,279.999991455078,8|8,3:2|3:0,0:0:0:0:
316,2,66146,1,2,0:0:0:0:
316,2,66220,1,0,0:0:0:0:
315,2,66295,6,0,P|297:67|326:129,1,139.999995727539,8|2,3:2|0:0,0:0:0:0:
470,136,66519,1,0,0:0:0:0:
470,136,66594,2,0,B|404:113|404:113|337:136,1,139.999995727539,8|2,3:0|0:0,0:0:0:0:
236,318,66892,5,8,3:2:0:0:
404,200,67041,1,2,0:0:0:0:
292,379,67191,2,0,B|321:344|321:344|313:249,1,139.999995727539,8|2,3:0|0:0,0:0:0:0:
301,84,67489,5,8,3:2:0:0:
238,301,67638,1,10,3:2:0:0:
237,309,67713,1,8,3:2:0:0:
236,318,67788,2,0,P|203:326|169:320,1,69.9999978637696,8|0,3:0|0:0,0:0:0:0:
35,269,67937,2,0,P|68:277|103:271,1,69.9999978637696,10|0,3:2|0:0,0:0:0:0:
257,98,68086,5,12,3:2:0:0:
230,249,68235,2,0,L|237:319,2,69.9999978637696,2|0|8,0:0|0:0|3:0,0:0:0:0:
112,150,68534,1,2,0:0:0:0:
324,189,68683,6,0,L|393:182,1,69.9999978637696,8|0,3:2|0:0,0:0:0:0:
257,98,68832,2,0,L|187:91,1,69.9999978637696,2|0,0:0|0:0,0:0:0:0:
349,265,68982,6,0,L|418:258,1,69.9999978637696,8|0,3:0|0:0,0:0:0:0:
232,174,69131,2,0,L|162:167,1,69.9999978637696,2|0,0:0|0:0,0:0:0:0:
265,380,69280,5,8,3:2:0:0:
207,250,69429,2,0,L|137:243,2,69.9999978637696,2|0|8,0:0|0:0|3:0,0:0:0:0:
349,265,69728,1,2,0:0:0:0:
157,350,69877,6,0,P|124:358|90:352,1,69.9999978637696,8|0,3:2|0:0,0:0:0:0:
281,266,70026,2,0,P|314:258|349:265,1,69.9999978637696,2|0,0:0|0:0,0:0:0:0:
122,276,70176,6,0,P|155:267|189:274,1,69.9999978637696,8|0,3:0|0:0,0:0:0:0:
315,340,70325,2,0,P|282:348|248:342,1,69.9999978637696,2|0,0:0|0:0,0:0:0:0:
87,202,70474,5,8,3:2:0:0:
228,144,70623,2,0,L|297:137,2,69.9999978637696,2|0|8,0:0|0:0|3:0,0:0:0:0:
108,51,70922,1,2,0:0:0:0:
195,265,71071,6,0,L|202:335,1,69.9999978637696,8|0,3:2|0:0,0:0:0:0:
290,207,71220,2,0,L|297:137,1,69.9999978637696,2|0,0:0|0:0,0:0:0:0:
115,299,71370,6,0,L|122:369,1,69.9999978637696,8|0,3:0|0:0,0:0:0:0:
210,173,71519,2,0,L|217:103,1,69.9999978637696,2|0,0:0|0:0,0:0:0:0:
367,346,71668,6,0,B|416:385|490:392|555:352|543:273|473:247|435:302,1,279.999991455078,8|8,3:2|3:0,0:0:0:0:
259,360,72116,1,2,0:0:0:0:
259,360,72191,1,0,0:0:0:0:
259,360,72265,1,8,3:2:0:0:
256,328,72340,1,0,0:0:0:0:
253,296,72415,1,2,0:0:0:0:
250,264,72490,1,0,0:0:0:0:
269,239,72564,5,8,3:0:0:0:
272,207,72639,1,0,0:0:0:0:
275,175,72714,1,2,0:0:0:0:
278,143,72788,1,0,0:0:0:0:
259,118,72862,5,8,3:2:0:0:
335,290,73012,1,2,0:0:0:0:
336,298,73087,1,0,0:0:0:0:
337,307,73161,2,0,B|403:330|403:330|470:307,1,139.999995727539,8|2,3:0|0:0,0:0:0:0:
512,50,73459,5,8,3:2:0:0:
403,243,73609,1,2,0:0:0:0:
264,37,73758,5,8,3:0:0:0:
457,146,73908,1,2,0:0:0:0:
266,258,74056,5,8,0:0:0:0:
322,182,74206,1,8,0:0:0:0:
246,126,74355,1,8,0:0:0:0:
190,202,74504,1,8,0:0:0:0:
190,202,74803,6,0,P|128:232|62:214,1,139.999995727539,4|0,0:2|0:0,0:0:0:0:
0,17,75101,1,0,0:0:0:0:
1,9,75176,1,0,0:0:0:0:
2,0,75250,5,8,3:2:0:0:
254,58,75400,1,10,3:0:0:0:
20,131,75549,5,8,3:2:0:0:
267,55,75699,1,10,3:0:0:0:
209,306,75847,5,8,3:2:0:0:
121,21,75997,1,10,3:0:0:0:
310,197,76147,5,8,3:2:0:0:
64,272,76295,1,10,3:0:0:0:
331,357,76444,5,12,3:2:0:0:
339,358,76519,1,8,3:2:0:0:
348,359,76594,1,8,3:2:0:0:
356,360,76669,1,8,3:2:0:0:
365,361,76743,1,8,3:2:0:0:
373,362,76818,1,8,3:2:0:0:
382,363,76893,1,8,3:2:0:0:
390,364,76968,1,8,3:2:0:0:
399,365,77041,5,8,3:2:0:0:
426,338,77116,1,8,3:2:0:0:
442,303,77191,1,8,3:2:0:0:
445,264,77266,1,8,3:2:0:0:
435,227,77340,1,8,3:2:0:0:
413,195,77415,1,8,3:2:0:0:
381,173,77490,1,8,3:2:0:0:
343,164,77565,1,8,3:2:0:0:
305,167,77639,1,12,3:2:0:0:
256,192,79429,5,8,0:0:0:0:
256,192,79728,5,8,0:0:0:0:
435,207,80026,5,12,3:2:0:0:
444,186,80101,1,0,0:0:0:0:
445,163,80176,1,2,0:0:0:0:
438,141,80251,1,0,0:0:0:0:
424,122,80325,2,0,L|389:118,2,34.9999989318848,8|0|0,3:0|0:0|0:0,0:0:0:0:
453,45,80474,5,2,0:0:0:0:
431,43,80549,1,0,0:0:0:0:
409,41,80623,1,8,3:2:0:0:
387,39,80698,1,0,0:0:0:0:
365,37,80773,2,0,L|367:2,2,34.9999989318848,2|0|0,0:0|0:0|0:0,0:0:0:0:
276,78,80922,5,8,3:0:0:0:
278,100,80997,1,0,0:0:0:0:
280,122,81071,1,2,0:0:0:0:
282,144,81146,1,0,0:0:0:0:
283,165,81220,6,0,P|316:167|350:155,1,69.9999978637696,8|0,3:2|0:0,0:0:0:0:
498,166,81370,2,0,P|463:163|430:175,1,69.9999978637696,2|0,0:0|0:0,0:0:0:0:
334,330,81519,2,0,B|355:377|355:377|425:321|376:235,1,209.999993591309,8|0,3:0|0:0,0:0:0:0:
306,86,81818,5,8,3:2:0:0:
294,75,81892,1,0,0:0:0:0:
278,65,81967,1,2,0:0:0:0:
257,57,82041,1,0,0:0:0:0:
231,55,82116,1,8,3:0:0:0:
203,61,82191,1,0,0:0:0:0:
175,77,82265,1,2,0:0:0:0:
153,105,82340,1,0,0:0:0:0:
143,142,82415,6,0,L|145:176,2,34.9999989318848,8|0|0,3:2|0:0|0:0,0:0:0:0:
100,41,82564,1,2,0:0:0:0:
234,149,82713,1,8,3:0:0:0:
102,277,82862,6,0,L|99:311,2,34.9999989318848,2|0|0,0:0|0:0|0:0,0:0:0:0:
145,176,83011,1,8,3:2:0:0:
11,284,83160,1,2,0:0:0:0:
222,379,83310,5,8,3:0:0:0:
230,378,83385,1,0,0:0:0:0:
239,377,83460,1,2,0:0:0:0:
248,376,83535,1,0,0:0:0:0:
257,374,83609,6,0,L|263:304,3,69.9999978637696,8|0|2|0,3:2|0:0|0:0|0:0,0:0:0:0:
212,240,83907,2,0,L|205:170,3,69.9999978637696,8|0|2|0,3:0|0:0|0:0|0:0,0:0:0:0:
255,86,84206,6,0,B|308:52|348:92|348:92|375:79|375:79|415:119|469:86|469:86|459:90|442:88,1,262.500002503395,8|0,3:2|0:0,0:0:0:0:
370,173,84504,5,8,3:0:0:0:
369,181,84579,1,0,0:0:0:0:
368,190,84654,1,2,0:0:0:0:
367,199,84729,1,0,0:0:0:0:
365,208,84803,6,0,L|434:201,3,69.9999978637696,8|0|2|0,3:2|0:0|0:0|0:0,0:0:0:0:
512,289,85101,2,0,L|442:282,3,69.9999978637696,8|0|2|0,3:0|0:0|0:0|0:0,0:0:0:0:
365,370,85400,6,0,L|399:366,2,34.9999989318848,8|0|0,3:2|0:0|0:0,0:0:0:0:
299,299,85549,1,2,0:0:0:0:
300,290,85624,1,0,0:0:0:0:
301,282,85699,5,8,3:0:0:0:
276,298,85773,1,0,0:0:0:0:
246,302,85847,1,2,0:0:0:0:
215,297,85921,1,0,0:0:0:0:
189,281,85997,6,0,L|195:211,3,69.9999978637696,8|0|2|0,3:2|0:0|0:0|0:0,0:0:0:0:
108,134,86295,2,0,L|114:203,3,69.9999978637696,8|0|2|0,3:0|0:0|0:0|0:0,0:0:0:0:
27,281,86594,6,0,L|30:246,2,34.9999989318848,8|0|0,3:2|0:0|0:0,0:0:0:0:
88,355,86743,1,2,0:0:0:0:
87,364,86818,1,0,0:0:0:0:
86,372,86893,5,8,3:0:0:0:
111,356,86967,1,0,0:0:0:0:
141,352,87041,1,2,0:0:0:0:
172,357,87115,1,0,0:0:0:0:
198,373,87191,5,8,3:2:0:0:
315,316,87340,2,0,L|339:317,1,25,2|0,0:0|0:0,0:0:0:0:
240,311,87489,1,8,3:0:0:0:
414,323,87638,5,2,0:0:0:0:
298,238,87788,2,0,L|266:235,1,31.4999990386963,8|0,3:2|0:0,0:0:0:0:
380,248,87937,1,2,0:0:0:0:
184,225,88086,5,8,3:0:0:0:
324,155,88235,2,0,L|361:158,1,37.5000014305115,2|0,0:0|0:0,0:0:0:0:
234,150,88385,1,8,3:2:0:0:
451,163,88534,5,2,0:0:0:0:
310,59,88683,2,0,L|266:55,1,43.7500004172325,8|0,3:0|0:0,0:0:0:0:
410,70,88833,1,2,0:0:0:0:
166,44,88982,5,8,3:2:0:0:
129,54,89057,1,8,3:2:0:0:
101,76,89132,1,10,3:2:0:0:
85,104,89206,1,8,3:2:0:0:
79,132,89281,1,8,3:2:0:0:
81,158,89356,1,8,3:2:0:0:
89,179,89430,1,10,3:2:0:0:
99,195,89505,1,8,3:2:0:0:
109,206,89579,6,0,P|143:216|177:209,3,69.9999978637696,12|0|2|0,3:2|0:0|0:0|0:0,0:0:0:0:
249,169,89877,2,0,P|273:144|284:112,3,69.9999978637696,8|0|2|0,3:0|0:0|0:0|0:0,0:0:0:0:
286,31,90176,5,8,3:2:0:0:
267,43,90250,1,0,0:0:0:0:
254,61,90325,1,2,0:0:0:0:
248,83,90399,1,0,0:0:0:0:
249,105,90474,1,8,3:0:0:0:
258,125,90548,1,0,0:0:0:0:
273,141,90623,1,2,0:0:0:0:
294,151,90697,1,0,0:0:0:0:
316,154,90773,6,0,L|384:140,1,69.9999978637696,8|0,3:2|0:0,0:0:0:0:
477,154,90922,2,0,L|408:141,1,69.9999978637696,2|0,0:0|0:0,0:0:0:0:
316,236,91071,6,0,L|384:222,1,69.9999978637696,8|0,3:0|0:0,0:0:0:0:
477,236,91220,2,0,L|408:222,1,69.9999978637696,2|0,0:0|0:0,0:0:0:0:
316,318,91370,6,0,L|309:352,3,34.9999989318848,8|0|0|0,3:2|0:0|0:0|0:0,0:0:0:0:
243,278,91519,1,2,0:0:0:0:
243,278,91594,1,0,0:0:0:0:
243,278,91668,2,0,L|236:243,3,34.9999989318848,8|0|0|0,3:0|0:0|0:0|0:0,0:0:0:0:
147,338,91818,5,2,0:0:0:0:
146,347,91893,1,0,0:0:0:0:
145,355,91967,6,0,B|135:320|135:320|144:288,3,69.9999978637696,8|0|2|0,3:2|0:0|0:0|0:0,0:0:0:0:
66,260,92265,2,0,B|83:228|83:228|112:212,3,69.9999978637696,8|0|2|0,3:0|0:0|0:0|0:0,0:0:0:0:
79,135,92564,5,8,3:2:0:0:
101,133,92639,1,0,0:0:0:0:
123,131,92713,1,2,0:0:0:0:
145,129,92788,1,0,0:0:0:0:
165,126,92862,6,0,L|168:91,2,34.9999989318848,8|0|0,3:0|0:0|0:0,0:0:0:0:
213,208,93012,5,2,0:0:0:0:
214,217,93087,1,0,0:0:0:0:
215,225,93162,5,8,3:2:0:0:
240,209,93236,1,0,0:0:0:0:
270,205,93310,1,2,0:0:0:0:
301,210,93384,1,0,0:0:0:0:
327,226,93459,1,8,3:0:0:0:
353,242,93535,1,0,0:0:0:0:
384,247,93609,1,2,0:0:0:0:
414,243,93683,1,0,0:0:0:0:
439,226,93758,6,0,P|448:193|442:159,3,69.9999978637696,8|0|2|0,3:2|0:0|0:0|0:0,0:0:0:0:
512,114,94056,2,0,P|487:90|455:78,3,69.9999978637696,8|0|2|0,3:0|0:0|0:0|0:0,0:0:0:0:
391,26,94355,6,0,L|321:32,3,69.9999978637696,8|0|2|0,3:2|0:0|0:0|0:0,0:0:0:0:
239,39,94653,2,0,L|288:34,1,50,8|0,3:0|0:0,0:0:0:0:
358,117,94803,6,0,L|288:123,3,69.9999978637696,2|0|8|0,0:0|0:0|3:2|0:0,0:0:0:0:
206,130,95101,2,0,L|255:125,1,50,2|0,0:0|0:0,0:0:0:0:
325,208,95250,6,0,L|255:214,3,69.9999978637696,8|0|2|0,3:0|0:0|0:0|0:0,0:0:0:0:
173,221,95549,5,8,3:2:0:0:
160,242,95623,1,0,0:0:0:0:
158,267,95698,1,2,0:0:0:0:
165,293,95772,1,0,0:0:0:0:
177,314,95847,5,8,3:0:0:0:
205,299,95922,1,0,0:0:0:0:
240,293,95996,1,2,0:0:0:0:
273,299,96071,1,0,0:0:0:0:
300,317,96146,1,8,3:2:0:0:
327,335,96220,1,0,0:0:0:0:
360,341,96295,1,2,0:0:0:0:
395,335,96369,1,0,0:0:0:0:
423,320,96444,6,0,L|435:180,1,139.999995727539,8|2,3:0|0:0,0:0:0:0:
256,192,96743,6,0,B|244:148|186:152|186:152|220:189,1,112.500004291535,8|8,3:2|0:2,0:0:0:0:
256,192,96892,6,0,B|212:180|186:232|186:232|236:221,1,112.500004291535,8|8,3:2|0:2,0:0:0:0:
256,192,97041,6,0,B|224:224|256:272|256:272|272:224,1,112.500004291535,8|8,3:2|0:2,0:0:0:0:
256,192,97190,6,0,B|267:235|325:232|325:232|291:194,1,112.500004291535,8|8,3:2|0:2,0:0:0:0:
256,192,97340,6,0,B|299:203|325:152|325:152|275:162,1,112.500004291535,8|8,3:2|0:2,0:0:0:0:
256,192,97489,6,0,B|288:160|256:112|256:112|240:160,1,112.500004291535,8|8,3:2|0:2,0:0:0:0:
256,37,97788,6,0,L|256:0,18,37.5000014305115,0|0|0|0|0|0|0|0|0|0|0|0|0|0|0|0|0|0|0,3:0|0:0|0:0|0:0|0:0|0:0|0:0|0:0|0:0|0:0|0:0|0:0|0:0|0:0|0:0|0:0|0:0|0:0|0:0,0:0:0:0:
288,112,98534,5,0,0:0:0:0:
224,160,98683,5,0,0:0:0:0:
272,208,98832,5,0,0:0:0:0:
240,240,98982,5,0,0:0:0:0:
256,256,99131,5,4,0:0:0:0:
447,170,107489,6,0,P|396:190|344:173,1,112.500004291535,0|0,0:0|0:0,0:0:0:0:
234,212,107788,6,0,P|285:192|338:209,1,112.500004291535,0|0,0:0|0:0,0:0:0:0:
363,308,108086,6,0,L|373:197,1,112.500004291535,0|0,0:0|0:0,0:0:0:0:
395,108,108385,6,0,P|417:98|440:95,3,37.5000014305115,0|0|0|0,0:0|0:0|0:0|0:0,0:0:0:0:
395,108,108683,6,0,P|307:72|230:129,1,200,4|2,0:2|0:0,0:0:0:0:
216,224,109131,1,0,0:0:0:0:
319,168,109280,6,0,L|310:267,1,100,0|0,0:0|0:0,0:0:0:0:
147,383,109579,2,0,L|139:284,1,100,2|0,0:0|0:0,0:0:0:0:
0,105,109877,6,0,P|45:85|93:95,1,100,0|0,0:0|0:0,0:0:0:0:
181,132,110101,1,0,0:0:0:0:
181,132,110176,2,0,P|229:142|274:122,1,100,2|0,0:0|0:0,0:0:0:0:
361,0,110474,6,0,L|369:99,1,100,0|0,0:0|0:0,0:0:0:0:
512,226,110773,2,0,L|504:325,1,100,2|0,0:0|0:0,0:0:0:0:
304,244,111071,6,0,B|269:202|269:202|415:215,1,200,0|2,0:0|0:0,0:0:0:0:
512,226,111519,1,0,0:0:0:0:
369,99,111668,6,0,L|467:108,1,100,0|0,0:0|0:0,0:0:0:0:
475,318,111967,2,0,L|377:309,1,100,2|0,0:0|0:0,0:0:0:0:
110,285,112265,5,0,0:0:0:0:
280,300,112415,1,0,0:0:0:0:
218,247,112564,2,0,P|198:292|208:340,1,100,2|0,0:0|0:0,0:0:0:0:
307,206,112862,5,0,0:0:0:0:
298,191,112937,1,0,0:0:0:0:
287,178,113012,1,0,0:0:0:0:
274,167,113087,1,0,0:0:0:0:
259,158,113160,1,2,0:0:0:0:
243,152,113235,1,0,0:0:0:0:
226,149,113310,1,0,0:0:0:0:
209,149,113385,1,0,0:0:0:0:
192,152,113459,6,0,B|247:171|247:171|304:152,1,119.999996337891,8|2,0:0|0:0,0:0:0:0:
392,0,113758,2,0,L|382:119,1,119.999996337891,8|2,0:0|0:0,0:0:0:0:
511,212,113982,1,0,0:0:0:0:
511,212,114056,6,0,P|458:187|402:204,1,119.999996337891,8|2,0:0|0:0,0:0:0:0:
354,383,114355,2,0,L|344:264,1,119.999996337891,8|2,0:0|0:0,0:0:0:0:
243,82,114653,5,8,0:0:0:0:
305,151,114802,1,2,0:0:0:0:
235,214,114952,1,8,0:0:0:0:
169,145,115101,2,0,B|144:115|144:115|151:33,1,119.999996337891,2|8,0:0|0:0,0:0:0:0:
379,88,115400,2,0,B|403:117|403:117|396:199,1,119.999996337891,2|8,0:0|0:0,0:0:0:0:
250,361,115698,1,2,0:0:0:0:
251,369,115773,1,0,0:0:0:0:
252,378,115847,5,8,0:0:0:0:
305,151,115997,1,10,0:0:0:0:
369,362,116146,5,8,0:0:0:0:
301,138,116295,1,10,0:0:0:0:
111,318,116444,5,8,0:0:0:0:
335,250,116593,1,10,0:0:0:0:
122,200,116743,5,8,0:0:0:0:
349,253,116892,1,10,0:0:0:0:
189,85,117041,6,0,L|183:144,3,59.9999981689454,8|8|8|8,3:2|3:2|3:2|3:2,0:0:0:0:
122,200,117340,6,0,L|124:229,7,29.9999990844727,8|8|8|8|8|8|8|8,3:2|3:2|3:2|3:2|3:2|3:2|3:2|3:2,0:0:0:0:
177,294,117638,5,8,3:2:0:0:
60,90,117862,5,8,3:2:0:0:
296,91,118086,5,8,3:2:0:0:
211,197,118235,6,0,B|183:208|150:198|142:159|161:124|204:107|232:126|249:163|230:165|292:191|341:161,1,262.500010013581,0|0,0:0|0:0,0:0:0:0:
405,127,118534,5,12,3:0:0:0:
349,330,118683,1,2,0:0:0:0:
350,338,118758,1,0,0:0:0:0:
351,347,118832,5,8,3:2:0:0:
512,258,118982,2,0,P|448:234|384:258,1,139.999995727539,2|8,0:0|3:0,0:0:0:0:
276,384,119280,1,2,0:0:0:0:
193,129,119429,6,0,L|198:198,1,69.9999978637696,8|0,3:2|0:0,0:0:0:0:
130,301,119578,2,0,L|124:231,1,69.9999978637696,2|0,0:0|0:0,0:0:0:0:
39,141,119728,2,0,L|45:210,1,69.9999978637696,8|0,3:0|0:0,0:0:0:0:
63,365,119877,6,0,B|129:388|129:388|196:365,1,139.999995727539,2|8,0:0|3:2,0:0:0:0:
198,198,120176,1,2,0:0:0:0:
269,329,120325,2,0,L|281:189,1,139.999995727539,8|2,3:0|0:0,0:0:0:0:
494,92,120623,6,0,B|531:120|531:120|480:158|480:158|428:120|428:120|380:152|329:122,1,279.999991455078,8|8,3:2|3:0,0:0:0:0:
160,17,121071,1,2,0:0:0:0:
161,9,121146,1,0,0:0:0:0:
162,0,121221,5,8,3:2:0:0:
281,189,121370,1,2,0:0:0:0:
22,246,121519,2,0,B|96:208|121:246|146:283|220:246,1,209.999993591309,8|0,3:0|0:0,0:0:0:0:
281,189,121818,6,0,B|258:255|258:255|281:322,1,139.999995727539,8|2,3:2|0:0,0:0:0:0:
441,131,122116,1,8,3:0:0:0:
204,145,122265,6,0,P|174:84|192:18,1,139.999995727539,2|8,0:0|3:2,0:0:0:0:
338,5,122563,2,0,P|367:66|350:132,1,139.999995727539,2|8,0:0|3:0,0:0:0:0:
193,273,122862,1,2,0:0:0:0:
271,75,123012,6,0,B|221:174|271:207|320:241|271:340,1,279.999991455078,8|8,3:2|3:0,0:0:0:0:
9,357,123459,1,2,0:0:0:0:
9,357,123534,1,0,0:0:0:0:
9,358,123609,6,0,P|44:355|77:367,1,69.9999978637696,8|0,3:2|0:0,0:0:0:0:
193,273,123758,2,0,P|159:271|126:283,1,69.9999978637696,2|0,0:0|0:0,0:0:0:0:
9,187,123907,6,0,P|43:183|76:195,1,69.9999978637696,8|0,3:0|0:0,0:0:0:0:
192,101,124056,2,0,P|158:99|125:111,1,69.9999978637696,2|0,0:0|0:0,0:0:0:0:
32,266,124206,5,8,3:2:0:0:
236,187,124355,1,2,0:0:0:0:
236,187,124429,1,0,0:0:0:0:
236,187,124504,2,0,B|312:192|312:192|360:222|360:222|436:228,1,209.999993591309,8|0,3:0|0:0,0:0:0:0:
512,191,124803,5,8,3:2:0:0:
282,288,124952,1,2,0:0:0:0:
300,10,125101,5,8,3:0:0:0:
397,240,125250,1,2,0:0:0:0:
148,208,125400,6,0,P|93:303|199:274,1,279.999991455078,8|8,3:2|3:0,0:0:0:0:
83,137,125847,1,2,0:0:0:0:
83,137,125922,1,0,0:0:0:0:
83,137,125997,6,0,B|149:114|149:114|216:137,1,139.999995727539,8|2,3:2|0:0,0:0:0:0:
312,216,126220,1,0,0:0:0:0:
312,216,126295,2,0,B|378:239|378:239|445:216,1,139.999995727539,8|2,3:0|0:0,0:0:0:0:
466,27,126594,5,8,3:2:0:0:
297,132,126743,1,2,0:0:0:0:
512,112,126892,2,0,L|372:99,1,139.999995727539,8|2,3:0|0:0,0:0:0:0:
199,85,127191,5,8,3:2:0:0:
312,216,127340,1,10,3:2:0:0:
311,224,127415,1,8,3:2:0:0:
310,233,127489,2,0,P|277:243|242:240,1,69.9999978637696,8|0,3:0|0:0,0:0:0:0:
103,289,127638,2,0,P|136:278|171:282,1,69.9999978637696,10|0,3:2|0:0,0:0:0:0:
362,384,127788,5,12,3:2:0:0:
407,239,127937,2,0,L|400:169,2,69.9999978637696,2|0|8,0:0|0:0|3:0,0:0:0:0:
511,351,128235,1,2,0:0:0:0:
283,318,128385,6,0,L|213:324,1,69.9999978637696,8|0,3:2|0:0,0:0:0:0:
407,239,128534,2,0,L|476:245,1,69.9999978637696,2|0,0:0|0:0,0:0:0:0:
241,239,128683,6,0,L|311:233,1,69.9999978637696,8|0,3:0|0:0,0:0:0:0:
434,323,128832,2,0,L|364:316,1,69.9999978637696,2|0,0:0|0:0,0:0:0:0:
161,260,128982,5,8,3:2:0:0:
269,154,129131,2,0,L|339:148,2,69.9999978637696,2|0|8,0:0|0:0|3:0,0:0:0:0:
124,114,129429,1,2,0:0:0:0:
237,294,129579,6,0,B|246:328|246:328|237:362,1,69.9999978637696,8|0,3:2|0:0,0:0:0:0:
124,182,129728,2,0,B|115:148|115:148|124:114,1,69.9999978637696,2|0,0:0|0:0,0:0:0:0:
161,328,129877,6,0,B|152:294|152:294|161:260,1,69.9999978637696,8|0,3:0|0:0,0:0:0:0:
200,80,130026,2,0,B|209:114|209:114|200:148,1,69.9999978637696,2|0,0:0|0:0,0:0:0:0:
83,335,130176,5,8,3:2:0:0:
237,294,130325,2,0,L|307:300,2,69.9999978637696,2|0|8,0:0|0:0|3:0,0:0:0:0:
124,182,130623,1,2,0:0:0:0:
364,230,130773,6,0,L|434:223,1,69.9999978637696,8|0,3:2|0:0,0:0:0:0:
306,135,130922,2,0,L|236:128,1,69.9999978637696,2|0,0:0|0:0,0:0:0:0:
398,310,131071,6,0,L|468:303,1,69.9999978637696,8|0,3:0|0:0,0:0:0:0:
272,215,131221,2,0,L|202:208,1,69.9999978637696,2|0,0:0|0:0,0:0:0:0:
486,159,131370,6,0,B|530:70|530:70|486:-17|486:-17|448:56,1,279.999991455078,8|8,3:2|3:0,0:0:0:0:
512,247,131818,1,2,0:0:0:0:
512,247,131893,1,0,0:0:0:0:
512,247,131967,1,8,3:2:0:0:
480,250,132042,1,0,0:0:0:0:
448,253,132117,1,2,0:0:0:0:
416,256,132192,1,0,0:0:0:0:
391,237,132266,5,8,3:0:0:0:
359,234,132341,1,0,0:0:0:0:
327,231,132416,1,2,0:0:0:0:
295,228,132490,1,0,0:0:0:0:
270,247,132564,5,8,3:2:0:0:
445,171,132713,1,2,0:0:0:0:
453,170,132788,1,0,0:0:0:0:
462,169,132862,2,0,P|479:102|450:40,1,139.999995727539,8|2,3:0|0:0,0:0:0:0:
186,1,133161,5,8,3:2:0:0:
383,112,133310,1,2,0:0:0:0:
173,252,133459,5,8,3:0:0:0:
285,56,133608,1,2,0:0:0:0:
343,327,133758,5,8,3:2:0:0:
268,271,133907,1,8,3:2:0:0:
323,197,134057,1,8,3:2:0:0:
399,251,134206,1,8,3:2:0:0:
399,251,134504,6,0,B|337:284|337:284|267:271,1,139.999995727539,4|0,0:2|0:0,0:0:0:0:
82,167,134803,1,0,0:0:0:0:
74,168,134878,1,0,0:0:0:0:
65,169,134952,5,8,3:2:0:0:
323,197,135101,1,10,3:0:0:0:
124,51,135250,5,8,3:2:0:0:
333,204,135399,1,10,3:0:0:0:
95,308,135549,5,8,3:2:0:0:
272,67,135698,1,10,3:0:0:0:
273,374,135847,5,8,3:2:0:0:
95,133,135996,1,10,3:0:0:0:
368,293,136146,5,12,3:2:0:0:
390,281,136220,1,8,3:2:0:0:
408,264,136295,1,8,3:2:0:0:
421,242,136369,1,8,3:2:0:0:
428,219,136444,1,8,3:2:0:0:
428,193,136519,1,8,3:2:0:0:
422,169,136593,1,8,3:2:0:0:
410,147,136668,1,8,3:2:0:0:
393,130,136743,6,8,L|323:123,3,69.9999978637696,8|8|8|8,3:2|3:2|3:2|3:2,3:2:0:0:
261,175,137041,6,8,L|226:178,7,34.9999989318848,8|8|8|8|8|8|8|8,3:2|3:2|3:2|3:2|3:2|3:2|3:2|3:2,3:2:0:0:
163,126,137340,5,12,3:2:0:0:
256,192,137377,12,0,139728,0:0:0:0:
