osu file format v14

[General]
AudioFilename: audio.mp3
AudioLeadIn: 0
PreviewTime: 117638
Countdown: 0
SampleSet: Soft
StackLeniency: 0.7
Mode: 3
LetterboxInBreaks: 0
SpecialStyle: 0
WidescreenStoryboard: 0

[Editor]
DistanceSpacing: 1.3
BeatDivisor: 4
GridSize: 4
TimelineZoom: 1.200001

[Metadata]
Title:Owari to Hajimari no Oto
TitleUnicode:おわりとはじまりのおと
Artist:Umeboshi Chazuke
ArtistUnicode:梅干茶漬け
Creator:Lude
Version:Easy
Source:VOEZ
Tags:leqek wonki
BeatmapID:1279242
BeatmapSetID:516824

[Difficulty]
HPDrainRate:7.5
CircleSize:4
OverallDifficulty:7
ApproachRate:5
SliderMultiplier:2.5
SliderTickRate:2

[Events]
//Background and Video events
0,0,"BG2.jpg",0,0
//Break Periods
//Storyboard Layer 0 (Background)
//Storyboard Layer 1 (Fail)
//Storyboard Layer 2 (Pass)
//Storyboard Layer 3 (Foreground)
//Storyboard Sound Samples
Sample,1221,0,"whistle.wav",30
Sample,2415,0,"whistle.wav",30
Sample,3609,0,"whistle.wav",30
Sample,4803,0,"whistle.wav",30
Sample,5400,0,"whistle.wav",30
Sample,5997,0,"whistle.wav",30
Sample,6892,0,"whistle.wav",30
Sample,7191,0,"whistle.wav",30
Sample,7788,0,"whistle.wav",30
Sample,8385,0,"whistle.wav",30
Sample,8982,0,"whistle.wav",30
Sample,9579,0,"whistle.wav",30
Sample,10176,0,"whistle.wav",30
Sample,10773,0,"whistle.wav",30
Sample,10922,0,"open hihat.wav",30
Sample,11220,0,"open hihat.wav",30
Sample,11519,0,"open hihat.wav",30
Sample,11668,0,"whistle.wav",30
Sample,11818,0,"open hihat.wav",30
Sample,11967,0,"whistle.wav",30
Sample,12116,0,"open hihat.wav",30
Sample,12415,0,"open hihat.wav",30
Sample,12564,0,"whistle.wav",30
Sample,12713,0,"open hihat.wav",30
Sample,13012,0,"open hihat.wav",30
Sample,13161,0,"whistle.wav",30
Sample,13310,0,"open hihat.wav",30
Sample,13609,0,"open hihat.wav",30
Sample,13907,0,"open hihat.wav",30
Sample,14056,0,"whistle.wav",30
Sample,14206,0,"open hihat.wav",30
Sample,14355,0,"whistle.wav",30
Sample,14504,0,"open hihat.wav",30
Sample,14803,0,"open hihat.wav",30
Sample,14952,0,"whistle.wav",30
Sample,15101,0,"open hihat.wav",30
Sample,15400,0,"open hihat.wav",30
Sample,15549,0,"whistle.wav",30
Sample,15698,0,"open hihat.wav",30
Sample,15997,0,"open hihat.wav",30
Sample,16295,0,"open hihat.wav",30
Sample,16594,0,"open hihat.wav",30
Sample,16892,0,"open hihat.wav",30
Sample,17191,0,"open hihat.wav",30
Sample,17489,0,"open hihat.wav",30
Sample,17788,0,"open hihat.wav",30
Sample,17937,0,"whistle.wav",30
Sample,46892,0,"whistle.wav",30
Sample,46917,0,"whistle.wav",30
Sample,47216,0,"whistle.wav",30
Sample,47514,0,"whistle.wav",30
Sample,103609,0,"open hihat.wav",30
Sample,110773,0,"open hihat.wav",30
Sample,113161,0,"open hihat.wav",30

[TimingPoints]
1221,298.507462686567,4,2,1,30,1,0
39429,-100,4,2,1,30,0,0
58534,-100,4,2,1,30,0,1
77638,-100,4,2,1,30,0,0
80026,-100,4,2,1,30,0,0
99131,-100,4,2,1,15,0,0
108683,-100,4,2,1,30,0,0
118534,-100,4,2,1,30,0,1
137340,-100,4,2,1,30,0,0

[HitObjects]
64,192,1221,5,2,0:0:0:0:
448,192,1221,1,4,0:0:0:0:
320,192,1519,1,2,0:0:0:0:
192,192,1818,1,2,0:0:0:0:
64,192,2116,1,2,0:0:0:0:
448,192,2415,1,2,0:0:0:0:
64,192,2713,1,2,0:0:0:0:
192,192,3012,1,2,0:0:0:0:
320,192,3310,1,2,0:0:0:0:
448,192,3609,1,2,0:0:0:0:
320,192,3907,1,2,0:0:0:0:
64,192,4206,1,2,0:0:0:0:
192,192,4504,1,2,0:0:0:0:
448,192,4803,1,2,0:0:0:0:
64,192,5101,1,2,0:0:0:0:
320,192,5400,1,2,0:0:0:0:
64,192,5698,1,2,0:0:0:0:
192,192,5997,1,2,0:0:0:0:
320,192,6295,1,2,0:0:0:0:
448,192,6594,1,2,0:0:0:0:
192,192,6892,1,2,0:0:0:0:
320,192,7191,1,2,0:0:0:0:
64,192,7489,1,2,0:0:0:0:
448,192,7788,1,2,0:0:0:0:
64,192,8086,1,2,0:0:0:0:
320,192,8385,1,2,0:0:0:0:
448,192,8683,1,2,0:0:0:0:
192,192,8982,1,2,0:0:0:0:
64,192,9280,1,2,0:0:0:0:
448,192,9579,1,2,0:0:0:0:
64,192,9877,1,2,0:0:0:0:
320,192,10176,1,2,0:0:0:0:
192,192,10474,1,2,0:0:0:0:
64,192,10773,1,2,0:0:0:0:
448,192,10773,1,4,0:0:0:0:
320,192,11071,1,2,0:0:0:0:
64,192,11370,1,2,0:0:0:0:
192,192,11668,1,2,0:0:0:0:
192,192,11967,1,2,0:0:0:0:
320,192,12265,1,2,0:0:0:0:
448,192,12564,1,2,0:0:0:0:
320,192,12862,1,2,0:0:0:0:
192,192,13161,1,2,0:0:0:0:
64,192,13459,1,2,0:0:0:0:
448,192,13758,1,2,0:0:0:0:
320,192,14056,1,2,0:0:0:0:
320,192,14355,1,2,0:0:0:0:
64,192,14653,1,2,0:0:0:0:
192,192,14952,1,2,0:0:0:0:
320,192,15250,1,2,0:0:0:0:
448,192,15549,1,2,0:0:0:0:
64,192,15847,1,8,0:0:0:0:
192,192,15847,1,0,0:0:0:0:
64,192,16444,1,8,0:0:0:0:
192,192,16444,1,0,0:0:0:0:
320,192,16743,1,0,0:0:0:30:whistle.wav
192,192,17041,1,8,0:0:0:0:
448,192,17041,1,0,0:0:0:0:
192,192,17638,1,8,0:0:0:0:
448,192,17638,1,0,0:0:0:30:whistle.wav
64,192,17937,1,8,0:0:0:0:
448,192,18235,1,8,0:0:0:0:
192,192,18534,1,8,0:0:0:0:
320,192,18832,1,8,0:0:0:0:
64,192,19131,1,2,0:0:0:0:
448,192,19131,1,4,0:0:0:0:
320,192,19728,128,0,20325:0:0:0:0:
64,192,20474,1,0,0:0:0:30:whistle.wav
192,192,20623,1,0,0:0:0:30:whistle.wav
320,192,20922,1,0,0:0:0:30:whistle.wav
192,192,21220,1,0,0:0:0:30:whistle.wav
448,192,21519,1,0,0:0:0:30:whistle.wav
64,192,21967,1,0,0:0:0:30:whistle.wav
448,192,22116,1,0,0:0:0:30:whistle.wav
192,192,22265,1,0,0:0:0:30:whistle.wav
320,192,22415,1,0,0:0:0:30:whistle.wav
448,192,22564,1,0,0:0:0:30:whistle.wav
64,192,22713,1,0,0:0:0:30:whistle.wav
192,192,23161,1,0,0:0:0:30:whistle.wav
320,192,23310,1,0,0:0:0:30:whistle.wav
448,192,23907,1,0,0:0:0:30:whistle.wav
320,192,24206,1,0,0:0:0:30:whistle.wav
64,192,24504,1,0,0:0:0:30:whistle.wav
448,192,24803,1,0,0:0:0:30:whistle.wav
192,192,25101,1,0,0:0:0:30:whistle.wav
64,192,25549,1,0,0:0:0:30:whistle.wav
192,192,25698,1,0,0:0:0:30:whistle.wav
320,192,26295,1,0,0:0:0:30:whistle.wav
64,192,26594,1,0,0:0:0:30:whistle.wav
448,192,26892,1,0,0:0:0:30:whistle.wav
192,192,27191,1,0,0:0:0:30:whistle.wav
320,192,27489,1,0,0:0:0:30:whistle.wav
448,192,27937,1,0,0:0:0:30:whistle.wav
192,192,28086,1,0,0:0:0:30:whistle.wav
64,192,29877,1,8,0:0:0:0:
320,192,30176,1,0,0:0:0:0:
64,192,30325,1,8,0:0:0:0:
320,192,30623,1,0,0:0:0:0:
64,192,30773,1,8,0:0:0:0:
448,192,31071,1,8,0:0:0:0:
192,192,31370,1,0,0:0:0:0:
448,192,31519,1,8,0:0:0:0:
192,192,31818,1,0,0:0:0:0:
448,192,31967,1,8,0:0:0:0:
64,192,32265,1,8,0:0:0:0:
448,192,32564,1,0,0:0:0:0:
320,192,32713,1,8,0:0:0:0:
448,192,33012,1,0,0:0:0:0:
320,192,33161,1,8,0:0:0:0:
64,192,33459,1,8,0:0:0:0:
192,192,33758,1,0,0:0:0:0:
448,192,33907,1,8,0:0:0:0:
192,192,34206,1,0,0:0:0:0:
448,192,34355,1,8,0:0:0:0:
320,192,34653,1,8,0:0:0:0:
64,192,34952,1,0,0:0:0:0:
192,192,35101,1,8,0:0:0:0:
64,192,35400,1,0,0:0:0:0:
192,192,35549,1,8,0:0:0:0:
320,192,35847,1,8,0:0:0:0:
192,192,36146,1,0,0:0:0:0:
64,192,36295,1,8,0:0:0:0:
320,192,36594,1,0,0:0:0:0:
448,192,36743,1,8,0:0:0:0:
192,192,37041,1,8,0:0:0:0:
64,192,37340,1,0,0:0:0:0:
320,192,37489,1,8,0:0:0:0:
448,192,37788,1,0,0:0:0:0:
192,192,37937,1,8,0:0:0:0:
64,192,38235,1,8,0:0:0:0:
192,192,38534,1,8,0:0:0:0:
320,192,38832,1,8,0:0:0:0:
192,192,38982,1,2,0:0:0:0:
64,192,39131,1,8,0:0:0:0:
448,192,39131,1,0,0:0:0:0:
64,192,39429,1,4,0:0:0:0:
448,192,39429,1,2,0:0:0:0:
192,192,39728,1,8,0:0:0:0:
448,192,40026,1,2,0:0:0:0:
64,192,40325,1,8,0:0:0:0:
448,192,40623,1,2,0:0:0:0:
192,192,40922,1,8,0:0:0:0:
320,192,41220,1,2,0:0:0:0:
192,192,41519,1,8,0:0:0:0:
448,192,41818,1,2,0:0:0:0:
320,192,42116,1,8,0:0:0:0:
64,192,42415,1,2,0:0:0:0:
320,192,42713,1,8,0:0:0:0:
448,192,43012,1,2,0:0:0:0:
192,192,43310,1,8,0:0:0:0:
448,192,43609,1,2,0:0:0:0:
320,192,43907,1,8,0:0:0:0:
192,192,44206,1,2,0:0:0:0:
448,192,44504,1,8,0:0:0:0:
64,192,44803,1,2,0:0:0:0:
192,192,45101,1,8,0:0:0:0:
320,192,45400,1,2,0:0:0:0:
192,192,45698,1,8,0:0:0:0:
320,192,45997,1,2,0:0:0:0:
448,192,46295,1,8,0:0:0:0:
192,192,46594,1,2,0:0:0:0:
448,192,46892,1,8,0:0:0:0:
320,192,47191,1,2,0:0:0:0:
192,192,47489,1,8,0:0:0:0:
64,192,47788,1,2,0:0:0:0:
320,192,48086,1,8,0:0:0:0:
448,192,48385,1,2,0:0:0:0:
64,192,48683,1,8,0:0:0:0:
192,192,48683,1,4,0:0:0:0:
320,192,48982,1,2,0:0:0:0:
448,192,48982,1,4,0:0:0:0:
192,192,49280,1,8,0:0:0:0:
64,192,49579,1,2,0:0:0:0:
320,192,49877,1,8,0:0:0:0:
64,192,50176,1,2,0:0:0:0:
448,192,50474,1,8,0:0:0:0:
192,192,50773,1,2,0:0:0:0:
448,192,51071,1,8,0:0:0:0:
64,192,51370,128,2,51668:0:0:0:0:
192,192,51668,1,8,0:0:0:0:
448,192,51967,128,2,52265:0:0:0:0:
320,192,52265,1,8,0:0:0:0:
192,192,52564,128,2,52862:0:0:0:0:
64,192,52862,1,8,0:0:0:0:
320,192,53161,128,2,53459:0:0:0:0:
448,192,53459,1,8,0:0:0:0:
64,192,53758,1,2,0:0:0:0:
320,192,54056,1,8,0:0:0:0:
192,192,54355,1,2,0:0:0:0:
320,192,54653,1,8,0:0:0:0:
448,192,54952,1,2,0:0:0:0:
192,192,55250,1,8,0:0:0:0:
448,192,55549,1,2,0:0:0:0:
64,192,55847,1,8,0:0:0:0:
320,192,56146,1,2,0:0:0:0:
192,192,56444,1,2,0:0:0:0:
320,192,56743,1,2,0:0:0:0:
192,192,56892,1,2,0:0:0:0:
64,192,57191,1,2,0:0:0:0:
448,192,57191,1,4,0:0:0:0:
448,192,57937,1,0,0:0:0:0:
320,192,58086,1,0,0:0:0:0:
192,192,58235,1,0,0:0:0:0:
64,192,58385,1,0,0:0:0:0:
320,192,58534,1,2,0:0:0:0:
448,192,58534,1,4,0:0:0:0:
192,192,58832,1,8,0:0:0:0:
64,192,59131,1,2,0:0:0:0:
448,192,59429,1,8,0:0:0:0:
64,192,59728,128,2,59877:0:0:0:0:
192,192,59877,128,0,60026:0:0:0:0:
320,192,60026,128,8,60176:0:0:0:0:
448,192,60176,128,0,60474:0:0:0:0:
64,192,60474,128,0,60623:0:0:0:0:
448,192,60623,128,8,60773:0:0:0:0:
320,192,60773,128,0,60922:0:0:0:0:
192,192,60922,128,2,61220:0:0:0:0:
64,192,61220,1,8,0:0:0:0:
448,192,61519,1,2,0:0:0:0:
192,192,61818,128,8,62116:0:0:0:0:
320,192,62116,128,2,62415:0:0:0:0:
64,192,62415,128,8,62564:0:0:0:0:
192,192,62564,128,0,62862:0:0:0:0:
448,192,62862,128,0,63161:0:0:0:0:
320,192,63161,128,0,63310:0:0:0:0:
192,192,63310,1,2,0:0:0:0:
64,192,63609,1,8,0:0:0:0:
320,192,63907,1,2,0:0:0:0:
192,192,64206,1,8,0:0:0:0:
448,192,64504,1,2,0:0:0:0:
192,192,64803,128,8,65101:0:0:0:0:
64,192,65101,128,2,65250:0:0:0:0:
192,192,65250,128,0,65400:0:0:0:0:
320,192,65400,128,8,65549:0:0:0:0:
448,192,65549,128,0,65698:0:0:0:0:
192,192,65698,128,2,65997:0:0:0:0:
320,192,65997,1,8,0:0:0:0:
64,192,66295,1,2,0:0:0:0:
192,192,66594,1,8,0:0:0:0:
448,192,66892,1,2,0:0:0:0:
320,192,67041,1,2,0:0:0:0:
192,192,67191,1,8,0:0:0:0:
64,192,67489,1,2,0:0:0:0:
192,192,67638,1,2,0:0:0:0:
320,192,67788,1,4,0:0:0:0:
64,192,68086,1,2,0:0:0:0:
448,192,68086,1,4,0:0:0:0:
320,192,68385,1,8,0:0:0:0:
64,192,68683,1,2,0:0:0:0:
192,192,68832,1,0,0:0:0:0:
320,192,68982,1,8,0:0:0:0:
448,192,69131,1,0,0:0:0:0:
64,192,69280,1,2,0:0:0:0:
192,192,69579,1,8,0:0:0:0:
448,192,69877,1,2,0:0:0:0:
320,192,70026,1,0,0:0:0:0:
192,192,70176,1,8,0:0:0:0:
64,192,70325,1,0,0:0:0:0:
448,192,70474,1,2,0:0:0:0:
320,192,70773,1,8,0:0:0:0:
192,192,71071,1,2,0:0:0:0:
320,192,71220,1,0,0:0:0:0:
64,192,71370,1,8,0:0:0:0:
192,192,71519,1,0,0:0:0:0:
448,192,71668,128,2,71967:0:0:0:0:
64,192,71967,1,8,0:0:0:0:
320,192,72116,1,0,0:0:0:0:
192,192,72265,1,2,0:0:0:0:
64,192,72415,1,0,0:0:0:0:
448,192,72564,1,8,0:0:0:0:
320,192,72713,1,0,0:0:0:0:
192,192,72862,1,2,0:0:0:0:
448,192,73161,1,8,0:0:0:0:
64,192,73459,1,2,0:0:0:0:
320,192,73758,1,8,0:0:0:0:
64,192,74056,1,2,0:0:0:0:
192,192,74206,1,2,0:0:0:0:
320,192,74355,1,2,0:0:0:0:
448,192,74504,1,2,0:0:0:0:
192,192,74803,1,2,0:0:0:0:
64,192,74803,1,4,0:0:0:0:
320,192,75250,1,2,0:0:0:0:
448,192,75250,1,4,0:0:0:0:
192,192,75549,1,2,0:0:0:0:
64,192,75847,1,4,0:0:0:0:
448,192,75847,1,2,0:0:0:0:
320,192,76146,1,2,0:0:0:0:
64,192,76444,1,12,0:0:0:0:
192,192,76743,1,8,0:0:0:0:
448,192,77041,1,8,0:0:0:0:
320,192,77340,1,8,0:0:0:0:
64,192,77638,1,4,0:0:0:0:
448,192,77638,1,2,0:0:0:0:
320,192,78832,1,2,0:0:0:0:
192,192,79056,1,2,0:0:0:0:
320,192,79280,1,2,0:0:0:0:
192,192,79429,128,2,79728:0:0:0:0:
320,192,79728,128,2,80026:0:0:0:0:
64,192,80026,1,4,0:0:0:0:
448,192,80026,1,0,0:0:0:0:
320,192,80325,1,8,0:0:0:0:
64,192,80623,1,2,0:0:0:0:
192,192,80922,1,8,0:0:0:0:
448,192,81220,1,2,0:0:0:0:
320,192,81519,1,8,0:0:0:0:
64,192,81818,1,2,0:0:0:0:
448,192,82116,1,8,0:0:0:0:
320,192,82265,1,0,0:0:0:0:
192,192,82415,1,2,0:0:0:0:
64,192,82713,1,8,0:0:0:0:
448,192,83012,1,2,0:0:0:0:
192,192,83310,1,8,0:0:0:0:
448,192,83609,1,2,0:0:0:0:
320,192,83907,1,8,0:0:0:0:
64,192,84206,1,2,0:0:0:0:
192,192,84504,1,8,0:0:0:0:
64,192,84653,1,0,0:0:0:0:
320,192,84803,1,2,0:0:0:0:
448,192,85101,1,8,0:0:0:0:
192,192,85400,1,2,0:0:0:0:
320,192,85698,1,8,0:0:0:0:
448,192,85997,1,2,0:0:0:0:
64,192,86295,1,8,0:0:0:0:
320,192,86594,1,2,0:0:0:0:
192,192,86892,1,8,0:0:0:0:
320,192,87041,1,0,0:0:0:0:
448,192,87191,1,2,0:0:0:0:
192,192,87489,1,8,0:0:0:0:
448,192,87788,1,2,0:0:0:0:
64,192,88086,1,8,0:0:0:0:
448,192,88385,1,2,0:0:0:0:
320,192,88683,1,8,0:0:0:0:
192,192,88982,1,2,0:0:0:0:
64,192,89131,1,2,0:0:0:0:
320,192,89280,1,8,0:0:0:0:
448,192,89429,1,2,0:0:0:0:
64,192,89579,1,2,0:0:0:0:
192,192,89579,1,4,0:0:0:0:
320,192,89877,1,0,0:0:0:0:
64,192,90176,1,2,0:0:0:0:
320,192,90474,1,8,0:0:0:0:
192,192,90773,1,2,0:0:0:0:
448,192,91071,1,8,0:0:0:0:
64,192,91370,1,2,0:0:0:0:
320,192,91668,1,8,0:0:0:0:
448,192,91818,1,0,0:0:0:0:
192,192,91967,1,2,0:0:0:0:
64,192,92265,1,8,0:0:0:0:
448,192,92564,1,2,0:0:0:0:
192,192,92862,1,8,0:0:0:0:
320,192,93161,1,2,0:0:0:0:
64,192,93459,1,8,0:0:0:0:
448,192,93758,1,2,0:0:0:0:
320,192,94056,1,8,0:0:0:0:
192,192,94206,1,0,0:0:0:0:
448,192,94355,1,2,0:0:0:0:
64,192,94653,1,8,0:0:0:0:
320,192,94952,1,2,0:0:0:0:
64,192,95250,1,8,0:0:0:0:
448,192,95549,1,2,0:0:0:0:
192,192,95847,1,8,0:0:0:0:
320,192,96146,1,2,0:0:0:0:
64,192,96444,1,8,0:0:0:0:
448,192,96743,1,2,0:0:0:0:
320,192,96892,1,2,0:0:0:0:
64,192,97041,1,2,0:0:0:0:
192,192,97191,1,2,0:0:0:0:
448,192,97340,1,2,0:0:0:0:
320,192,97489,1,2,0:0:0:0:
64,192,97788,1,4,0:0:0:0:
448,192,97788,1,2,0:0:0:0:
64,192,99131,1,4,0:0:0:0:
448,192,99131,1,0,0:0:0:0:
320,192,99728,1,8,0:0:0:0:
320,192,100176,1,0,0:0:0:0:
64,192,100325,128,0,100474:0:0:0:0:
192,192,100474,128,0,100623:0:0:0:0:
320,192,100623,128,0,100773:0:0:0:0:
448,192,100773,128,0,101071:0:0:0:0:
64,192,101071,128,0,101220:0:0:0:0:
192,192,101220,128,0,101370:0:0:0:30:open hihat.wav
320,192,101370,128,0,101519:0:0:0:0:
192,192,101519,128,0,101818:0:0:0:0:
320,192,102116,1,8,0:0:0:0:
320,192,102564,1,0,0:0:0:0:
64,192,102713,128,0,103012:0:0:0:0:
448,192,103012,128,0,103161:0:0:0:0:
320,192,103161,128,0,103459:0:0:0:0:
192,192,103459,128,0,103758:0:0:0:0:
64,192,103758,128,0,103907:0:0:0:0:
320,192,103907,128,0,104206:0:0:0:0:
192,192,104504,1,8,0:0:0:0:
64,192,104952,1,0,0:0:0:0:
448,192,105101,128,0,105250:0:0:0:0:
192,192,105250,1,0,0:0:0:0:
320,192,105400,128,0,105698:0:0:0:0:
64,192,105698,128,8,105847:0:0:0:0:
192,192,105847,128,0,105997:0:0:0:0:
320,192,105997,128,0,106146:0:0:0:30:open hihat.wav
448,192,106146,128,0,106295:0:0:0:0:
192,192,106295,128,0,106594:0:0:0:0:
320,192,106892,1,8,0:0:0:0:
192,192,107191,1,0,0:0:0:0:
64,192,107489,128,4,107788:0:0:0:0:
192,192,107788,128,0,108086:0:0:0:0:
448,192,108086,128,0,108385:0:0:0:0:
320,192,108385,128,0,108683:0:0:0:0:
64,192,108683,1,2,0:0:0:0:
192,192,108683,1,4,0:0:0:0:
448,192,109131,1,2,0:0:0:0:
192,192,109280,1,8,0:0:0:0:
192,192,109728,1,8,0:0:0:0:
64,192,110026,1,8,0:0:0:0:
320,192,110176,1,2,0:0:0:0:
192,192,110474,1,8,0:0:0:0:
192,192,110922,1,2,0:0:0:0:
320,192,111071,1,2,0:0:0:0:
448,192,111519,1,2,0:0:0:0:
320,192,111668,1,8,0:0:0:0:
320,192,112116,1,8,0:0:0:0:
192,192,112415,1,8,0:0:0:0:
64,192,112564,1,2,0:0:0:0:
320,192,112862,1,8,0:0:0:0:
192,192,113310,1,2,0:0:0:0:
64,192,113459,1,4,0:0:0:0:
448,192,113459,1,2,0:0:0:0:
320,192,113758,1,8,0:0:0:0:
64,192,114056,1,2,0:0:0:0:
192,192,114355,1,8,0:0:0:0:
448,192,114653,1,2,0:0:0:0:
320,192,114803,1,0,0:0:0:0:
64,192,114952,1,8,0:0:0:0:
192,192,115101,1,0,0:0:0:0:
320,192,115250,1,2,0:0:0:0:
192,192,115549,1,8,0:0:0:0:
448,192,115847,1,4,0:0:0:0:
64,192,115847,1,2,0:0:0:0:
320,192,116146,1,2,0:0:0:0:
64,192,116444,1,4,0:0:0:0:
448,192,116444,1,2,0:0:0:0:
192,192,116743,1,2,0:0:0:0:
448,192,117041,1,4,0:0:0:0:
192,192,117191,1,2,0:0:0:0:
64,192,117340,1,2,0:0:0:0:
448,192,117489,1,2,0:0:0:0:
320,192,117638,1,4,0:0:0:0:
192,192,117862,1,8,0:0:0:0:
320,192,118086,1,4,0:0:0:0:
192,192,118235,128,2,118534:0:0:0:0:
64,192,118534,1,2,0:0:0:0:
448,192,118534,1,4,0:0:0:0:
320,192,118832,1,2,0:0:0:0:
64,192,119131,1,8,0:0:0:0:
448,192,119429,128,2,119579:0:0:0:0:
320,192,119579,128,0,119728:0:0:0:0:
64,192,119728,128,8,119877:0:0:0:0:
192,192,119877,128,0,120176:0:0:0:0:
448,192,120176,128,0,120325:0:0:0:0:
64,192,120325,128,8,120474:0:0:0:0:
320,192,120474,128,0,120623:0:0:0:0:
192,192,120623,128,2,120922:0:0:0:0:
448,192,120922,1,8,0:0:0:0:
64,192,121220,1,2,0:0:0:0:
320,192,121519,1,8,0:0:0:0:
192,192,121818,128,2,122116:0:0:0:0:
320,192,122116,128,8,122265:0:0:0:0:
64,192,122265,128,0,122564:0:0:0:0:
448,192,122564,128,0,122862:0:0:0:0:
192,192,122862,128,0,123012:0:0:0:0:
320,192,123012,1,2,0:0:0:0:
64,192,123310,1,8,0:0:0:0:
448,192,123609,1,2,0:0:0:0:
192,192,123907,1,8,0:0:0:0:
320,192,124206,128,2,124504:0:0:0:0:
192,192,124504,128,8,124803:0:0:0:0:
64,192,124803,1,2,0:0:0:0:
448,192,125101,1,8,0:0:0:0:
192,192,125400,1,2,0:0:0:0:
64,192,125698,1,8,0:0:0:0:
320,192,125997,1,2,0:0:0:0:
192,192,126295,1,8,0:0:0:0:
448,192,126594,1,2,0:0:0:0:
320,192,126743,1,2,0:0:0:0:
192,192,126892,1,8,0:0:0:0:
64,192,127191,1,2,0:0:0:0:
320,192,127340,1,2,0:0:0:0:
448,192,127489,1,4,0:0:0:0:
64,192,127788,1,2,0:0:0:0:
192,192,127788,1,4,0:0:0:0:
320,192,128086,1,8,0:0:0:0:
64,192,128385,1,2,0:0:0:0:
192,192,128534,1,0,0:0:0:0:
448,192,128683,1,8,0:0:0:0:
320,192,128832,1,0,0:0:0:0:
192,192,128982,1,2,0:0:0:0:
448,192,129280,1,8,0:0:0:0:
192,192,129579,1,2,0:0:0:0:
64,192,129728,1,0,0:0:0:0:
320,192,129877,1,8,0:0:0:0:
192,192,130026,1,0,0:0:0:0:
64,192,130176,1,2,0:0:0:0:
448,192,130474,1,8,0:0:0:0:
64,192,130773,1,2,0:0:0:0:
320,192,130922,1,0,0:0:0:0:
192,192,131071,1,8,0:0:0:0:
64,192,131220,1,0,0:0:0:0:
448,192,131370,1,2,0:0:0:0:
192,192,131668,1,8,0:0:0:0:
320,192,131967,1,2,0:0:0:0:
448,192,132265,1,8,0:0:0:0:
192,192,132564,1,6,0:0:0:0:
64,192,132862,1,8,0:0:0:0:
320,192,133161,1,2,0:0:0:0:
64,192,133459,1,8,0:0:0:0:
320,192,133758,1,2,0:0:0:0:
192,192,133907,1,2,0:0:0:0:
320,192,134056,1,2,0:0:0:0:
192,192,134206,1,2,0:0:0:0:
64,192,134504,1,4,0:0:0:0:
448,192,134504,1,2,0:0:0:0:
64,192,134952,1,4,0:0:0:0:
448,192,134952,1,2,0:0:0:0:
320,192,135250,1,0,0:0:0:0:
64,192,135549,1,6,0:0:0:0:
192,192,135847,1,2,0:0:0:0:
320,192,136146,1,6,0:0:0:0:
192,192,136444,1,6,0:0:0:0:
448,192,136743,1,6,0:0:0:0:
192,192,136892,1,2,0:0:0:0:
64,192,137041,1,6,0:0:0:0:
448,192,137191,1,2,0:0:0:0:
192,192,137340,1,4,0:0:0:0:
320,192,137340,128,0,139579:0:0:0:0:
