osu file format v14

[General]
AudioFilename: audio.mp3
AudioLeadIn: 0
PreviewTime: 117788
Countdown: 0
SampleSet: Normal
StackLeniency: 0.7
Mode: 3
LetterboxInBreaks: 0
SpecialStyle: 0
WidescreenStoryboard: 0

[Editor]
Bookmarks: 57937,85437,107489
DistanceSpacing: 1.3
BeatDivisor: 4
GridSize: 4
TimelineZoom: 2.3

[Metadata]
Title:Owari to Hajimari no Oto
TitleUnicode:Owari to Hajimari no Oto
Artist:Umeboshi Chazuke
ArtistUnicode:梅干茶漬け
Creator:CrumpetFiddler
Version:Insane
Source:VOEZ
Tags:
BeatmapID:1218206
BeatmapSetID:575255

[Difficulty]
HPDrainRate:8
CircleSize:4
OverallDifficulty:8
ApproachRate:5
SliderMultiplier:1.4
SliderTickRate:1

[Events]
//Background and Video events
0,0,"Tst.jpg",0,0
//Break Periods
//Storyboard Layer 0 (Background)
//Storyboard Layer 1 (Fail)
//Storyboard Layer 2 (Pass)
//Storyboard Layer 3 (Foreground)
//Storyboard Sound Samples

[TimingPoints]
1221,298.507462686567,4,1,0,50,1,0
19206,-100,4,1,0,50,0,0
20325,-100,4,1,0,40,0,0
39056,-100,4,1,0,70,0,0
58534,-100,4,1,0,70,0,1
79728,-100,4,1,0,70,0,0
98534,-100,4,1,0,30,0,0
108683,-100,4,1,0,70,0,0
118534,-100,4,1,0,70,0,1
139728,-100,4,1,0,70,0,0

[HitObjects]
320,192,1221,5,0,0:0:0:0:
192,192,1221,128,0,1370:0:0:0:0:
448,192,1221,1,0,0:0:0:0:
64,192,1370,1,0,0:0:0:0:
320,192,1519,1,0,0:0:0:0:
192,192,1519,128,0,1594:0:0:0:0:
448,192,1668,1,0,0:0:0:0:
320,192,1818,1,0,0:0:0:0:
64,192,1818,1,0,0:0:0:0:
448,192,1967,1,0,0:0:0:0:
64,192,2116,1,0,0:0:0:0:
320,192,2116,1,0,0:0:0:0:
192,192,2265,1,0,0:0:0:0:
448,192,2415,1,0,0:0:0:0:
320,192,2415,128,0,2564:0:0:0:0:
192,192,2564,1,0,0:0:0:0:
448,192,2713,1,0,0:0:0:0:
320,192,2713,128,0,2788:0:0:0:0:
64,192,2862,1,0,0:0:0:0:
192,192,3012,1,0,0:0:0:0:
448,192,3012,1,0,0:0:0:0:
320,192,3161,1,0,0:0:0:0:
192,192,3310,1,0,0:0:0:0:
320,192,3310,1,0,0:0:0:0:
64,192,3459,1,0,0:0:0:0:
320,192,3609,1,0,0:0:0:0:
448,192,3609,128,0,3758:0:0:0:0:
64,192,3758,1,0,0:0:0:0:
320,192,3907,1,0,0:0:0:0:
448,192,3907,128,0,3982:0:0:0:0:
192,192,4056,1,0,0:0:0:0:
320,192,4206,1,0,0:0:0:0:
64,192,4206,1,0,0:0:0:0:
192,192,4355,1,0,0:0:0:0:
448,192,4504,1,0,0:0:0:0:
64,192,4504,1,0,0:0:0:0:
320,192,4653,1,0,0:0:0:0:
64,192,4803,128,0,4952:0:0:0:0:
192,192,4803,1,0,0:0:0:0:
448,192,4952,1,0,0:0:0:0:
320,192,5101,1,0,0:0:0:0:
64,192,5101,128,0,5176:0:0:0:0:
448,192,5250,1,0,0:0:0:0:
320,192,5400,1,0,0:0:0:0:
192,192,5400,128,0,5549:0:0:0:0:
64,192,5549,1,0,0:0:0:0:
448,192,5698,1,0,0:0:0:0:
192,192,5698,128,0,5773:0:0:0:0:
64,192,5847,1,0,0:0:0:0:
448,192,5997,1,0,0:0:0:0:
320,192,5997,128,0,6146:0:0:0:0:
192,192,6146,1,0,0:0:0:0:
64,192,6295,1,0,0:0:0:0:
320,192,6295,128,0,6370:0:0:0:0:
448,192,6444,1,0,0:0:0:0:
320,192,6594,1,0,0:0:0:0:
448,192,6594,1,0,0:0:0:0:
192,192,6743,1,0,0:0:0:0:
64,192,6892,1,0,0:0:0:0:
448,192,6892,128,0,7041:0:0:0:0:
192,192,7041,1,0,0:0:0:0:
448,192,7191,1,0,0:0:0:0:
320,192,7191,128,0,7340:0:0:0:0:
64,192,7340,1,0,0:0:0:0:
448,192,7489,1,0,0:0:0:0:
320,192,7489,128,0,7564:0:0:0:0:
192,192,7638,1,0,0:0:0:0:
64,192,7788,128,0,7937:0:0:0:0:
448,192,7788,1,0,0:0:0:0:
320,192,7937,1,0,0:0:0:0:
192,192,8086,1,0,0:0:0:0:
64,192,8086,128,0,8161:0:0:0:0:
320,192,8235,1,0,0:0:0:0:
192,192,8385,128,0,8534:0:0:0:0:
448,192,8385,1,0,0:0:0:0:
64,192,8534,1,0,0:0:0:0:
192,192,8683,128,0,8758:0:0:0:0:
448,192,8683,1,0,0:0:0:0:
64,192,8832,1,0,0:0:0:0:
448,192,8982,1,0,0:0:0:0:
320,192,8982,128,0,9131:0:0:0:0:
64,192,9131,1,0,0:0:0:0:
192,192,9280,1,0,0:0:0:0:
320,192,9280,128,0,9355:0:0:0:0:
448,192,9429,1,0,0:0:0:0:
192,192,9579,1,0,0:0:0:0:
64,192,9579,128,0,9728:0:0:0:0:
320,192,9728,1,0,0:0:0:0:
448,192,9877,1,0,0:0:0:0:
64,192,9877,128,0,9952:0:0:0:0:
320,192,10026,1,0,0:0:0:0:
64,192,10176,1,0,0:0:0:0:
192,192,10176,128,0,10325:0:0:0:0:
320,192,10325,1,0,0:0:0:0:
448,192,10474,1,0,0:0:0:0:
192,192,10474,128,0,10549:0:0:0:0:
64,192,10623,1,0,0:0:0:0:
320,192,10773,1,0,0:0:0:0:
448,192,10773,1,0,0:0:0:0:
64,192,10773,128,0,10922:0:0:0:0:
192,192,10922,1,0,0:0:0:0:
64,192,11071,128,0,11220:0:0:0:0:
448,192,11071,1,0,0:0:0:0:
320,192,11220,1,0,0:0:0:0:
448,192,11370,1,0,0:0:0:0:
192,192,11370,1,0,0:0:0:0:
64,192,11519,1,0,0:0:0:0:
192,192,11668,1,0,0:0:0:0:
320,192,11668,128,0,11818:0:0:0:0:
64,192,11818,1,0,0:0:0:0:
192,192,11967,1,0,0:0:0:0:
320,192,11967,128,0,12116:0:0:0:0:
448,192,12116,1,0,0:0:0:0:
64,192,12265,1,0,0:0:0:0:
448,192,12265,128,0,12340:0:0:0:0:
320,192,12415,1,0,0:0:0:0:
64,192,12564,1,0,0:0:0:0:
192,192,12564,128,0,12713:0:0:0:0:
448,192,12713,1,0,0:0:0:0:
192,192,12862,1,0,0:0:0:0:
320,192,12862,128,0,12937:0:0:0:0:
448,192,13012,1,0,0:0:0:0:
192,192,13161,1,0,0:0:0:0:
320,192,13161,128,0,13310:0:0:0:0:
64,192,13310,1,0,0:0:0:0:
320,192,13459,128,0,13609:0:0:0:0:
448,192,13459,1,0,0:0:0:0:
192,192,13609,1,0,0:0:0:0:
64,192,13758,1,0,0:0:0:0:
192,192,13758,128,0,13832:0:0:0:0:
448,192,13907,1,0,0:0:0:0:
320,192,14056,1,0,0:0:0:0:
448,192,14056,128,0,14206:0:0:0:0:
64,192,14206,1,0,0:0:0:0:
320,192,14355,1,0,0:0:0:0:
448,192,14355,128,0,14504:0:0:0:0:
64,192,14504,1,0,0:0:0:0:
192,192,14653,1,0,0:0:0:0:
448,192,14653,128,0,14728:0:0:0:0:
320,192,14803,1,0,0:0:0:0:
192,192,14952,1,0,0:0:0:0:
64,192,14952,128,0,15101:0:0:0:0:
448,192,15101,1,0,0:0:0:0:
320,192,15250,1,0,0:0:0:0:
64,192,15250,128,0,15325:0:0:0:0:
448,192,15400,1,0,0:0:0:0:
64,192,15549,1,0,0:0:0:0:
192,192,15549,128,0,15698:0:0:0:0:
320,192,15698,1,0,0:0:0:0:
64,192,15847,1,0,0:0:0:0:
448,192,15847,1,0,0:0:0:0:
320,192,15847,1,0,0:0:0:0:
320,192,15997,1,0,0:0:0:0:
448,192,16146,1,0,0:0:0:0:
64,192,16146,1,0,0:0:0:0:
192,192,16295,1,0,0:0:0:0:
64,192,16444,1,0,0:0:0:0:
448,192,16444,1,0,0:0:0:0:
320,192,16444,1,0,0:0:0:0:
192,192,16594,1,0,0:0:0:0:
192,192,16743,1,0,0:0:0:0:
448,192,16743,1,0,0:0:0:0:
320,192,16743,128,0,16892:0:0:0:0:
64,192,16892,1,0,0:0:0:0:
64,192,17041,1,0,0:0:0:0:
448,192,17041,1,0,0:0:0:0:
320,192,17041,1,0,0:0:0:0:
448,192,17191,128,0,17340:0:0:0:0:
192,192,17191,1,0,0:0:0:0:
64,192,17340,1,0,0:0:0:0:
320,192,17340,1,0,0:0:0:0:
320,192,17489,1,0,0:0:0:0:
64,192,17638,1,0,0:0:0:0:
448,192,17638,1,0,0:0:0:0:
192,192,17638,128,0,17788:0:0:0:0:
320,192,17788,1,0,0:0:0:0:
320,192,17937,5,0,0:0:0:0:
448,192,17937,1,0,0:0:0:0:
64,192,17937,128,0,18086:0:0:0:0:
448,192,18086,1,0,0:0:0:0:
192,192,18086,1,0,0:0:0:0:
320,192,18235,128,0,18385:0:0:0:0:
192,192,18235,1,0,0:0:0:0:
64,192,18235,1,0,0:0:0:0:
448,192,18385,1,0,0:0:0:0:
192,192,18385,1,0,0:0:0:0:
64,192,18534,5,0,0:0:0:0:
192,192,18534,1,0,0:0:0:0:
320,192,18609,1,0,0:0:0:0:
448,192,18609,1,0,0:0:0:0:
192,192,18683,1,0,0:0:0:0:
64,192,18683,1,0,0:0:0:0:
320,192,18758,1,0,0:0:0:0:
448,192,18758,1,0,0:0:0:0:
192,192,18832,1,0,0:0:0:0:
64,192,18832,1,0,0:0:0:0:
320,192,18907,1,0,0:0:0:0:
448,192,18907,1,0,0:0:0:0:
64,192,18982,1,0,0:0:0:0:
192,192,18982,1,0,0:0:0:0:
448,192,19056,1,0,0:0:0:0:
320,192,19056,1,0,0:0:0:0:
192,192,19131,128,0,19280:0:0:0:0:
64,192,19131,128,0,19504:0:0:0:0:
320,192,19429,1,0,0:0:0:0:
448,192,19429,128,0,19504:0:0:0:0:
192,192,19728,128,0,20325:0:0:0:0:
448,192,19728,128,0,20325:0:0:0:0:
64,192,19728,128,0,20325:0:0:0:0:
64,192,20474,1,0,0:0:0:0:
320,192,20623,1,0,0:0:0:0:
192,192,20922,1,0,0:0:0:0:
320,192,21220,1,0,0:0:0:0:
448,192,21519,1,0,0:0:0:0:
448,192,21967,1,0,0:0:0:0:
320,192,22116,1,0,0:0:0:0:
192,192,22265,1,0,0:0:0:0:
64,192,22415,1,0,0:0:0:0:
192,192,22564,1,0,0:0:0:0:
64,192,22713,1,0,0:0:0:0:
192,192,23161,1,0,0:0:0:0:
192,192,23310,1,0,0:0:0:0:
320,192,23907,1,0,0:0:0:0:
448,192,24206,1,0,0:0:0:0:
320,192,24504,1,0,0:0:0:0:
192,192,24803,1,0,0:0:0:0:
64,192,25101,1,0,0:0:0:0:
320,192,25549,1,0,0:0:0:0:
320,192,25698,1,0,0:0:0:0:
192,192,26295,1,0,0:0:0:0:
64,192,26594,1,0,0:0:0:0:
320,192,26892,1,0,0:0:0:0:
192,192,27191,1,0,0:0:0:0:
64,192,27489,1,0,0:0:0:0:
448,192,27937,1,0,0:0:0:0:
192,192,28086,1,0,0:0:0:0:
192,192,30026,1,0,0:0:0:0:
64,192,30176,1,0,0:0:0:0:
192,192,30474,1,0,0:0:0:0:
320,192,30773,1,0,0:0:0:0:
448,192,31071,1,0,0:0:0:0:
64,192,31668,1,0,0:0:0:0:
320,192,32265,1,0,0:0:0:0:
192,192,33310,1,0,0:0:0:0:
320,192,33385,1,0,0:0:0:0:
448,192,33459,1,0,0:0:0:0:
64,192,33907,1,0,0:0:0:0:
192,192,34056,1,0,0:0:0:0:
320,192,34206,1,0,0:0:0:0:
192,192,34355,1,0,0:0:0:0:
320,192,34504,1,0,0:0:0:0:
448,192,34653,1,0,0:0:0:0:
448,192,35101,1,0,0:0:0:0:
320,192,35176,1,0,0:0:0:0:
64,192,35250,1,0,0:0:0:0:
448,192,35847,1,0,0:0:0:0:
320,192,36146,1,0,0:0:0:0:
64,192,36444,1,0,0:0:0:0:
192,192,36743,1,0,0:0:0:0:
64,192,37041,1,0,0:0:0:0:
192,192,37489,1,0,0:0:0:0:
320,192,37937,5,0,0:0:0:0:
448,192,38235,1,0,0:0:0:0:
192,192,38534,1,0,0:0:0:0:
448,192,38832,1,0,0:0:0:0:
320,192,38982,1,0,0:0:0:0:
192,192,38982,1,0,0:0:0:0:
64,192,39131,5,0,0:0:0:0:
448,192,39131,1,0,0:0:0:0:
192,192,39131,1,0,0:0:0:0:
64,192,39429,128,0,40325:0:0:0:0:
320,192,39429,1,0,0:0:0:0:
448,192,39728,1,0,0:0:0:0:
320,192,40026,1,0,0:0:0:0:
192,192,40325,128,0,43012:0:0:0:0:
448,192,40325,1,0,0:0:0:0:
64,192,40623,1,0,0:0:0:0:
320,192,40922,128,0,41220:0:0:0:0:
448,192,40922,1,0,0:0:0:0:
448,192,41220,128,0,41519:0:0:0:0:
64,192,41220,1,0,0:0:0:0:
64,192,41519,128,0,41818:0:0:0:0:
320,192,41519,1,0,0:0:0:0:
320,192,41818,128,0,42116:0:0:0:0:
448,192,41818,1,0,0:0:0:0:
64,192,42116,1,0,0:0:0:0:
448,192,42265,128,0,42340:0:0:0:0:
448,192,42415,128,0,43012:0:0:0:0:
64,192,42415,1,0,0:0:0:0:
320,192,42713,1,0,0:0:0:0:
320,192,43012,128,0,43161:0:0:0:0:
64,192,43012,128,0,43086:0:0:0:0:
192,192,43161,1,0,0:0:0:0:
448,192,43310,128,0,43459:0:0:0:0:
192,192,43310,128,0,43385:0:0:0:0:
320,192,43459,1,0,0:0:0:0:
64,192,43609,128,0,43758:0:0:0:0:
320,192,43609,128,0,43683:0:0:0:0:
192,192,43758,1,0,0:0:0:0:
192,192,43907,128,0,44056:0:0:0:0:
448,192,43907,128,0,43982:0:0:0:0:
320,192,44056,1,0,0:0:0:0:
320,192,44206,128,0,44355:0:0:0:0:
64,192,44206,128,0,44280:0:0:0:0:
192,192,44355,1,0,0:0:0:0:
448,192,44504,128,0,44653:0:0:0:0:
64,192,44504,1,0,0:0:0:0:
320,192,44653,1,0,0:0:0:0:
192,192,44803,128,0,44952:0:0:0:0:
64,192,44803,1,0,0:0:0:0:
448,192,44952,1,0,0:0:0:0:
320,192,45101,128,0,45250:0:0:0:0:
64,192,45101,1,0,0:0:0:0:
192,192,45250,1,0,0:0:0:0:
448,192,45400,128,0,45549:0:0:0:0:
192,192,45400,128,0,45474:0:0:0:0:
64,192,45549,1,0,0:0:0:0:
320,192,45698,128,0,45847:0:0:0:0:
192,192,45698,1,0,0:0:0:0:
448,192,45847,1,0,0:0:0:0:
64,192,45997,128,0,46146:0:0:0:0:
192,192,45997,1,0,0:0:0:0:
320,192,46146,1,0,0:0:0:0:
192,192,46295,128,0,46444:0:0:0:0:
448,192,46295,1,0,0:0:0:0:
320,192,46444,1,0,0:0:0:0:
448,192,46594,1,0,0:0:0:0:
64,192,46594,128,0,46743:0:0:0:0:
192,192,46743,1,0,0:0:0:0:
448,192,46892,5,0,0:0:0:0:
320,192,46892,128,0,47041:0:0:0:0:
192,192,47041,1,0,0:0:0:0:
320,192,47191,1,0,0:0:0:0:
192,192,47191,128,0,47340:0:0:0:0:
448,192,47340,1,0,0:0:0:0:
192,192,47489,1,0,0:0:0:0:
64,192,47489,128,0,47638:0:0:0:0:
320,192,47638,1,0,0:0:0:0:
448,192,47788,1,0,0:0:0:0:
320,192,47862,1,0,0:0:0:0:
192,192,47937,1,0,0:0:0:0:
64,192,48012,5,0,0:0:0:0:
448,192,48086,1,0,0:0:0:0:
320,192,48161,1,0,0:0:0:0:
192,192,48235,1,0,0:0:0:0:
64,192,48310,5,0,0:0:0:0:
448,192,48385,1,0,0:0:0:0:
320,192,48385,1,0,0:0:0:0:
192,192,48459,1,0,0:0:0:0:
320,192,48534,1,0,0:0:0:0:
64,192,48534,1,0,0:0:0:0:
448,192,48609,5,0,0:0:0:0:
64,192,48683,1,0,0:0:0:0:
320,192,48683,1,0,0:0:0:0:
192,192,48758,1,0,0:0:0:0:
448,192,48832,1,0,0:0:0:0:
64,192,48832,1,0,0:0:0:0:
320,192,48907,5,0,0:0:0:0:
64,192,48982,1,0,0:0:0:0:
448,192,48982,1,0,0:0:0:0:
192,192,49056,1,0,0:0:0:0:
320,192,49131,1,0,0:0:0:0:
64,192,49206,1,0,0:0:0:0:
448,192,49280,1,0,0:0:0:0:
192,192,49280,1,0,0:0:0:0:
320,192,49355,1,0,0:0:0:0:
192,192,49429,1,0,0:0:0:0:
64,192,49504,1,0,0:0:0:0:
448,192,49579,128,0,49728:0:0:0:0:
320,192,49579,1,0,0:0:0:0:
192,192,49728,1,0,0:0:0:0:
64,192,49803,1,0,0:0:0:0:
320,192,49877,1,0,0:0:0:0:
192,192,49877,1,0,0:0:0:0:
448,192,49952,1,0,0:0:0:0:
320,192,50026,1,0,0:0:0:0:
64,192,50101,1,0,0:0:0:0:
448,192,50176,128,0,50400:0:0:0:0:
192,192,50176,1,0,0:0:0:0:
64,192,50325,128,0,50623:0:0:0:0:
192,192,50400,128,0,50623:0:0:0:0:
320,192,50474,1,0,0:0:0:0:
448,192,50623,1,0,0:0:0:0:
192,192,50773,1,0,0:0:0:0:
64,192,50773,1,0,0:0:0:0:
320,192,50922,1,0,0:0:0:0:
448,192,51071,1,0,0:0:0:0:
64,192,51071,1,0,0:0:0:0:
192,192,51220,1,0,0:0:0:0:
448,192,51370,1,0,0:0:0:0:
320,192,51407,1,0,0:0:0:0:
64,192,51444,1,0,0:0:0:0:
192,192,51482,1,0,0:0:0:0:
448,192,51519,1,0,0:0:0:0:
320,192,51556,1,0,0:0:0:0:
64,192,51594,1,0,0:0:0:0:
192,192,51631,1,0,0:0:0:0:
448,192,51668,1,0,0:0:0:0:
320,192,51668,1,0,0:0:0:0:
64,192,51743,1,0,0:0:0:0:
448,192,51818,1,0,0:0:0:0:
192,192,51892,1,0,0:0:0:0:
448,192,51967,1,0,0:0:0:0:
320,192,52004,1,0,0:0:0:0:
192,192,52041,1,0,0:0:0:0:
64,192,52079,1,0,0:0:0:0:
448,192,52116,1,0,0:0:0:0:
320,192,52153,1,0,0:0:0:0:
192,192,52191,1,0,0:0:0:0:
64,192,52228,1,0,0:0:0:0:
320,192,52265,1,0,0:0:0:0:
448,192,52265,1,0,0:0:0:0:
192,192,52340,1,0,0:0:0:0:
448,192,52415,1,0,0:0:0:0:
320,192,52489,1,0,0:0:0:0:
64,192,52564,1,0,0:0:0:0:
192,192,52601,1,0,0:0:0:0:
448,192,52638,1,0,0:0:0:0:
320,192,52676,1,0,0:0:0:0:
64,192,52713,1,0,0:0:0:0:
192,192,52750,1,0,0:0:0:0:
448,192,52788,1,0,0:0:0:0:
320,192,52825,1,0,0:0:0:0:
64,192,52862,1,0,0:0:0:0:
192,192,52862,1,0,0:0:0:0:
448,192,52937,1,0,0:0:0:0:
192,192,53012,1,0,0:0:0:0:
320,192,53086,1,0,0:0:0:0:
64,192,53161,1,0,0:0:0:0:
192,192,53198,1,0,0:0:0:0:
320,192,53235,1,0,0:0:0:0:
448,192,53273,1,0,0:0:0:0:
64,192,53310,1,0,0:0:0:0:
192,192,53347,1,0,0:0:0:0:
320,192,53385,1,0,0:0:0:0:
448,192,53422,1,0,0:0:0:0:
192,192,53459,1,0,0:0:0:0:
64,192,53459,1,0,0:0:0:0:
320,192,53534,1,0,0:0:0:0:
64,192,53609,1,0,0:0:0:0:
192,192,53683,1,0,0:0:0:0:
320,192,53758,1,0,0:0:0:0:
448,192,53758,1,0,0:0:0:0:
64,192,53832,1,0,0:0:0:0:
192,192,53907,1,0,0:0:0:0:
448,192,53982,1,0,0:0:0:0:
64,192,54056,1,0,0:0:0:0:
320,192,54056,1,0,0:0:0:0:
192,192,54131,1,0,0:0:0:0:
448,192,54206,1,0,0:0:0:0:
320,192,54280,1,0,0:0:0:0:
192,192,54355,1,0,0:0:0:0:
64,192,54355,1,0,0:0:0:0:
448,192,54429,1,0,0:0:0:0:
320,192,54504,1,0,0:0:0:0:
192,192,54579,1,0,0:0:0:0:
448,192,54653,1,0,0:0:0:0:
64,192,54653,1,0,0:0:0:0:
320,192,54728,1,0,0:0:0:0:
192,192,54803,1,0,0:0:0:0:
64,192,54877,1,0,0:0:0:0:
320,192,54952,1,0,0:0:0:0:
448,192,54952,1,0,0:0:0:0:
64,192,55026,1,0,0:0:0:0:
192,192,55101,1,0,0:0:0:0:
448,192,55176,1,0,0:0:0:0:
320,192,55250,1,0,0:0:0:0:
192,192,55250,1,0,0:0:0:0:
64,192,55325,1,0,0:0:0:0:
320,192,55400,1,0,0:0:0:0:
192,192,55474,1,0,0:0:0:0:
448,192,55549,1,0,0:0:0:0:
320,192,55549,1,0,0:0:0:0:
64,192,55623,1,0,0:0:0:0:
192,192,55698,1,0,0:0:0:0:
448,192,55773,1,0,0:0:0:0:
320,192,55847,1,0,0:0:0:0:
192,192,55847,1,0,0:0:0:0:
64,192,55922,1,0,0:0:0:0:
448,192,55997,1,0,0:0:0:0:
320,192,56071,1,0,0:0:0:0:
192,192,56146,1,0,0:0:0:0:
64,192,56146,1,0,0:0:0:0:
448,192,56295,1,0,0:0:0:0:
320,192,56295,1,0,0:0:0:0:
192,192,56444,1,0,0:0:0:0:
64,192,56444,1,0,0:0:0:0:
320,192,56594,1,0,0:0:0:0:
448,192,56594,1,0,0:0:0:0:
64,192,56743,1,0,0:0:0:0:
192,192,56743,1,0,0:0:0:0:
448,192,56892,1,0,0:0:0:0:
320,192,56892,1,0,0:0:0:0:
320,192,57191,128,0,57937:0:0:0:0:
64,192,57191,128,0,57937:0:0:0:0:
448,192,57489,1,0,0:0:0:0:
192,192,57564,1,0,0:0:0:0:
448,192,57638,1,0,0:0:0:0:
448,192,57937,128,0,58086:0:0:0:0:
320,192,58086,128,0,58235:0:0:0:0:
64,192,58235,1,0,0:0:0:0:
192,192,58235,128,0,58385:0:0:0:0:
320,192,58310,1,0,0:0:0:0:
448,192,58385,1,0,0:0:0:0:
64,192,58385,128,0,58534:0:0:0:0:
320,192,58459,1,0,0:0:0:0:
192,192,58534,1,0,0:0:0:0:
448,192,58534,128,0,58832:0:0:0:0:
320,192,58683,1,0,0:0:0:0:
64,192,58832,1,0,0:0:0:0:
192,192,58832,1,0,0:0:0:0:
320,192,58982,1,0,0:0:0:0:
448,192,59056,1,0,0:0:0:0:
64,192,59131,1,0,0:0:0:0:
192,192,59131,1,0,0:0:0:0:
448,192,59280,128,0,59429:0:0:0:0:
320,192,59280,1,0,0:0:0:0:
64,192,59429,1,0,0:0:0:0:
320,192,59429,1,0,0:0:0:0:
192,192,59579,128,0,59728:0:0:0:0:
448,192,59579,1,0,0:0:0:0:
64,192,59728,128,0,59877:0:0:0:0:
320,192,59728,1,0,0:0:0:0:
192,192,59877,128,0,60026:0:0:0:0:
320,192,60026,128,0,60176:0:0:0:0:
64,192,60026,1,0,0:0:0:0:
448,192,60176,128,0,60474:0:0:0:0:
64,192,60325,1,0,0:0:0:0:
320,192,60325,1,0,0:0:0:0:
192,192,60474,128,0,60623:0:0:0:0:
64,192,60623,128,0,60773:0:0:0:0:
320,192,60623,1,0,0:0:0:0:
320,192,60773,128,0,60922:0:0:0:0:
192,192,60922,128,0,61220:0:0:0:0:
448,192,60922,1,0,0:0:0:0:
320,192,61071,1,0,0:0:0:0:
64,192,61220,1,0,0:0:0:0:
448,192,61220,1,0,0:0:0:0:
448,192,61370,1,0,0:0:0:0:
64,192,61444,1,0,0:0:0:0:
192,192,61519,1,0,0:0:0:0:
320,192,61519,1,0,0:0:0:0:
448,192,61668,1,0,0:0:0:0:
64,192,61818,128,0,63161:0:0:0:0:
192,192,61818,1,0,0:0:0:0:
448,192,61967,1,0,0:0:0:0:
192,192,62116,128,0,62415:0:0:0:0:
320,192,62116,1,0,0:0:0:0:
448,192,62265,1,0,0:0:0:0:
320,192,62415,1,0,0:0:0:0:
448,192,62415,128,0,62564:0:0:0:0:
320,192,62564,128,0,62862:0:0:0:0:
192,192,62564,1,0,0:0:0:0:
192,192,62713,1,0,0:0:0:0:
192,192,62862,128,0,63161:0:0:0:0:
448,192,62862,1,0,0:0:0:0:
320,192,63012,1,0,0:0:0:0:
448,192,63161,128,0,63310:0:0:0:0:
64,192,63310,128,0,63609:0:0:0:0:
192,192,63310,1,0,0:0:0:0:
320,192,63459,1,0,0:0:0:0:
448,192,63609,1,0,0:0:0:0:
192,192,63609,1,0,0:0:0:0:
320,192,63758,1,0,0:0:0:0:
448,192,63832,1,0,0:0:0:0:
64,192,63907,1,0,0:0:0:0:
192,192,63907,1,0,0:0:0:0:
320,192,64056,1,0,0:0:0:0:
448,192,64206,1,0,0:0:0:0:
64,192,64206,1,0,0:0:0:0:
192,192,64355,1,0,0:0:0:0:
448,192,64504,1,0,0:0:0:0:
320,192,64504,1,0,0:0:0:0:
320,192,64653,1,0,0:0:0:0:
192,192,64728,1,0,0:0:0:0:
64,192,64803,128,0,65101:0:0:0:0:
448,192,64803,1,0,0:0:0:0:
320,192,64952,1,0,0:0:0:0:
192,192,65101,128,0,65250:0:0:0:0:
448,192,65101,1,0,0:0:0:0:
320,192,65250,128,0,65400:0:0:0:0:
448,192,65400,1,0,0:0:0:0:
64,192,65400,128,0,65549:0:0:0:0:
192,192,65549,128,0,65698:0:0:0:0:
448,192,65698,128,0,65997:0:0:0:0:
64,192,65698,1,0,0:0:0:0:
320,192,65847,1,0,0:0:0:0:
64,192,65997,1,0,0:0:0:0:
320,192,65997,1,0,0:0:0:0:
192,192,66146,1,0,0:0:0:0:
64,192,66220,1,0,0:0:0:0:
320,192,66295,128,0,66519:0:0:0:0:
192,192,66295,1,0,0:0:0:0:
448,192,66444,1,0,0:0:0:0:
192,192,66519,128,0,66743:0:0:0:0:
448,192,66594,1,0,0:0:0:0:
64,192,66594,1,0,0:0:0:0:
320,192,66743,1,0,0:0:0:0:
64,192,66743,128,0,66892:0:0:0:0:
192,192,66892,128,0,67191:0:0:0:0:
448,192,66892,1,0,0:0:0:0:
64,192,67041,1,0,0:0:0:0:
320,192,67041,1,0,0:0:0:0:
320,192,67191,128,0,67489:0:0:0:0:
448,192,67191,1,0,0:0:0:0:
64,192,67340,1,0,0:0:0:0:
192,192,67340,1,0,0:0:0:0:
192,192,67489,128,0,67788:0:0:0:0:
448,192,67489,1,0,0:0:0:0:
320,192,67638,1,0,0:0:0:0:
448,192,67638,1,0,0:0:0:0:
64,192,67713,1,0,0:0:0:0:
320,192,67788,128,0,68086:0:0:0:0:
448,192,67788,1,0,0:0:0:0:
192,192,67937,1,0,0:0:0:0:
64,192,67937,1,0,0:0:0:0:
64,192,68086,1,0,0:0:0:0:
448,192,68086,128,0,68235:0:0:0:0:
192,192,68235,1,0,0:0:0:0:
320,192,68310,128,0,68459:0:0:0:0:
448,192,68385,1,0,0:0:0:0:
64,192,68385,1,0,0:0:0:0:
448,192,68534,1,0,0:0:0:0:
192,192,68683,1,0,0:0:0:0:
64,192,68683,1,0,0:0:0:0:
448,192,68832,1,0,0:0:0:0:
320,192,68982,1,0,0:0:0:0:
64,192,68982,1,0,0:0:0:0:
448,192,69131,1,0,0:0:0:0:
64,192,69280,128,0,69429:0:0:0:0:
448,192,69280,1,0,0:0:0:0:
192,192,69280,1,0,0:0:0:0:
320,192,69429,1,0,0:0:0:0:
192,192,69504,128,0,69653:0:0:0:0:
448,192,69579,1,0,0:0:0:0:
320,192,69579,1,0,0:0:0:0:
64,192,69728,1,0,0:0:0:0:
320,192,69877,1,0,0:0:0:0:
448,192,69877,1,0,0:0:0:0:
64,192,70026,1,0,0:0:0:0:
448,192,70176,1,0,0:0:0:0:
192,192,70176,1,0,0:0:0:0:
320,192,70325,1,0,0:0:0:0:
448,192,70474,128,0,70623:0:0:0:0:
64,192,70623,1,0,0:0:0:0:
192,192,70698,128,0,70847:0:0:0:0:
320,192,70773,1,0,0:0:0:0:
448,192,70773,1,0,0:0:0:0:
64,192,70922,1,0,0:0:0:0:
192,192,71071,1,0,0:0:0:0:
448,192,71071,1,0,0:0:0:0:
320,192,71220,1,0,0:0:0:0:
448,192,71370,1,0,0:0:0:0:
64,192,71370,1,0,0:0:0:0:
320,192,71519,1,0,0:0:0:0:
192,192,71668,128,0,72116:0:0:0:0:
64,192,71668,1,0,0:0:0:0:
448,192,71818,1,0,0:0:0:0:
64,192,71967,1,0,0:0:0:0:
320,192,71967,1,0,0:0:0:0:
448,192,72116,1,0,0:0:0:0:
320,192,72191,1,0,0:0:0:0:
192,192,72265,1,0,0:0:0:0:
64,192,72265,1,0,0:0:0:0:
320,192,72340,1,0,0:0:0:0:
64,192,72415,1,0,0:0:0:0:
448,192,72489,1,0,0:0:0:0:
192,192,72564,1,0,0:0:0:0:
320,192,72564,1,0,0:0:0:0:
64,192,72638,1,0,0:0:0:0:
448,192,72713,1,0,0:0:0:0:
320,192,72788,1,0,0:0:0:0:
64,192,72862,128,0,73086:0:0:0:0:
192,192,72862,1,0,0:0:0:0:
448,192,73012,1,0,0:0:0:0:
192,192,73086,128,0,73310:0:0:0:0:
320,192,73161,1,0,0:0:0:0:
448,192,73161,1,0,0:0:0:0:
64,192,73310,1,0,0:0:0:0:
64,192,73459,1,0,0:0:0:0:
448,192,73459,1,0,0:0:0:0:
192,192,73609,1,0,0:0:0:0:
448,192,73758,1,0,0:0:0:0:
320,192,73758,1,0,0:0:0:0:
192,192,73907,1,0,0:0:0:0:
448,192,74056,1,0,0:0:0:0:
320,192,74056,1,0,0:0:0:0:
320,192,74206,1,0,0:0:0:0:
192,192,74206,1,0,0:0:0:0:
192,192,74355,1,0,0:0:0:0:
64,192,74355,1,0,0:0:0:0:
64,192,74504,1,0,0:0:0:0:
448,192,74504,1,0,0:0:0:0:
448,192,74803,128,0,75101:0:0:0:0:
64,192,75101,1,0,0:0:0:0:
192,192,75101,1,0,0:0:0:0:
320,192,75176,1,0,0:0:0:0:
448,192,75176,1,0,0:0:0:0:
192,192,75250,128,0,75698:0:0:0:0:
64,192,75250,1,0,0:0:0:0:
320,192,75400,1,0,0:0:0:0:
448,192,75549,1,0,0:0:0:0:
64,192,75698,128,0,75847:0:0:0:0:
320,192,75698,1,0,0:0:0:0:
192,192,75847,128,0,75997:0:0:0:0:
448,192,75847,1,0,0:0:0:0:
320,192,75997,128,0,76146:0:0:0:0:
64,192,75997,1,0,0:0:0:0:
448,192,76146,128,0,76295:0:0:0:0:
192,192,76146,1,0,0:0:0:0:
320,192,76295,128,0,76444:0:0:0:0:
64,192,76444,1,0,0:0:0:0:
448,192,76444,1,0,0:0:0:0:
192,192,76519,1,0,0:0:0:0:
64,192,76594,1,0,0:0:0:0:
320,192,76594,1,0,0:0:0:0:
448,192,76668,1,0,0:0:0:0:
192,192,76743,1,0,0:0:0:0:
64,192,76743,1,0,0:0:0:0:
320,192,76818,1,0,0:0:0:0:
192,192,76892,1,0,0:0:0:0:
448,192,76892,1,0,0:0:0:0:
64,192,76967,1,0,0:0:0:0:
320,192,77041,1,0,0:0:0:0:
448,192,77041,1,0,0:0:0:0:
192,192,77116,1,0,0:0:0:0:
448,192,77191,1,0,0:0:0:0:
64,192,77191,1,0,0:0:0:0:
320,192,77265,1,0,0:0:0:0:
192,192,77340,1,0,0:0:0:0:
64,192,77340,1,0,0:0:0:0:
320,192,77415,1,0,0:0:0:0:
448,192,77489,1,0,0:0:0:0:
64,192,77489,1,0,0:0:0:0:
192,192,77564,1,0,0:0:0:0:
320,192,77638,128,0,78832:0:0:0:0:
64,192,77638,1,0,0:0:0:0:
448,192,77638,1,0,0:0:0:0:
448,192,78683,1,0,0:0:0:0:
192,192,78758,1,0,0:0:0:0:
64,192,78832,128,0,79579:0:0:0:0:
448,192,78832,1,0,0:0:0:0:
448,192,78982,1,0,0:0:0:0:
320,192,79056,1,0,0:0:0:0:
192,192,79131,1,0,0:0:0:0:
192,192,79280,1,0,0:0:0:0:
448,192,79355,1,0,0:0:0:0:
192,192,79429,1,0,0:0:0:0:
320,192,79429,1,0,0:0:0:0:
192,192,79728,1,0,0:0:0:0:
320,192,79728,1,0,0:0:0:0:
448,192,79803,1,0,0:0:0:0:
320,192,79877,1,0,0:0:0:0:
192,192,79952,1,0,0:0:0:0:
64,192,80026,1,0,0:0:0:0:
448,192,80026,1,0,0:0:0:0:
192,192,80101,1,0,0:0:0:0:
320,192,80176,1,0,0:0:0:0:
192,192,80250,1,0,0:0:0:0:
448,192,80325,128,0,80474:0:0:0:0:
64,192,80325,1,0,0:0:0:0:
320,192,80400,1,0,0:0:0:0:
192,192,80474,1,0,0:0:0:0:
64,192,80549,1,0,0:0:0:0:
448,192,80623,1,0,0:0:0:0:
320,192,80623,1,0,0:0:0:0:
192,192,80698,1,0,0:0:0:0:
448,192,80773,128,0,80922:0:0:0:0:
64,192,80773,1,0,0:0:0:0:
320,192,80847,1,0,0:0:0:0:
192,192,80922,1,0,0:0:0:0:
64,192,80922,1,0,0:0:0:0:
320,192,80997,1,0,0:0:0:0:
448,192,81071,1,0,0:0:0:0:
192,192,81146,1,0,0:0:0:0:
64,192,81220,1,0,0:0:0:0:
320,192,81220,1,0,0:0:0:0:
192,192,81295,1,0,0:0:0:0:
448,192,81370,1,0,0:0:0:0:
320,192,81444,1,0,0:0:0:0:
192,192,81519,1,0,0:0:0:0:
64,192,81519,128,0,81668:0:0:0:0:
448,192,81594,1,0,0:0:0:0:
320,192,81668,1,0,0:0:0:0:
192,192,81743,1,0,0:0:0:0:
448,192,81818,1,0,0:0:0:0:
64,192,81818,1,0,0:0:0:0:
192,192,81892,1,0,0:0:0:0:
320,192,81967,1,0,0:0:0:0:
64,192,82041,1,0,0:0:0:0:
192,192,82116,1,0,0:0:0:0:
448,192,82116,1,0,0:0:0:0:
320,192,82191,1,0,0:0:0:0:
192,192,82265,1,0,0:0:0:0:
448,192,82340,1,0,0:0:0:0:
320,192,82415,128,0,82564:0:0:0:0:
64,192,82415,1,0,0:0:0:0:
192,192,82489,1,0,0:0:0:0:
448,192,82564,1,0,0:0:0:0:
64,192,82713,1,0,0:0:0:0:
192,192,82713,1,0,0:0:0:0:
320,192,82862,128,0,83012:0:0:0:0:
64,192,83012,1,0,0:0:0:0:
448,192,83012,1,0,0:0:0:0:
64,192,83161,1,0,0:0:0:0:
192,192,83310,1,0,0:0:0:0:
448,192,83310,1,0,0:0:0:0:
64,192,83385,1,0,0:0:0:0:
320,192,83459,1,0,0:0:0:0:
448,192,83534,1,0,0:0:0:0:
192,192,83609,1,0,0:0:0:0:
320,192,83609,1,0,0:0:0:0:
64,192,83683,1,0,0:0:0:0:
448,192,83758,1,0,0:0:0:0:
320,192,83832,1,0,0:0:0:0:
192,192,83907,1,0,0:0:0:0:
448,192,83907,1,0,0:0:0:0:
64,192,83982,1,0,0:0:0:0:
448,192,84056,1,0,0:0:0:0:
320,192,84131,1,0,0:0:0:0:
192,192,84206,128,0,84504:0:0:0:0:
64,192,84206,1,0,0:0:0:0:
320,192,84355,1,0,0:0:0:0:
448,192,84504,1,0,0:0:0:0:
64,192,84504,1,0,0:0:0:0:
320,192,84579,1,0,0:0:0:0:
192,192,84653,1,0,0:0:0:0:
64,192,84728,1,0,0:0:0:0:
192,192,84803,1,0,0:0:0:0:
448,192,84803,1,0,0:0:0:0:
320,192,84877,1,0,0:0:0:0:
192,192,84952,1,0,0:0:0:0:
64,192,85026,1,0,0:0:0:0:
320,192,85101,1,0,0:0:0:0:
192,192,85101,1,0,0:0:0:0:
448,192,85176,1,0,0:0:0:0:
64,192,85250,1,0,0:0:0:0:
320,192,85325,1,0,0:0:0:0:
192,192,85400,1,0,0:0:0:0:
64,192,85400,128,0,85549:0:0:0:0:
448,192,85474,1,0,0:0:0:0:
320,192,85549,1,0,0:0:0:0:
192,192,85623,1,0,0:0:0:0:
64,192,85698,1,0,0:0:0:0:
448,192,85698,1,0,0:0:0:0:
192,192,85773,1,0,0:0:0:0:
320,192,85847,1,0,0:0:0:0:
448,192,85922,1,0,0:0:0:0:
192,192,85997,1,0,0:0:0:0:
320,192,85997,1,0,0:0:0:0:
64,192,86071,1,0,0:0:0:0:
192,192,86146,1,0,0:0:0:0:
320,192,86220,1,0,0:0:0:0:
448,192,86295,1,0,0:0:0:0:
192,192,86295,1,0,0:0:0:0:
64,192,86370,1,0,0:0:0:0:
448,192,86444,1,0,0:0:0:0:
320,192,86519,1,0,0:0:0:0:
192,192,86594,1,0,0:0:0:0:
64,192,86594,128,0,86743:0:0:0:0:
448,192,86668,1,0,0:0:0:0:
320,192,86743,1,0,0:0:0:0:
192,192,86818,1,0,0:0:0:0:
320,192,86892,1,0,0:0:0:0:
64,192,86892,1,0,0:0:0:0:
448,192,86967,1,0,0:0:0:0:
320,192,87041,1,0,0:0:0:0:
192,192,87116,1,0,0:0:0:0:
64,192,87191,128,0,87340:0:0:0:0:
448,192,87191,1,0,0:0:0:0:
192,192,87340,1,0,0:0:0:0:
320,192,87489,1,0,0:0:0:0:
448,192,87489,1,0,0:0:0:0:
192,192,87638,128,0,87788:0:0:0:0:
64,192,87638,1,0,0:0:0:0:
448,192,87788,1,0,0:0:0:0:
64,192,87788,1,0,0:0:0:0:
320,192,87937,1,0,0:0:0:0:
320,192,88086,128,0,88235:0:0:0:0:
64,192,88086,1,0,0:0:0:0:
448,192,88235,1,0,0:0:0:0:
192,192,88235,1,0,0:0:0:0:
448,192,88385,1,0,0:0:0:0:
64,192,88385,1,0,0:0:0:0:
448,192,88534,128,0,88683:0:0:0:0:
320,192,88534,1,0,0:0:0:0:
64,192,88683,1,0,0:0:0:0:
192,192,88683,1,0,0:0:0:0:
320,192,88832,1,0,0:0:0:0:
64,192,88982,1,0,0:0:0:0:
448,192,88982,1,0,0:0:0:0:
320,192,89056,1,0,0:0:0:0:
192,192,89131,1,0,0:0:0:0:
448,192,89131,1,0,0:0:0:0:
64,192,89206,1,0,0:0:0:0:
320,192,89280,1,0,0:0:0:0:
448,192,89280,1,0,0:0:0:0:
192,192,89355,1,0,0:0:0:0:
448,192,89429,1,0,0:0:0:0:
64,192,89429,1,0,0:0:0:0:
320,192,89504,1,0,0:0:0:0:
192,192,89579,1,0,0:0:0:0:
64,192,89579,1,0,0:0:0:0:
448,192,89653,1,0,0:0:0:0:
192,192,89728,1,0,0:0:0:0:
64,192,89803,1,0,0:0:0:0:
448,192,89877,1,0,0:0:0:0:
320,192,89877,1,0,0:0:0:0:
192,192,89952,1,0,0:0:0:0:
448,192,90026,1,0,0:0:0:0:
64,192,90101,1,0,0:0:0:0:
192,192,90176,1,0,0:0:0:0:
320,192,90176,1,0,0:0:0:0:
448,192,90250,1,0,0:0:0:0:
64,192,90325,1,0,0:0:0:0:
192,192,90400,1,0,0:0:0:0:
448,192,90474,1,0,0:0:0:0:
64,192,90474,1,0,0:0:0:0:
320,192,90549,1,0,0:0:0:0:
192,192,90623,1,0,0:0:0:0:
64,192,90698,1,0,0:0:0:0:
448,192,90773,1,0,0:0:0:0:
320,192,90773,1,0,0:0:0:0:
64,192,90847,1,0,0:0:0:0:
320,192,90922,1,0,0:0:0:0:
192,192,90997,1,0,0:0:0:0:
64,192,91071,1,0,0:0:0:0:
448,192,91071,1,0,0:0:0:0:
320,192,91146,1,0,0:0:0:0:
192,192,91220,1,0,0:0:0:0:
64,192,91295,1,0,0:0:0:0:
320,192,91370,1,0,0:0:0:0:
192,192,91370,128,0,91519:0:0:0:0:
448,192,91444,1,0,0:0:0:0:
64,192,91519,1,0,0:0:0:0:
320,192,91594,1,0,0:0:0:0:
192,192,91668,1,0,0:0:0:0:
448,192,91668,1,0,0:0:0:0:
64,192,91743,1,0,0:0:0:0:
192,192,91818,1,0,0:0:0:0:
320,192,91892,1,0,0:0:0:0:
448,192,91967,1,0,0:0:0:0:
64,192,91967,1,0,0:0:0:0:
192,192,92041,1,0,0:0:0:0:
64,192,92116,1,0,0:0:0:0:
448,192,92191,1,0,0:0:0:0:
192,192,92265,1,0,0:0:0:0:
320,192,92265,1,0,0:0:0:0:
448,192,92340,1,0,0:0:0:0:
64,192,92415,1,0,0:0:0:0:
320,192,92489,1,0,0:0:0:0:
448,192,92564,1,0,0:0:0:0:
192,192,92564,1,0,0:0:0:0:
64,192,92638,1,0,0:0:0:0:
192,192,92713,1,0,0:0:0:0:
320,192,92788,1,0,0:0:0:0:
192,192,92862,128,0,93012:0:0:0:0:
448,192,92862,1,0,0:0:0:0:
64,192,93012,1,0,0:0:0:0:
320,192,93086,1,0,0:0:0:0:
448,192,93161,1,0,0:0:0:0:
64,192,93161,1,0,0:0:0:0:
192,192,93235,1,0,0:0:0:0:
320,192,93310,1,0,0:0:0:0:
448,192,93385,1,0,0:0:0:0:
64,192,93459,1,0,0:0:0:0:
192,192,93459,1,0,0:0:0:0:
320,192,93534,1,0,0:0:0:0:
448,192,93609,1,0,0:0:0:0:
64,192,93683,1,0,0:0:0:0:
192,192,93758,1,0,0:0:0:0:
448,192,93758,1,0,0:0:0:0:
320,192,93832,1,0,0:0:0:0:
64,192,93907,1,0,0:0:0:0:
192,192,93982,1,0,0:0:0:0:
320,192,94056,1,0,0:0:0:0:
448,192,94056,1,0,0:0:0:0:
192,192,94131,1,0,0:0:0:0:
320,192,94206,1,0,0:0:0:0:
448,192,94280,1,0,0:0:0:0:
320,192,94355,128,0,94504:0:0:0:0:
64,192,94355,1,0,0:0:0:0:
192,192,94504,1,0,0:0:0:0:
448,192,94579,1,0,0:0:0:0:
192,192,94653,1,0,0:0:0:0:
320,192,94653,1,0,0:0:0:0:
64,192,94728,1,0,0:0:0:0:
448,192,94803,128,0,94952:0:0:0:0:
192,192,94952,1,0,0:0:0:0:
64,192,94952,1,0,0:0:0:0:
320,192,95026,1,0,0:0:0:0:
192,192,95101,1,0,0:0:0:0:
64,192,95176,1,0,0:0:0:0:
448,192,95250,1,0,0:0:0:0:
192,192,95250,1,0,0:0:0:0:
320,192,95325,1,0,0:0:0:0:
192,192,95400,1,0,0:0:0:0:
64,192,95474,1,0,0:0:0:0:
448,192,95549,1,0,0:0:0:0:
320,192,95549,1,0,0:0:0:0:
192,192,95623,1,0,0:0:0:0:
64,192,95698,1,0,0:0:0:0:
320,192,95773,1,0,0:0:0:0:
448,192,95847,1,0,0:0:0:0:
64,192,95847,1,0,0:0:0:0:
192,192,95922,1,0,0:0:0:0:
448,192,95997,1,0,0:0:0:0:
320,192,96071,1,0,0:0:0:0:
64,192,96146,1,0,0:0:0:0:
192,192,96146,1,0,0:0:0:0:
320,192,96220,1,0,0:0:0:0:
192,192,96295,1,0,0:0:0:0:
64,192,96370,1,0,0:0:0:0:
192,192,96444,1,0,0:0:0:0:
448,192,96444,1,0,0:0:0:0:
320,192,96519,1,0,0:0:0:0:
64,192,96594,1,0,0:0:0:0:
448,192,96668,1,0,0:0:0:0:
192,192,96743,5,0,0:0:0:0:
320,192,96743,1,0,0:0:0:0:
192,192,96892,1,0,0:0:0:0:
64,192,96892,1,0,0:0:0:0:
448,192,97041,1,0,0:0:0:0:
320,192,97041,1,0,0:0:0:0:
192,192,97191,1,0,0:0:0:0:
64,192,97191,1,0,0:0:0:0:
320,192,97340,1,0,0:0:0:0:
448,192,97340,1,0,0:0:0:0:
320,192,97489,1,0,0:0:0:0:
192,192,97489,1,0,0:0:0:0:
64,192,97788,128,0,98534:0:0:0:0:
320,192,97788,128,0,98534:0:0:0:0:
192,192,98086,1,0,0:0:0:0:
448,192,98161,1,0,0:0:0:0:
192,192,98235,1,0,0:0:0:0:
448,192,98534,128,0,98683:0:0:0:0:
320,192,98683,128,0,98832:0:0:0:0:
64,192,98832,128,0,98907:0:0:0:0:
448,192,98907,128,0,98982:0:0:0:0:
192,192,98982,128,0,99056:0:0:0:0:
320,192,99056,128,0,99131:0:0:0:0:
448,192,99131,128,0,99429:0:0:0:0:
64,192,99131,1,0,0:0:0:0:
192,192,99131,1,0,0:0:0:0:
320,192,99579,128,0,99653:0:0:0:0:
192,192,99653,128,0,99728:0:0:0:0:
320,192,99728,128,0,99877:0:0:0:0:
448,192,99728,1,0,0:0:0:0:
64,192,99728,1,0,0:0:0:0:
64,192,99877,128,0,100026:0:0:0:0:
320,192,100176,128,0,100250:0:0:0:0:
192,192,100325,128,0,100400:0:0:0:0:
64,192,100474,128,0,100549:0:0:0:0:
320,192,100623,128,0,100773:0:0:0:0:
448,192,100773,128,0,101071:0:0:0:0:
192,192,100922,1,0,0:0:0:0:
64,192,100922,1,0,0:0:0:0:
320,192,101071,128,0,101146:0:0:0:0:
192,192,101220,128,0,101295:0:0:0:0:
192,192,101370,128,0,101519:0:0:0:0:
64,192,101519,128,0,101818:0:0:0:0:
192,192,101967,128,0,102041:0:0:0:0:
320,192,102041,128,0,102116:0:0:0:0:
192,192,102116,128,0,102191:0:0:0:0:
448,192,102116,1,0,0:0:0:0:
64,192,102116,1,0,0:0:0:0:
448,192,102265,128,0,102340:0:0:0:0:
64,192,102415,128,0,102713:0:0:0:0:
192,192,102713,128,0,103012:0:0:0:0:
320,192,103012,128,0,103161:0:0:0:0:
448,192,103161,128,0,103459:0:0:0:0:
64,192,103310,1,0,0:0:0:0:
320,192,103310,1,0,0:0:0:0:
320,192,103459,128,0,103758:0:0:0:0:
192,192,103758,128,0,103907:0:0:0:0:
64,192,103907,128,0,104206:0:0:0:0:
192,192,104355,128,0,104429:0:0:0:0:
320,192,104429,128,0,104504:0:0:0:0:
192,192,104504,128,0,104579:0:0:0:0:
448,192,104504,1,0,0:0:0:0:
64,192,104504,1,0,0:0:0:0:
320,192,104653,128,0,104728:0:0:0:0:
448,192,104803,128,0,104877:0:0:0:0:
320,192,104952,128,0,105026:0:0:0:0:
448,192,105101,128,0,105176:0:0:0:0:
320,192,105250,128,0,105325:0:0:0:0:
64,192,105325,128,0,105400:0:0:0:0:
320,192,105400,128,0,105623:0:0:0:0:
192,192,105698,128,0,105773:0:0:0:0:
448,192,105698,1,0,0:0:0:0:
64,192,105698,1,0,0:0:0:0:
64,192,105847,128,0,105922:0:0:0:0:
192,192,105997,128,0,106071:0:0:0:0:
320,192,106146,128,0,106295:0:0:0:0:
448,192,106295,128,0,106594:0:0:0:0:
448,192,106743,128,0,106818:0:0:0:0:
320,192,106818,128,0,106892:0:0:0:0:
192,192,106892,128,0,107116:0:0:0:0:
448,192,106892,1,0,0:0:0:0:
64,192,106892,1,0,0:0:0:0:
64,192,107116,128,0,107340:0:0:0:0:
192,192,107340,128,0,107489:0:0:0:0:
320,192,107489,128,0,107638:0:0:0:0:
448,192,107489,128,0,107788:0:0:0:0:
192,192,107788,128,0,108086:0:0:0:0:
320,192,107788,128,0,107937:0:0:0:0:
64,192,108086,128,0,108235:0:0:0:0:
448,192,108086,128,0,108385:0:0:0:0:
64,192,108385,128,0,108683:0:0:0:0:
192,192,108385,128,0,108534:0:0:0:0:
448,192,108683,1,0,0:0:0:0:
192,192,108683,128,0,108832:0:0:0:0:
320,192,108832,1,0,0:0:0:0:
448,192,108907,128,0,109131:0:0:0:0:
192,192,108982,1,0,0:0:0:0:
64,192,109131,1,0,0:0:0:0:
320,192,109131,1,0,0:0:0:0:
448,192,109280,1,0,0:0:0:0:
192,192,109280,1,0,0:0:0:0:
320,192,109429,1,0,0:0:0:0:
448,192,109579,1,0,0:0:0:0:
64,192,109728,1,0,0:0:0:0:
320,192,109728,1,0,0:0:0:0:
448,192,109877,1,0,0:0:0:0:
64,192,109877,128,0,110026:0:0:0:0:
320,192,110026,1,0,0:0:0:0:
448,192,110026,1,0,0:0:0:0:
192,192,110101,128,0,110325:0:0:0:0:
64,192,110176,1,0,0:0:0:0:
320,192,110176,1,0,0:0:0:0:
448,192,110325,1,0,0:0:0:0:
192,192,110474,1,0,0:0:0:0:
448,192,110474,1,0,0:0:0:0:
64,192,110623,1,0,0:0:0:0:
192,192,110773,1,0,0:0:0:0:
448,192,110922,1,0,0:0:0:0:
320,192,110922,1,0,0:0:0:0:
192,192,111071,1,0,0:0:0:0:
64,192,111071,128,0,111220:0:0:0:0:
448,192,111220,1,0,0:0:0:0:
320,192,111295,128,0,111519:0:0:0:0:
192,192,111370,1,0,0:0:0:0:
64,192,111519,1,0,0:0:0:0:
448,192,111519,128,0,111668:0:0:0:0:
192,192,111668,1,0,0:0:0:0:
320,192,111668,128,0,111818:0:0:0:0:
64,192,111818,128,0,111967:0:0:0:0:
192,192,111818,1,0,0:0:0:0:
192,192,111967,128,0,112116:0:0:0:0:
448,192,111967,1,0,0:0:0:0:
320,192,112116,128,0,112265:0:0:0:0:
64,192,112116,1,0,0:0:0:0:
448,192,112116,1,0,0:0:0:0:
448,192,112265,128,0,112713:0:0:0:0:
192,192,112265,1,0,0:0:0:0:
64,192,112415,1,0,0:0:0:0:
320,192,112415,1,0,0:0:0:0:
64,192,112564,1,0,0:0:0:0:
192,192,112564,1,0,0:0:0:0:
320,192,112713,1,0,0:0:0:0:
64,192,112788,1,0,0:0:0:0:
320,192,112862,1,0,0:0:0:0:
192,192,112862,1,0,0:0:0:0:
448,192,112937,1,0,0:0:0:0:
64,192,113012,1,0,0:0:0:0:
192,192,113086,1,0,0:0:0:0:
320,192,113161,1,0,0:0:0:0:
448,192,113161,1,0,0:0:0:0:
64,192,113235,1,0,0:0:0:0:
192,192,113310,1,0,0:0:0:0:
448,192,113310,1,0,0:0:0:0:
320,192,113385,1,0,0:0:0:0:
192,192,113459,128,0,113683:0:0:0:0:
64,192,113459,1,0,0:0:0:0:
448,192,113459,1,0,0:0:0:0:
320,192,113609,1,0,0:0:0:0:
64,192,113683,128,0,113907:0:0:0:0:
448,192,113758,1,0,0:0:0:0:
320,192,113758,1,0,0:0:0:0:
192,192,113907,1,0,0:0:0:0:
320,192,114056,1,0,0:0:0:0:
64,192,114056,1,0,0:0:0:0:
192,192,114206,1,0,0:0:0:0:
448,192,114355,1,0,0:0:0:0:
320,192,114355,1,0,0:0:0:0:
320,192,114504,1,0,0:0:0:0:
64,192,114653,1,0,0:0:0:0:
448,192,114653,1,0,0:0:0:0:
448,192,114803,1,0,0:0:0:0:
64,192,114803,1,0,0:0:0:0:
192,192,114952,1,0,0:0:0:0:
320,192,114952,1,0,0:0:0:0:
64,192,115101,1,0,0:0:0:0:
448,192,115101,1,0,0:0:0:0:
192,192,115250,1,0,0:0:0:0:
64,192,115250,1,0,0:0:0:0:
448,192,115400,128,0,115474:0:0:0:0:
64,192,115549,1,0,0:0:0:0:
320,192,115549,1,0,0:0:0:0:
192,192,115698,1,0,0:0:0:0:
320,192,115773,1,0,0:0:0:0:
448,192,115847,1,0,0:0:0:0:
64,192,115847,1,0,0:0:0:0:
320,192,115997,1,0,0:0:0:0:
448,192,115997,1,0,0:0:0:0:
192,192,116146,1,0,0:0:0:0:
320,192,116146,1,0,0:0:0:0:
64,192,116295,1,0,0:0:0:0:
192,192,116295,1,0,0:0:0:0:
448,192,116370,1,0,0:0:0:0:
64,192,116444,1,0,0:0:0:0:
320,192,116444,1,0,0:0:0:0:
320,192,116594,1,0,0:0:0:0:
192,192,116594,1,0,0:0:0:0:
448,192,116743,1,0,0:0:0:0:
64,192,116743,1,0,0:0:0:0:
320,192,116892,1,0,0:0:0:0:
192,192,116892,1,0,0:0:0:0:
448,192,117041,1,0,0:0:0:0:
320,192,117116,1,0,0:0:0:0:
192,192,117191,1,0,0:0:0:0:
64,192,117265,1,0,0:0:0:0:
448,192,117340,1,0,0:0:0:0:
320,192,117415,1,0,0:0:0:0:
192,192,117489,1,0,0:0:0:0:
64,192,117564,1,0,0:0:0:0:
448,192,117638,128,0,117788:0:0:0:0:
320,192,117638,1,0,0:0:0:0:
192,192,117862,1,0,0:0:0:0:
64,192,117862,1,0,0:0:0:0:
448,192,117937,1,0,0:0:0:0:
320,192,117937,1,0,0:0:0:0:
64,192,118012,1,0,0:0:0:0:
448,192,118086,1,0,0:0:0:0:
192,192,118086,1,0,0:0:0:0:
64,192,118161,1,0,0:0:0:0:
448,192,118235,128,0,118534:0:0:0:0:
320,192,118235,1,0,0:0:0:0:
192,192,118534,1,0,0:0:0:0:
64,192,118534,1,0,0:0:0:0:
320,192,118534,1,0,0:0:0:0:
448,192,118683,1,0,0:0:0:0:
320,192,118758,1,0,0:0:0:0:
64,192,118832,1,0,0:0:0:0:
448,192,118832,1,0,0:0:0:0:
192,192,118982,128,0,119131:0:0:0:0:
320,192,118982,1,0,0:0:0:0:
64,192,119131,1,0,0:0:0:0:
448,192,119131,1,0,0:0:0:0:
448,192,119280,128,0,119429:0:0:0:0:
320,192,119280,1,0,0:0:0:0:
192,192,119429,128,0,119579:0:0:0:0:
320,192,119429,1,0,0:0:0:0:
64,192,119579,128,0,119728:0:0:0:0:
192,192,119728,128,0,119877:0:0:0:0:
320,192,119728,1,0,0:0:0:0:
320,192,119877,128,0,120176:0:0:0:0:
64,192,120026,1,0,0:0:0:0:
448,192,120026,1,0,0:0:0:0:
192,192,120176,128,0,120325:0:0:0:0:
64,192,120325,128,0,120474:0:0:0:0:
320,192,120325,1,0,0:0:0:0:
448,192,120474,128,0,120623:0:0:0:0:
192,192,120623,128,0,120922:0:0:0:0:
320,192,120623,1,0,0:0:0:0:
64,192,120773,1,0,0:0:0:0:
320,192,120922,1,0,0:0:0:0:
448,192,120922,1,0,0:0:0:0:
448,192,121071,1,0,0:0:0:0:
192,192,121146,1,0,0:0:0:0:
64,192,121220,1,0,0:0:0:0:
320,192,121220,1,0,0:0:0:0:
448,192,121370,1,0,0:0:0:0:
64,192,121519,128,0,122862:0:0:0:0:
192,192,121519,1,0,0:0:0:0:
448,192,121668,1,0,0:0:0:0:
320,192,121818,128,0,122116:0:0:0:0:
192,192,121818,1,0,0:0:0:0:
448,192,121967,1,0,0:0:0:0:
192,192,122116,1,0,0:0:0:0:
448,192,122116,128,0,122265:0:0:0:0:
192,192,122265,128,0,122564:0:0:0:0:
320,192,122265,1,0,0:0:0:0:
320,192,122415,1,0,0:0:0:0:
320,192,122564,128,0,122862:0:0:0:0:
448,192,122564,1,0,0:0:0:0:
192,192,122713,1,0,0:0:0:0:
448,192,122862,128,0,123012:0:0:0:0:
192,192,123012,128,0,123310:0:0:0:0:
64,192,123012,1,0,0:0:0:0:
320,192,123161,1,0,0:0:0:0:
448,192,123310,1,0,0:0:0:0:
64,192,123310,1,0,0:0:0:0:
448,192,123459,1,0,0:0:0:0:
320,192,123534,1,0,0:0:0:0:
64,192,123609,1,0,0:0:0:0:
448,192,123609,1,0,0:0:0:0:
192,192,123758,1,0,0:0:0:0:
448,192,123907,1,0,0:0:0:0:
320,192,123907,1,0,0:0:0:0:
192,192,124056,1,0,0:0:0:0:
320,192,124206,1,0,0:0:0:0:
64,192,124206,1,0,0:0:0:0:
448,192,124355,1,0,0:0:0:0:
192,192,124429,1,0,0:0:0:0:
64,192,124504,128,0,124803:0:0:0:0:
320,192,124504,1,0,0:0:0:0:
448,192,124653,1,0,0:0:0:0:
320,192,124803,128,0,124952:0:0:0:0:
192,192,124803,1,0,0:0:0:0:
448,192,124952,128,0,125101:0:0:0:0:
192,192,125101,128,0,125250:0:0:0:0:
64,192,125101,1,0,0:0:0:0:
320,192,125250,128,0,125400:0:0:0:0:
448,192,125400,128,0,125698:0:0:0:0:
64,192,125400,1,0,0:0:0:0:
192,192,125549,1,0,0:0:0:0:
64,192,125698,1,0,0:0:0:0:
320,192,125698,1,0,0:0:0:0:
320,192,125847,1,0,0:0:0:0:
64,192,125922,1,0,0:0:0:0:
448,192,125997,128,0,126220:0:0:0:0:
192,192,125997,1,0,0:0:0:0:
64,192,126146,1,0,0:0:0:0:
320,192,126220,128,0,126444:0:0:0:0:
192,192,126295,1,0,0:0:0:0:
64,192,126295,1,0,0:0:0:0:
448,192,126444,1,0,0:0:0:0:
64,192,126444,128,0,126594:0:0:0:0:
192,192,126594,128,0,126892:0:0:0:0:
320,192,126594,1,0,0:0:0:0:
64,192,126743,1,0,0:0:0:0:
448,192,126743,1,0,0:0:0:0:
320,192,126892,128,0,127191:0:0:0:0:
448,192,126892,1,0,0:0:0:0:
64,192,127041,1,0,0:0:0:0:
192,192,127191,128,0,127489:0:0:0:0:
448,192,127191,1,0,0:0:0:0:
320,192,127340,1,0,0:0:0:0:
64,192,127415,1,0,0:0:0:0:
320,192,127489,128,0,127788:0:0:0:0:
448,192,127489,1,0,0:0:0:0:
192,192,127638,1,0,0:0:0:0:
64,192,127788,1,0,0:0:0:0:
448,192,127788,128,0,127937:0:0:0:0:
320,192,127937,1,0,0:0:0:0:
192,192,128012,128,0,128161:0:0:0:0:
448,192,128086,1,0,0:0:0:0:
64,192,128086,1,0,0:0:0:0:
320,192,128235,1,0,0:0:0:0:
192,192,128385,1,0,0:0:0:0:
64,192,128385,1,0,0:0:0:0:
320,192,128534,1,0,0:0:0:0:
448,192,128683,1,0,0:0:0:0:
64,192,128683,1,0,0:0:0:0:
192,192,128832,1,0,0:0:0:0:
192,192,128982,128,0,129131:0:0:0:0:
448,192,128982,1,0,0:0:0:0:
64,192,128982,1,0,0:0:0:0:
320,192,129131,1,0,0:0:0:0:
64,192,129206,128,0,129355:0:0:0:0:
448,192,129280,1,0,0:0:0:0:
192,192,129280,1,0,0:0:0:0:
320,192,129429,1,0,0:0:0:0:
64,192,129579,1,0,0:0:0:0:
448,192,129579,1,0,0:0:0:0:
192,192,129728,1,0,0:0:0:0:
448,192,129877,1,0,0:0:0:0:
320,192,129877,1,0,0:0:0:0:
192,192,130026,1,0,0:0:0:0:
320,192,130176,128,0,130325:0:0:0:0:
192,192,130325,1,0,0:0:0:0:
64,192,130400,128,0,130549:0:0:0:0:
192,192,130474,1,0,0:0:0:0:
448,192,130474,1,0,0:0:0:0:
320,192,130623,1,0,0:0:0:0:
192,192,130773,1,0,0:0:0:0:
64,192,130773,1,0,0:0:0:0:
320,192,130922,1,0,0:0:0:0:
448,192,131071,1,0,0:0:0:0:
64,192,131071,1,0,0:0:0:0:
320,192,131220,1,0,0:0:0:0:
320,192,131370,128,0,131818:0:0:0:0:
64,192,131370,1,0,0:0:0:0:
448,192,131519,1,0,0:0:0:0:
64,192,131668,1,0,0:0:0:0:
192,192,131668,1,0,0:0:0:0:
448,192,131818,1,0,0:0:0:0:
192,192,131892,1,0,0:0:0:0:
320,192,131967,1,0,0:0:0:0:
64,192,131967,1,0,0:0:0:0:
448,192,132041,1,0,0:0:0:0:
320,192,132116,1,0,0:0:0:0:
64,192,132191,1,0,0:0:0:0:
192,192,132265,1,0,0:0:0:0:
320,192,132265,1,0,0:0:0:0:
448,192,132340,1,0,0:0:0:0:
64,192,132415,1,0,0:0:0:0:
192,192,132489,1,0,0:0:0:0:
448,192,132564,128,0,132788:0:0:0:0:
320,192,132564,1,0,0:0:0:0:
64,192,132713,1,0,0:0:0:0:
192,192,132788,128,0,133012:0:0:0:0:
320,192,132862,1,0,0:0:0:0:
64,192,132862,1,0,0:0:0:0:
448,192,133012,1,0,0:0:0:0:
64,192,133161,1,0,0:0:0:0:
320,192,133161,1,0,0:0:0:0:
192,192,133310,1,0,0:0:0:0:
448,192,133459,1,0,0:0:0:0:
64,192,133459,1,0,0:0:0:0:
192,192,133609,1,0,0:0:0:0:
448,192,133758,1,0,0:0:0:0:
320,192,133758,1,0,0:0:0:0:
320,192,133907,1,0,0:0:0:0:
192,192,133907,1,0,0:0:0:0:
192,192,134056,1,0,0:0:0:0:
64,192,134056,1,0,0:0:0:0:
64,192,134206,1,0,0:0:0:0:
448,192,134206,1,0,0:0:0:0:
320,192,134504,128,0,134803:0:0:0:0:
448,192,134504,128,0,134803:0:0:0:0:
64,192,134803,1,0,0:0:0:0:
192,192,134803,1,0,0:0:0:0:
320,192,134877,1,0,0:0:0:0:
448,192,134877,1,0,0:0:0:0:
64,192,134952,128,0,135400:0:0:0:0:
192,192,134952,1,0,0:0:0:0:
320,192,135101,1,0,0:0:0:0:
448,192,135250,1,0,0:0:0:0:
192,192,135400,128,0,135549:0:0:0:0:
320,192,135400,1,0,0:0:0:0:
320,192,135549,128,0,135698:0:0:0:0:
448,192,135549,1,0,0:0:0:0:
192,192,135698,128,0,135847:0:0:0:0:
64,192,135698,1,0,0:0:0:0:
448,192,135847,128,0,135997:0:0:0:0:
320,192,135847,1,0,0:0:0:0:
192,192,135997,128,0,136146:0:0:0:0:
320,192,135997,1,0,0:0:0:0:
64,192,136146,1,0,0:0:0:0:
448,192,136146,1,0,0:0:0:0:
320,192,136220,1,0,0:0:0:0:
64,192,136295,1,0,0:0:0:0:
192,192,136295,1,0,0:0:0:0:
448,192,136370,1,0,0:0:0:0:
192,192,136444,1,0,0:0:0:0:
320,192,136444,1,0,0:0:0:0:
64,192,136519,1,0,0:0:0:0:
192,192,136594,1,0,0:0:0:0:
448,192,136594,1,0,0:0:0:0:
64,192,136668,1,0,0:0:0:0:
320,192,136743,1,0,0:0:0:0:
448,192,136743,1,0,0:0:0:0:
192,192,136818,1,0,0:0:0:0:
320,192,136892,1,0,0:0:0:0:
64,192,136892,1,0,0:0:0:0:
448,192,136967,1,0,0:0:0:0:
192,192,137041,1,0,0:0:0:0:
64,192,137041,1,0,0:0:0:0:
320,192,137116,1,0,0:0:0:0:
448,192,137191,1,0,0:0:0:0:
64,192,137191,1,0,0:0:0:0:
192,192,137265,1,0,0:0:0:0:
320,192,137340,128,0,139429:0:0:0:0:
64,192,137340,1,0,0:0:0:0:
448,192,137340,128,0,139429:0:0:0:0:
