osu file format v14

[General]
AudioFilename: M3-2015 Dream Chasers (Crossfade Demo) (SC-DOWNLOADER.COM).mp3
AudioLeadIn: 0
PreviewTime: -1
Countdown: 1
SampleSet: Normal
StackLeniency: 0.7
Mode: 0
LetterboxInBreaks: 1
WidescreenStoryboard: 0

[Editor]
Bookmarks: 223454,401352
DistanceSpacing: 1
BeatDivisor: 4
GridSize: 4
TimelineZoom: 1.3

[Metadata]
Title:M3-2015 Dream Chasers (Crossfade Demo)
TitleUnicode:【M3-2015春】 Dream Chasers (Crossfade Demo)
Artist:Umeboshi Chazuke
ArtistUnicode:梅干茶漬け
Creator:Ovoui
Version:Thunderfire
Source:
Tags:
BeatmapID:813961
BeatmapSetID:368717

[Difficulty]
HPDrainRate:6
CircleSize:4
OverallDifficulty:8
ApproachRate:9.3
SliderMultiplier:1.80000000596046
SliderTickRate:1

[Events]
//Background and Video events
0,0,"olala.jpg",0,0
//Break Periods
//Storyboard Layer 0 (Background)
//Storyboard Layer 1 (Fail)
//Storyboard Layer 2 (Pass)
//Storyboard Layer 3 (Foreground)
//Storyboard Sound Samples

[TimingPoints]
750,306.122448979592,4,1,0,100,1,0
46820,307.692307692308,4,1,0,100,1,0
98910,295.566502463054,4,1,0,100,1,0
121365,292.682926829268,4,1,0,100,1,0
147620,352.941176470588,4,1,0,100,1,0
169237,-133.333333333333,4,1,0,100,0,0
169590,-100,4,1,0,100,0,0
175678,-200,4,1,0,100,0,0
181515,-133.333333333333,4,1,0,100,0,0
182914,-100,4,1,0,100,0,0
191375,297.029702970297,4,1,0,100,1,0
257480,309.278350515464,4,1,0,100,1,0
313600,315.789473684211,4,1,0,100,1,0
369045,288.461538461538,4,1,0,100,1,0
437698,405.405405405405,4,1,0,100,1,0
442562,384.615384615385,4,1,0,100,1,0
443351,394.736842105263,4,1,0,100,1,0
445818,400,4,1,0,100,1,0
446193,400,4,1,0,100,1,0
447129,461.538461538462,4,1,0,100,1,0
448920,309.278350515464,4,1,0,100,1,0
449596,315.789473684211,4,1,0,100,1,0
453069,363.636363636364,4,1,0,100,1,0
453796,363.636363636364,4,1,0,100,1,0
454920,400,4,1,0,100,1,0
483720,389.61038961039,4,1,0,100,1,0
486836,379.746835443038,4,1,0,100,1,0
489873,370.37037037037,4,1,0,100,1,0
492830,363.636363636364,4,1,0,100,1,0
507375,384.615384615385,4,1,0,100,1,0
508930,428.571428571429,4,1,0,100,1,0
510880,400,4,1,0,100,1,0

[HitObjects]
64,100,147972,6,0,P|112:84|160:96,1,90.000000298023
144,136,148237,2,0,P|188:160|272:160,1,135.000000447034
272,116,148590,5,0,0:0:0:0:
296,80,148678,1,0,0:0:0:0:
336,60,148767,1,0,0:0:0:0:
380,64,148855,1,0,0:0:0:0:
416,92,148943,1,0,0:0:0:0:
392,128,149031,5,0,0:0:0:0:
376,172,149120,1,0,0:0:0:0:
380,216,149208,1,0,0:0:0:0:
404,256,149296,1,0,0:0:0:0:
436,288,149384,1,0,0:0:0:0:
400,316,149472,5,0,0:0:0:0:
356,308,149561,1,0,0:0:0:0:
312,312,149649,1,0,0:0:0:0:
272,336,149737,1,0,0:0:0:0:
236,364,149825,1,0,0:0:0:0:
208,328,149914,5,0,0:0:0:0:
192,288,150002,1,0,0:0:0:0:
196,244,150090,1,0,0:0:0:0:
212,200,150178,1,0,0:0:0:0:
240,164,150267,1,0,0:0:0:0:
176,140,150443,6,0,L|204:84,2,60.000000198682
108,116,150796,6,0,L|136:60,2,60.000000198682
240,164,151149,6,0,L|268:108,2,60.000000198682
40,92,151502,6,0,L|68:36,2,60.000000198682
308,196,151855,5,0,0:0:0:0:
340,96,152032,5,0,0:0:0:0:
312,84,152120,1,0,0:0:0:0:
316,116,152208,1,0,0:0:0:0:
332,88,152297,1,0,0:0:0:0:
300,92,152385,1,0,0:0:0:0:
324,112,152473,1,0,0:0:0:0:
312,84,152561,1,0,0:0:0:0:
224,60,152737,5,0,0:0:0:0:
88,60,152914,1,0,0:0:0:0:
156,176,153090,1,0,0:0:0:0:
88,236,153267,5,0,0:0:0:0:
124,264,153355,1,0,0:0:0:0:
164,280,153443,1,0,0:0:0:0:
208,284,153531,1,0,0:0:0:0:
252,280,153620,1,0,0:0:0:0:
296,268,153708,1,0,0:0:0:0:
328,236,153796,1,0,0:0:0:0:
352,196,153884,1,0,0:0:0:0:
380,228,153972,5,0,0:0:0:0:
400,268,154061,1,0,0:0:0:0:
440,292,154149,1,0,0:0:0:0:
484,304,154237,1,0,0:0:0:0:
476,260,154325,5,0,0:0:0:0:
464,216,154414,1,0,0:0:0:0:
468,172,154502,1,0,0:0:0:0:
472,128,154590,1,0,0:0:0:0:
472,92,154678,6,0,B|404:80|404:80|320:96,1,135.000000447034
316,100,155031,1,0,0:0:0:0:
156,116,155208,5,0,0:0:0:0:
136,128,155296,1,0,0:0:0:0:
64,240,155472,6,0,L|32:200,2,45.0000001490115
100,264,155737,1,0,0:0:0:0:
140,284,155825,1,0,0:0:0:0:
184,292,155914,1,0,0:0:0:0:
228,284,156002,1,0,0:0:0:0:
272,272,156090,1,0,0:0:0:0:
316,296,156178,5,0,0:0:0:0:
360,304,156267,1,0,0:0:0:0:
404,304,156355,1,0,0:0:0:0:
380,268,156443,5,0,0:0:0:0:
360,228,156531,1,0,0:0:0:0:
364,184,156620,1,0,0:0:0:0:
384,144,156708,1,0,0:0:0:0:
416,112,156796,1,0,0:0:0:0:
356,44,156972,5,0,0:0:0:0:
328,80,157061,1,0,0:0:0:0:
260,140,157237,6,0,L|260:88,1,45.0000001490115
184,48,157414,2,0,L|184:104,1,45.0000001490115
36,180,157678,5,0,0:0:0:0:
116,216,157855,2,0,B|160:196|204:224|204:224|248:208,1,135.000000447034
136,132,158384,6,0,L|100:100,2,45.0000001490115
156,92,158649,2,0,L|136:48,2,45.0000001490115
196,76,158914,1,0,0:0:0:0:
260,140,159090,1,0,0:0:0:0:
332,196,159267,1,0,0:0:0:0:
340,108,159443,1,0,0:0:0:0:
288,180,159620,1,0,0:0:0:0:
292,92,159796,1,0,0:0:0:0:
360,152,159972,1,0,0:0:0:0:
396,176,160061,6,0,B|424:216|404:256|404:256|416:292,1,90.000000298023
328,308,160414,5,0,0:0:0:0:
284,316,160502,1,0,0:0:0:0:
240,312,160590,1,0,0:0:0:0:
244,268,160678,5,0,0:0:0:0:
228,224,160767,1,0,0:0:0:0:
192,196,160855,1,0,0:0:0:0:
148,188,160943,1,0,0:0:0:0:
104,196,161031,2,0,P|68:160|88:52,1,135.000000447034
200,56,161561,5,0,0:0:0:0:
276,168,161737,2,0,B|320:144|320:144|376:144,1,90.000000298023
384,104,162002,5,0,0:0:0:0:
412,68,162090,1,0,0:0:0:0:
452,48,162178,1,0,0:0:0:0:
468,184,162355,5,0,0:0:0:0:
400,352,162620,5,0,0:0:0:0:
360,332,162708,1,0,0:0:0:0:
316,324,162796,1,0,0:0:0:0:
272,332,162884,1,0,0:0:0:0:
232,356,162973,1,0,0:0:0:0:
204,320,163061,1,0,0:0:0:0:
172,288,163149,1,0,0:0:0:0:
100,236,163325,5,0,0:0:0:0:
104,212,163414,1,0,0:0:0:0:
120,196,163502,1,0,0:0:0:0:
140,192,163590,1,0,0:0:0:0:
164,196,163678,1,0,0:0:0:0:
164,172,163767,1,0,0:0:0:0:
164,148,163855,1,0,0:0:0:0:
180,60,164031,5,0,0:0:0:0:
316,60,164208,1,0,0:0:0:0:
256,180,164384,1,0,0:0:0:0:
336,224,164561,5,0,0:0:0:0:
380,212,164649,1,0,0:0:0:0:
420,188,164737,1,0,0:0:0:0:
440,148,164825,1,0,0:0:0:0:
440,104,164914,1,0,0:0:0:0:
420,64,165002,1,0,0:0:0:0:
384,36,165090,1,0,0:0:0:0:
344,20,165178,1,0,0:0:0:0:
300,20,165267,5,0,0:0:0:0:
260,44,165355,1,0,0:0:0:0:
228,76,165443,1,0,0:0:0:0:
212,120,165531,1,0,0:0:0:0:
216,164,165620,1,0,0:0:0:0:
228,208,165708,1,0,0:0:0:0:
260,236,165796,1,0,0:0:0:0:
288,272,165884,1,0,0:0:0:0:
280,316,165972,1,0,0:0:0:0:
192,324,166149,6,0,L|212:284,2,45.0000001490115
152,348,166414,2,0,L|144:292,2,45.0000001490115
72,308,166767,5,0,0:0:0:0:
44,272,166855,1,0,0:0:0:0:
36,228,166943,1,0,0:0:0:0:
40,184,167031,1,0,0:0:0:0:
52,140,167120,1,0,0:0:0:0:
76,104,167208,1,0,0:0:0:0:
108,72,167296,1,0,0:0:0:0:
152,60,167384,1,0,0:0:0:0:
152,104,167472,5,0,0:0:0:0:
192,120,167561,1,0,0:0:0:0:
236,124,167649,1,0,0:0:0:0:
252,84,167737,5,0,0:0:0:0:
296,72,167825,1,0,0:0:0:0:
340,80,167914,1,0,0:0:0:0:
376,104,168002,1,0,0:0:0:0:
400,140,168090,1,0,0:0:0:0:
364,168,168178,5,0,0:0:0:0:
348,212,168267,1,0,0:0:0:0:
332,256,168355,1,0,0:0:0:0:
320,300,168443,1,0,0:0:0:0:
284,276,168531,5,0,0:0:0:0:
248,248,168620,1,0,0:0:0:0:
204,248,168708,1,0,0:0:0:0:
168,276,168796,1,0,0:0:0:0:
88,316,168972,6,0,L|76:268,3,45.0000001490115
68,240,169325,2,0,P|72:196|116:156,1,101.250004197657
156,144,169678,1,0,0:0:0:0:
200,140,169767,1,0,0:0:0:0:
244,152,169855,1,0,0:0:0:0:
264,112,169943,5,0,0:0:0:0:
304,92,170031,1,0,0:0:0:0:
348,92,170120,1,0,0:0:0:0:
380,124,170208,1,0,0:0:0:0:
344,208,170384,5,0,0:0:0:0:
284,308,170560,1,0,0:0:0:0:
168,304,170737,1,0,0:0:0:0:
92,216,170913,1,0,0:0:0:0:
168,128,171090,1,0,0:0:0:0:
284,128,171266,1,0,0:0:0:0:
304,92,171355,2,0,B|280:52|280:52|232:56|212:28,1,90.000000298023
168,128,171708,5,0,0:0:0:0:
160,172,171796,1,0,0:0:0:0:
168,216,171884,1,0,0:0:0:0:
196,252,171972,1,0,0:0:0:0:
236,276,172061,1,0,0:0:0:0:
280,280,172149,1,0,0:0:0:0:
324,272,172237,1,0,0:0:0:0:
300,232,172325,6,0,L|152:216,2,135.000000447034
380,124,173031,5,0,0:0:0:0:
260,60,173208,6,0,L|260:112,1,45.0000001490115
380,169,173472,2,0,L|380:117,1,45.0000001490115
384,260,173737,5,0,0:0:0:0:
124,324,174090,1,0,0:0:0:0:
188,60,174443,1,0,0:0:0:0:
324,60,174619,6,0,L|324:120,1,45.0000001490115
448,172,174796,2,0,L|448:124,1,45.0000001490115
384,260,175061,1,0,0:0:0:0:
188,220,175325,5,0,0:0:0:0:
88,128,175502,2,0,L|84:112,1,11.2500000372529
52,240,175855,5,0,0:0:0:0:
118,287,176031,2,0,L|108:308,2,22.5000000745057
208,304,176384,2,0,L|204:328,2,22.5000000745057
300,300,176737,1,0,0:0:0:0:
344,308,176825,2,0,P|380:316|400:308,1,45.0000001490115
420,284,177090,2,0,L|440:304,2,22.5000000745057
424,192,177443,6,0,L|448:184,2,22.5000000745057
336,216,177796,2,0,L|304:224,2,22.5000000745057
356,128,178149,1,0,0:0:0:0:
324,96,178237,2,0,B|292:88|276:80|276:80|264:88,1,45.0000001490115
236,88,178502,2,0,L|232:56,2,22.5000000745057
184,160,178855,6,0,L|208:160,2,22.5000000745057
112,104,179208,2,0,L|132:88,2,22.5000000745057
48,168,179561,2,0,L|48:192,1,22.5000000745057
104,260,179825,2,0,L|136:260,3,22.5000000745057
196,320,180267,6,0,L|212:304,1,22.5000000745057
248,324,180443,2,0,P|268:328|292:320,1,45.0000001490115
332,300,180708,2,0,L|356:316,1,22.5000000745057
420,256,180972,2,0,L|400:240,1,22.5000000745057
376,156,181237,1,0,0:0:0:0:
356,168,181325,1,0,0:0:0:0:
332,172,181414,1,0,0:0:0:0:
308,168,181502,5,0,0:0:0:0:
220,116,181678,2,0,L|240:88,2,33.750001399219
124,148,182031,2,0,L|96:128,1,33.750001399219
120,228,182296,1,0,0:0:0:0:
216,264,182472,1,0,0:0:0:0:
264,244,182561,2,0,L|256:220,6,16.8750006996095
308,228,182914,2,0,B|348:208|348:208|360:160,1,90.000000298023
276,56,183267,5,0,0:0:0:0:
232,48,183355,1,0,0:0:0:0:
200,76,183443,1,0,0:0:0:0:
212,120,183531,1,0,0:0:0:0:
128,152,183708,6,0,L|88:124,2,45.0000001490115
104,188,183972,1,0,0:0:0:0:
104,232,184061,1,0,0:0:0:0:
120,272,184149,1,0,0:0:0:0:
152,304,184237,1,0,0:0:0:0:
196,308,184325,1,0,0:0:0:0:
248,236,184502,1,0,0:0:0:0:
328,280,184678,1,0,0:0:0:0:
388,212,184855,1,0,0:0:0:0:
420,128,185031,5,0,0:0:0:0:
68,56,185384,5,0,0:0:0:0:
328,280,185737,5,0,0:0:0:0:
256,40,186619,5,0,0:0:0:0:
256,48,186796,5,0,0:0:0:0:
256,56,186972,5,0,0:0:0:0:
256,64,187149,5,0,0:0:0:0:
104,160,187502,6,0,B|72:244|192:256|192:256|152:196,1,225.000000745057
156,156,188031,1,0,0:0:0:0:
176,116,188119,1,0,0:0:0:0:
220,100,188208,1,0,0:0:0:0:
264,112,188296,1,0,0:0:0:0:
296,144,188384,1,0,0:0:0:0:
308,188,188472,1,0,0:0:0:0:
300,232,188561,1,0,0:0:0:0:
268,260,188649,1,0,0:0:0:0:
300,288,188737,5,0,0:0:0:0:
344,292,188825,1,0,0:0:0:0:
384,272,188914,1,0,0:0:0:0:
412,236,189002,1,0,0:0:0:0:
416,192,189090,1,0,0:0:0:0:
408,148,189178,1,0,0:0:0:0:
376,116,189267,1,0,0:0:0:0:
352,156,189355,5,0,0:0:0:0:
312,132,189443,1,0,0:0:0:0:
272,108,189531,1,0,0:0:0:0:
176,36,189708,6,0,L|136:60,1,45.0000001490115
100,32,189884,2,0,L|48:24,1,45.0000001490115
