osu file format v14

[General]
AudioFilename: M3-2015 Dream Chasers (Crossfade Demo) (SC-DOWNLOADER.COM).mp3
AudioLeadIn: 0
PreviewTime: 210384
Countdown: 1
SampleSet: Normal
StackLeniency: 0.7
Mode: 0
LetterboxInBreaks: 1
WidescreenStoryboard: 0

[Editor]
Bookmarks: 223454,401352
DistanceSpacing: 0.6
BeatDivisor: 3
GridSize: 4
TimelineZoom: 1.3

[Metadata]
Title:M3-2015 Dream Chasers (Crossfade Demo)
TitleUnicode:【M3-2015春】 Dream Chasers (Crossfade Demo)
Artist:Umeboshi Chazuke
ArtistUnicode:梅干茶漬け
Creator:Ovoui
Version:Musty
Source:
Tags:
BeatmapID:844229
BeatmapSetID:368717

[Difficulty]
HPDrainRate:6
CircleSize:4
OverallDifficulty:8
ApproachRate:9.3
SliderMultiplier:1.80000000596046
SliderTickRate:1

[Events]
//Background and Video events
0,0,"olala.jpg",0,0
//Break Periods
//Storyboard Layer 0 (Background)
//Storyboard Layer 1 (Fail)
//Storyboard Layer 2 (Pass)
//Storyboard Layer 3 (Foreground)
//Storyboard Sound Samples

[TimingPoints]
750,306.122448979592,4,1,0,100,1,0
46820,307.692307692308,4,1,0,100,1,0
98910,295.566502463054,4,1,0,100,1,0
121365,292.682926829268,4,1,0,100,1,0
147620,352.941176470588,4,1,0,100,1,0
191375,297.029702970297,4,1,0,100,1,0
257480,309.278350515464,4,1,0,100,1,0
313600,315.789473684211,4,1,0,100,1,0
369045,288.461538461538,4,1,0,100,1,0
405968,-66.6666666666667,4,1,0,100,0,0
429044,-100,4,1,0,100,0,0
434814,-100,4,1,0,80,0,0
435968,-100,4,1,0,50,0,0
436977,-100,4,1,0,20,0,0
437698,405.405405405405,4,1,0,100,1,0
442562,384.615384615385,4,1,0,100,1,0
443351,394.736842105263,4,1,0,100,1,0
445818,400,4,1,0,100,1,0
446193,400,4,1,0,100,1,0
447129,461.538461538462,4,1,0,100,1,0
448920,309.278350515464,4,1,0,100,1,0
449596,315.789473684211,4,1,0,100,1,0
453069,363.636363636364,4,1,0,100,1,0
453796,363.636363636364,4,1,0,100,1,0
454920,400,4,1,0,100,1,0
483720,389.61038961039,4,1,0,100,1,0
486836,379.746835443038,4,1,0,100,1,0
489873,370.37037037037,4,1,0,100,1,0
492830,363.636363636364,4,1,0,100,1,0
507375,384.615384615385,4,1,0,100,1,0
508930,428.571428571429,4,1,0,100,1,0
510880,400,4,1,0,100,1,0

[HitObjects]
184,248,401352,5,6,0:0:0:0:
64,176,401496,2,0,L|12:192,2,45.0000001490115,2|0|8,0:0|0:0|0:0,0:0:0:0:
180,112,401785,1,2,0:0:0:0:
112,296,401929,1,2,0:0:0:0:
128,316,402001,1,0,0:0:0:0:
152,328,402073,1,0,0:0:0:0:
176,336,402145,1,0,0:0:0:0:
204,340,402218,2,0,P|284:324|316:308,1,90.000000298023,8|0,0:0|0:0,0:0:0:0:
416,344,402506,5,0,0:0:0:0:
312,232,402650,2,0,P|312:208|316:180,1,45.0000001490115,2|0,0:0|0:0,0:0:0:0:
496,112,402867,2,0,P|496:88|492:60,2,45.0000001490115,2|0|0,0:0|0:0|0:0,0:0:0:0:
480,140,403083,2,0,P|416:124|376:100,1,90.000000298023
394,113,403299,1,0,0:0:0:0:
394,113,403371,1,0,0:0:0:0:
172,88,403516,1,0,0:0:0:0:
296,192,403660,5,6,0:0:0:0:
120,212,403804,2,0,P|104:164|100:144,2,45.0000001490115,0|0|10,0:0|0:0|0:0,0:0:0:0:
20,60,404093,1,0,0:0:0:0:
156,320,404237,2,0,P|208:332|236:324,2,45.0000001490115,2|0|2,0:0|0:0|0:0,0:0:0:0:
12,248,404525,1,10,0:0:0:0:
208,164,404669,1,0,0:0:0:0:
304,332,404814,5,0,0:0:0:0:
296,312,404886,1,0,0:0:0:0:
296,288,404958,1,0,0:0:0:0:
300,264,405030,1,0,0:0:0:0:
312,244,405102,1,0,0:0:0:0:
328,232,405174,1,0,0:0:0:0:
348,224,405246,1,0,0:0:0:0:
372,220,405319,1,0,0:0:0:0:
396,224,405391,5,2,2:0:0:0:
216,348,405535,2,0,L|172:324,1,45.0000001490115,2|0,2:0|2:0,2:0:0:0:
160,260,405679,2,0,L|116:236,1,45.0000001490115,2|0,2:0|2:0,2:0:0:0:
96,172,405823,2,0,L|52:148,1,45.0000001490115,2|0,2:0|2:0,2:0:0:0:
0,84,405968,6,0,P|72:52|164:128,1,202.500008395314,6|0,0:0|2:0,0:0:0:0:
152,152,406256,1,10,0:0:0:0:
136,184,406328,1,0,0:0:0:0:
136,216,406400,1,0,0:0:0:0:
144,248,406472,1,0,0:0:0:0:
164,276,406544,1,2,0:0:0:0:
196,292,406617,1,0,0:0:0:0:
228,296,406689,1,0,0:0:0:0:
260,288,406761,1,0,0:0:0:0:
284,268,406833,5,8,0:0:0:0:
296,236,406905,1,0,0:0:0:0:
292,204,406977,1,0,0:0:0:0:
276,172,407049,1,0,0:0:0:0:
268,140,407121,2,0,P|304:168|356:192,1,67.500002798438,2|0,0:0|0:0,0:0:0:0:
212,52,407266,2,0,P|184:88|160:140,1,67.500002798438
196,200,407410,2,0,P|160:228|108:252,1,67.500002798438,8|0,0:0|0:0,0:0:0:0:
48,228,407554,5,0,0:0:0:0:
32,256,407626,1,0,0:0:0:0:
32,288,407698,1,0,0:0:0:0:
44,320,407770,1,0,0:0:0:0:
68,344,407843,2,0,L|108:364,6,33.750001399219,2|0|2|0|2|0|0,0:0|0:0|0:0|0:0|0:0|0:0|0:0,0:0:0:0:
144,348,408131,5,0,0:0:0:0:
176,340,408203,1,0,0:0:0:0:
208,340,408275,2,0,P|280:356|372:272,1,202.500008395314,6|0,0:0|0:0,0:0:0:0:
380,256,408564,2,0,L|440:124,1,135.000005596876,14|0,0:0|0:0,0:0:0:0:
435,133,408780,1,0,0:0:0:0:
435,133,408852,1,0,0:0:0:0:
192,208,408996,1,0,0:0:0:0:
476,348,409141,2,0,P|476:252|508:208,1,135.000005596876,10|0,0:0|0:0,0:0:0:0:
368,32,409429,5,2,0:0:0:0:
356,64,409501,1,0,0:0:0:0:
332,88,409573,1,0,0:0:0:0:
304,104,409645,1,0,0:0:0:0:
272,112,409718,1,8,0:0:0:0:
240,112,409790,1,0,0:0:0:0:
208,100,409862,1,0,0:0:0:0:
184,76,409934,1,0,0:0:0:0:
168,44,410006,5,2,0:0:0:0:
136,60,410078,1,0,0:0:0:0:
104,72,410150,1,0,0:0:0:0:
72,80,410222,1,0,0:0:0:0:
40,80,410294,1,8,0:0:0:0:
60,108,410367,1,0,0:0:0:0:
80,136,410439,1,0,0:0:0:0:
84,168,410511,1,0,0:0:0:0:
80,200,410583,6,0,P|60:272|152:360,1,202.500008395314,6|0,0:0|2:0,0:0:0:0:
172,352,410871,6,0,P|232:316|244:280,1,67.500002798438,10|0,0:0|0:0,0:0:0:0:
376,296,411016,2,0,P|316:332|304:368,1,67.500002798438
212,360,411160,2,0,P|272:324|284:288,1,67.500002798438,2|0,0:0|0:0,0:0:0:0:
416,304,411305,2,0,P|356:340|344:376,1,67.500002798438
300,224,411448,1,8,0:0:0:0:
308,200,411520,1,0,0:0:0:0:
316,176,411593,1,0,0:0:0:0:
324,152,411665,1,0,0:0:0:0:
332,128,411737,6,0,L|328:80,8,33.750001399219,2|0|2|0|2|0|2|0|2,0:0|0:0|0:0|0:0|0:0|0:0|0:0|0:0|0:0,0:0:0:0:
132,200,412169,1,0,0:0:0:0:
460,260,412314,2,0,P|452:172|464:128,1,135.000005596876,2|0,0:0|0:0,0:0:0:0:
464,127,412530,1,0,0:0:0:0:
464,127,412602,1,8,0:0:0:0:
332,296,412746,1,0,0:0:0:0:
128,80,412891,2,0,L|212:84,4,67.500002798438,2|0|2|0|2,0:0|0:0|0:0|0:0|0:0,0:0:0:0:
8,148,413323,1,0,0:0:0:0:
248,184,413468,6,0,L|168:180,1,67.500002798438,2|0,0:0|0:0,0:0:0:0:
312,224,413612,2,0,L|392:228,1,67.500002798438
224,216,413756,2,0,L|144:212,1,67.500002798438,10|0,0:0|0:0,0:0:0:0:
288,256,413900,2,0,L|368:260,1,67.500002798438
324,156,414044,5,2,0:0:0:0:
340,132,414117,1,0,0:0:0:0:
352,108,414189,1,2,0:0:0:0:
352,80,414261,1,0,0:0:0:0:
328,64,414333,5,8,0:0:0:0:
312,84,414405,1,0,0:0:0:0:
288,96,414477,1,0,0:0:0:0:
260,100,414549,1,0,0:0:0:0:
236,92,414621,1,2,0:0:0:0:
212,76,414694,1,0,0:0:0:0:
188,64,414766,1,0,0:0:0:0:
160,60,414838,1,0,0:0:0:0:
132,60,414910,1,8,0:0:0:0:
108,68,414982,1,0,0:0:0:0:
88,88,415054,1,0,0:0:0:0:
76,112,415126,1,0,0:0:0:0:
72,140,415198,6,0,L|52:216,1,67.500002798438,2|0,0:0|0:0,0:0:0:0:
92,256,415343,2,0,L|72:332,1,67.500002798438
96,340,415487,1,8,0:0:0:0:
120,348,415559,1,0,0:0:0:0:
148,348,415631,1,0,0:0:0:0:
172,336,415703,1,0,0:0:0:0:
180,312,415775,1,2,0:0:0:0:
184,284,415847,1,0,0:0:0:0:
196,260,415919,1,0,0:0:0:0:
216,244,415992,1,0,0:0:0:0:
244,236,416064,5,8,0:0:0:0:
272,240,416136,1,0,0:0:0:0:
296,248,416208,1,0,0:0:0:0:
320,264,416280,1,0,0:0:0:0:
344,272,416352,1,2,0:0:0:0:
372,272,416424,1,0,0:0:0:0:
396,260,416496,1,0,0:0:0:0:
412,236,416569,1,0,0:0:0:0:
412,208,416641,1,8,0:0:0:0:
400,184,416713,1,0,0:0:0:0:
384,160,416785,1,0,0:0:0:0:
376,132,416857,1,0,0:0:0:0:
380,104,416929,6,0,P|400:136|308:120,1,202.500008395314,6|0,0:0|2:0,0:0:0:0:
300,116,417218,1,10,0:0:0:0:
288,92,417290,1,0,0:0:0:0:
264,76,417362,1,0,0:0:0:0:
236,68,417434,1,0,0:0:0:0:
208,72,417506,6,0,P|100:72|72:52,1,135.000005596876,6|0,0:0|0:0,0:0:0:0:
0,248,417794,2,0,P|108:248|136:268,1,135.000005596876,10|0,0:0|0:0,0:0:0:0:
127,260,418011,1,0,0:0:0:0:
127,260,418083,1,0,0:0:0:0:
16,360,418227,1,0,0:0:0:0:
232,172,418371,2,0,L|244:264,1,67.500002798438,8|0,0:0|0:0,0:0:0:0:
308,276,418516,2,0,L|296:368,1,67.500002798438
200,328,418660,5,2,0:0:0:0:
196,300,418732,1,0,0:0:0:0:
200,272,418804,1,0,0:0:0:0:
212,248,418876,1,0,0:0:0:0:
228,224,418948,1,8,0:0:0:0:
252,212,419020,1,0,0:0:0:0:
276,204,419093,1,0,0:0:0:0:
304,200,419165,1,0,0:0:0:0:
332,204,419237,6,0,P|416:264|428:360,1,202.500008395314,6|0,0:0|2:0,0:0:0:0:
404,352,419525,1,10,0:0:0:0:
392,328,419597,1,0,0:0:0:0:
396,300,419669,1,0,0:0:0:0:
412,276,419742,1,0,0:0:0:0:
436,264,419814,5,6,0:0:0:0:
456,244,419886,1,0,0:0:0:0:
468,220,419958,1,0,0:0:0:0:
472,192,420030,1,0,0:0:0:0:
464,168,420102,1,8,0:0:0:0:
444,152,420174,1,0,0:0:0:0:
420,140,420246,1,0,0:0:0:0:
404,120,420319,1,0,0:0:0:0:
388,96,420391,5,2,0:0:0:0:
372,76,420463,1,0,0:0:0:0:
348,68,420535,1,0,0:0:0:0:
320,72,420607,1,0,0:0:0:0:
300,88,420679,1,8,0:0:0:0:
276,100,420751,1,0,0:0:0:0:
248,96,420823,1,0,0:0:0:0:
224,84,420895,1,0,0:0:0:0:
208,60,420968,6,0,L|100:76,3,67.500002798438,2|0|2|0,0:0|0:0|0:0|0:0,0:0:0:0:
64,140,421256,6,0,L|172:156,3,67.500002798438,10|0|2|0,0:0|0:0|0:0|0:0,0:0:0:0:
196,224,421544,6,0,L|88:240,3,67.500002798438,2|0|2|0,0:0|0:0|0:0|0:0,0:0:0:0:
52,304,421832,6,0,L|160:320,3,67.500002798438,10|0|2|0,0:0|0:0|0:0|0:0,0:0:0:0:
208,348,422121,5,6,0:0:0:0:
228,332,422194,1,0,0:0:0:0:
252,324,422266,1,0,0:0:0:0:
280,320,422338,1,0,0:0:0:0:
308,320,422410,1,8,0:0:0:0:
336,324,422482,1,0,0:0:0:0:
364,332,422554,1,0,0:0:0:0:
392,332,422626,1,0,0:0:0:0:
420,332,422698,2,0,P|472:256|480:176,1,135.000005596876,2|0,0:0|0:0,0:0:0:0:
236,48,422987,5,8,0:0:0:0:
352,236,423131,1,0,0:0:0:0:
420,104,423275,2,0,L|352:112,2,67.500002798438,2|0|0,0:0|0:0|0:0,0:0:0:0:
176,264,423564,2,0,L|244:272,2,67.500002798438,8|0|0,0:0|0:0|0:0,0:0:0:0:
148,264,423780,1,0,0:0:0:0:
124,252,423852,1,2,0:0:0:0:
108,232,423924,1,0,0:0:0:0:
104,204,423996,1,0,0:0:0:0:
104,176,424069,1,0,0:0:0:0:
108,148,424141,1,8,0:0:0:0:
112,120,424213,1,0,0:0:0:0:
116,92,424285,1,0,0:0:0:0:
124,64,424357,1,0,0:0:0:0:
132,36,424429,5,2,0:0:0:0:
172,44,424501,1,0,0:0:0:0:
196,76,424573,1,0,0:0:0:0:
204,116,424645,1,0,0:0:0:0:
192,156,424718,1,8,0:0:0:0:
160,180,424790,1,0,0:0:0:0:
124,196,424862,1,0,0:0:0:0:
84,192,424934,1,0,0:0:0:0:
52,168,425006,5,2,0:0:0:0:
28,136,425078,1,0,0:0:0:0:
28,96,425150,1,0,0:0:0:0:
44,60,425222,1,0,0:0:0:0:
76,36,425294,1,8,0:0:0:0:
116,36,425367,1,0,0:0:0:0:
152,56,425439,1,0,0:0:0:0:
176,88,425511,1,0,0:0:0:0:
180,128,425583,5,2,0:0:0:0:
164,164,425655,1,0,0:0:0:0:
140,196,425727,1,0,0:0:0:0:
124,232,425799,1,0,0:0:0:0:
120,272,425871,1,8,0:0:0:0:
132,312,425944,1,0,0:0:0:0:
164,340,426016,1,0,0:0:0:0:
204,348,426088,1,0,0:0:0:0:
244,344,426160,5,2,0:0:0:0:
280,324,426232,1,0,0:0:0:0:
304,292,426304,1,0,0:0:0:0:
308,252,426376,1,0,0:0:0:0:
292,216,426448,1,8,0:0:0:0:
264,184,426520,1,0,0:0:0:0:
228,164,426593,1,0,0:0:0:0:
188,160,426665,1,0,0:0:0:0:
148,172,426737,6,0,L|80:180,1,67.500002798438,2|0,0:0|0:0,0:0:0:0:
52,268,426881,1,0,0:0:0:0:
52,268,426953,1,0,0:0:0:0:
52,268,427025,2,0,L|140:256,1,67.500002798438,2|0,0:0|0:0,0:0:0:0:
92,96,427169,1,0,0:0:0:0:
92,96,427242,1,0,0:0:0:0:
92,96,427313,2,0,L|4:108,1,67.500002798438,2|0,0:0|0:0,0:0:0:0:
200,340,427458,5,0,0:0:0:0:
212,300,427530,1,0,0:0:0:0:
224,260,427602,2,0,P|216:192|208:168,1,67.500002798438,2|0,0:0|0:0,0:0:0:0:
188,112,427746,5,0,0:0:0:0:
228,100,427818,1,0,0:0:0:0:
268,88,427890,2,0,P|336:96|360:104,1,67.500002798438,2|0,0:0|0:0,0:0:0:0:
480,204,428035,5,0,0:0:0:0:
440,192,428107,1,0,0:0:0:0:
400,180,428179,2,0,P|332:188|308:196,1,67.500002798438,2|0,0:0|0:0,0:0:0:0:
272,312,428323,5,0,0:0:0:0:
236,292,428395,1,0,0:0:0:0:
196,292,428468,2,0,P|136:340|124:360,1,67.500002798438,2|0,0:0|0:0,0:0:0:0:
52,348,428612,5,0,0:0:0:0:
40,308,428684,1,0,0:0:0:0:
40,268,428756,1,2,0:0:0:0:
56,232,428828,1,0,0:0:0:0:
84,204,428900,1,0,0:0:0:0:
104,168,428972,1,0,0:0:0:0:
108,128,429044,6,0,P|164:64|260:104,1,180.000000596046,6|10,0:0|0:0,0:0:0:0:
372,304,429477,2,0,L|276:288,1,90.000000298023,2|0,0:0|0:0,0:0:0:0:
208,180,429766,2,0,L|304:164,1,90.000000298023,2|8,0:0|0:0,0:0:0:0:
84,300,430054,6,0,B|132:204|52:236|108:128,1,180.000000596046,6|0,0:0|0:0,0:0:0:0:
204,292,430487,2,0,P|172:360|160:372,1,90.000000298023,8|0,0:0|0:0,0:0:0:0:
176,188,430775,1,0,0:0:0:0:
320,352,430919,5,2,0:0:0:0:
288,120,431064,1,8,0:0:0:0:
468,316,431208,1,0,0:0:0:0:
252,224,431352,6,0,P|385:205|430:257,1,180.000000596046,6|8,0:0|0:0,0:0:0:0:
144,264,431785,2,0,L|160:146,1,90.000000298023,2|0,0:0|0:0,0:0:0:0:
432,40,432073,2,0,L|416:136,1,90.000000298023,2|8,0:0|0:0,0:0:0:0:
120,356,432362,2,0,P|80:328|76:196,1,180.000000596046,6|0,0:0|0:0,0:0:0:0:
260,360,432794,5,10,0:0:0:0:
280,168,432939,2,0,P|324:172|368:200,1,90.000000298023
104,228,433227,1,2,0:0:0:0:
224,64,433371,1,10,0:0:0:0:
192,288,433516,1,2,0:0:0:0:
448,220,433660,2,0,P|431:134|353:96,1,180.000000596046,6|8,0:0|0:0,0:0:0:0:
384,328,434093,6,0,L|500:324,1,90.000000298023,2|0,0:0|0:0,0:0:0:0:
336,200,434381,2,0,L|220:196,1,90.000000298023,2|8,0:0|0:0,0:0:0:0:
168,324,434669,2,0,P|92:228|96:172,1,180.000000596046,6|0,0:0|0:0,0:0:0:0:
224,96,435102,1,10,0:0:0:0:
180,224,435246,1,0,0:0:0:0:
120,52,435391,1,0,0:0:0:0:
12,264,435535,5,2,0:0:0:0:
148,136,435679,1,8,0:0:0:0:
212,316,435823,1,2,0:0:0:0:
372,176,435968,2,0,P|244:196|236:256,1,180.000000596046,6|0,0:0|0:0,0:0:0:0:
460,240,436400,2,0,L|488:124,1,90.000000298023,2|0,0:0|0:0,0:0:0:0:
316,344,436689,2,0,L|344:228,1,90.000000298023,2|0,0:0|0:0,0:0:0:0:
348,72,436977,6,0,P|224:84|172:144,2,180.000000596046,6|0|0,0:0|0:0|0:0,0:0:0:0:
