osu file format v14

[General]
AudioFilename: M3-2015 Dream Chasers (Crossfade Demo) (SC-DOWNLOADER.COM).mp3
AudioLeadIn: 0
PreviewTime: -1
Countdown: 1
SampleSet: Normal
StackLeniency: 0.7
Mode: 0
LetterboxInBreaks: 1
WidescreenStoryboard: 0

[Editor]
Bookmarks: 223454,401352
DistanceSpacing: 0.8
BeatDivisor: 4
GridSize: 4
TimelineZoom: 1.3

[Metadata]
Title:M3-2015 Dream Chasers (Crossfade Demo)
TitleUnicode:【M3-2015春】 Dream Chasers (Crossfade Demo)
Artist:Umeboshi Chazuke
ArtistUnicode:梅干茶漬け
Creator:Ovoui
Version:Milady
Source:
Tags:
BeatmapID:814588
BeatmapSetID:368717

[Difficulty]
HPDrainRate:6
CircleSize:4
OverallDifficulty:8
ApproachRate:9.3
SliderMultiplier:1.80000000596046
SliderTickRate:1

[Events]
//Background and Video events
0,0,"olala.jpg",0,0
//Break Periods
//Storyboard Layer 0 (Background)
//Storyboard Layer 1 (Fail)
//Storyboard Layer 2 (Pass)
//Storyboard Layer 3 (Foreground)
//Storyboard Sound Samples

[TimingPoints]
750,306.122448979592,4,1,0,100,1,0
46820,307.692307692308,4,1,0,100,1,0
98910,295.566502463054,4,1,0,100,1,0
121365,292.682926829268,4,1,0,100,1,0
147620,352.941176470588,4,1,0,100,1,0
191375,297.029702970297,4,1,0,100,1,0
257480,309.278350515464,4,2,0,60,1,0
257789,-133.333333333333,4,2,0,60,0,0
262428,-100,4,1,0,60,0,0
267376,-133.333333333333,4,2,0,60,0,0
277273,-133.333333333333,4,3,0,60,0,0
280057,-133.333333333333,4,3,0,70,0,0
280675,-133.333333333333,4,3,0,80,0,0
281912,-117.647058823529,4,3,0,90,0,0
285933,-133.333333333333,4,3,0,40,0,0
287170,-83.3333333333333,4,1,0,80,0,1
302016,-100,4,1,0,80,0,1
305727,-83.3333333333333,4,1,0,80,0,1
306964,-100,4,1,0,80,0,0
313600,315.789473684211,4,1,0,100,1,0
369045,288.461538461538,4,1,0,100,1,0
437698,405.405405405405,4,1,0,100,1,0
442562,384.615384615385,4,1,0,100,1,0
443351,394.736842105263,4,1,0,100,1,0
445818,400,4,1,0,100,1,0
446193,400,4,1,0,100,1,0
447129,461.538461538462,4,1,0,100,1,0
448920,309.278350515464,4,1,0,100,1,0
449596,315.789473684211,4,1,0,100,1,0
453069,363.636363636364,4,1,0,100,1,0
453796,363.636363636364,4,1,0,100,1,0
454920,400,4,1,0,100,1,0
483720,389.61038961039,4,1,0,100,1,0
486836,379.746835443038,4,1,0,100,1,0
489873,370.37037037037,4,1,0,100,1,0
492830,363.636363636364,4,1,0,100,1,0
507375,384.615384615385,4,1,0,100,1,0
508930,428.571428571429,4,1,0,100,1,0
510880,400,4,1,0,100,1,0

[HitObjects]
96,176,258098,5,0,0:0:0:0:
152,116,258253,1,0,0:0:0:0:
216,168,258407,2,0,B|272:212|272:212|324:200|364:212,1,135.000005596876
404,160,258871,1,0,0:0:0:0:
388,80,259026,2,0,L|300:80,1,67.500002798438
320,80,259490,5,0,0:0:0:0:
304,160,259644,1,0,0:0:0:0:
236,204,259799,1,0,0:0:0:0:
164,116,259954,2,0,P|136:168|116:248,1,135.000005596876,2|0,0:0|0:0,0:0:0:0:
200,220,260418,5,0,0:0:0:0:
232,60,260572,2,0,L|312:60,1,67.500002798438
400,132,260882,2,0,L|312:132,1,67.500002798438
240,216,261191,6,0,B|292:240|292:240|320:268|312:328|344:328,1,135.000005596876,2|0,0:0|0:0,0:0:0:0:
424,228,261655,1,0,0:0:0:0:
368,136,261809,2,0,L|320:60,2,67.500002798438
300,180,262273,1,0,0:0:0:0:
260,180,262351,1,0,0:0:0:0:
208,180,262428,6,0,L|112:180,1,90.000000298023,8|0,0:0|0:0,0:0:0:0:
184,96,262737,2,0,L|280:96,1,90.000000298023,8|0,0:0|0:0,0:0:0:0:
324,192,263047,2,0,P|280:256|276:280,1,90.000000298023,8|0,0:0|0:0,0:0:0:0:
384,260,263356,2,0,P|420:224|436:168,1,90.000000298023,8|0,0:0|0:0,0:0:0:0:
404,84,263665,5,0,0:0:0:0:
316,144,263820,1,0,0:0:0:0:
244,64,263974,1,0,0:0:0:0:
244,64,264129,2,0,L|148:64,1,90.000000298023,0|8,0:0|0:0,0:0:0:0:
208,160,264438,2,0,L|136:236,1,90.000000298023,0|8,0:0|0:0,0:0:0:0:
156,252,264670,1,8,0:0:0:0:
172,268,264748,1,8,0:0:0:0:
196,276,264825,1,8,0:0:0:0:
224,276,264902,6,0,L|332:276,1,90.000000298023
372,144,265211,1,8,0:0:0:0:
260,52,265366,1,0,0:0:0:0:
256,272,265521,1,0,0:0:0:0:
120,132,265675,1,0,0:0:0:0:
328,156,265830,5,8,0:0:0:0:
184,304,265985,1,0,0:0:0:0:
384,60,266139,1,8,0:0:0:0:
412,84,266217,1,8,0:0:0:0:
432,112,266294,1,8,0:0:0:0:
448,144,266371,1,8,0:0:0:0:
452,180,266449,1,8,0:0:0:0:
448,216,266526,1,8,0:0:0:0:
436,248,266603,1,8,0:0:0:0:
412,276,266681,1,8,0:0:0:0:
380,292,266758,1,8,0:0:0:0:
212,156,267376,6,0,P|148:192|80:192,1,135.000005596876
296,64,268150,1,0,0:0:0:0:
276,144,268304,1,0,0:0:0:0:
316,216,268459,1,0,0:0:0:0:
388,180,268614,2,0,P|384:252|308:296,1,135.000005596876,2|0,0:0|0:0,0:0:0:0:
272,332,269077,2,0,P|208:316|128:316,1,135.000005596876
216,172,269696,5,0,0:0:0:0:
216,172,269851,2,2,L|208:112,2,33.750001399219
296,156,270160,1,0,0:0:0:0:
348,92,270315,1,0,0:0:0:0:
384,248,270624,2,0,L|284:248,1,67.500002798438
244,288,270933,2,0,P|192:296|104:280,1,135.000005596876,2|0,0:0|0:0,0:0:0:0:
284,112,271551,5,0,0:0:0:0:
348,164,271706,1,0,0:0:0:0:
316,240,271861,2,0,L|236:240,1,67.500002798438
352,304,272170,1,0,0:0:0:0:
428,272,272325,2,0,P|448:216|420:128,1,135.000005596876,2|0,0:0|0:0,0:0:0:0:
164,48,273098,5,0,0:0:0:0:
228,100,273252,1,0,0:0:0:0:
192,172,273407,2,0,L|120:172,1,67.500002798438,0|2,0:0|0:0,0:0:0:0:
80,176,273639,1,0,0:0:0:0:
40,176,273717,1,0,0:0:0:0:
76,248,273871,5,0,0:0:0:0:
140,300,274026,2,0,P|180:288|272:300,1,135.000005596876
380,84,274644,6,0,B|396:124|396:124|380:176|444:212,1,135.000005596876
459,142,275109,1,0,0:0:0:0:
459,142,275263,2,0,L|427:206,1,67.500002798438,2|0,0:0|0:0,0:0:0:0:
348,204,275572,1,0,0:0:0:0:
236,88,275882,6,0,L|96:160,1,135.000005596876
124,188,276268,1,0,0:0:0:0:
148,220,276345,1,0,0:0:0:0:
184,240,276423,1,0,0:0:0:0:
224,252,276500,1,0,0:0:0:0:
264,256,276577,1,0,0:0:0:0:
304,256,276655,1,0,0:0:0:0:
344,252,276732,1,0,0:0:0:0:
376,228,276809,5,0,0:0:0:0:
404,196,276887,1,0,0:0:0:0:
420,160,276964,1,0,0:0:0:0:
420,120,277041,1,0,0:0:0:0:
400,84,277119,1,0,0:0:0:0:
364,64,277196,1,0,0:0:0:0:
324,72,277273,6,0,L|236:196,1,135.000005596876,8|0,0:0|0:0,0:0:0:0:
264,344,277892,1,0,0:0:0:0:
320,284,278047,2,0,L|420:280,1,67.500002798438,0|8,0:0|0:0,0:0:0:0:
412,204,278356,1,0,0:0:0:0:
324,80,278510,6,0,P|304:136|212:152,1,135.000005596876,0|8,0:0|0:0,0:0:0:0:
248,80,278974,2,0,L|344:188,1,135.000005596876
304,256,279438,1,8,0:0:0:0:
304,256,279516,1,0,0:0:0:0:
304,256,279593,2,0,L|232:304,1,67.500002798438
272,176,279902,2,0,L|344:128,1,67.500002798438,0|8,0:0|0:0,0:0:0:0:
368,68,280211,5,0,0:0:0:0:
448,76,280366,1,0,0:0:0:0:
444,156,280521,1,0,0:0:0:0:
364,148,280675,1,8,0:0:0:0:
244,132,280830,5,8,0:0:0:0:
204,140,280908,1,8,0:0:0:0:
164,148,280985,1,8,0:0:0:0:
112,212,281139,1,0,0:0:0:0:
156,280,281294,2,0,L|300:280,1,135.000005596876,8|0,0:0|0:0,0:0:0:0:
356,232,281758,5,0,0:0:0:0:
204,128,281912,2,0,L|296:128,1,76.5000017124413,8|0,0:0|0:0,0:0:0:0:
308,128,282144,1,2,0:0:0:0:
340,128,282222,1,2,0:0:0:0:
440,224,282376,5,0,0:0:0:0:
400,308,282531,2,0,L|312:308,1,76.5000017124413,8|0,0:0|0:0,0:0:0:0:
176,196,282841,1,0,0:0:0:0:
124,120,282996,1,0,0:0:0:0:
184,52,283150,2,0,L|268:52,1,76.5000017124413,8|0,0:0|0:0,0:0:0:0:
292,52,283382,1,2,0:0:0:0:
324,52,283459,1,2,0:0:0:0:
264,212,283614,5,0,0:0:0:0:
204,280,283769,1,8,0:0:0:0:
128,328,283923,2,0,L|40:328,2,76.5000017124413
96,240,284387,5,8,0:0:0:0:
244,132,284541,2,0,L|324:160,1,76.5000017124413
356,184,284773,1,0,0:0:0:0:
344,228,284851,1,0,0:0:0:0:
344,272,284928,1,0,0:0:0:0:
368,308,285005,1,0,0:0:0:0:
408,328,285083,2,0,L|448:328,3,38.2500008562206
428,284,285392,2,0,L|468:264,3,38.2500008562206
472,224,285701,5,0,0:0:0:0:
472,180,285778,1,0,0:0:0:0:
460,136,285856,1,0,0:0:0:0:
432,100,285933,1,0,0:0:0:0:
412,112,286010,1,0,0:0:0:0:
392,124,286088,1,0,0:0:0:0:
372,136,286165,1,0,0:0:0:0:
352,148,286242,1,0,0:0:0:0:
332,160,286320,1,0,0:0:0:0:
312,168,286397,1,0,0:0:0:0:
292,180,286474,1,0,0:0:0:0:
272,192,286552,1,0,0:0:0:0:
252,204,286629,1,0,0:0:0:0:
232,216,286706,1,0,0:0:0:0:
212,228,286784,1,0,0:0:0:0:
192,240,286861,6,0,P|132:252|44:212,1,135.000005596876,8|0,0:0|0:0,0:0:0:0:
136,116,287325,2,0,L|48:200,1,107.999997061729,0|8,0:0|0:0,0:0:0:0:
84,316,287634,1,0,0:0:0:0:
176,224,287789,1,0,0:0:0:0:
326,62,287943,2,0,L|244:156,1,107.999997061729,0|8,0:0|0:0,0:0:0:0:
384,164,288253,5,0,0:0:0:0:
388,292,288407,2,0,P|320:272|168:292,1,215.999994123458,0|8,0:0|0:0,0:0:0:0:
276,372,288871,1,0,0:0:0:0:
276,372,289026,2,0,L|276:144,1,215.999994123458,0|8,0:0|0:0,0:0:0:0:
380,80,289490,5,0,0:0:0:0:
380,80,289567,1,0,0:0:0:0:
380,80,289644,2,0,P|308:104|260:96,1,107.999997061729
71,185,289954,2,0,P|123:196|176:184,1,107.999997061729,8|0,0:0|0:0,0:0:0:0:
284,112,290263,1,0,0:0:0:0:
392,184,290418,1,0,0:0:0:0:
256,228,290572,1,8,0:0:0:0:
277,101,290727,2,0,B|217:69|217:69|217:69|169:77|153:33|153:33|121:17|73:1,1,215.999994123458
56,132,291191,5,8,0:0:0:0:
56,132,291268,1,0,0:0:0:0:
56,132,291345,2,0,L|156:200,1,107.999997061729
152,324,291655,1,0,0:0:0:0:
152,324,291732,1,8,0:0:0:0:
152,324,291809,2,0,L|60:252,1,107.999997061729
196,232,292119,6,0,P|260:252|268:132,1,215.999994123458,0|8,0:0|0:0,0:0:0:0:
404,172,292583,2,0,P|400:108|372:64,1,107.999997061729
272,236,292892,2,0,P|300:184|284:132,1,107.999997061729,0|8,0:0|0:0,0:0:0:0:
176,72,293201,1,0,0:0:0:0:
176,72,293356,6,0,P|100:120|60:248,1,215.999994123458,0|8,0:0|0:0,0:0:0:0:
184,200,293820,1,0,0:0:0:0:
332,328,293974,2,0,L|448:328,1,107.999997061729
448,244,294284,2,0,L|340:244,1,107.999997061729,8|0,0:0|0:0,0:0:0:0:
340,244,294516,1,0,0:0:0:0:
340,244,294593,1,0,0:0:0:0:
264,136,294748,5,0,0:0:0:0:
136,124,294902,2,0,P|104:184|108:228,1,107.999997061729,8|0,0:0|0:0,0:0:0:0:
8,308,295211,2,0,P|60:344|120:340,1,107.999997061729
120,216,295521,1,8,0:0:0:0:
244,256,295675,2,0,B|288:196|288:160|288:160|264:108|216:80,1,215.999994123458,4|0,0:0|0:0,0:0:0:0:
180,88,296062,5,0,0:0:0:0:
144,100,296139,1,8,0:0:0:0:
112,116,296217,1,0,0:0:0:0:
84,140,296294,1,0,0:0:0:0:
60,168,296371,1,0,0:0:0:0:
44,204,296449,1,0,0:0:0:0:
36,240,296526,1,0,0:0:0:0:
36,276,296603,1,0,0:0:0:0:
44,312,296681,1,0,0:0:0:0:
60,348,296758,1,8,0:0:0:0:
88,372,296835,1,0,0:0:0:0:
124,384,296912,1,0,0:0:0:0:
164,380,296990,1,0,0:0:0:0:
200,368,297067,6,0,L|304:320,1,107.999997061729
336,196,297376,2,0,L|224:248,2,107.999997061729,8|0|0,0:0|0:0|0:0,0:0:0:0:
400,84,297840,1,0,0:0:0:0:
276,48,297995,1,8,0:0:0:0:
276,48,298072,1,0,0:0:0:0:
276,48,298150,2,0,B|192:40|180:160|180:160|128:160,1,215.999994123458
32,80,298614,5,8,0:0:0:0:
131,160,298768,2,0,L|207:240,1,107.999997061729
368,128,299077,1,0,0:0:0:0:
416,248,299232,1,8,0:0:0:0:
316,328,299387,1,0,0:0:0:0:
388,148,299541,2,0,P|400:216|320:348,1,215.999994123458,0|8,0:0|0:0,0:0:0:0:
284,220,300005,5,0,0:0:0:0:
284,220,300160,2,0,P|228:176|88:240,1,215.999994123458,0|8,0:0|0:0,0:0:0:0:
192,308,300624,1,0,0:0:0:0:
192,308,300701,1,0,0:0:0:0:
192,308,300778,1,0,0:0:0:0:
288,140,300932,2,0,P|360:144|404:132,1,107.999997061729,0|8,0:0|0:0,0:0:0:0:
464,24,301242,2,0,P|404:16|336:48,1,107.999997061729
292,144,301552,5,0,0:0:0:0:
256,144,301629,1,0,0:0:0:0:
220,144,301706,1,8,0:0:0:0:
180,144,301784,1,0,0:0:0:0:
144,144,301861,1,0,0:0:0:0:
108,144,301938,1,0,0:0:0:0:
68,144,302016,6,0,P|44:220|56:256,1,90.000000298023
148,264,302325,2,0,P|164:336|196:368,1,90.000000298023,8|0,0:0|0:0,0:0:0:0:
268,296,302634,2,0,P|300:348|360:352,1,90.000000298023
372,260,302943,1,8,0:0:0:0:
384,152,303098,1,0,0:0:0:0:
300,84,303253,6,0,L|196:84,1,90.000000298023
152,180,303562,2,0,L|248:180,1,90.000000298023,8|0,0:0|0:0,0:0:0:0:
72,208,303871,2,0,P|84:280|184:320,1,180.000000596046,0|8,0:0|0:0,0:0:0:0:
220,208,304335,1,0,0:0:0:0:
372,208,304490,2,0,P|350:291|269:321,1,180.000000596046,0|8,0:0|0:0,0:0:0:0:
364,152,304954,5,0,0:0:0:0:
340,116,305031,1,0,0:0:0:0:
316,80,305108,1,0,0:0:0:0:
188,76,305263,1,0,0:0:0:0:
168,116,305340,1,0,0:0:0:0:
148,152,305418,1,8,0:0:0:0:
116,264,305572,5,0,0:0:0:0:
208,324,305727,2,0,L|264:304,2,53.9999985308646
244,272,305959,2,0,L|304:248,2,53.9999985308646
268,212,306191,2,0,L|340:184,2,53.9999985308646
292,152,306423,2,0,L|352:128,2,53.9999985308646
264,120,306655,5,0,0:0:0:0:
232,88,306732,1,0,0:0:0:0:
192,68,306809,1,0,0:0:0:0:
148,64,306887,1,0,0:0:0:0:
112,88,306964,1,4,0:0:0:0:
256,192,307119,12,4,310675,0:0:0:0:
