osu file format v14

[General]
AudioFilename: bgm.mp3
AudioLeadIn: 0
PreviewTime: 27139
Countdown: 0
SampleSet: Normal
StackLeniency: 0.7
Mode: 1
LetterboxInBreaks: 0
WidescreenStoryboard: 0

[Editor]
DistanceSpacing: 1
BeatDivisor: 4
GridSize: 32
TimelineZoom: 2.800001

[Metadata]
Title:Galaxy in Toybox
TitleUnicode:Galaxy in Toybox
Artist:Umeboshi Chazuke
ArtistUnicode:梅干茶漬け
Creator:maziari1105
Version:The Chipstyle World
Source:
Tags:chipstyle_toypop chiptune
BeatmapID:1182564
BeatmapSetID:559156

[Difficulty]
HPDrainRate:5
CircleSize:5
OverallDifficulty:7.5
ApproachRate:7.5
SliderMultiplier:1.4
SliderTickRate:1

[Events]
//Background and Video events
0,0,"bg.png",0,20
//Break Periods
//Storyboard Layer 0 (Background)
//Storyboard Layer 1 (Fail)
//Storyboard Layer 2 (Pass)
//Storyboard Layer 3 (Foreground)
//Storyboard Sound Samples

[TimingPoints]
1168,500,4,1,0,60,1,0
15095,-100,4,1,0,80,0,0
15168,288.461538461538,4,1,0,100,1,0
17403,-100,4,1,0,70,0,0
17692,-100,4,1,0,80,0,0
17980,-100,4,1,0,90,0,0
18268,-100,4,1,0,100,0,0
67091,-100,4,1,0,100,0,1
85552,-100,4,1,0,100,0,0
106249,-133.333333333333,4,1,0,80,0,0
110865,-117.647058823529,4,1,0,100,0,0
113244,-105.263157894737,4,1,0,100,0,0
114398,-100,4,1,0,100,0,0
115841,-100,4,1,0,100,0,1
130552,-100,4,1,0,100,0,0

[HitObjects]
256,192,1168,5,0,0:0:0:0:
256,192,1418,1,0,0:0:0:0:
256,192,1668,1,2,0:0:0:0:
256,192,1918,1,2,0:0:0:0:
256,192,2168,1,0,0:0:0:0:
256,192,2418,1,0,0:0:0:0:
256,192,2543,1,0,0:0:0:0:
256,192,2668,1,2,0:0:0:0:
256,192,2918,1,2,0:0:0:0:
256,192,3043,1,2,0:0:0:0:
256,192,3168,1,0,0:0:0:0:
256,192,3418,1,0,0:0:0:0:
256,192,3668,1,2,0:0:0:0:
256,192,3918,1,2,0:0:0:0:
256,192,4168,1,0,0:0:0:0:
256,192,4418,1,0,0:0:0:0:
256,192,4543,1,0,0:0:0:0:
256,192,4668,1,2,0:0:0:0:
256,192,4793,1,0,0:0:0:0:
256,192,4918,1,2,0:0:0:0:
256,192,5043,1,2,0:0:0:0:
256,192,5168,1,0,0:0:0:0:
256,192,5418,1,2,0:0:0:0:
256,192,5668,1,2,0:0:0:0:
256,192,5918,1,2,0:0:0:0:
256,192,6043,1,2,0:0:0:0:
256,192,6168,1,0,0:0:0:0:
256,192,6293,1,2,0:0:0:0:
256,192,6543,1,0,0:0:0:0:
256,192,6668,1,2,0:0:0:0:
256,192,6918,1,0,0:0:0:0:
256,192,7043,1,2,0:0:0:0:
256,192,7168,1,0,0:0:0:0:
256,192,7418,1,0,0:0:0:0:
256,192,7668,1,2,0:0:0:0:
256,192,7918,1,2,0:0:0:0:
256,192,8043,1,2,0:0:0:0:
256,192,8168,1,0,0:0:0:0:
256,192,8418,1,0,0:0:0:0:
256,192,8668,1,2,0:0:0:0:
256,192,8918,1,0,0:0:0:0:
256,192,9168,1,0,0:0:0:0:
256,192,9418,1,0,0:0:0:0:
256,192,9668,1,2,0:0:0:0:
256,192,9918,1,2,0:0:0:0:
256,192,10043,1,2,0:0:0:0:
256,192,10168,1,0,0:0:0:0:
256,192,10293,1,0,0:0:0:0:
256,192,10418,1,2,0:0:0:0:
256,192,10543,1,0,0:0:0:0:
256,192,10793,1,2,0:0:0:0:
256,192,10918,1,0,0:0:0:0:
256,192,11043,1,2,0:0:0:0:
256,192,11168,1,0,0:0:0:0:
256,192,11418,1,0,0:0:0:0:
256,192,11668,1,2,0:0:0:0:
256,192,11793,1,2,0:0:0:0:
256,192,12043,1,2,0:0:0:0:
256,192,12168,1,0,0:0:0:0:
256,192,12418,1,0,0:0:0:0:
256,192,12668,1,2,0:0:0:0:
256,192,12918,1,2,0:0:0:0:
256,192,13043,1,2,0:0:0:0:
256,192,13168,1,0,0:0:0:0:
256,192,13543,1,0,0:0:0:0:
256,192,13668,1,2,0:0:0:0:
256,192,13918,1,0,0:0:0:0:
256,192,14168,1,2,0:0:0:0:
256,192,14543,1,0,0:0:0:0:
256,192,14668,1,2,0:0:0:0:
256,192,14793,1,2,0:0:0:0:
256,192,14918,1,0,0:0:0:0:
256,192,15168,1,6,0:0:0:0:
256,192,17475,1,2,0:0:0:0:
256,192,17764,1,2,0:0:0:0:
256,192,18052,1,2,0:0:0:0:
256,192,18341,1,2,0:0:0:0:
256,192,18629,1,0,0:0:0:0:
256,192,18773,1,2,0:0:0:0:
256,192,18917,1,0,0:0:0:0:
256,192,19206,1,0,0:0:0:0:
256,192,19350,1,2,0:0:0:0:
256,192,19494,1,0,0:0:0:0:
256,192,19639,1,2,0:0:0:0:
256,192,19783,1,0,0:0:0:0:
256,192,19927,1,2,0:0:0:0:
256,192,19999,1,2,0:0:0:0:
256,192,20071,1,0,0:0:0:0:
256,192,20216,1,0,0:0:0:0:
256,192,20360,1,2,0:0:0:0:
256,192,20504,1,2,0:0:0:0:
256,192,20648,1,0,0:0:0:0:
256,192,20792,1,2,0:0:0:0:
256,192,20937,1,0,0:0:0:0:
256,192,21081,1,2,0:0:0:0:
256,192,21225,1,0,0:0:0:0:
256,192,21442,1,2,0:0:0:0:
256,192,21514,1,0,0:0:0:0:
256,192,21658,1,2,0:0:0:0:
256,192,21802,1,0,0:0:0:0:
256,192,21874,1,0,0:0:0:0:
256,192,21946,1,2,0:0:0:0:
256,192,22018,1,2,0:0:0:0:
256,192,22091,1,0,0:0:0:0:
256,192,22235,1,2,0:0:0:0:
256,192,22307,1,2,0:0:0:0:
256,192,22379,1,0,0:0:0:0:
256,192,22523,1,2,0:0:0:0:
256,192,22667,1,0,0:0:0:0:
256,192,22812,1,0,0:0:0:0:
256,192,22884,1,0,0:0:0:0:
256,192,22956,1,2,0:0:0:0:
256,192,23028,1,0,0:0:0:0:
256,192,23100,1,2,0:0:0:0:
256,192,23172,1,2,0:0:0:0:
256,192,23244,1,0,0:0:0:0:
256,192,23389,1,0,0:0:0:0:
256,192,23533,1,2,0:0:0:0:
256,192,23821,1,0,0:0:0:0:
256,192,23966,1,0,0:0:0:0:
256,192,24110,1,2,0:0:0:0:
256,192,24254,1,2,0:0:0:0:
256,192,24398,1,0,0:0:0:0:
256,192,24542,1,0,0:0:0:0:
256,192,24615,1,0,0:0:0:0:
256,192,24687,1,2,0:0:0:0:
256,192,24831,1,0,0:0:0:0:
256,192,24975,1,2,0:0:0:0:
256,192,25047,1,2,0:0:0:0:
256,192,25119,1,0,0:0:0:0:
256,192,25192,1,0,0:0:0:0:
256,192,25264,1,2,0:0:0:0:
256,192,25408,1,2,0:0:0:0:
256,192,25552,1,0,0:0:0:0:
256,192,25696,1,2,0:0:0:0:
256,192,25768,1,0,0:0:0:0:
256,192,25841,1,2,0:0:0:0:
256,192,25913,1,2,0:0:0:0:
256,192,25985,1,0,0:0:0:0:
256,192,26057,1,0,0:0:0:0:
256,192,26129,1,2,0:0:0:0:
256,192,26273,1,0,0:0:0:0:
256,192,26345,1,0,0:0:0:0:
256,192,26417,1,2,0:0:0:0:
256,192,26490,1,2,0:0:0:0:
256,192,26562,1,0,0:0:0:0:
256,192,26706,1,6,0:0:0:0:
256,192,26850,1,6,0:0:0:0:
256,192,27139,1,2,0:0:0:0:
256,192,27211,1,2,0:0:0:0:
256,192,27283,1,0,0:0:0:0:
256,192,27427,1,0,0:0:0:0:
256,192,27571,1,2,0:0:0:0:
256,192,27643,1,0,0:0:0:0:
256,192,27716,1,2,0:0:0:0:
256,192,27788,1,2,0:0:0:0:
256,192,27860,1,0,0:0:0:0:
256,192,28004,1,0,0:0:0:0:
256,192,28076,1,0,0:0:0:0:
256,192,28148,1,2,0:0:0:0:
256,192,28292,1,2,0:0:0:0:
256,192,28437,1,2,0:0:0:0:
256,192,28509,1,2,0:0:0:0:
256,192,28581,1,0,0:0:0:0:
256,192,28725,1,2,0:0:0:0:
256,192,28869,1,0,0:0:0:0:
256,192,28942,1,2,0:0:0:0:
256,192,29014,1,0,0:0:0:0:
256,192,29158,1,0,0:0:0:0:
256,192,29230,1,0,0:0:0:0:
256,192,29302,1,2,0:0:0:0:
256,192,29374,1,2,0:0:0:0:
256,192,29446,1,0,0:0:0:0:
256,192,29591,1,2,0:0:0:0:
256,192,29663,1,0,0:0:0:0:
256,192,29807,1,0,0:0:0:0:
256,192,29879,1,2,0:0:0:0:
256,192,30023,1,2,0:0:0:0:
256,192,30095,1,2,0:0:0:0:
256,192,30167,1,0,0:0:0:0:
256,192,30312,1,0,0:0:0:0:
256,192,30384,1,0,0:0:0:0:
256,192,30456,1,2,0:0:0:0:
256,192,30600,1,2,0:0:0:0:
256,192,30744,1,2,0:0:0:0:
256,192,30817,1,2,0:0:0:0:
256,192,30889,1,0,0:0:0:0:
256,192,31033,1,2,0:0:0:0:
256,192,31177,1,0,0:0:0:0:
256,192,31249,1,2,0:0:0:0:
256,192,31321,1,0,0:0:0:0:
256,192,31466,1,0,0:0:0:0:
256,192,31538,1,2,0:0:0:0:
256,192,31682,1,0,0:0:0:0:
256,192,31754,1,2,0:0:0:0:
256,192,31826,1,2,0:0:0:0:
256,192,31898,1,0,0:0:0:0:
256,192,31970,1,2,0:0:0:0:
256,192,32042,1,0,0:0:0:0:
256,192,32187,1,2,0:0:0:0:
256,192,32259,1,2,0:0:0:0:
256,192,32331,1,0,0:0:0:0:
256,192,32403,1,2,0:0:0:0:
256,192,32475,1,0,0:0:0:0:
256,192,32619,1,2,0:0:0:0:
256,192,32692,1,0,0:0:0:0:
256,192,32764,1,2,0:0:0:0:
256,192,32908,1,2,0:0:0:0:
256,192,33052,1,0,0:0:0:0:
256,192,33124,1,2,0:0:0:0:
256,192,33196,1,0,0:0:0:0:
256,192,33341,1,2,0:0:0:0:
256,192,33485,1,2,0:0:0:0:
256,192,33557,1,2,0:0:0:0:
256,192,33629,1,0,0:0:0:0:
256,192,33773,1,0,0:0:0:0:
256,192,33845,1,2,0:0:0:0:
256,192,33990,1,2,0:0:0:0:
256,192,34062,1,0,0:0:0:0:
256,192,34206,1,2,0:0:0:0:
256,192,34278,1,2,0:0:0:0:
256,192,34350,1,0,0:0:0:0:
256,192,34422,1,0,0:0:0:0:
256,192,34494,1,2,0:0:0:0:
256,192,34639,1,0,0:0:0:0:
256,192,34711,1,2,0:0:0:0:
256,192,34783,1,0,0:0:0:0:
256,192,34927,1,2,0:0:0:0:
256,192,34999,1,0,0:0:0:0:
256,192,35071,1,2,0:0:0:0:
256,192,35216,1,2,0:0:0:0:
256,192,35360,1,0,0:0:0:0:
256,192,35432,1,2,0:0:0:0:
256,192,35504,1,0,0:0:0:0:
256,192,35648,1,2,0:0:0:0:
256,192,35792,1,2,0:0:0:0:
256,192,35865,1,2,0:0:0:0:
256,192,35937,1,0,0:0:0:0:
256,192,36009,1,2,0:0:0:0:
256,192,36081,1,0,0:0:0:0:
256,192,36369,1,2,0:0:0:0:
256,192,36514,1,0,0:0:0:0:
256,192,36658,1,0,0:0:0:0:
256,192,36802,1,6,0:0:0:0:
256,192,36946,1,2,0:0:0:0:
256,192,37091,1,4,0:0:0:0:
256,192,37235,1,0,0:0:0:0:
256,192,37307,1,0,0:0:0:0:
256,192,37379,1,2,0:0:0:0:
256,192,37523,1,2,0:0:0:0:
256,192,37667,1,2,0:0:0:0:
256,192,37740,1,2,0:0:0:0:
256,192,37812,1,0,0:0:0:0:
256,192,37884,1,0,0:0:0:0:
256,192,37956,1,2,0:0:0:0:
256,192,38100,1,0,0:0:0:0:
256,192,38172,1,2,0:0:0:0:
256,192,38244,1,0,0:0:0:0:
256,192,38389,1,0,0:0:0:0:
256,192,38461,1,0,0:0:0:0:
256,192,38533,1,2,0:0:0:0:
256,192,38605,1,2,0:0:0:0:
256,192,38677,1,0,0:0:0:0:
256,192,38821,1,2,0:0:0:0:
256,192,38893,1,0,0:0:0:0:
256,192,39038,1,0,0:0:0:0:
256,192,39110,1,2,0:0:0:0:
256,192,39254,1,2,0:0:0:0:
256,192,39326,1,2,0:0:0:0:
256,192,39398,1,0,0:0:0:0:
256,192,39542,1,0,0:0:0:0:
256,192,39615,1,0,0:0:0:0:
256,192,39687,1,2,0:0:0:0:
256,192,39831,1,2,0:0:0:0:
256,192,39975,1,2,0:0:0:0:
256,192,40047,1,2,0:0:0:0:
256,192,40119,1,0,0:0:0:0:
256,192,40192,1,0,0:0:0:0:
256,192,40264,1,2,0:0:0:0:
256,192,40408,1,0,0:0:0:0:
256,192,40480,1,2,0:0:0:0:
256,192,40552,1,0,0:0:0:0:
256,192,40696,1,0,0:0:0:0:
256,192,40768,1,0,0:0:0:0:
256,192,40841,1,2,0:0:0:0:
256,192,40913,1,2,0:0:0:0:
256,192,40985,1,0,0:0:0:0:
256,192,41057,1,2,0:0:0:0:
256,192,41201,1,2,0:0:0:0:
256,192,41273,1,0,0:0:0:0:
256,192,41345,1,0,0:0:0:0:
256,192,41417,1,2,0:0:0:0:
256,192,41562,1,0,0:0:0:0:
256,192,41634,1,2,0:0:0:0:
256,192,41706,1,0,0:0:0:0:
256,192,41850,1,2,0:0:0:0:
256,192,41922,1,0,0:0:0:0:
256,192,41994,1,2,0:0:0:0:
256,192,42139,1,2,0:0:0:0:
256,192,42283,1,0,0:0:0:0:
256,192,42355,1,2,0:0:0:0:
256,192,42427,1,0,0:0:0:0:
256,192,42499,1,0,0:0:0:0:
256,192,42571,1,2,0:0:0:0:
256,192,42716,1,2,0:0:0:0:
256,192,42788,1,2,0:0:0:0:
256,192,42860,1,0,0:0:0:0:
256,192,43004,1,0,0:0:0:0:
256,192,43076,1,2,0:0:0:0:
256,192,43220,1,2,0:0:0:0:
256,192,43292,1,0,0:0:0:0:
256,192,43437,1,2,0:0:0:0:
256,192,43509,1,2,0:0:0:0:
256,192,43653,1,0,0:0:0:0:
256,192,43725,1,2,0:0:0:0:
256,192,43797,1,2,0:0:0:0:
256,192,43869,1,0,0:0:0:0:
256,192,43942,1,2,0:0:0:0:
256,192,44014,1,0,0:0:0:0:
256,192,44158,1,2,0:0:0:0:
256,192,44230,1,2,0:0:0:0:
256,192,44302,1,0,0:0:0:0:
256,192,44446,1,2,0:0:0:0:
256,192,44591,1,0,0:0:0:0:
256,192,44663,1,0,0:0:0:0:
256,192,44735,1,2,0:0:0:0:
256,192,44879,1,0,0:0:0:0:
256,192,45023,1,0,0:0:0:0:
256,192,45095,1,2,0:0:0:0:
256,192,45167,1,0,0:0:0:0:
256,192,45240,1,0,0:0:0:0:
256,192,45312,1,2,0:0:0:0:
256,192,45384,1,0,0:0:0:0:
256,192,45456,1,2,0:0:0:0:
256,192,45528,1,2,0:0:0:0:
256,192,45600,1,0,0:0:0:0:
256,192,45672,1,2,0:0:0:0:
256,192,45744,1,0,0:0:0:0:
256,192,45817,1,0,0:0:0:0:
256,192,45889,1,0,0:0:0:0:
256,192,45961,1,0,0:0:0:0:
256,192,46033,1,2,0:0:0:0:
256,192,46105,1,2,0:0:0:0:
256,192,46177,1,2,0:0:0:0:
256,192,46249,1,2,0:0:0:0:
256,192,46321,1,0,0:0:0:0:
256,192,46610,1,2,0:0:0:0:
256,192,46754,1,0,0:0:0:0:
256,192,46826,1,2,0:0:0:0:
256,192,46898,1,0,0:0:0:0:
256,192,47042,1,0,0:0:0:0:
256,192,47187,1,2,0:0:0:0:
256,192,47331,1,0,0:0:0:0:
256,192,47475,1,0,0:0:0:0:
256,192,47619,1,0,0:0:0:0:
256,192,47692,1,0,0:0:0:0:
256,192,47764,1,2,0:0:0:0:
256,192,47836,1,0,0:0:0:0:
256,192,47908,1,2,0:0:0:0:
256,192,47980,1,2,0:0:0:0:
256,192,48052,1,0,0:0:0:0:
256,192,48124,1,2,0:0:0:0:
256,192,48196,1,0,0:0:0:0:
256,192,48268,1,0,0:0:0:0:
256,192,48341,1,2,0:0:0:0:
256,192,48413,1,2,0:0:0:0:
256,192,48485,1,0,0:0:0:0:
256,192,48557,1,2,0:0:0:0:
256,192,48629,1,0,0:0:0:0:
256,192,48701,1,0,0:0:0:0:
256,192,48773,1,2,0:0:0:0:
256,192,48845,1,0,0:0:0:0:
256,192,48917,1,2,0:0:0:0:
256,192,49062,1,2,0:0:0:0:
256,192,49134,1,0,0:0:0:0:
256,192,49206,1,0,0:0:0:0:
256,192,49278,1,2,0:0:0:0:
256,192,49422,1,0,0:0:0:0:
256,192,49494,1,2,0:0:0:0:
256,192,49639,1,2,0:0:0:0:
256,192,49711,1,2,0:0:0:0:
256,192,49783,1,0,0:0:0:0:
256,192,49855,1,2,0:0:0:0:
256,192,49927,1,2,0:0:0:0:
256,192,49999,1,0,0:0:0:0:
256,192,50071,1,2,0:0:0:0:
256,192,50143,1,2,0:0:0:0:
256,192,50216,1,0,0:0:0:0:
256,192,50288,1,2,0:0:0:0:
256,192,50360,1,0,0:0:0:0:
256,192,50432,1,0,0:0:0:0:
256,192,50504,1,2,0:0:0:0:
256,192,50576,1,0,0:0:0:0:
256,192,50648,1,2,0:0:0:0:
256,192,50720,1,0,0:0:0:0:
256,192,50792,1,2,0:0:0:0:
256,192,50865,1,2,0:0:0:0:
256,192,50937,1,0,0:0:0:0:
256,192,51081,1,0,0:0:0:0:
256,192,51153,1,0,0:0:0:0:
256,192,51225,1,2,0:0:0:0:
256,192,51369,1,0,0:0:0:0:
256,192,51442,1,2,0:0:0:0:
256,192,51514,1,0,0:0:0:0:
256,192,51658,1,2,0:0:0:0:
256,192,51730,1,0,0:0:0:0:
256,192,51802,1,2,0:0:0:0:
256,192,51874,1,2,0:0:0:0:
256,192,51946,1,0,0:0:0:0:
256,192,52018,1,2,0:0:0:0:
256,192,52091,1,0,0:0:0:0:
256,192,52163,1,0,0:0:0:0:
256,192,52235,1,2,0:0:0:0:
256,192,52307,1,0,0:0:0:0:
256,192,52379,1,2,0:0:0:0:
256,192,52451,1,2,0:0:0:0:
256,192,52523,1,0,0:0:0:0:
256,192,52595,1,2,0:0:0:0:
256,192,52667,1,0,0:0:0:0:
256,192,52812,1,2,0:0:0:0:
256,192,52884,1,2,0:0:0:0:
256,192,52956,1,0,0:0:0:0:
256,192,53028,1,2,0:0:0:0:
256,192,53100,1,0,0:0:0:0:
256,192,53172,1,0,0:0:0:0:
256,192,53244,1,2,0:0:0:0:
256,192,53389,1,0,0:0:0:0:
256,192,53461,1,0,0:0:0:0:
256,192,53533,1,2,0:0:0:0:
256,192,53581,1,2,0:0:0:0:
256,192,53629,1,2,0:0:0:0:
256,192,53677,1,0,0:0:0:0:
256,192,53725,1,2,0:0:0:0:
256,192,53773,1,2,0:0:0:0:
256,192,53821,1,0,0:0:0:0:
256,192,53893,1,2,0:0:0:0:
256,192,53966,1,0,0:0:0:0:
256,192,54038,1,0,0:0:0:0:
256,192,54110,1,2,0:0:0:0:
256,192,54182,1,0,0:0:0:0:
256,192,54254,1,2,0:0:0:0:
256,192,54326,1,2,0:0:0:0:
256,192,54398,1,0,0:0:0:0:
256,192,54470,1,2,0:0:0:0:
256,192,54542,1,2,0:0:0:0:
256,192,54615,1,0,0:0:0:0:
256,192,54687,1,2,0:0:0:0:
256,192,54759,1,2,0:0:0:0:
256,192,54831,1,0,0:0:0:0:
256,192,54903,1,0,0:0:0:0:
256,192,54975,1,2,0:0:0:0:
256,192,55023,1,2,0:0:0:0:
256,192,55071,1,2,0:0:0:0:
256,192,55119,1,0,0:0:0:0:
256,192,55192,1,0,0:0:0:0:
256,192,55264,1,2,0:0:0:0:
256,192,55312,1,0,0:0:0:0:
256,192,55360,1,0,0:0:0:0:
256,192,55408,1,2,0:0:0:0:
256,192,55696,1,0,0:0:0:0:
256,192,55768,1,0,0:0:0:0:
256,192,55841,1,2,0:0:0:0:
256,192,55913,1,0,0:0:0:0:
256,192,55985,1,0,0:0:0:0:
256,192,56057,1,2,0:0:0:0:
256,192,56129,1,0,0:0:0:0:
256,192,56201,1,2,0:0:0:0:
256,192,56273,1,2,0:0:0:0:
256,192,56345,1,0,0:0:0:0:
256,192,56417,1,2,0:0:0:0:
256,192,56490,1,2,0:0:0:0:
256,192,56562,1,0,0:0:0:0:
256,192,56634,1,2,0:0:0:0:
256,192,56706,1,0,0:0:0:0:
256,192,56754,1,2,0:0:0:0:
256,192,56802,1,2,0:0:0:0:
256,192,56850,1,0,0:0:0:0:
256,192,56898,1,2,0:0:0:0:
256,192,56946,1,2,0:0:0:0:
256,192,56994,1,0,0:0:0:0:
256,192,57067,1,2,0:0:0:0:
256,192,57139,1,0,0:0:0:0:
256,192,57211,1,0,0:0:0:0:
256,192,57283,1,2,0:0:0:0:
256,192,57379,1,0,0:0:0:0:
256,192,57475,1,0,0:0:0:0:
256,192,57571,1,2,0:0:0:0:
256,192,57667,1,0,0:0:0:0:
256,192,57764,1,0,0:0:0:0:
256,192,57860,1,2,0:0:0:0:
256,192,57932,1,0,0:0:0:0:
256,192,58004,1,2,0:0:0:0:
256,192,58076,1,2,0:0:0:0:
256,192,58148,1,0,0:0:0:0:
256,192,58220,1,2,0:0:0:0:
256,192,58292,1,2,0:0:0:0:
256,192,58365,1,2,0:0:0:0:
256,192,58437,1,0,0:0:0:0:
256,192,58509,1,2,0:0:0:0:
256,192,58581,1,0,0:0:0:0:
256,192,58653,1,0,0:0:0:0:
256,192,58725,1,2,0:0:0:0:
256,192,58797,1,2,0:0:0:0:
256,192,58869,1,0,0:0:0:0:
256,192,58942,1,2,0:0:0:0:
256,192,59014,1,0,0:0:0:0:
256,192,59158,1,0,0:0:0:0:
256,192,59230,1,0,0:0:0:0:
256,192,59302,1,2,0:0:0:0:
256,192,59374,1,2,0:0:0:0:
256,192,59446,1,0,0:0:0:0:
256,192,59518,1,2,0:0:0:0:
256,192,59591,1,0,0:0:0:0:
256,192,59663,1,0,0:0:0:0:
256,192,59735,1,2,0:0:0:0:
256,192,59807,1,0,0:0:0:0:
256,192,59879,1,2,0:0:0:0:
256,192,59951,1,2,0:0:0:0:
256,192,60023,1,0,0:0:0:0:
256,192,60095,1,2,0:0:0:0:
256,192,60167,1,0,0:0:0:0:
256,192,60384,1,2,0:0:0:0:
256,192,60456,1,0,0:0:0:0:
256,192,60600,1,2,0:0:0:0:
256,192,60744,1,0,0:0:0:0:
256,192,60961,1,2,0:0:0:0:
256,192,61033,1,0,0:0:0:0:
256,192,61177,1,2,0:0:0:0:
256,192,61321,1,0,0:0:0:0:
256,192,61393,1,2,0:0:0:0:
256,192,61538,1,2,0:0:0:0:
256,192,61610,1,0,0:0:0:0:
256,192,61754,1,2,0:0:0:0:
256,192,61826,1,2,0:0:0:0:
256,192,61898,1,0,0:0:0:0:
256,192,61970,1,2,0:0:0:0:
256,192,62115,1,0,0:0:0:0:
256,192,62187,1,2,0:0:0:0:
256,192,62331,1,2,0:0:0:0:
256,192,62403,1,2,0:0:0:0:
256,192,62475,1,0,0:0:0:0:
256,192,62547,1,0,0:0:0:0:
256,192,62619,1,2,0:0:0:0:
256,192,62692,1,0,0:0:0:0:
256,192,62764,1,2,0:0:0:0:
256,192,62836,1,0,0:0:0:0:
256,192,62908,1,0,0:0:0:0:
256,192,62980,1,2,0:0:0:0:
256,192,63052,1,0,0:0:0:0:
256,192,63124,1,2,0:0:0:0:
256,192,63196,1,2,0:0:0:0:
256,192,63268,1,0,0:0:0:0:
256,192,63341,1,2,0:0:0:0:
256,192,63413,1,0,0:0:0:0:
256,192,63485,1,2,0:0:0:0:
256,192,63557,1,2,0:0:0:0:
256,192,63629,1,0,0:0:0:0:
256,192,63701,1,2,0:0:0:0:
256,192,63773,1,2,0:0:0:0:
256,192,63845,1,0,0:0:0:0:
256,192,63917,1,2,0:0:0:0:
256,192,63990,1,0,0:0:0:0:
256,192,64062,1,2,0:0:0:0:
256,192,64134,1,2,0:0:0:0:
256,192,64206,1,0,0:0:0:0:
256,192,64278,1,2,0:0:0:0:
256,192,64350,1,0,0:0:0:0:
256,192,64422,1,0,0:0:0:0:
256,192,64494,1,2,0:0:0:0:
256,192,64542,1,0,0:0:0:0:
256,192,64591,1,0,0:0:0:0:
256,192,64639,1,2,0:0:0:0:
256,192,64687,1,0,0:0:0:0:
256,192,64735,1,0,0:0:0:0:
256,192,64783,1,2,0:0:0:0:
256,192,65937,1,0,0:0:0:0:
256,192,66033,1,0,0:0:0:0:
256,192,66129,1,0,0:0:0:0:
256,192,66225,1,2,0:0:0:0:
256,192,66321,1,2,0:0:0:0:
256,192,66417,1,0,0:0:0:0:
256,192,66514,1,2,0:0:0:0:
256,192,66802,1,6,0:0:0:0:
256,192,67091,1,0,0:0:0:0:
256,192,67235,1,0,0:0:0:0:
256,192,67379,1,2,0:0:0:0:
256,192,67451,1,0,0:0:0:0:
256,192,67523,1,2,0:0:0:0:
256,192,67595,1,0,0:0:0:0:
256,192,67667,1,0,0:0:0:0:
256,192,67812,1,0,0:0:0:0:
256,192,67956,1,2,0:0:0:0:
256,192,68100,1,6,0:0:0:0:
256,192,68389,1,0,0:0:0:0:
256,192,68533,1,2,0:0:0:0:
256,192,68677,1,0,0:0:0:0:
256,192,68749,1,2,0:0:0:0:
256,192,68821,1,0,0:0:0:0:
256,192,68966,1,0,0:0:0:0:
256,192,69110,1,2,0:0:0:0:
256,192,69254,1,2,0:0:0:0:
256,192,69326,1,2,0:0:0:0:
256,192,69398,1,0,0:0:0:0:
256,192,69542,1,0,0:0:0:0:
256,192,69615,1,0,0:0:0:0:
256,192,69687,1,2,0:0:0:0:
256,192,69759,1,0,0:0:0:0:
256,192,69831,1,2,0:0:0:0:
256,192,69903,1,2,0:0:0:0:
256,192,69975,1,0,0:0:0:0:
256,192,70119,1,2,0:0:0:0:
256,192,70192,1,0,0:0:0:0:
256,192,70264,1,0,0:0:0:0:
256,192,70408,1,6,0:0:0:0:
256,192,70696,1,0,0:0:0:0:
256,192,70841,1,2,0:0:0:0:
256,192,70985,1,2,0:0:0:0:
256,192,71057,1,2,0:0:0:0:
256,192,71129,1,0,0:0:0:0:
256,192,71201,1,2,0:0:0:0:
256,192,71273,1,0,0:0:0:0:
256,192,71345,1,0,0:0:0:0:
256,192,71417,1,2,0:0:0:0:
256,192,71562,1,0,0:0:0:0:
256,192,71634,1,2,0:0:0:0:
256,192,71706,1,0,0:0:0:0:
256,192,71850,1,0,0:0:0:0:
256,192,71922,1,0,0:0:0:0:
256,192,71994,1,2,0:0:0:0:
256,192,72139,1,2,0:0:0:0:
256,192,72283,1,0,0:0:0:0:
256,192,72355,1,2,0:0:0:0:
256,192,72427,1,0,0:0:0:0:
256,192,72499,1,0,0:0:0:0:
256,192,72571,1,2,0:0:0:0:
256,192,72716,1,2,0:0:0:0:
256,192,72788,1,2,0:0:0:0:
256,192,72860,1,0,0:0:0:0:
256,192,73004,1,0,0:0:0:0:
256,192,73148,1,2,0:0:0:0:
256,192,73292,1,0,0:0:0:0:
256,192,73365,1,2,0:0:0:0:
256,192,73437,1,0,0:0:0:0:
256,192,73581,1,0,0:0:0:0:
256,192,73725,1,2,0:0:0:0:
256,192,73869,1,2,0:0:0:0:
256,192,73942,1,2,0:0:0:0:
256,192,74014,1,0,0:0:0:0:
256,192,74158,1,0,0:0:0:0:
256,192,74230,1,0,0:0:0:0:
256,192,74302,1,2,0:0:0:0:
256,192,74374,1,0,0:0:0:0:
256,192,74446,1,2,0:0:0:0:
256,192,74518,1,2,0:0:0:0:
256,192,74591,1,0,0:0:0:0:
256,192,74735,1,2,0:0:0:0:
256,192,74807,1,2,0:0:0:0:
256,192,74879,1,0,0:0:0:0:
256,192,74951,1,2,0:0:0:0:
256,192,75023,1,2,0:0:0:0:
256,192,75095,1,2,0:0:0:0:
256,192,75167,1,0,0:0:0:0:
256,192,75240,1,2,0:0:0:0:
256,192,75312,1,0,0:0:0:0:
256,192,75456,1,0,0:0:0:0:
256,192,75528,1,2,0:0:0:0:
256,192,75672,1,2,0:0:0:0:
256,192,75744,1,0,0:0:0:0:
256,192,75817,1,0,0:0:0:0:
256,192,75889,1,2,0:0:0:0:
256,192,75961,1,0,0:0:0:0:
256,192,76105,1,2,0:0:0:0:
256,192,76177,1,0,0:0:0:0:
256,192,76249,1,2,0:0:0:0:
256,192,76321,1,0,0:0:0:0:
256,192,76538,1,0,0:0:0:0:
256,192,76610,1,2,0:0:0:0:
256,192,76754,1,2,0:0:0:0:
256,192,76898,1,0,0:0:0:0:
256,192,76970,1,0,0:0:0:0:
256,192,77042,1,2,0:0:0:0:
256,192,77115,1,0,0:0:0:0:
256,192,77187,1,2,0:0:0:0:
256,192,77259,1,2,0:0:0:0:
256,192,77331,1,0,0:0:0:0:
256,192,77403,1,2,0:0:0:0:
256,192,77475,1,2,0:0:0:0:
256,192,77547,1,0,0:0:0:0:
256,192,77692,1,0,0:0:0:0:
256,192,77764,1,2,0:0:0:0:
256,192,77908,1,0,0:0:0:0:
256,192,78052,1,0,0:0:0:0:
256,192,78124,1,2,0:0:0:0:
256,192,78196,1,2,0:0:0:0:
256,192,78268,1,0,0:0:0:0:
256,192,78341,1,2,0:0:0:0:
256,192,78413,1,0,0:0:0:0:
256,192,78485,1,0,0:0:0:0:
256,192,78557,1,2,0:0:0:0:
256,192,78629,1,0,0:0:0:0:
256,192,78701,1,2,0:0:0:0:
256,192,78845,1,2,0:0:0:0:
256,192,78917,1,0,0:0:0:0:
256,192,79062,1,2,0:0:0:0:
256,192,79206,1,0,0:0:0:0:
256,192,79278,1,2,0:0:0:0:
256,192,79350,1,2,0:0:0:0:
256,192,79422,1,0,0:0:0:0:
256,192,79494,1,2,0:0:0:0:
256,192,79567,1,2,0:0:0:0:
256,192,79639,1,0,0:0:0:0:
256,192,79711,1,2,0:0:0:0:
256,192,79783,1,0,0:0:0:0:
256,192,79831,1,0,0:0:0:0:
256,192,79879,1,2,0:0:0:0:
256,192,79927,1,0,0:0:0:0:
256,192,80071,1,0,0:0:0:0:
256,192,80119,1,2,0:0:0:0:
256,192,80167,1,0,0:0:0:0:
256,192,80216,1,0,0:0:0:0:
256,192,80360,1,2,0:0:0:0:
256,192,80408,1,0,0:0:0:0:
256,192,80456,1,0,0:0:0:0:
256,192,80504,1,2,0:0:0:0:
256,192,80648,1,0,0:0:0:0:
256,192,80696,1,2,0:0:0:0:
256,192,80744,1,2,0:0:0:0:
256,192,80792,1,0,0:0:0:0:
256,192,80865,1,2,0:0:0:0:
256,192,80937,1,0,0:0:0:0:
256,192,81225,1,2,0:0:0:0:
256,192,81369,1,0,0:0:0:0:
256,192,81442,1,2,0:0:0:0:
256,192,81514,1,0,0:0:0:0:
256,192,81658,1,0,0:0:0:0:
256,192,81802,1,2,0:0:0:0:
256,192,81946,1,2,0:0:0:0:
256,192,82018,1,2,0:0:0:0:
256,192,82091,1,0,0:0:0:0:
256,192,82235,1,0,0:0:0:0:
256,192,82379,1,2,0:0:0:0:
256,192,82523,1,0,0:0:0:0:
256,192,82595,1,2,0:0:0:0:
256,192,82667,1,0,0:0:0:0:
256,192,82812,1,0,0:0:0:0:
256,192,82956,1,2,0:0:0:0:
256,192,83028,1,0,0:0:0:0:
256,192,83100,1,2,0:0:0:0:
256,192,83172,1,2,0:0:0:0:
256,192,83244,1,0,0:0:0:0:
256,192,83389,1,2,0:0:0:0:
256,192,83461,1,2,0:0:0:0:
256,192,83533,1,0,0:0:0:0:
256,192,83605,1,2,0:0:0:0:
256,192,83677,1,2,0:0:0:0:
256,192,83821,1,0,0:0:0:0:
256,192,83869,1,2,0:0:0:0:
256,192,83917,1,2,0:0:0:0:
256,192,83966,1,0,0:0:0:0:
256,192,84014,1,2,0:0:0:0:
256,192,84062,1,2,0:0:0:0:
256,192,84110,1,0,0:0:0:0:
256,192,84182,1,2,0:0:0:0:
256,192,84254,1,2,0:0:0:0:
256,192,84326,1,0,0:0:0:0:
256,192,84398,1,2,0:0:0:0:
256,192,84434,1,2,0:0:0:0:
256,192,84542,1,2,0:0:0:0:
256,192,84579,1,2,0:0:0:0:
256,192,84687,1,0,0:0:0:0:
256,192,84723,1,0,0:0:0:0:
256,192,84831,1,0,0:0:0:0:
256,192,84867,1,0,0:0:0:0:
256,192,84975,1,2,0:0:0:0:
256,192,85011,1,2,0:0:0:0:
256,192,85119,1,2,0:0:0:0:
256,192,85155,1,2,0:0:0:0:
256,192,85264,1,0,0:0:0:0:
256,192,85300,1,0,0:0:0:0:
256,192,85408,1,0,0:0:0:0:
256,192,85444,1,0,0:0:0:0:
256,192,85552,1,6,0:0:0:0:
256,192,85841,1,0,0:0:0:0:
256,192,86129,1,0,0:0:0:0:
256,192,86417,1,0,0:0:0:0:
256,192,86562,1,2,0:0:0:0:
256,192,86706,1,0,0:0:0:0:
256,192,86994,1,0,0:0:0:0:
256,192,87283,1,0,0:0:0:0:
256,192,87427,1,2,0:0:0:0:
256,192,87571,1,0,0:0:0:0:
256,192,87716,1,2,0:0:0:0:
256,192,87860,1,0,0:0:0:0:
256,192,88148,1,2,0:0:0:0:
256,192,88292,1,2,0:0:0:0:
256,192,88437,1,0,0:0:0:0:
256,192,88581,1,0,0:0:0:0:
256,192,88725,1,2,0:0:0:0:
256,192,88869,1,0,0:0:0:0:
256,192,89014,1,0,0:0:0:0:
256,192,89302,1,0,0:0:0:0:
256,192,89591,1,0,0:0:0:0:
256,192,89735,1,2,0:0:0:0:
256,192,89807,1,2,0:0:0:0:
256,192,89879,1,0,0:0:0:0:
256,192,90023,1,2,0:0:0:0:
256,192,90167,1,0,0:0:0:0:
256,192,90456,1,0,0:0:0:0:
256,192,90744,1,0,0:0:0:0:
256,192,90889,1,2,0:0:0:0:
256,192,91033,1,0,0:0:0:0:
256,192,91177,1,2,0:0:0:0:
256,192,91321,1,0,0:0:0:0:
256,192,91610,1,0,0:0:0:0:
256,192,91754,1,2,0:0:0:0:
256,192,91898,1,0,0:0:0:0:
256,192,92042,1,0,0:0:0:0:
256,192,92115,1,0,0:0:0:0:
256,192,92187,1,0,0:0:0:0:
256,192,92331,1,2,0:0:0:0:
256,192,92475,1,0,0:0:0:0:
256,192,92764,1,2,0:0:0:0:
256,192,92908,1,2,0:0:0:0:
256,192,93052,1,0,0:0:0:0:
256,192,93196,1,2,0:0:0:0:
256,192,93341,1,0,0:0:0:0:
256,192,93485,1,2,0:0:0:0:
256,192,93629,1,0,0:0:0:0:
256,192,93773,1,2,0:0:0:0:
256,192,93845,1,2,0:0:0:0:
256,192,93917,1,0,0:0:0:0:
256,192,93990,1,2,0:0:0:0:
256,192,94062,1,0,0:0:0:0:
256,192,94350,1,0,0:0:0:0:
256,192,94422,1,2,0:0:0:0:
256,192,94494,1,2,0:0:0:0:
256,192,94639,1,0,0:0:0:0:
256,192,94783,1,4,0:0:0:0:
256,192,95071,1,2,0:0:0:0:
256,192,95360,1,0,0:0:0:0:
256,192,95648,1,2,0:0:0:0:
256,192,95792,1,2,0:0:0:0:
256,192,95937,1,0,0:0:0:0:
256,192,96225,1,2,0:0:0:0:
256,192,96514,1,0,0:0:0:0:
256,192,96658,1,0,0:0:0:0:
256,192,96802,1,2,0:0:0:0:
256,192,96946,1,2,0:0:0:0:
256,192,97091,1,0,0:0:0:0:
256,192,97379,1,2,0:0:0:0:
256,192,97523,1,2,0:0:0:0:
256,192,97667,1,0,0:0:0:0:
256,192,97812,1,0,0:0:0:0:
256,192,97884,1,0,0:0:0:0:
256,192,97956,1,2,0:0:0:0:
256,192,98100,1,2,0:0:0:0:
256,192,98244,1,0,0:0:0:0:
256,192,98533,1,2,0:0:0:0:
256,192,98821,1,0,0:0:0:0:
256,192,98966,1,2,0:0:0:0:
256,192,99110,1,2,0:0:0:0:
256,192,99254,1,2,0:0:0:0:
256,192,99398,1,0,0:0:0:0:
256,192,99687,1,2,0:0:0:0:
256,192,99975,1,0,0:0:0:0:
256,192,100264,1,2,0:0:0:0:
256,192,100408,1,2,0:0:0:0:
256,192,100552,1,0,0:0:0:0:
256,192,100696,1,0,0:0:0:0:
256,192,100841,1,2,0:0:0:0:
256,192,100985,1,2,0:0:0:0:
256,192,101057,1,2,0:0:0:0:
256,192,101129,1,0,0:0:0:0:
256,192,101273,1,0,0:0:0:0:
256,192,101417,1,2,0:0:0:0:
256,192,101562,1,0,0:0:0:0:
256,192,101706,1,0,0:0:0:0:
256,192,101994,1,2,0:0:0:0:
256,192,102139,1,2,0:0:0:0:
256,192,102283,1,0,0:0:0:0:
256,192,102427,1,0,0:0:0:0:
256,192,102571,1,2,0:0:0:0:
256,192,102716,1,2,0:0:0:0:
256,192,102860,1,0,0:0:0:0:
256,192,103004,1,0,0:0:0:0:
256,192,103076,1,0,0:0:0:0:
256,192,103148,1,2,0:0:0:0:
256,192,103292,1,2,0:0:0:0:
256,192,103365,1,2,0:0:0:0:
256,192,103437,1,0,0:0:0:0:
256,192,103581,1,0,0:0:0:0:
256,192,103653,1,0,0:0:0:0:
256,192,103725,1,2,0:0:0:0:
256,192,103797,1,0,0:0:0:0:
256,192,103869,1,0,0:0:0:0:
256,192,103942,1,0,0:0:0:0:
256,192,104014,1,2,0:0:0:0:
256,192,105167,1,2,0:0:0:0:
256,192,105456,1,2,0:0:0:0:
256,192,105744,1,2,0:0:0:0:
256,192,105889,1,0,0:0:0:0:
256,192,106033,1,6,0:0:0:0:
256,192,106321,1,0,0:0:0:0:
256,192,106610,1,2,0:0:0:0:
256,192,106682,1,2,0:0:0:0:
256,192,106754,1,0,0:0:0:0:
256,192,106826,1,2,0:0:0:0:
256,192,107042,1,0,0:0:0:0:
256,192,107187,1,2,0:0:0:0:
256,192,107475,1,0,0:0:0:0:
256,192,107619,1,0,0:0:0:0:
256,192,107692,1,0,0:0:0:0:
256,192,107764,1,2,0:0:0:0:
256,192,108052,1,2,0:0:0:0:
256,192,108196,1,0,0:0:0:0:
256,192,108341,1,2,0:0:0:0:
256,192,108629,1,0,0:0:0:0:
256,192,108773,1,0,0:0:0:0:
256,192,108917,1,2,0:0:0:0:
256,192,108990,1,2,0:0:0:0:
256,192,109062,1,0,0:0:0:0:
256,192,109134,1,2,0:0:0:0:
256,192,109350,1,0,0:0:0:0:
256,192,109494,1,2,0:0:0:0:
256,192,109639,1,2,0:0:0:0:
256,192,109783,1,0,0:0:0:0:
256,192,110071,1,2,0:0:0:0:
256,192,110216,1,2,0:0:0:0:
256,192,110288,1,0,0:0:0:0:
256,192,110360,1,2,0:0:0:0:
256,192,110432,1,2,0:0:0:0:
256,192,110504,1,0,0:0:0:0:
256,192,110576,1,0,0:0:0:0:
256,192,110648,1,2,0:0:0:0:
256,192,110937,1,0,0:0:0:0:
256,192,111081,1,0,0:0:0:0:
256,192,111153,1,0,0:0:0:0:
256,192,111225,1,2,0:0:0:0:
256,192,111369,1,0,0:0:0:0:
256,192,111514,1,0,0:0:0:0:
256,192,111586,1,2,0:0:0:0:
256,192,111658,1,0,0:0:0:0:
256,192,111802,1,0,0:0:0:0:
256,192,111946,1,2,0:0:0:0:
256,192,112018,1,2,0:0:0:0:
256,192,112091,1,0,0:0:0:0:
256,192,112235,1,0,0:0:0:0:
256,192,112379,1,2,0:0:0:0:
256,192,112523,1,0,0:0:0:0:
256,192,112595,1,2,0:0:0:0:
256,192,112667,1,2,0:0:0:0:
256,192,112740,1,2,0:0:0:0:
256,192,112812,1,0,0:0:0:0:
256,192,112884,1,0,0:0:0:0:
256,192,112956,1,2,0:0:0:0:
256,192,113100,1,2,0:0:0:0:
256,192,113172,1,2,0:0:0:0:
256,192,113244,1,0,0:0:0:0:
256,192,113317,1,0,0:0:0:0:
256,192,113389,1,2,0:0:0:0:
256,192,113461,1,0,0:0:0:0:
256,192,113533,1,2,0:0:0:0:
256,192,113605,1,2,0:0:0:0:
256,192,113677,1,0,0:0:0:0:
256,192,113749,1,2,0:0:0:0:
256,192,113821,1,0,0:0:0:0:
256,192,113893,1,0,0:0:0:0:
256,192,113966,1,2,0:0:0:0:
256,192,114038,1,0,0:0:0:0:
256,192,114110,1,0,0:0:0:0:
256,192,114182,1,2,0:0:0:0:
256,192,114254,1,0,0:0:0:0:
256,192,114326,1,0,0:0:0:0:
256,192,114398,1,2,0:0:0:0:
256,192,114446,1,0,0:0:0:0:
256,192,114494,1,0,0:0:0:0:
256,192,114542,1,2,0:0:0:0:
256,192,114615,1,0,0:0:0:0:
256,192,114687,1,2,0:0:0:0:
256,192,114735,1,2,0:0:0:0:
256,192,114783,1,2,0:0:0:0:
256,192,114831,1,0,0:0:0:0:
256,192,114903,1,2,0:0:0:0:
256,192,114975,1,0,0:0:0:0:
256,192,115047,1,2,0:0:0:0:
256,192,115119,1,2,0:0:0:0:
256,192,115192,1,0,0:0:0:0:
256,192,115336,1,2,0:0:0:0:
256,192,115408,1,0,0:0:0:0:
256,192,115841,1,6,0:0:0:0:
256,192,115985,1,2,0:0:0:0:
256,192,116057,1,2,0:0:0:0:
256,192,116129,1,0,0:0:0:0:
256,192,116201,1,0,0:0:0:0:
256,192,116273,1,2,0:0:0:0:
256,192,116345,1,0,0:0:0:0:
256,192,116417,1,2,0:0:0:0:
256,192,116490,1,2,0:0:0:0:
256,192,116562,1,0,0:0:0:0:
256,192,116634,1,2,0:0:0:0:
256,192,116706,1,0,0:0:0:0:
256,192,116778,1,2,0:0:0:0:
256,192,116922,1,2,0:0:0:0:
256,192,116994,1,0,0:0:0:0:
256,192,117139,1,2,0:0:0:0:
256,192,117283,1,0,0:0:0:0:
256,192,117355,1,2,0:0:0:0:
256,192,117427,1,2,0:0:0:0:
256,192,117499,1,0,0:0:0:0:
256,192,117571,1,2,0:0:0:0:
256,192,117643,1,0,0:0:0:0:
256,192,117716,1,0,0:0:0:0:
256,192,117788,1,2,0:0:0:0:
256,192,117860,1,2,0:0:0:0:
256,192,117932,1,0,0:0:0:0:
256,192,118076,1,0,0:0:0:0:
256,192,118148,1,2,0:0:0:0:
256,192,118292,1,0,0:0:0:0:
256,192,118437,1,0,0:0:0:0:
256,192,118509,1,0,0:0:0:0:
256,192,118581,1,2,0:0:0:0:
256,192,118653,1,0,0:0:0:0:
256,192,118725,1,2,0:0:0:0:
256,192,118797,1,2,0:0:0:0:
256,192,118869,1,0,0:0:0:0:
256,192,118942,1,2,0:0:0:0:
256,192,119014,1,0,0:0:0:0:
256,192,119062,1,0,0:0:0:0:
256,192,119110,1,2,0:0:0:0:
256,192,119158,1,0,0:0:0:0:
256,192,119302,1,0,0:0:0:0:
256,192,119350,1,2,0:0:0:0:
256,192,119398,1,0,0:0:0:0:
256,192,119446,1,0,0:0:0:0:
256,192,119591,1,2,0:0:0:0:
256,192,119639,1,0,0:0:0:0:
256,192,119687,1,0,0:0:0:0:
256,192,119735,1,2,0:0:0:0:
256,192,119879,1,0,0:0:0:0:
256,192,119927,1,2,0:0:0:0:
256,192,119975,1,2,0:0:0:0:
256,192,120023,1,0,0:0:0:0:
256,192,120095,1,2,0:0:0:0:
256,192,120167,1,0,0:0:0:0:
256,192,120456,1,2,0:0:0:0:
256,192,120600,1,0,0:0:0:0:
256,192,120672,1,2,0:0:0:0:
256,192,120744,1,0,0:0:0:0:
256,192,120817,1,2,0:0:0:0:
256,192,120889,1,0,0:0:0:0:
256,192,121033,1,2,0:0:0:0:
256,192,121177,1,2,0:0:0:0:
256,192,121249,1,2,0:0:0:0:
256,192,121321,1,0,0:0:0:0:
256,192,121466,1,0,0:0:0:0:
256,192,121610,1,2,0:0:0:0:
256,192,121754,1,0,0:0:0:0:
256,192,121826,1,2,0:0:0:0:
256,192,121898,1,0,0:0:0:0:
256,192,121970,1,0,0:0:0:0:
256,192,122042,1,2,0:0:0:0:
256,192,122187,1,2,0:0:0:0:
256,192,122259,1,0,0:0:0:0:
256,192,122331,1,2,0:0:0:0:
256,192,122403,1,2,0:0:0:0:
256,192,122475,1,0,0:0:0:0:
256,192,122619,1,2,0:0:0:0:
256,192,122692,1,2,0:0:0:0:
256,192,122764,1,0,0:0:0:0:
256,192,122836,1,2,0:0:0:0:
256,192,122908,1,2,0:0:0:0:
256,192,123052,1,0,0:0:0:0:
256,192,123100,1,2,0:0:0:0:
256,192,123148,1,2,0:0:0:0:
256,192,123196,1,0,0:0:0:0:
256,192,123244,1,2,0:0:0:0:
256,192,123292,1,2,0:0:0:0:
256,192,123341,1,0,0:0:0:0:
256,192,123413,1,2,0:0:0:0:
256,192,123485,1,2,0:0:0:0:
256,192,123557,1,0,0:0:0:0:
256,192,123629,1,2,0:0:0:0:
256,192,123665,1,2,0:0:0:0:
256,192,123773,1,2,0:0:0:0:
256,192,123809,1,2,0:0:0:0:
256,192,123917,1,0,0:0:0:0:
256,192,123954,1,0,0:0:0:0:
256,192,124062,1,0,0:0:0:0:
256,192,124098,1,0,0:0:0:0:
256,192,124206,1,2,0:0:0:0:
256,192,124242,1,2,0:0:0:0:
256,192,124350,1,2,0:0:0:0:
256,192,124386,1,2,0:0:0:0:
256,192,124494,1,0,0:0:0:0:
256,192,124530,1,0,0:0:0:0:
256,192,124639,1,0,0:0:0:0:
256,192,124675,1,0,0:0:0:0:
256,192,124783,1,6,0:0:0:0:
256,192,125071,1,0,0:0:0:0:
256,192,125216,1,2,0:0:0:0:
256,192,125288,1,2,0:0:0:0:
256,192,125360,1,0,0:0:0:0:
256,192,125504,1,0,0:0:0:0:
256,192,125648,1,2,0:0:0:0:
256,192,125792,1,0,0:0:0:0:
256,192,125937,1,0,0:0:0:0:
256,192,126081,1,2,0:0:0:0:
256,192,126153,1,2,0:0:0:0:
256,192,126225,1,0,0:0:0:0:
256,192,126369,1,2,0:0:0:0:
256,192,126514,1,0,0:0:0:0:
256,192,126586,1,2,0:0:0:0:
256,192,126658,1,0,0:0:0:0:
256,192,126730,1,0,0:0:0:0:
256,192,126802,1,2,0:0:0:0:
256,192,127091,1,4,0:0:0:0:
256,192,127235,1,4,0:0:0:0:
256,192,127379,1,4,0:0:0:0:
256,192,127523,1,4,0:0:0:0:
256,192,127667,1,6,0:0:0:0:
256,192,127812,1,6,0:0:0:0:
256,192,127956,1,6,0:0:0:0:
256,192,128100,1,6,0:0:0:0:
256,192,128244,1,0,0:0:0:0:
256,192,128389,1,2,0:0:0:0:
256,192,128461,1,2,0:0:0:0:
256,192,128533,1,0,0:0:0:0:
256,192,128605,1,2,0:0:0:0:
256,192,128677,1,2,0:0:0:0:
256,192,128821,1,0,0:0:0:0:
256,192,128893,1,2,0:0:0:0:
256,192,128966,1,0,0:0:0:0:
256,192,129110,1,6,0:0:0:0:
256,192,129254,1,6,0:0:0:0:
