osu file format v14

[General]
AudioFilename: audio.mp3
AudioLeadIn: 0
PreviewTime: 27084
Countdown: 0
SampleSet: Normal
StackLeniency: 0.7
Mode: 1
LetterboxInBreaks: 0
WidescreenStoryboard: 0

[Editor]
Bookmarks: 1168,27860,46321,67091,85552,106321,130552
DistanceSpacing: 0.4
BeatDivisor: 4
GridSize: 32
TimelineZoom: 3.4

[Metadata]
Title:Galaxy in Toybox
TitleUnicode:Galaxy in Toybox
Artist:Umeboshi Chazuke
ArtistUnicode:梅干茶漬け
Creator:_DUSK_
Version:Muzukashii
Source:
Tags:bitpop chiptune electronic instrumental genjuro komasy G2R2014 go back 2 your roots bms chipstyle toypop 8bit むらたむうた
BeatmapID:2385252
BeatmapSetID:1012123

[Difficulty]
HPDrainRate:6
CircleSize:5
OverallDifficulty:5
ApproachRate:9
SliderMultiplier:1.4
SliderTickRate:1

[Events]
//Background and Video events
0,0,"bg.png",0,20
//Break Periods
//Storyboard Layer 0 (Background)
//Storyboard Layer 1 (Fail)
//Storyboard Layer 2 (Pass)
//Storyboard Layer 3 (Foreground)
//Storyboard Layer 4 (Overlay)
//Storyboard Sound Samples

[TimingPoints]
1185,500,4,1,0,30,1,0
15185,288.461538461538,4,1,0,40,1,0
15185,-166.666666666667,4,1,0,40,0,0
17420,-111.111111111111,4,1,0,50,0,0
17709,-111.111111111111,4,1,0,60,0,0
17997,-111.111111111111,4,1,0,70,0,0
18285,-111.111111111111,4,1,0,80,0,0
18574,-111.111111111111,4,1,0,90,0,0
106266,-111.111111111111,4,1,0,90,0,0
110882,-111.111111111111,4,1,0,90,0,0
115858,-108.695652173913,4,1,0,90,0,1
124800,-108.695652173913,4,1,0,90,0,0

[HitObjects]
256,192,1185,5,8,0:0:0:0:
256,192,1935,1,8,0:0:0:0:
256,192,2185,1,0,0:0:0:0:
256,192,3185,1,8,0:0:0:0:
256,192,3935,1,8,0:0:0:0:
256,192,4185,1,0,0:0:0:0:
256,192,4685,1,0,0:0:0:0:
256,192,5185,1,8,0:0:0:0:
256,192,5935,1,8,0:0:0:0:
256,192,6185,1,8,0:0:0:0:
256,192,6685,1,0,0:0:0:0:
256,192,6935,1,0,0:0:0:0:
256,192,7185,1,8,0:0:0:0:
256,192,7685,1,0,0:0:0:0:
256,192,7935,1,8,0:0:0:0:
256,192,8685,1,8,0:0:0:0:
256,192,8935,1,0,0:0:0:0:
256,192,9185,1,8,0:0:0:0:
256,192,9935,1,8,0:0:0:0:
256,192,10185,1,0,0:0:0:0:
256,192,10560,1,0,0:0:0:0:
256,192,11185,1,8,0:0:0:0:
256,192,11685,1,8,0:0:0:0:
256,192,11810,1,8,0:0:0:0:
256,192,12185,1,8,0:0:0:0:
256,192,12685,1,8,0:0:0:0:
256,192,13185,1,8,0:0:0:0:
256,192,13560,1,0,0:0:0:0:
256,192,13935,1,0,0:0:0:0:
256,192,14185,1,0,0:0:0:0:
256,192,14685,1,0,0:0:0:0:
256,192,15185,1,12,0:0:0:0:
256,192,17492,1,8,0:0:0:0:
256,192,17781,1,8,0:0:0:0:
256,192,18069,1,8,0:0:0:0:
256,192,18358,1,8,0:0:0:0:
256,192,18646,1,12,0:0:0:0:
256,192,18934,1,8,0:0:0:0:
256,192,19367,1,0,0:0:0:0:
256,192,19511,1,8,0:0:0:0:
256,192,19656,1,0,0:0:0:0:
256,192,19800,1,8,0:0:0:0:
256,192,20088,1,0,0:0:0:0:
256,192,20233,1,0,0:0:0:0:
256,192,20377,1,8,0:0:0:0:
256,192,20665,1,0,0:0:0:0:
256,192,20809,1,8,0:0:0:0:
256,192,20954,1,0,0:0:0:0:
256,192,21242,1,0,0:0:0:0:
256,192,21531,1,8,0:0:0:0:
256,192,22108,1,0,0:0:0:0:
256,192,22396,1,0,0:0:0:0:
256,192,22684,1,0,0:0:0:0:
256,192,22829,1,0,0:0:0:0:
256,192,22973,1,8,0:0:0:0:
256,192,23261,1,12,0:0:0:0:
256,192,23550,1,8,0:0:0:0:
256,192,23838,1,0,0:0:0:0:
256,192,23983,1,0,0:0:0:0:
256,192,24127,1,8,0:0:0:0:
256,192,24271,1,8,0:0:0:0:
256,192,24415,1,0,0:0:0:0:
256,192,24704,1,8,0:0:0:0:
256,192,24848,1,8,0:0:0:0:
256,192,24992,1,0,0:0:0:0:
256,192,25136,1,0,0:0:0:0:
256,192,25281,1,8,0:0:0:0:
256,192,25569,1,0,0:0:0:0:
256,192,25858,1,8,0:0:0:0:
256,192,26002,1,8,0:0:0:0:
256,192,26146,1,0,0:0:0:0:
256,192,26434,1,0,0:0:0:0:
256,192,26723,1,12,0:0:0:0:
256,192,26867,1,12,0:0:0:0:
256,192,27588,1,0,0:0:0:0:
256,192,27877,1,12,0:0:0:0:
256,192,28165,1,0,0:0:0:0:
256,192,28309,1,8,0:0:0:0:
256,192,28598,1,0,0:0:0:0:
256,192,28742,1,8,0:0:0:0:
256,192,28886,1,8,0:0:0:0:
256,192,29031,1,0,0:0:0:0:
256,192,29319,1,8,0:0:0:0:
256,192,29608,1,8,0:0:0:0:
256,192,29680,1,8,0:0:0:0:
256,192,29896,1,0,0:0:0:0:
256,192,30040,1,0,0:0:0:0:
256,192,30184,1,8,0:0:0:0:
256,192,30473,1,0,0:0:0:0:
256,192,30617,1,8,0:0:0:0:
256,192,30906,1,0,0:0:0:0:
256,192,31050,1,8,0:0:0:0:
256,192,31194,1,0,0:0:0:0:
256,192,31338,1,8,0:0:0:0:
256,192,31627,1,8,0:0:0:0:
256,192,31915,1,0,0:0:0:0:
256,192,31987,1,0,0:0:0:0:
256,192,32204,1,8,0:0:0:0:
256,192,32348,1,8,0:0:0:0:
256,192,32492,1,0,0:0:0:0:
256,192,32925,1,8,0:0:0:0:
256,192,33213,1,0,0:0:0:0:
256,192,33358,1,8,0:0:0:0:
256,192,33502,1,8,0:0:0:0:
256,192,33646,1,0,0:0:0:0:
256,192,33934,1,8,0:0:0:0:
256,192,34223,1,0,0:0:0:0:
256,192,34295,1,0,0:0:0:0:
256,192,34511,1,8,0:0:0:0:
256,192,34656,1,8,0:0:0:0:
256,192,34800,1,0,0:0:0:0:
256,192,35088,1,0,0:0:0:0:
256,192,35233,1,8,0:0:0:0:
256,192,35521,1,0,0:0:0:0:
256,192,35665,1,0,0:0:0:0:
256,192,35809,1,0,0:0:0:0:
256,192,35954,1,8,0:0:0:0:
256,192,36098,1,0,0:0:0:0:
256,192,36386,1,8,0:0:0:0:
256,192,36531,1,8,0:0:0:0:
256,192,36675,1,0,0:0:0:0:
256,192,36819,1,8,0:0:0:0:
256,192,37108,1,12,0:0:0:0:
256,192,37540,1,8,0:0:0:0:
256,192,37829,1,0,0:0:0:0:
256,192,37973,1,8,0:0:0:0:
256,192,38117,1,0,0:0:0:0:
256,192,38261,1,8,0:0:0:0:
256,192,38550,1,0,0:0:0:0:
256,192,38838,1,8,0:0:0:0:
256,192,38910,1,8,0:0:0:0:
256,192,39127,1,0,0:0:0:0:
256,192,39271,1,0,0:0:0:0:
256,192,39415,1,8,0:0:0:0:
256,192,39704,1,0,0:0:0:0:
256,192,39848,1,8,0:0:0:0:
256,192,40281,1,0,0:0:0:0:
256,192,40425,1,0,0:0:0:0:
256,192,40569,1,8,0:0:0:0:
256,192,40858,1,8,0:0:0:0:
256,192,41146,1,0,0:0:0:0:
256,192,41218,1,0,0:0:0:0:
256,192,41434,1,8,0:0:0:0:
256,192,41579,1,8,0:0:0:0:
256,192,41723,1,0,0:0:0:0:
256,192,42156,1,8,0:0:0:0:
256,192,42444,1,8,0:0:0:0:
256,192,42588,1,0,0:0:0:0:
256,192,42733,1,0,0:0:0:0:
256,192,42877,1,8,0:0:0:0:
256,192,43165,1,8,0:0:0:0:
256,192,43454,1,8,0:0:0:0:
256,192,43526,1,8,0:0:0:0:
256,192,43742,1,8,0:0:0:0:
256,192,43886,1,0,0:0:0:0:
256,192,44031,1,8,0:0:0:0:
256,192,44319,1,8,0:0:0:0:
256,192,44608,1,0,0:0:0:0:
256,192,44896,1,8,0:0:0:0:
256,192,45184,1,0,0:0:0:0:
256,192,45257,1,0,0:0:0:0:
256,192,45329,1,0,0:0:0:0:
256,192,45473,1,8,0:0:0:0:
256,192,45617,1,8,0:0:0:0:
256,192,45761,1,0,0:0:0:0:
256,192,45834,1,0,0:0:0:0:
256,192,45906,1,0,0:0:0:0:
256,192,46050,1,8,0:0:0:0:
256,192,46338,1,12,0:0:0:0:
256,192,46555,1,0,0:0:0:0:
256,192,46771,1,0,0:0:0:0:
256,192,46915,1,8,0:0:0:0:
256,192,47204,1,8,0:0:0:0:
256,192,47348,1,8,0:0:0:0:
256,192,47492,1,0,0:0:0:0:
256,192,47636,1,0,0:0:0:0:
256,192,47781,1,8,0:0:0:0:
256,192,47853,1,8,0:0:0:0:
256,192,47925,1,8,0:0:0:0:
256,192,48069,1,0,0:0:0:0:
256,192,48358,1,8,0:0:0:0:
256,192,48502,1,0,0:0:0:0:
256,192,48646,1,8,0:0:0:0:
256,192,48718,1,8,0:0:0:0:
256,192,48790,1,8,0:0:0:0:
256,192,48934,1,8,0:0:0:0:
256,192,49223,1,0,0:0:0:0:
256,192,49656,1,8,0:0:0:0:
256,192,49800,1,0,0:0:0:0:
256,192,49944,1,0,0:0:0:0:
256,192,50088,1,8,0:0:0:0:
256,192,50377,1,0,0:0:0:0:
256,192,50449,1,0,0:0:0:0:
256,192,50521,1,0,0:0:0:0:
256,192,50665,1,8,0:0:0:0:
256,192,50809,1,8,0:0:0:0:
256,192,50954,1,0,0:0:0:0:
256,192,51242,1,8,0:0:0:0:
256,192,51531,1,0,0:0:0:0:
256,192,51819,1,8,0:0:0:0:
256,192,51891,1,8,0:0:0:0:
256,192,51963,1,8,0:0:0:0:
256,192,52108,1,0,0:0:0:0:
256,192,52252,1,8,0:0:0:0:
256,192,52396,1,0,0:0:0:0:
256,192,52540,1,0,0:0:0:0:
256,192,52684,1,8,0:0:0:0:
256,192,53117,1,8,0:0:0:0:
256,192,53261,1,0,0:0:0:0:
256,192,53550,1,0,0:0:0:0:
256,192,53622,1,0,0:0:0:0:
256,192,53694,1,0,0:0:0:0:
256,192,53838,1,8,0:0:0:0:
256,192,54055,1,8,0:0:0:0:
256,192,54271,1,8,0:0:0:0:
256,192,54415,1,0,0:0:0:0:
256,192,54632,1,0,0:0:0:0:
256,192,54848,1,0,0:0:0:0:
256,192,54992,1,8,0:0:0:0:
256,192,55136,1,8,0:0:0:0:
256,192,55281,1,8,0:0:0:0:
256,192,55425,1,12,0:0:0:0:
256,192,55858,1,0,0:0:0:0:
256,192,56002,1,0,0:0:0:0:
256,192,56146,1,8,0:0:0:0:
256,192,56218,1,8,0:0:0:0:
256,192,56290,1,8,0:0:0:0:
256,192,56434,1,8,0:0:0:0:
256,192,56723,1,0,0:0:0:0:
256,192,56795,1,0,0:0:0:0:
256,192,56867,1,0,0:0:0:0:
256,192,57011,1,8,0:0:0:0:
256,192,57156,1,0,0:0:0:0:
256,192,57300,1,8,0:0:0:0:
256,192,57588,1,8,0:0:0:0:
256,192,57733,1,0,0:0:0:0:
256,192,57877,1,0,0:0:0:0:
256,192,58021,1,8,0:0:0:0:
256,192,58093,1,8,0:0:0:0:
256,192,58165,1,8,0:0:0:0:
256,192,58454,1,0,0:0:0:0:
256,192,58526,1,0,0:0:0:0:
256,192,58598,1,0,0:0:0:0:
256,192,58742,1,8,0:0:0:0:
256,192,58886,1,8,0:0:0:0:
256,192,59031,1,0,0:0:0:0:
256,192,59319,1,8,0:0:0:0:
256,192,59608,1,0,0:0:0:0:
256,192,59752,1,8,0:0:0:0:
256,192,59896,1,0,0:0:0:0:
256,192,60040,1,0,0:0:0:0:
256,192,60184,1,8,0:0:0:0:
256,192,60401,1,8,0:0:0:0:
256,192,60617,1,0,0:0:0:0:
256,192,60761,1,8,0:0:0:0:
256,192,61338,1,0,0:0:0:0:
256,192,61555,1,8,0:0:0:0:
256,192,61771,1,0,0:0:0:0:
256,192,61915,1,8,0:0:0:0:
256,192,62132,1,8,0:0:0:0:
256,192,62348,1,8,0:0:0:0:
256,192,62492,1,0,0:0:0:0:
256,192,62636,1,0,0:0:0:0:
256,192,62781,1,8,0:0:0:0:
256,192,62925,1,0,0:0:0:0:
256,192,63069,1,8,0:0:0:0:
256,192,63358,1,8,0:0:0:0:
256,192,63502,1,8,0:0:0:0:
256,192,63646,1,0,0:0:0:0:
256,192,63718,1,0,0:0:0:0:
256,192,63790,1,0,0:0:0:0:
256,192,63934,1,8,0:0:0:0:
256,192,64079,1,8,0:0:0:0:
256,192,64151,1,8,0:0:0:0:
256,192,64223,1,8,0:0:0:0:
256,192,64367,1,0,0:0:0:0:
256,192,64511,1,8,0:0:0:0:
256,192,64800,1,12,0:0:0:0:
256,192,65954,1,0,0:0:0:0:
256,192,66242,1,0,0:0:0:0:
256,192,66434,1,0,0:0:0:0:
256,192,66531,1,8,0:0:0:0:
256,192,67108,1,12,0:0:0:0:
256,192,67396,1,8,0:0:0:0:
256,192,67468,1,8,0:0:0:0:
256,192,67540,1,8,0:0:0:0:
256,192,67829,1,0,0:0:0:0:
256,192,67973,1,8,0:0:0:0:
256,192,68117,1,8,0:0:0:0:
256,192,68406,1,0,0:0:0:0:
256,192,68550,1,8,0:0:0:0:
256,192,68694,1,0,0:0:0:0:
256,192,68766,1,0,0:0:0:0:
256,192,68838,1,0,0:0:0:0:
256,192,68983,1,0,0:0:0:0:
256,192,69127,1,8,0:0:0:0:
256,192,69415,1,8,0:0:0:0:
256,192,69704,1,8,0:0:0:0:
256,192,69848,1,0,0:0:0:0:
256,192,69920,1,0,0:0:0:0:
256,192,69992,1,0,0:0:0:0:
256,192,70136,1,0,0:0:0:0:
256,192,70281,1,8,0:0:0:0:
256,192,70425,1,8,0:0:0:0:
256,192,70858,1,0,0:0:0:0:
256,192,71002,1,0,0:0:0:0:
256,192,71146,1,8,0:0:0:0:
256,192,71290,1,8,0:0:0:0:
256,192,71362,1,8,0:0:0:0:
256,192,71434,1,8,0:0:0:0:
256,192,71579,1,0,0:0:0:0:
256,192,71723,1,12,0:0:0:0:
256,192,72011,1,8,0:0:0:0:
256,192,72444,1,0,0:0:0:0:
256,192,72588,1,8,0:0:0:0:
256,192,72733,1,8,0:0:0:0:
256,192,72877,1,0,0:0:0:0:
256,192,73165,1,0,0:0:0:0:
256,192,73309,1,0,0:0:0:0:
256,192,73454,1,8,0:0:0:0:
256,192,73598,1,0,0:0:0:0:
256,192,73742,1,0,0:0:0:0:
256,192,74031,1,8,0:0:0:0:
256,192,74175,1,0,0:0:0:0:
256,192,74319,1,8,0:0:0:0:
256,192,74463,1,0,0:0:0:0:
256,192,74608,1,8,0:0:0:0:
256,192,74896,1,0,0:0:0:0:
256,192,75040,1,0,0:0:0:0:
256,192,75184,1,8,0:0:0:0:
256,192,75329,1,0,0:0:0:0:
256,192,75473,1,8,0:0:0:0:
256,192,75761,1,0,0:0:0:0:
256,192,75978,1,0,0:0:0:0:
256,192,76050,1,0,0:0:0:0:
256,192,76194,1,0,0:0:0:0:
256,192,76338,1,12,0:0:0:0:
256,192,76771,1,0,0:0:0:0:
256,192,76915,1,8,0:0:0:0:
256,192,76987,1,8,0:0:0:0:
256,192,77059,1,8,0:0:0:0:
256,192,77204,1,0,0:0:0:0:
256,192,77348,1,0,0:0:0:0:
256,192,77492,1,8,0:0:0:0:
256,192,77925,1,8,0:0:0:0:
256,192,78069,1,0,0:0:0:0:
256,192,78141,1,0,0:0:0:0:
256,192,78213,1,0,0:0:0:0:
256,192,78358,1,8,0:0:0:0:
256,192,78502,1,8,0:0:0:0:
256,192,78646,1,0,0:0:0:0:
256,192,79079,1,0,0:0:0:0:
256,192,79223,1,8,0:0:0:0:
256,192,79295,1,8,0:0:0:0:
256,192,79367,1,8,0:0:0:0:
256,192,79511,1,8,0:0:0:0:
256,192,79656,1,0,0:0:0:0:
256,192,79800,1,0,0:0:0:0:
256,192,80088,1,8,0:0:0:0:
256,192,80233,1,0,0:0:0:0:
256,192,80377,1,8,0:0:0:0:
256,192,80521,1,0,0:0:0:0:
256,192,80665,1,8,0:0:0:0:
256,192,80954,1,0,0:0:0:0:
256,192,81386,1,8,0:0:0:0:
256,192,81459,1,8,0:0:0:0:
256,192,81531,1,8,0:0:0:0:
256,192,81819,1,8,0:0:0:0:
256,192,82108,1,0,0:0:0:0:
256,192,82540,1,0,0:0:0:0:
256,192,82612,1,0,0:0:0:0:
256,192,82684,1,0,0:0:0:0:
256,192,82973,1,8,0:0:0:0:
256,192,83261,1,0,0:0:0:0:
256,192,83550,1,0,0:0:0:0:
256,192,83694,1,8,0:0:0:0:
256,192,83838,1,8,0:0:0:0:
256,192,83983,1,8,0:0:0:0:
256,192,84127,1,0,0:0:0:0:
256,192,84415,1,8,0:0:0:0:
256,192,84559,1,8,0:0:0:0:
256,192,84704,1,8,0:0:0:0:
256,192,84848,1,8,0:0:0:0:
256,192,84992,1,0,0:0:0:0:
256,192,85209,1,0,0:0:0:0:
256,192,85281,1,0,0:0:0:0:
256,192,85425,1,0,0:0:0:0:
256,192,85569,1,12,0:0:0:0:
256,192,86146,1,8,0:0:0:0:
256,192,86434,1,8,0:0:0:0:
256,192,86723,1,0,0:0:0:0:
256,192,87300,1,8,0:0:0:0:
256,192,87877,1,8,0:0:0:0:
256,192,88454,1,0,0:0:0:0:
256,192,89031,1,0,0:0:0:0:
256,192,89608,1,0,0:0:0:0:
256,192,90184,1,0,0:0:0:0:
256,192,91050,1,8,0:0:0:0:
256,192,91338,1,8,0:0:0:0:
256,192,91915,1,8,0:0:0:0:
256,192,92492,1,0,0:0:0:0:
256,192,93069,1,0,0:0:0:0:
256,192,93646,1,8,0:0:0:0:
256,192,93934,1,0,0:0:0:0:
256,192,94079,1,0,0:0:0:0:
256,192,94367,1,0,0:0:0:0:
256,192,94656,1,0,0:0:0:0:
256,192,94800,1,12,0:0:0:0:
256,192,95088,1,8,0:0:0:0:
256,192,95377,1,0,0:0:0:0:
256,192,95665,1,8,0:0:0:0:
256,192,95809,1,0,0:0:0:0:
256,192,95954,1,8,0:0:0:0:
256,192,96242,1,8,0:0:0:0:
256,192,96531,1,0,0:0:0:0:
256,192,96819,1,8,0:0:0:0:
256,192,97108,1,0,0:0:0:0:
256,192,97684,1,0,0:0:0:0:
256,192,97973,1,8,0:0:0:0:
256,192,98261,1,0,0:0:0:0:
256,192,98550,1,0,0:0:0:0:
256,192,98838,1,8,0:0:0:0:
256,192,98983,1,0,0:0:0:0:
256,192,99127,1,8,0:0:0:0:
256,192,99415,1,8,0:0:0:0:
256,192,99992,1,0,0:0:0:0:
256,192,100281,1,8,0:0:0:0:
256,192,100569,1,0,0:0:0:0:
256,192,100858,1,0,0:0:0:0:
256,192,101146,1,8,0:0:0:0:
256,192,101434,1,8,0:0:0:0:
256,192,101723,1,8,0:0:0:0:
256,192,102300,1,0,0:0:0:0:
256,192,102588,1,0,0:0:0:0:
256,192,102877,1,8,0:0:0:0:
256,192,103165,1,0,0:0:0:0:
256,192,103454,1,8,0:0:0:0:
256,192,103742,1,0,0:0:0:0:
256,192,104031,1,12,0:0:0:0:
256,192,105184,1,8,0:0:0:0:
256,192,105473,1,8,0:0:0:0:
256,192,105761,1,8,0:0:0:0:
256,192,105906,1,0,0:0:0:0:
256,192,106050,1,8,0:0:0:0:
256,192,106338,1,12,0:0:0:0:
256,192,107059,1,8,0:0:0:0:
256,192,107348,1,0,0:0:0:0:
256,192,108646,1,8,0:0:0:0:
256,192,109367,1,8,0:0:0:0:
256,192,109656,1,0,0:0:0:0:
256,192,110377,1,8,0:0:0:0:
256,192,110665,1,8,0:0:0:0:
256,192,110954,1,0,0:0:0:0:
256,192,111242,1,0,0:0:0:0:
256,192,111531,1,0,0:0:0:0:
256,192,111819,1,8,0:0:0:0:
256,192,112108,1,8,0:0:0:0:
256,192,112396,1,0,0:0:0:0:
256,192,112684,1,8,0:0:0:0:
256,192,112829,1,0,0:0:0:0:
256,192,112973,1,8,0:0:0:0:
256,192,113261,1,0,0:0:0:0:
256,192,113406,1,0,0:0:0:0:
256,192,113550,1,0,0:0:0:0:
256,192,113622,1,0,0:0:0:0:
256,192,113694,1,0,0:0:0:0:
256,192,113838,1,0,0:0:0:0:
256,192,113983,1,0,0:0:0:0:
256,192,114127,1,8,0:0:0:0:
256,192,114271,1,0,0:0:0:0:
256,192,114415,1,8,0:0:0:0:
256,192,114487,1,8,0:0:0:0:
256,192,114559,1,8,0:0:0:0:
256,192,114704,1,8,0:0:0:0:
256,192,114992,1,8,0:0:0:0:
256,192,115209,1,8,0:0:0:0:
256,192,115425,1,8,0:0:0:0:
256,192,115858,1,12,0:0:0:0:
256,192,116146,1,0,0:0:0:0:
256,192,116218,1,0,0:0:0:0:
256,192,116290,1,0,0:0:0:0:
256,192,116434,1,8,0:0:0:0:
256,192,116579,1,8,0:0:0:0:
256,192,116723,1,0,0:0:0:0:
256,192,117011,1,8,0:0:0:0:
256,192,117156,1,8,0:0:0:0:
256,192,117300,1,0,0:0:0:0:
256,192,117444,1,0,0:0:0:0:
256,192,117588,1,8,0:0:0:0:
256,192,117660,1,8,0:0:0:0:
256,192,117733,1,8,0:0:0:0:
256,192,117877,1,0,0:0:0:0:
256,192,118309,1,8,0:0:0:0:
256,192,118454,1,0,0:0:0:0:
256,192,118526,1,0,0:0:0:0:
256,192,118598,1,0,0:0:0:0:
256,192,118742,1,8,0:0:0:0:
256,192,119031,1,0,0:0:0:0:
256,192,119319,1,8,0:0:0:0:
256,192,119463,1,0,0:0:0:0:
256,192,119608,1,0,0:0:0:0:
256,192,119896,1,8,0:0:0:0:
256,192,120040,1,0,0:0:0:0:
256,192,120184,1,12,0:0:0:0:
256,192,120617,1,0,0:0:0:0:
256,192,120689,1,0,0:0:0:0:
256,192,120761,1,0,0:0:0:0:
256,192,120906,1,0,0:0:0:0:
256,192,121050,1,8,0:0:0:0:
256,192,121338,1,0,0:0:0:0:
256,192,121627,1,8,0:0:0:0:
256,192,121771,1,8,0:0:0:0:
256,192,121843,1,8,0:0:0:0:
256,192,121915,1,8,0:0:0:0:
256,192,122204,1,0,0:0:0:0:
256,192,122492,1,8,0:0:0:0:
256,192,122636,1,0,0:0:0:0:
256,192,122781,1,0,0:0:0:0:
256,192,123069,1,8,0:0:0:0:
256,192,123358,1,0,0:0:0:0:
256,192,123430,1,0,0:0:0:0:
256,192,123502,1,0,0:0:0:0:
256,192,123646,1,8,0:0:0:0:
256,192,123790,1,0,0:0:0:0:
256,192,123934,1,8,0:0:0:0:
256,192,124079,1,8,0:0:0:0:
256,192,124223,1,0,0:0:0:0:
256,192,124367,1,8,0:0:0:0:
256,192,124439,1,8,0:0:0:0:
256,192,124511,1,8,0:0:0:0:
256,192,124800,1,12,0:0:0:0:
256,192,125377,1,8,0:0:0:0:
256,192,125665,1,8,0:0:0:0:
256,192,125954,1,0,0:0:0:0:
256,192,126242,1,0,0:0:0:0:
256,192,126531,1,8,0:0:0:0:
256,192,127108,1,8,0:0:0:0:
256,192,127252,1,8,0:0:0:0:
256,192,127396,1,8,0:0:0:0:
256,192,127684,1,8,0:0:0:0:
256,192,127829,1,8,0:0:0:0:
256,192,127973,1,8,0:0:0:0:
256,192,128261,1,8,0:0:0:0:
256,192,128406,1,0,0:0:0:0:
256,192,128550,1,8,0:0:0:0:
256,192,128694,1,0,0:0:0:0:
256,192,128838,1,8,0:0:0:0:
256,192,129127,1,12,0:0:0:0:
256,192,129271,1,12,0:0:0:0:
256,192,129415,12,0,130569,0:0:0:0:
