osu file format v14

[General]
AudioFilename: audio.mp3
AudioLeadIn: 0
PreviewTime: 20399
Countdown: 0
SampleSet: Normal
StackLeniency: 0.7
Mode: 1
LetterboxInBreaks: 0
WidescreenStoryboard: 1

[Editor]
Bookmarks: 248,20854,42672,71763,103725,125543
DistanceSpacing: 1.6
BeatDivisor: 4
GridSize: 32
TimelineZoom: 3.699998

[Metadata]
Title:Dutch Courage!
TitleUnicode:Dutch Courage!
Artist:Umeboshi Chazuke
ArtistUnicode:梅干茶漬け
Creator:Ulqui
Version:Oni
Source:osu!
Tags:electronic instrumental chipstyle funkot chiptune bitpop 8bit fa featured artist mg mappers' guild
BeatmapID:2547507
BeatmapSetID:1224146

[Difficulty]
HPDrainRate:5
CircleSize:5
OverallDifficulty:5
ApproachRate:6
SliderMultiplier:1.4
SliderTickRate:1

[Events]
//Background and Video events
0,0,"wallhaven-5d3ej1.png",0,0
//Break Periods
//Storyboard Layer 0 (Background)
//Storyboard Layer 1 (Fail)
//Storyboard Layer 2 (Pass)
//Storyboard Layer 3 (Foreground)
//Storyboard Layer 4 (Overlay)
//Storyboard Sound Samples

[TimingPoints]
248,303.030303030303,4,1,0,100,1,0
248,-90.9090909090909,4,1,0,100,0,0
323,-125,4,1,0,100,0,0
9338,-90.9090909090909,4,1,0,100,0,0
10020,-100,4,1,0,100,0,0
19641,-90.9090909090909,4,1,0,100,0,0
20854,-90.9090909090909,4,1,0,100,0,1
20929,-100,4,1,0,100,0,1
30551,-90.9090909090909,4,1,0,100,0,1
30626,-99.9999999999999,4,1,0,100,0,1
39944,-95.2380952380952,4,1,0,100,0,1
40247,-90.9090909090909,4,1,0,100,0,0
40551,-125,4,1,0,100,0,0
40854,-90.9090909090909,4,1,0,100,0,0
41157,-125,4,1,0,100,0,0
41460,-125,4,1,0,100,0,0
41535,-123.456790123457,4,1,0,100,0,0
41611,-121.951219512195,4,1,0,100,0,0
41687,-120.481927710844,4,1,0,100,0,0
41763,-119.047619047619,4,1,0,100,0,0
41838,-117.64705882353,4,1,0,100,0,0
41914,-116.279069767442,4,1,0,100,0,0
41990,-114.942528735632,4,1,0,100,0,0
42066,-113.636363636364,4,1,0,100,0,0
42141,-112.359550561798,4,1,0,100,0,0
42217,-111.111111111111,4,1,0,100,0,0
42293,-109.89010989011,4,1,0,100,0,0
42369,-90.9090909090909,4,1,0,100,0,0
42672,-90.9090909090909,4,1,0,100,0,0
42747,-100,4,1,0,100,0,0
52369,-90.9090909090909,4,1,0,100,0,0
52444,-100,4,1,0,100,0,0
62066,-83.3333333333333,4,1,0,100,0,1
63278,-100,4,1,0,100,0,1
63581,-100,4,1,0,100,0,0
64490,-83.3333333333333,4,1,0,100,0,1
65702,-100,4,1,0,100,0,1
66005,-100,4,1,0,100,0,0
66914,-100,4,1,0,100,0,1
69338,-100,4,1,0,100,0,1
70551,-90.9090909090909,4,1,0,100,0,1
70854,-90.9090909090909,4,1,0,100,0,1
71157,-100,4,1,0,100,0,1
71460,-111.111111111111,4,1,0,100,0,1
71763,461.538461538462,4,1,0,100,1,0
71763,-50,4,1,0,100,0,0
71820,-76.9230769230769,4,1,0,100,0,0
86532,-100,4,1,0,100,0,1
101301,303.030303030303,4,1,0,100,1,0
101301,-66.6666666666667,4,1,0,100,0,0
102513,-90.9090909090909,4,1,0,100,0,0
103725,-90.9090909090909,4,1,0,100,0,1
103801,-100,4,1,0,100,0,1
122778,-95.2380952380952,4,1,0,100,0,1
123119,-90.9090909090909,4,1,0,100,0,0
123422,-125,4,1,0,100,0,0
123725,-90.9090909090909,4,1,0,100,0,0
124028,-125,4,1,0,100,0,0
124331,-125,4,1,0,100,0,0
124407,-123.456790123457,4,1,0,100,0,0
124482,-121.951219512195,4,1,0,100,0,0
124558,-120.481927710844,4,1,0,100,0,0
124634,-119.047619047619,4,1,0,100,0,0
124710,-117.64705882353,4,1,0,100,0,0
124785,-116.279069767442,4,1,0,100,0,0
124861,-114.942528735632,4,1,0,100,0,0
124937,-113.636363636364,4,1,0,100,0,0
125013,-112.359550561798,4,1,0,100,0,0
125088,-111.111111111111,4,1,0,100,0,0
125164,-109.89010989011,4,1,0,100,0,0
125240,-90.9090909090909,4,1,0,100,0,0
125543,-90.9090909090909,4,1,0,100,0,0
125619,-100,4,1,0,100,0,0

[HitObjects]
206,109,248,5,12,0:0:0:0:
192,130,551,1,8,0:0:0:0:
192,130,702,1,0,0:0:0:0:
192,130,854,1,8,0:0:0:0:
192,130,1157,1,8,0:0:0:0:
192,130,1308,1,0,0:0:0:0:
192,130,1460,1,8,0:0:0:0:
192,130,1763,1,8,0:0:0:0:
192,130,1914,1,0,0:0:0:0:
192,130,2066,1,8,0:0:0:0:
192,130,2217,1,8,0:0:0:0:
192,130,2369,1,8,0:0:0:0:
214,121,2520,1,0,0:0:0:0:
211,122,2672,1,8,0:0:0:0:
202,96,2975,1,8,0:0:0:0:
202,96,3126,1,0,0:0:0:0:
202,96,3278,1,8,0:0:0:0:
202,96,3581,1,8,0:0:0:0:
202,96,3732,1,0,0:0:0:0:
202,96,3884,1,8,0:0:0:0:
202,96,4187,1,8,0:0:0:0:
202,96,4338,1,0,0:0:0:0:
202,96,4490,1,8,0:0:0:0:
202,96,4641,1,8,0:0:0:0:
202,96,4793,1,8,0:0:0:0:
202,96,4944,1,0,0:0:0:0:
202,96,5096,1,8,0:0:0:0:
190,121,5399,1,8,0:0:0:0:
190,121,5551,1,0,0:0:0:0:
190,121,5702,1,8,0:0:0:0:
190,121,6005,1,8,0:0:0:0:
190,121,6157,1,0,0:0:0:0:
190,121,6308,1,8,0:0:0:0:
190,121,6611,1,8,0:0:0:0:
190,121,6763,1,0,0:0:0:0:
190,121,6914,1,8,0:0:0:0:
190,121,7066,1,8,0:0:0:0:
190,121,7217,1,8,0:0:0:0:
190,121,7369,1,0,0:0:0:0:
190,121,7520,1,8,0:0:0:0:
190,121,7823,1,8,0:0:0:0:
175,126,7975,1,0,0:0:0:0:
175,126,8126,1,8,0:0:0:0:
175,126,8429,1,8,0:0:0:0:
171,128,8581,1,0,0:0:0:0:
171,130,8732,1,8,0:0:0:0:
141,141,9035,1,8,0:0:0:0:
141,141,9187,1,0,0:0:0:0:
161,89,9338,1,12,0:0:0:0:
155,96,9490,1,12,0:0:0:0:
179,135,9944,1,4,0:0:0:0:
195,74,10096,1,8,0:0:0:0:
195,74,10172,1,8,0:0:0:0:
144,172,10248,1,8,0:0:0:0:
144,172,10399,1,0,0:0:0:0:
144,172,10551,1,8,0:0:0:0:
192,104,10778,1,8,0:0:0:0:
192,104,10854,1,8,0:0:0:0:
191,66,11005,1,0,0:0:0:0:
191,66,11157,1,8,0:0:0:0:
156,90,11384,1,8,0:0:0:0:
156,90,11460,1,8,0:0:0:0:
152,82,11611,1,0,0:0:0:0:
151,86,11763,1,8,0:0:0:0:
151,86,11914,1,8,0:0:0:0:
194,92,12217,1,0,0:0:0:0:
194,92,12369,1,8,0:0:0:0:
148,76,12520,1,8,0:0:0:0:
179,93,12596,1,8,0:0:0:0:
177,95,12672,1,8,0:0:0:0:
197,112,12823,1,0,0:0:0:0:
197,112,12975,1,8,0:0:0:0:
210,148,13202,1,8,0:0:0:0:
210,148,13278,1,8,0:0:0:0:
127,107,13429,1,0,0:0:0:0:
127,107,13581,1,8,0:0:0:0:
152,101,13808,1,8,0:0:0:0:
149,105,13884,1,8,0:0:0:0:
160,68,14035,1,0,0:0:0:0:
160,68,14187,1,8,0:0:0:0:
154,140,14338,1,8,0:0:0:0:
176,67,14641,1,0,0:0:0:0:
173,95,14793,1,8,0:0:0:0:
206,91,14944,1,8,0:0:0:0:
162,109,15020,1,8,0:0:0:0:
161,109,15096,1,8,0:0:0:0:
162,110,15248,1,0,0:0:0:0:
161,114,15399,1,8,0:0:0:0:
161,116,15626,1,8,0:0:0:0:
206,91,15702,1,8,0:0:0:0:
170,80,15854,1,0,0:0:0:0:
170,80,16005,1,8,0:0:0:0:
162,72,16232,1,8,0:0:0:0:
170,80,16308,1,8,0:0:0:0:
186,74,16460,1,0,0:0:0:0:
186,74,16611,1,8,0:0:0:0:
171,60,16763,1,8,0:0:0:0:
170,61,17066,1,0,0:0:0:0:
161,71,17217,1,8,0:0:0:0:
150,113,17369,1,0,0:0:0:0:
150,113,17444,1,0,0:0:0:0:
150,113,17520,1,8,0:0:0:0:
152,78,17672,1,0,0:0:0:0:
151,79,17823,1,8,0:0:0:0:
145,103,17975,1,0,0:0:0:0:
145,103,18051,1,0,0:0:0:0:
145,103,18126,1,0,0:0:0:0:
145,103,18278,1,8,0:0:0:0:
144,103,18429,1,0,0:0:0:0:
144,103,18505,1,0,0:0:0:0:
163,66,18581,1,0,0:0:0:0:
163,66,18657,1,0,0:0:0:0:
163,66,18732,1,0,0:0:0:0:
169,85,18884,1,8,0:0:0:0:
167,88,19035,1,0,0:0:0:0:
173,40,19111,1,0,0:0:0:0:
156,46,19187,1,8,0:0:0:0:
156,46,19263,1,8,0:0:0:0:
158,29,19338,1,0,0:0:0:0:
157,39,19490,1,8,0:0:0:0:
157,42,19641,1,4,0:0:0:0:
148,86,19944,1,4,0:0:0:0:
148,86,20247,1,4,0:0:0:0:
148,86,20399,1,12,0:0:0:0:
148,86,20551,1,12,0:0:0:0:
177,152,20854,1,4,0:0:0:0:
168,105,21157,1,8,0:0:0:0:
166,132,21308,1,0,0:0:0:0:
166,133,21384,1,0,0:0:0:0:
166,133,21460,1,8,0:0:0:0:
198,56,21611,1,0,0:0:0:0:
198,56,21763,1,8,0:0:0:0:
200,40,21838,1,0,0:0:0:0:
200,40,21914,1,8,0:0:0:0:
171,83,22217,1,0,0:0:0:0:
171,83,22369,1,8,0:0:0:0:
171,83,22520,1,8,0:0:0:0:
180,44,22672,1,0,0:0:0:0:
180,44,22747,1,0,0:0:0:0:
177,72,22823,1,8,0:0:0:0:
177,72,22975,1,0,0:0:0:0:
183,58,23126,1,8,0:0:0:0:
182,59,23278,1,0,0:0:0:0:
182,56,23581,1,8,0:0:0:0:
171,57,23732,1,0,0:0:0:0:
216,71,23808,1,0,0:0:0:0:
171,57,23884,1,8,0:0:0:0:
182,70,24035,1,0,0:0:0:0:
182,72,24187,1,8,0:0:0:0:
182,72,24263,1,8,0:0:0:0:
172,48,24338,1,8,0:0:0:0:
206,81,24641,1,0,0:0:0:0:
206,81,24793,1,8,0:0:0:0:
206,81,24944,1,8,0:0:0:0:
177,107,25096,1,0,0:0:0:0:
177,107,25172,1,0,0:0:0:0:
177,107,25247,1,8,0:0:0:0:
177,107,25399,1,8,0:0:0:0:
177,107,25551,1,0,0:0:0:0:
177,107,25702,1,0,0:0:0:0:
190,64,25854,1,0,0:0:0:0:
190,64,25929,1,8,0:0:0:0:
261,14,26005,1,0,0:0:0:0:
186,88,26157,1,8,0:0:0:0:
172,63,26308,1,8,0:0:0:0:
172,63,26384,1,0,0:0:0:0:
190,64,26460,1,8,0:0:0:0:
207,87,26611,1,0,0:0:0:0:
207,87,26763,1,8,0:0:0:0:
176,76,27066,1,0,0:0:0:0:
176,76,27141,1,0,0:0:0:0:
176,76,27217,1,8,0:0:0:0:
165,114,27369,1,0,0:0:0:0:
165,114,27520,1,8,0:0:0:0:
151,86,27672,1,8,0:0:0:0:
151,86,27823,1,8,0:0:0:0:
206,34,27975,1,0,0:0:0:0:
206,34,28126,1,8,0:0:0:0:
189,80,28278,1,0,0:0:0:0:
189,80,28354,1,0,0:0:0:0:
189,80,28429,1,8,0:0:0:0:
216,82,28581,1,0,0:0:0:0:
216,82,28657,1,0,0:0:0:0:
214,70,28732,1,8,0:0:0:0:
187,102,28884,1,8,0:0:0:0:
187,102,29035,1,0,0:0:0:0:
187,103,29187,1,8,0:0:0:0:
169,79,29338,1,0,0:0:0:0:
169,79,29414,1,0,0:0:0:0:
187,64,29490,1,0,0:0:0:0:
187,64,29641,1,0,0:0:0:0:
187,80,29793,1,8,0:0:0:0:
192,45,29944,1,8,0:0:0:0:
192,45,30096,1,0,0:0:0:0:
192,45,30247,1,8,0:0:0:0:
200,92,30551,1,4,0:0:0:0:
166,163,30854,1,8,0:0:0:0:
179,110,31005,1,0,0:0:0:0:
166,47,31081,1,0,0:0:0:0:
166,47,31157,1,8,0:0:0:0:
182,78,31308,1,0,0:0:0:0:
182,78,31460,1,8,0:0:0:0:
182,78,31535,1,0,0:0:0:0:
182,78,31611,1,8,0:0:0:0:
186,54,31914,1,0,0:0:0:0:
186,54,32066,1,8,0:0:0:0:
186,54,32217,1,8,0:0:0:0:
191,77,32369,1,0,0:0:0:0:
191,77,32444,1,0,0:0:0:0:
191,77,32520,1,8,0:0:0:0:
176,61,32672,1,0,0:0:0:0:
176,61,32823,1,8,0:0:0:0:
176,61,32975,1,0,0:0:0:0:
140,116,33278,1,8,0:0:0:0:
140,116,33429,1,0,0:0:0:0:
140,116,33505,1,0,0:0:0:0:
140,116,33581,1,8,0:0:0:0:
176,61,33732,1,0,0:0:0:0:
176,61,33884,1,8,0:0:0:0:
176,61,33960,1,8,0:0:0:0:
171,61,34035,1,8,0:0:0:0:
201,146,34338,1,0,0:0:0:0:
201,146,34490,1,8,0:0:0:0:
201,146,34641,1,8,0:0:0:0:
118,117,34793,1,0,0:0:0:0:
118,117,34869,1,0,0:0:0:0:
118,117,34944,1,8,0:0:0:0:
118,117,35096,1,8,0:0:0:0:
118,117,35247,1,0,0:0:0:0:
118,117,35399,1,4,0:0:0:0:
170,122,35702,1,0,0:0:0:0:
170,122,35854,1,8,0:0:0:0:
209,125,36005,1,8,0:0:0:0:
175,75,36081,1,8,0:0:0:0:
170,122,36157,1,0,0:0:0:0:
215,19,36308,1,8,0:0:0:0:
209,125,36460,1,8,0:0:0:0:
169,52,36611,1,4,0:0:0:0:
164,82,36914,1,8,0:0:0:0:
164,82,37066,1,8,0:0:0:0:
164,82,37217,1,4,0:0:0:0:
191,72,37520,1,4,0:0:0:0:
191,72,37823,1,12,0:0:0:0:
191,72,37975,1,0,0:0:0:0:
191,72,38051,1,0,0:0:0:0:
191,72,38126,1,0,0:0:0:0:
163,108,38278,1,0,0:0:0:0:
163,108,38429,1,12,0:0:0:0:
177,99,38581,1,0,0:0:0:0:
177,99,38884,1,0,0:0:0:0:
175,68,39035,1,12,0:0:0:0:
181,80,39187,1,0,0:0:0:0:
181,80,39263,1,0,0:0:0:0:
199,65,39338,1,0,0:0:0:0:
197,66,39490,1,0,0:0:0:0:
181,84,39641,1,12,0:0:0:0:
181,80,39944,1,12,0:0:0:0:
181,84,40247,1,12,0:0:0:0:
221,55,40854,1,12,0:0:0:0:
203,76,41460,1,0,0:0:0:0:
203,76,41611,1,0,0:0:0:0:
203,76,41763,1,0,0:0:0:0:
203,76,41914,1,0,0:0:0:0:
203,76,42066,1,0,0:0:0:0:
192,96,42141,1,0,0:0:0:0:
203,76,42217,1,0,0:0:0:0:
203,76,42369,1,12,0:0:0:0:
176,176,42672,1,4,0:0:0:0:
160,99,42823,1,8,0:0:0:0:
160,99,42975,1,0,0:0:0:0:
180,97,43126,1,8,0:0:0:0:
177,99,43278,1,8,0:0:0:0:
177,99,43429,1,8,0:0:0:0:
213,80,43505,1,8,0:0:0:0:
177,99,43581,1,0,0:0:0:0:
176,99,43732,1,8,0:0:0:0:
206,84,43884,1,0,0:0:0:0:
206,84,44035,1,8,0:0:0:0:
193,86,44111,1,8,0:0:0:0:
206,84,44187,1,8,0:0:0:0:
194,82,44338,1,8,0:0:0:0:
194,82,44490,1,0,0:0:0:0:
194,82,44641,1,8,0:0:0:0:
194,82,44793,1,8,0:0:0:0:
194,82,44944,1,0,0:0:0:0:
154,128,45096,1,8,0:0:0:0:
154,128,45247,1,0,0:0:0:0:
154,128,45323,1,0,0:0:0:0:
154,128,45399,1,0,0:0:0:0:
177,52,45551,1,8,0:0:0:0:
177,52,45702,1,0,0:0:0:0:
161,92,45778,1,0,0:0:0:0:
161,92,45854,1,0,0:0:0:0:
161,92,46005,1,8,0:0:0:0:
161,92,46157,1,0,0:0:0:0:
177,52,46232,1,0,0:0:0:0:
161,92,46308,1,0,0:0:0:0:
155,89,46460,1,8,0:0:0:0:
155,89,46611,1,8,0:0:0:0:
159,103,46763,1,0,0:0:0:0:
169,95,46838,1,8,0:0:0:0:
157,106,46914,1,8,0:0:0:0:
189,161,47066,1,8,0:0:0:0:
189,161,47141,1,8,0:0:0:0:
176,127,47217,1,8,0:0:0:0:
112,65,47520,1,8,0:0:0:0:
118,74,47596,1,0,0:0:0:0:
112,65,47672,1,0,0:0:0:0:
112,70,47747,1,8,0:0:0:0:
111,71,47823,1,0,0:0:0:0:
178,132,47975,1,8,0:0:0:0:
178,132,48126,1,0,0:0:0:0:
150,83,48202,1,0,0:0:0:0:
150,83,48278,1,8,0:0:0:0:
181,87,48429,1,0,0:0:0:0:
181,87,48581,1,8,0:0:0:0:
191,65,48732,1,0,0:0:0:0:
191,65,48808,1,8,0:0:0:0:
177,42,48884,1,8,0:0:0:0:
141,56,49035,1,0,0:0:0:0:
148,72,49187,1,8,0:0:0:0:
148,73,49338,1,0,0:0:0:0:
148,73,49490,1,8,0:0:0:0:
151,66,49566,1,8,0:0:0:0:
151,66,49641,1,8,0:0:0:0:
167,67,49793,1,8,0:0:0:0:
166,68,49944,1,0,0:0:0:0:
163,70,50096,1,8,0:0:0:0:
163,70,50399,1,8,0:0:0:0:
163,70,50475,1,8,0:0:0:0:
163,70,50551,1,0,0:0:0:0:
179,48,50626,1,0,0:0:0:0:
166,68,50702,1,8,0:0:0:0:
176,77,50854,1,8,0:0:0:0:
176,77,51005,1,0,0:0:0:0:
197,74,51157,1,8,0:0:0:0:
196,74,51308,1,8,0:0:0:0:
196,74,51384,1,8,0:0:0:0:
196,74,51460,1,8,0:0:0:0:
202,96,51611,1,8,0:0:0:0:
164,65,51763,1,0,0:0:0:0:
222,46,51838,1,0,0:0:0:0:
164,65,51914,1,0,0:0:0:0:
164,65,51990,1,0,0:0:0:0:
164,65,52066,1,8,0:0:0:0:
211,65,52369,1,4,0:0:0:0:
209,86,52520,1,8,0:0:0:0:
207,85,52596,1,8,0:0:0:0:
209,86,52672,1,8,0:0:0:0:
158,60,52823,1,8,0:0:0:0:
158,60,52975,1,0,0:0:0:0:
158,60,53126,1,8,0:0:0:0:
161,75,53278,1,0,0:0:0:0:
161,75,53429,1,0,0:0:0:0:
185,48,53505,1,8,0:0:0:0:
185,48,53581,1,8,0:0:0:0:
174,119,53732,1,0,0:0:0:0:
174,119,53884,1,8,0:0:0:0:
159,136,53960,1,8,0:0:0:0:
159,136,54035,1,8,0:0:0:0:
158,138,54111,1,8,0:0:0:0:
159,136,54187,1,0,0:0:0:0:
176,81,54338,1,8,0:0:0:0:
176,81,54490,1,0,0:0:0:0:
198,87,54641,1,8,0:0:0:0:
156,63,54717,1,8,0:0:0:0:
198,87,54793,1,8,0:0:0:0:
168,121,54944,1,8,0:0:0:0:
129,152,55247,1,8,0:0:0:0:
129,152,55399,1,0,0:0:0:0:
172,113,55475,1,0,0:0:0:0:
129,152,55551,1,8,0:0:0:0:
168,121,55702,1,0,0:0:0:0:
186,107,55854,1,8,0:0:0:0:
170,121,56005,1,0,0:0:0:0:
182,111,56081,1,0,0:0:0:0:
182,111,56157,1,8,0:0:0:0:
182,111,56232,1,8,0:0:0:0:
181,112,56308,1,8,0:0:0:0:
137,79,56460,1,0,0:0:0:0:
137,79,56611,1,8,0:0:0:0:
186,58,56687,1,8,0:0:0:0:
137,79,56763,1,0,0:0:0:0:
137,79,56838,1,0,0:0:0:0:
137,79,56914,1,8,0:0:0:0:
166,63,57066,1,8,0:0:0:0:
166,65,57141,1,8,0:0:0:0:
166,63,57217,1,8,0:0:0:0:
181,86,57369,1,0,0:0:0:0:
191,117,57444,1,0,0:0:0:0:
181,86,57520,1,8,0:0:0:0:
193,93,57672,1,8,0:0:0:0:
193,93,57823,1,8,0:0:0:0:
211,65,57899,1,8,0:0:0:0:
193,93,57975,1,0,0:0:0:0:
211,79,58126,1,0,0:0:0:0:
211,79,58278,1,8,0:0:0:0:
211,77,58354,1,8,0:0:0:0:
211,79,58429,1,8,0:0:0:0:
186,86,58581,1,0,0:0:0:0:
186,83,58657,1,0,0:0:0:0:
185,87,58732,1,8,0:0:0:0:
191,107,58884,1,8,0:0:0:0:
190,107,59035,1,8,0:0:0:0:
190,107,59111,1,8,0:0:0:0:
190,107,59187,1,0,0:0:0:0:
196,96,59338,1,0,0:0:0:0:
186,100,59490,1,8,0:0:0:0:
186,100,59566,1,8,0:0:0:0:
186,100,59641,1,8,0:0:0:0:
167,114,59793,1,0,0:0:0:0:
167,114,59869,1,0,0:0:0:0:
167,114,59944,1,8,0:0:0:0:
179,86,60096,1,8,0:0:0:0:
177,87,60247,1,0,0:0:0:0:
177,87,60323,1,8,0:0:0:0:
177,87,60399,1,0,0:0:0:0:
177,100,60551,1,8,0:0:0:0:
183,112,60702,1,8,0:0:0:0:
182,112,60854,1,8,0:0:0:0:
171,79,61005,1,0,0:0:0:0:
171,80,61081,1,8,0:0:0:0:
170,82,61157,1,8,0:0:0:0:
169,83,61308,1,8,0:0:0:0:
171,93,61611,1,0,0:0:0:0:
151,67,61763,1,8,0:0:0:0:
201,48,61914,1,8,0:0:0:0:
188,51,62066,5,4,0:0:0:0:
206,124,62217,1,4,0:0:0:0:
206,124,62369,1,12,0:0:0:0:
206,129,62672,1,4,0:0:0:0:
206,129,62823,1,4,0:0:0:0:
204,133,62975,1,12,0:0:0:0:
181,114,63278,1,4,0:0:0:0:
181,114,63429,1,4,0:0:0:0:
203,242,63657,1,8,0:0:0:0:
172,97,63732,1,0,0:0:0:0:
180,93,63808,1,0,0:0:0:0:
172,97,63884,1,8,0:0:0:0:
177,96,64035,1,8,0:0:0:0:
177,97,64187,1,8,0:0:0:0:
177,97,64338,1,8,0:0:0:0:
197,55,64490,1,4,0:0:0:0:
204,106,64641,1,4,0:0:0:0:
204,106,64793,1,12,0:0:0:0:
198,107,65096,1,4,0:0:0:0:
198,108,65247,1,4,0:0:0:0:
197,108,65399,1,12,0:0:0:0:
199,89,65702,1,4,0:0:0:0:
199,89,65854,1,4,0:0:0:0:
109,64,66081,1,8,0:0:0:0:
191,100,66157,1,0,0:0:0:0:
199,87,66232,1,0,0:0:0:0:
190,101,66308,1,8,0:0:0:0:
193,98,66510,1,0,0:0:0:0:
190,99,66611,1,8,0:0:0:0:
216,53,66712,1,0,0:0:0:0:
200,61,66813,1,0,0:0:0:0:
199,60,66914,1,12,0:0:0:0:
195,90,67141,1,4,0:0:0:0:
195,91,67369,1,12,0:0:0:0:
195,90,67520,1,4,0:0:0:0:
195,90,67748,1,4,0:0:0:0:
195,91,67975,1,4,0:0:0:0:
213,91,68126,1,12,0:0:0:0:
213,92,68354,1,12,0:0:0:0:
213,92,68581,1,4,0:0:0:0:
213,92,68732,1,12,0:0:0:0:
190,124,68960,1,4,0:0:0:0:
190,124,69187,1,4,0:0:0:0:
201,107,69338,1,8,0:0:0:0:
194,114,69414,1,8,0:0:0:0:
194,114,69490,1,0,0:0:0:0:
193,115,69566,1,0,0:0:0:0:
194,114,69641,1,8,0:0:0:0:
200,80,69793,1,0,0:0:0:0:
200,80,69869,1,8,0:0:0:0:
200,80,69944,1,0,0:0:0:0:
172,65,70096,1,0,0:0:0:0:
191,22,70172,1,0,0:0:0:0:
172,65,70248,1,8,0:0:0:0:
204,86,70399,1,0,0:0:0:0:
204,86,70551,1,12,0:0:0:0:
196,66,70854,1,12,0:0:0:0:
196,66,71157,1,12,0:0:0:0:
196,66,71460,1,12,0:0:0:0:
196,66,71763,1,4,0:0:0:0:
191,96,73147,1,8,0:0:0:0:
126,90,73609,1,0,0:0:0:0:
191,96,73724,1,0,0:0:0:0:
191,96,73955,1,8,0:0:0:0:
126,90,74186,1,0,0:0:0:0:
185,59,74301,1,0,0:0:0:0:
126,90,74416,1,0,0:0:0:0:
173,70,74647,1,0,0:0:0:0:
173,70,74763,1,0,0:0:0:0:
126,90,74993,1,8,0:0:0:0:
126,90,75455,1,0,0:0:0:0:
173,70,75570,1,0,0:0:0:0:
161,80,75801,1,8,0:0:0:0:
126,90,76032,1,0,0:0:0:0:
182,58,76147,1,0,0:0:0:0:
196,78,76263,1,0,0:0:0:0:
196,78,76493,1,8,0:0:0:0:
196,78,76609,1,0,0:0:0:0:
126,90,76839,1,8,0:0:0:0:
206,57,77070,1,0,0:0:0:0:
126,90,77301,1,0,0:0:0:0:
196,35,77416,1,0,0:0:0:0:
197,46,77647,1,8,0:0:0:0:
126,90,77878,1,0,0:0:0:0:
176,42,77993,1,0,0:0:0:0:
178,50,78109,1,0,0:0:0:0:
178,50,78224,1,8,0:0:0:0:
126,90,78686,1,8,0:0:0:0:
208,122,79147,1,0,0:0:0:0:
208,122,79263,1,0,0:0:0:0:
206,127,79493,1,8,0:0:0:0:
206,127,79724,1,0,0:0:0:0:
206,127,79839,1,0,0:0:0:0:
210,73,79955,1,0,0:0:0:0:
192,98,80186,1,8,0:0:0:0:
192,104,80301,1,0,0:0:0:0:
192,104,80532,1,8,0:0:0:0:
191,107,80763,1,8,0:0:0:0:
191,107,80993,1,0,0:0:0:0:
189,112,81109,1,0,0:0:0:0:
189,113,81339,1,8,0:0:0:0:
189,115,81570,1,0,0:0:0:0:
189,115,81686,1,0,0:0:0:0:
189,115,81801,1,0,0:0:0:0:
189,113,82032,1,0,0:0:0:0:
189,113,82147,1,0,0:0:0:0:
189,115,82378,1,8,0:0:0:0:
198,104,82839,1,0,0:0:0:0:
198,104,82955,1,0,0:0:0:0:
198,104,83186,1,8,0:0:0:0:
198,104,83416,1,0,0:0:0:0:
198,104,83532,1,0,0:0:0:0:
198,104,83647,1,0,0:0:0:0:
198,104,83878,1,8,0:0:0:0:
198,104,83993,1,0,0:0:0:0:
155,132,84224,1,8,0:0:0:0:
155,132,84455,1,0,0:0:0:0:
155,132,84686,1,0,0:0:0:0:
155,132,84801,1,0,0:0:0:0:
155,132,85032,1,8,0:0:0:0:
155,132,85263,1,0,0:0:0:0:
155,132,85378,1,0,0:0:0:0:
155,132,85493,1,0,0:0:0:0:
178,123,85609,1,8,0:0:0:0:
216,107,85839,5,0,0:0:0:0:
221,117,86070,1,12,0:0:0:0:
210,122,86532,1,0,0:0:0:0:
166,102,86763,1,8,0:0:0:0:
166,102,86878,1,8,0:0:0:0:
166,102,86993,1,8,0:0:0:0:
166,102,87224,1,8,0:0:0:0:
163,110,87455,1,8,0:0:0:0:
163,110,87686,1,8,0:0:0:0:
163,110,87916,1,8,0:0:0:0:
163,110,88147,1,8,0:0:0:0:
182,94,88224,1,0,0:0:0:0:
181,94,88301,1,0,0:0:0:0:
181,94,88378,1,0,0:0:0:0:
195,112,88609,1,8,0:0:0:0:
195,112,88724,1,8,0:0:0:0:
195,112,88839,1,8,0:0:0:0:
214,98,89070,1,8,0:0:0:0:
214,98,89301,1,8,0:0:0:0:
214,98,89532,1,8,0:0:0:0:
214,98,89763,1,8,0:0:0:0:
215,92,89878,1,0,0:0:0:0:
201,99,90224,1,0,0:0:0:0:
201,99,90455,1,8,0:0:0:0:
204,97,90570,1,8,0:0:0:0:
201,99,90686,1,8,0:0:0:0:
201,99,90916,1,8,0:0:0:0:
201,99,91147,1,8,0:0:0:0:
201,99,91378,1,8,0:0:0:0:
201,99,91609,1,0,0:0:0:0:
201,99,91839,1,8,0:0:0:0:
201,99,91916,1,0,0:0:0:0:
201,99,91993,1,0,0:0:0:0:
201,99,92070,1,0,0:0:0:0:
216,95,92301,1,8,0:0:0:0:
215,95,92416,1,8,0:0:0:0:
214,95,92532,1,8,0:0:0:0:
213,147,92763,1,8,0:0:0:0:
213,147,92993,1,8,0:0:0:0:
213,147,93224,1,8,0:0:0:0:
213,147,93455,1,8,0:0:0:0:
213,147,93570,1,0,0:0:0:0:
213,147,93916,1,0,0:0:0:0:
154,175,94147,1,8,0:0:0:0:
154,175,94263,1,8,0:0:0:0:
154,175,94378,1,8,0:0:0:0:
154,175,94609,1,8,0:0:0:0:
154,175,94839,1,8,0:0:0:0:
190,62,95070,1,8,0:0:0:0:
190,62,95301,1,8,0:0:0:0:
190,62,95532,1,8,0:0:0:0:
190,62,95609,1,0,0:0:0:0:
190,62,95686,1,0,0:0:0:0:
190,62,95763,1,0,0:0:0:0:
162,116,95993,1,8,0:0:0:0:
162,116,96109,1,8,0:0:0:0:
162,116,96224,1,8,0:0:0:0:
162,116,96455,1,8,0:0:0:0:
162,116,96686,1,8,0:0:0:0:
162,116,96916,1,8,0:0:0:0:
180,74,97147,1,8,0:0:0:0:
218,72,97263,1,0,0:0:0:0:
209,77,97609,1,0,0:0:0:0:
205,81,97839,1,8,0:0:0:0:
205,81,97955,1,8,0:0:0:0:
205,81,98070,1,8,0:0:0:0:
205,86,98301,1,8,0:0:0:0:
205,87,98532,1,0,0:0:0:0:
205,88,98763,1,8,0:0:0:0:
205,81,98878,1,8,0:0:0:0:
205,86,98993,1,8,0:0:0:0:
205,87,99224,1,8,0:0:0:0:
205,88,99455,1,0,0:0:0:0:
205,81,99686,1,8,0:0:0:0:
205,87,99916,1,0,0:0:0:0:
199,87,100147,1,8,0:0:0:0:
199,87,100378,1,0,0:0:0:0:
198,87,100609,1,8,0:0:0:0:
199,87,100839,1,8,0:0:0:0:
199,87,101070,1,8,0:0:0:0:
256,192,101301,12,0,102361,0:0:0:0:
181,73,102513,5,4,0:0:0:0:
181,73,102816,1,4,0:0:0:0:
181,73,103119,1,4,0:0:0:0:
181,73,103270,1,12,0:0:0:0:
181,73,103422,1,12,0:0:0:0:
156,189,103725,1,4,0:0:0:0:
185,232,104028,1,8,0:0:0:0:
180,234,104179,1,0,0:0:0:0:
187,92,104255,1,0,0:0:0:0:
180,234,104331,1,8,0:0:0:0:
187,120,104482,1,0,0:0:0:0:
181,125,104634,1,8,0:0:0:0:
194,69,104710,1,0,0:0:0:0:
178,128,104785,1,8,0:0:0:0:
179,107,105088,1,0,0:0:0:0:
178,107,105240,1,8,0:0:0:0:
177,108,105391,1,8,0:0:0:0:
166,99,105543,1,0,0:0:0:0:
168,98,105619,1,0,0:0:0:0:
166,99,105694,1,8,0:0:0:0:
181,54,105846,1,0,0:0:0:0:
176,57,105997,1,8,0:0:0:0:
176,57,106149,1,0,0:0:0:0:
176,57,106452,1,8,0:0:0:0:
174,59,106604,1,0,0:0:0:0:
166,51,106679,1,0,0:0:0:0:
166,52,106755,1,8,0:0:0:0:
172,71,106907,1,0,0:0:0:0:
172,72,107058,1,8,0:0:0:0:
172,75,107134,1,8,0:0:0:0:
172,72,107210,1,8,0:0:0:0:
216,161,107513,1,0,0:0:0:0:
216,161,107664,1,8,0:0:0:0:
216,161,107816,1,8,0:0:0:0:
132,127,107967,1,0,0:0:0:0:
136,122,108043,1,0,0:0:0:0:
132,127,108119,1,8,0:0:0:0:
148,133,108270,1,8,0:0:0:0:
145,140,108422,1,0,0:0:0:0:
145,140,108573,1,0,0:0:0:0:
223,203,108725,1,0,0:0:0:0:
223,203,108801,1,8,0:0:0:0:
223,203,108876,1,0,0:0:0:0:
223,203,109028,1,8,0:0:0:0:
223,203,109179,1,8,0:0:0:0:
193,127,109255,1,0,0:0:0:0:
223,203,109331,1,8,0:0:0:0:
116,146,109482,1,0,0:0:0:0:
227,198,109634,1,8,0:0:0:0:
187,108,109937,1,0,0:0:0:0:
186,109,110013,1,0,0:0:0:0:
186,109,110088,1,8,0:0:0:0:
180,144,110240,1,0,0:0:0:0:
180,144,110391,1,8,0:0:0:0:
180,144,110543,1,8,0:0:0:0:
191,124,110694,1,8,0:0:0:0:
191,125,110846,1,0,0:0:0:0:
196,125,110997,1,8,0:0:0:0:
219,163,111149,1,0,0:0:0:0:
221,122,111225,1,0,0:0:0:0:
219,163,111301,1,8,0:0:0:0:
159,62,111452,1,0,0:0:0:0:
188,22,111528,1,0,0:0:0:0:
159,62,111604,1,8,0:0:0:0:
182,59,111755,1,8,0:0:0:0:
182,60,111907,1,0,0:0:0:0:
182,60,112058,1,8,0:0:0:0:
201,180,112210,1,0,0:0:0:0:
201,180,112285,1,0,0:0:0:0:
201,180,112361,1,0,0:0:0:0:
169,127,112513,1,0,0:0:0:0:
169,127,112664,1,8,0:0:0:0:
180,43,112816,1,8,0:0:0:0:
188,82,112967,1,0,0:0:0:0:
163,101,113119,1,8,0:0:0:0:
210,167,113422,1,12,0:0:0:0:
182,89,113573,1,0,0:0:0:0:
182,89,113649,1,0,0:0:0:0:
191,82,113801,1,0,0:0:0:0:
191,75,113876,1,8,0:0:0:0:
158,81,114028,1,0,0:0:0:0:
178,70,114331,1,0,0:0:0:0:
179,74,114482,1,8,0:0:0:0:
169,63,114634,1,0,0:0:0:0:
173,58,114710,1,0,0:0:0:0:
172,78,114785,1,8,0:0:0:0:
170,81,114937,1,8,0:0:0:0:
173,53,115088,1,8,0:0:0:0:
226,55,115164,1,0,0:0:0:0:
186,68,115240,1,8,0:0:0:0:
202,63,115391,1,8,0:0:0:0:
201,64,115467,1,8,0:0:0:0:
177,71,115543,1,8,0:0:0:0:
197,56,115694,1,0,0:0:0:0:
197,56,115846,1,8,0:0:0:0:
175,62,115997,1,0,0:0:0:0:
174,63,116073,1,8,0:0:0:0:
163,110,116149,1,0,0:0:0:0:
201,82,116301,1,0,0:0:0:0:
200,74,116376,1,0,0:0:0:0:
163,110,116452,1,8,0:0:0:0:
163,110,116604,1,8,0:0:0:0:
163,110,116679,1,8,0:0:0:0:
163,110,116831,1,0,0:0:0:0:
163,110,116907,1,8,0:0:0:0:
180,93,117210,1,8,0:0:0:0:
180,93,117285,1,8,0:0:0:0:
176,97,117361,1,8,0:0:0:0:
142,112,117513,1,8,0:0:0:0:
142,112,117664,1,0,0:0:0:0:
153,92,117816,1,0,0:0:0:0:
181,44,117891,1,0,0:0:0:0:
153,92,117967,1,8,0:0:0:0:
123,90,118119,1,8,0:0:0:0:
123,90,118270,1,4,0:0:0:0:
188,186,118573,1,0,0:0:0:0:
188,186,118725,1,8,0:0:0:0:
188,186,118876,1,8,0:0:0:0:
185,132,118952,1,8,0:0:0:0:
185,132,119028,1,0,0:0:0:0:
198,71,119179,1,8,0:0:0:0:
198,71,119331,1,8,0:0:0:0:
185,132,119482,1,4,0:0:0:0:
197,148,119785,1,8,0:0:0:0:
196,148,119937,1,8,0:0:0:0:
185,132,120088,1,4,0:0:0:0:
185,132,120391,1,4,0:0:0:0:
185,132,120694,1,12,0:0:0:0:
190,121,120846,1,0,0:0:0:0:
190,121,120922,1,0,0:0:0:0:
131,78,120997,1,0,0:0:0:0:
131,78,121149,1,0,0:0:0:0:
185,102,121301,1,12,0:0:0:0:
216,140,121452,1,0,0:0:0:0:
216,140,121755,1,0,0:0:0:0:
185,102,121907,1,12,0:0:0:0:
202,143,122058,1,0,0:0:0:0:
201,143,122134,1,0,0:0:0:0:
269,166,122210,1,0,0:0:0:0:
269,166,122361,1,0,0:0:0:0:
185,102,122513,1,12,0:0:0:0:
185,102,122816,1,12,0:0:0:0:
185,102,123119,1,12,0:0:0:0:
164,151,123725,1,12,0:0:0:0:
236,134,124331,1,0,0:0:0:0:
236,134,124482,1,0,0:0:0:0:
236,134,124634,1,0,0:0:0:0:
236,134,124785,1,0,0:0:0:0:
236,134,124937,1,0,0:0:0:0:
244,219,125013,1,0,0:0:0:0:
236,134,125088,1,0,0:0:0:0:
162,155,125240,1,12,0:0:0:0:
236,134,125543,1,4,0:0:0:0:
