osu file format v14

[General]
AudioFilename: audio.mp3
AudioLeadIn: 0
PreviewTime: 53661
Countdown: 0
SampleSet: Soft
StackLeniency: 0.7
Mode: 3
LetterboxInBreaks: 0
SpecialStyle: 0
WidescreenStoryboard: 0

[Editor]
DistanceSpacing: 1.6
BeatDivisor: 4
GridSize: 32
TimelineZoom: 1.4

[Metadata]
Title:Cineraria
TitleUnicode:Cineraria
Artist:Umeboshi Chazuke
ArtistUnicode:梅干茶漬け
Creator:FAMoss
Version:Stingy's Normal
Source:osu!
Tags:faputa stingy featured artist fa mappers' guild mg ajitama kenbunroku 8bit 8-bit electronic instrumental chiptune あじたま見聞録
BeatmapID:2651273
BeatmapSetID:1258829

[Difficulty]
HPDrainRate:7.4
CircleSize:4
OverallDifficulty:7.4
ApproachRate:5
SliderMultiplier:1.4
SliderTickRate:1

[Events]
//Background and Video events
0,0,"Backgound.jpg",0,0
//Break Periods
//Storyboard Layer 0 (Background)
//Storyboard Layer 1 (Fail)
//Storyboard Layer 2 (Pass)
//Storyboard Layer 3 (Foreground)
//Storyboard Layer 4 (Overlay)
//Storyboard Sound Samples

[TimingPoints]
140,281.69014084507,3,2,1,60,1,0
54224,-100,3,2,1,60,0,1
60139,-100,3,2,1,60,0,0
60985,-100,3,2,1,60,0,1
66900,-100,3,2,1,60,0,0
67745,-100,3,2,1,60,0,1
73661,-100,3,2,1,60,0,0
103238,-100,3,2,1,60,0,1
109999,-100,3,2,1,60,0,0

[HitObjects]
320,192,140,5,0,0:0:0:0:
64,192,703,1,0,0:0:0:0:
320,192,985,1,0,0:0:0:0:
64,192,1548,1,0,0:0:0:0:
192,192,1830,1,0,0:0:0:0:
320,192,2111,1,0,0:0:0:0:
448,192,2393,1,0,0:0:0:0:
320,192,2675,1,0,0:0:0:0:
64,192,3238,1,0,0:0:0:0:
320,192,3520,1,0,0:0:0:0:
64,192,4083,1,0,0:0:0:0:
320,192,4365,1,0,0:0:0:0:
448,192,4928,1,0,0:0:0:0:
320,192,5210,1,0,0:0:0:0:
192,192,5492,1,0,0:0:0:0:
64,192,5773,1,0,0:0:0:0:
192,192,5914,1,0,0:0:0:0:
64,192,6055,1,0,0:0:0:0:
448,192,6618,128,8,6900:0:0:0:0:
64,192,6900,128,2,7182:0:0:0:0:
320,192,6900,1,4,0:0:0:0:
192,192,7182,128,8,7463:0:0:0:0:
320,192,7463,128,8,7745:0:0:0:0:
64,192,7745,128,4,8027:0:0:0:0:
448,192,7745,1,2,0:0:0:0:
192,192,8027,128,8,8309:0:0:0:0:
448,192,8309,128,8,8590:0:0:0:0:
64,192,8590,128,2,8872:0:0:0:0:
320,192,8590,1,4,0:0:0:0:
192,192,8872,128,8,9154:0:0:0:0:
320,192,9154,128,8,9435:0:0:0:0:
64,192,9435,1,4,0:0:0:0:
448,192,9435,128,2,9999:0:0:0:0:
192,192,9999,128,8,10280:0:0:0:0:
320,192,10280,1,2,0:0:0:0:
448,192,10280,128,4,10844:0:0:0:0:
192,192,10844,128,0,11125:0:0:0:0:
448,192,11125,128,0,11689:0:0:0:0:
320,192,11689,128,0,11970:0:0:0:0:
64,192,11970,1,8,0:0:0:0:
192,192,11970,128,4,12252:0:0:0:0:
448,192,12252,128,2,12534:0:0:0:0:
320,192,12534,128,2,12816:0:0:0:0:
192,192,12816,128,8,13097:0:0:0:0:
448,192,12816,1,4,0:0:0:0:
64,192,13097,128,8,13379:0:0:0:0:
320,192,13379,128,12,13661:0:0:0:0:
64,192,13661,128,8,15351:0:0:0:0:
192,192,13661,1,4,0:0:0:0:
320,192,13942,1,0,0:0:0:0:
448,192,14224,1,0,0:0:0:0:
192,192,14506,1,0,0:0:0:0:
448,192,14787,1,0,0:0:0:0:
320,192,15069,1,0,0:0:0:0:
192,192,15351,1,2,0:0:0:0:
448,192,15351,1,4,0:0:0:0:
320,192,15492,1,8,0:0:0:0:
64,192,15632,1,0,0:0:0:70:tom02.wav
192,192,15773,1,0,0:0:0:70:tom02.wav
448,192,15914,1,0,0:0:0:70:tom04.wav
320,192,16055,1,0,0:0:0:70:tom04.wav
64,192,16196,1,8,0:0:0:0:
192,192,16196,1,4,0:0:0:0:
64,192,16478,128,8,16759:0:0:0:0:
320,192,16478,1,4,0:0:0:0:
192,192,16759,128,0,17041:0:0:0:0:
320,192,17041,1,2,0:0:0:0:
448,192,17041,1,4,0:0:0:0:
320,192,17463,1,2,0:0:0:0:
192,192,17604,1,0,0:0:0:0:
448,192,17886,1,2,0:0:0:0:
448,192,18168,1,2,0:0:0:0:
192,192,18449,1,8,0:0:0:0:
320,192,18449,1,2,0:0:0:0:
64,192,18731,1,2,0:0:0:0:
64,192,19154,128,2,19294:0:0:0:0:
320,192,19294,1,0,0:0:0:0:
192,192,19435,1,0,0:0:0:0:
448,192,19576,1,2,0:0:0:0:
448,192,19858,1,2,0:0:0:0:
64,192,20139,1,2,0:0:0:0:
192,192,20139,1,8,0:0:0:0:
320,192,20421,1,2,0:0:0:0:
320,192,20844,1,2,0:0:0:0:
448,192,20985,1,0,0:0:0:0:
192,192,21266,1,2,0:0:0:0:
192,192,21548,1,2,0:0:0:0:
320,192,21830,1,8,0:0:0:0:
448,192,21830,1,2,0:0:0:0:
64,192,21970,1,0,0:0:0:0:
192,192,22111,1,2,0:0:0:0:
192,192,22534,1,2,0:0:0:0:
320,192,22675,1,0,0:0:0:0:
64,192,22956,1,2,0:0:0:0:
64,192,23238,1,2,0:0:0:0:
192,192,23520,1,8,0:0:0:0:
448,192,23520,1,2,0:0:0:0:
320,192,23801,1,2,0:0:0:0:
320,192,24224,1,2,0:0:0:0:
192,192,24365,1,0,0:0:0:0:
448,192,24647,1,2,0:0:0:0:
448,192,24928,1,2,0:0:0:0:
192,192,25210,1,8,0:0:0:0:
320,192,25210,1,2,0:0:0:0:
64,192,25492,1,2,0:0:0:0:
64,192,25914,128,2,26055:0:0:0:0:
320,192,26055,1,0,0:0:0:0:
192,192,26196,1,0,0:0:0:0:
448,192,26337,1,2,0:0:0:0:
448,192,26618,1,2,0:0:0:0:
64,192,26900,1,2,0:0:0:0:
192,192,26900,1,8,0:0:0:0:
320,192,27182,1,2,0:0:0:0:
320,192,27604,1,2,0:0:0:0:
192,192,27745,1,0,0:0:0:0:
64,192,28027,1,2,0:0:0:0:
320,192,28309,1,2,0:0:0:0:
64,192,28590,1,8,0:0:0:0:
448,192,28590,1,2,0:0:0:0:
192,192,28872,1,2,0:0:0:0:
320,192,28872,1,4,0:0:0:0:
320,192,29294,1,10,0:0:0:0:
448,192,29294,1,4,0:0:0:0:
192,192,29717,1,10,0:0:0:0:
320,192,29717,1,4,0:0:0:0:
64,192,30139,1,10,0:0:0:0:
192,192,30139,1,4,0:0:0:0:
192,192,30562,1,2,0:0:0:0:
320,192,30562,128,4,31125:0:0:0:0:
448,192,31125,128,0,31407:0:0:0:0:
64,192,31407,1,12,0:0:0:0:
192,192,31407,1,2,0:0:0:0:
64,192,31689,1,2,0:0:0:0:
320,192,31689,1,8,0:0:0:0:
192,192,31970,1,0,0:0:0:0:
320,192,32252,128,2,32816:0:0:0:0:
448,192,32252,1,4,0:0:0:0:
64,192,32816,1,0,0:0:0:0:
192,192,33097,1,2,0:0:0:0:
320,192,33520,1,2,0:0:0:0:
448,192,33661,1,2,0:0:0:0:
64,192,33942,1,2,0:0:0:0:
192,192,34224,1,2,0:0:0:0:
320,192,34506,1,2,0:0:0:0:
64,192,34787,1,2,0:0:0:0:
448,192,34787,1,4,0:0:0:0:
320,192,34928,1,8,0:0:0:0:
192,192,35069,1,8,0:0:0:0:
320,192,35210,1,0,0:0:0:70:tom01.wav
64,192,35351,1,10,0:0:0:0:
192,192,35492,1,10,0:0:0:0:
320,192,35632,128,6,35914:0:0:0:0:
448,192,35632,1,8,0:0:0:0:
64,192,35914,1,8,0:0:0:0:
192,192,35914,1,0,0:0:0:0:
448,192,36055,1,2,0:0:0:0:
320,192,36196,1,2,0:0:0:0:
64,192,36337,1,2,0:0:0:0:
192,192,36478,1,8,0:0:0:0:
320,192,36478,128,0,36759:0:0:0:0:
64,192,36759,128,2,37041:0:0:0:0:
192,192,37041,128,8,37323:0:0:0:0:
320,192,37041,1,0,0:0:0:0:
448,192,37323,128,2,37886:0:0:0:0:
64,192,37604,1,8,0:0:0:0:
192,192,37604,1,0,0:0:0:0:
192,192,37886,1,2,0:0:0:0:
64,192,38027,1,2,0:0:0:0:
320,192,38168,128,8,38731:0:0:0:0:
448,192,38168,1,0,0:0:0:0:
64,192,38449,1,2,0:0:0:0:
64,192,38731,1,8,0:0:0:0:
448,192,38731,128,0,39013:0:0:0:0:
192,192,39013,128,2,39294:0:0:0:0:
64,192,39294,1,8,0:0:0:0:
448,192,39294,1,0,0:0:0:0:
320,192,39435,1,2,0:0:0:0:
192,192,39576,1,2,0:0:0:0:
320,192,39717,1,2,0:0:0:0:
64,192,39858,1,8,0:0:0:0:
448,192,39858,128,0,40139:0:0:0:0:
320,192,40139,128,2,40421:0:0:0:0:
64,192,40421,128,8,40703:0:0:0:0:
192,192,40421,1,0,0:0:0:0:
192,192,40703,128,2,41266:0:0:0:0:
320,192,40985,1,8,0:0:0:0:
448,192,40985,1,0,0:0:0:0:
64,192,41266,1,2,0:0:0:0:
192,192,41407,1,2,0:0:0:0:
320,192,41548,128,8,42111:0:0:0:0:
448,192,41548,1,0,0:0:0:0:
64,192,41830,1,2,0:0:0:0:
192,192,42111,128,8,42393:0:0:0:0:
448,192,42111,1,0,0:0:0:0:
64,192,42393,1,12,0:0:0:0:
448,192,42393,1,2,0:0:0:0:
64,192,42675,1,2,0:0:0:0:
192,192,42816,1,10,0:0:0:0:
320,192,42816,1,4,0:0:0:0:
320,192,43097,1,2,0:0:0:0:
64,192,43238,1,2,0:0:0:0:
192,192,43379,1,0,0:0:0:70:tom02.wav
320,192,43520,1,2,0:0:0:0:
448,192,43661,1,0,0:0:0:70:tom03.wav
192,192,43801,1,2,0:0:0:0:
64,192,43942,1,0,0:0:0:70:tom04.wav
320,192,44083,1,12,0:0:0:0:
448,192,44083,1,2,0:0:0:0:
64,192,44365,1,2,0:0:0:0:
192,192,44506,1,10,0:0:0:0:
320,192,44506,1,4,0:0:0:0:
192,192,44787,1,2,0:0:0:0:
64,192,44928,1,2,0:0:0:0:
320,192,45069,1,0,0:0:0:70:TMKD_SNARE1_BB14x6_L1_02.wav
192,192,45210,1,2,0:0:0:0:
64,192,45351,1,0,0:0:0:70:TMKD_SNARE1_BB14x6_L1_02.wav
320,192,45492,1,6,0:0:0:0:
448,192,45492,1,0,0:0:0:70:TMKD_SNARE1_BB14x6_L1_02.wav
64,192,45773,1,12,0:0:0:0:
192,192,45773,1,2,0:0:0:0:
64,192,46055,1,8,0:0:0:0:
320,192,46337,1,8,0:0:0:0:
192,192,46478,1,2,0:0:0:0:
64,192,46618,1,8,0:0:0:0:
448,192,46618,1,0,0:0:0:0:
64,192,46900,1,8,0:0:0:0:
192,192,46900,1,0,0:0:0:0:
192,192,47182,1,8,0:0:0:0:
320,192,47182,1,0,0:0:0:0:
320,192,47463,1,4,0:0:0:0:
448,192,47463,1,8,0:0:0:0:
192,192,47745,1,8,0:0:0:0:
320,192,48027,1,8,0:0:0:0:
64,192,48168,1,2,0:0:0:0:
320,192,48309,1,8,0:0:0:0:
448,192,48309,1,4,0:0:0:0:
192,192,48590,1,8,0:0:0:0:
320,192,48590,1,4,0:0:0:0:
64,192,48872,1,8,0:0:0:0:
192,192,48872,1,4,0:0:0:0:
64,192,49154,1,8,0:0:0:0:
448,192,49154,128,4,50280:0:0:0:0:
64,192,50280,128,0,50562:0:0:0:0:
192,192,50562,128,0,50844:0:0:0:0:
320,192,50844,1,12,0:0:0:0:
448,192,50844,1,2,0:0:0:0:
320,192,51125,1,2,0:0:0:0:
64,192,51266,1,12,0:0:0:0:
192,192,51266,1,2,0:0:0:0:
192,192,51548,1,2,0:0:0:0:
320,192,51689,1,12,0:0:0:0:
448,192,51689,1,2,0:0:0:0:
64,192,51970,1,12,0:0:0:0:
448,192,51970,1,2,0:0:0:0:
192,192,52252,1,12,0:0:0:0:
320,192,52252,1,2,0:0:0:0:
64,192,52534,1,6,0:0:0:0:
192,192,52534,1,0,0:0:0:0:
64,192,53661,128,0,53942:0:0:0:0:
192,192,53942,128,8,54224:0:0:0:0:
448,192,53942,1,4,0:0:0:0:
64,192,54224,1,4,0:0:0:0:
448,192,54224,128,2,54506:0:0:0:0:
320,192,54506,1,2,0:0:0:0:
64,192,54647,1,8,0:0:0:0:
192,192,54647,1,0,0:0:0:0:
448,192,54787,1,2,0:0:0:0:
192,192,54928,1,8,0:0:0:0:
320,192,54928,1,0,0:0:0:0:
64,192,55069,128,2,55351:0:0:0:0:
192,192,55351,1,2,0:0:0:0:
320,192,55632,128,8,55914:0:0:0:0:
448,192,55632,1,0,0:0:0:0:
64,192,55914,128,2,56196:0:0:0:0:
320,192,56196,1,2,0:0:0:0:
192,192,56337,1,8,0:0:0:0:
448,192,56337,1,0,0:0:0:0:
320,192,56478,1,2,0:0:0:0:
64,192,56618,1,8,0:0:0:0:
192,192,56618,1,0,0:0:0:0:
448,192,56759,128,2,57041:0:0:0:0:
320,192,57041,1,2,0:0:0:0:
64,192,57323,1,8,0:0:0:0:
448,192,57323,1,0,0:0:0:0:
192,192,57604,128,2,57886:0:0:0:0:
320,192,57886,1,2,0:0:0:0:
64,192,58027,1,8,0:0:0:0:
448,192,58027,1,0,0:0:0:0:
192,192,58168,1,2,0:0:0:0:
320,192,58309,1,8,0:0:0:0:
448,192,58309,1,0,0:0:0:0:
64,192,58449,128,2,58731:0:0:0:0:
192,192,58731,1,2,0:0:0:0:
64,192,59013,1,8,0:0:0:0:
448,192,59013,128,0,59294:0:0:0:0:
64,192,59294,1,4,0:0:0:0:
320,192,59294,128,2,59576:0:0:0:0:
192,192,59576,128,8,59858:0:0:0:0:
448,192,59576,1,0,0:0:0:0:
320,192,59858,1,0,0:0:0:70:tom02.wav
448,192,59999,1,0,0:0:0:70:tom03.wav
64,192,60139,128,4,60421:0:0:0:0:
192,192,60139,1,2,0:0:0:0:
320,192,60421,1,2,0:0:0:0:
192,192,60562,1,8,0:0:0:0:
64,192,60703,1,0,0:0:0:70:tom03.wav
192,192,60844,1,0,0:0:0:70:tom04.wav
320,192,60985,1,2,0:0:0:0:
448,192,60985,128,4,61266:0:0:0:0:
64,192,61266,1,2,0:0:0:0:
192,192,61407,1,8,0:0:0:0:
320,192,61407,1,0,0:0:0:0:
448,192,61548,1,2,0:0:0:0:
192,192,61689,1,8,0:0:0:0:
320,192,61689,1,0,0:0:0:0:
64,192,61830,128,2,62111:0:0:0:0:
192,192,62111,1,2,0:0:0:0:
320,192,62393,128,8,62675:0:0:0:0:
448,192,62393,1,0,0:0:0:0:
64,192,62675,128,2,62956:0:0:0:0:
320,192,62956,1,2,0:0:0:0:
192,192,63097,1,8,0:0:0:0:
448,192,63097,1,0,0:0:0:0:
320,192,63238,1,2,0:0:0:0:
64,192,63379,1,8,0:0:0:0:
192,192,63379,1,0,0:0:0:0:
448,192,63520,128,2,63801:0:0:0:0:
320,192,63801,1,2,0:0:0:0:
64,192,64083,1,8,0:0:0:0:
448,192,64083,1,0,0:0:0:0:
192,192,64365,128,2,64647:0:0:0:0:
320,192,64647,1,2,0:0:0:0:
64,192,64787,1,8,0:0:0:0:
448,192,64787,1,0,0:0:0:0:
192,192,64928,1,2,0:0:0:0:
320,192,65069,1,8,0:0:0:0:
448,192,65069,1,0,0:0:0:0:
64,192,65210,128,2,65492:0:0:0:0:
192,192,65492,1,2,0:0:0:0:
64,192,65773,1,8,0:0:0:0:
320,192,65773,128,0,66055:0:0:0:0:
448,192,66055,128,2,66337:0:0:0:0:
64,192,66337,128,8,66618:0:0:0:0:
192,192,66337,1,4,0:0:0:0:
320,192,66618,1,2,0:0:0:0:
192,192,66759,1,2,0:0:0:0:
64,192,66900,1,4,0:0:0:0:
448,192,66900,128,8,67182:0:0:0:0:
192,192,67182,1,2,0:0:0:0:
320,192,67323,1,2,0:0:0:0:
64,192,67463,1,8,0:0:0:0:
448,192,67463,1,4,0:0:0:0:
320,192,67604,1,2,0:0:0:0:
64,192,67745,1,4,0:0:0:0:
192,192,67745,128,2,68027:0:0:0:0:
320,192,68027,1,8,0:0:0:0:
448,192,68027,1,0,0:0:0:0:
64,192,68309,1,2,0:0:0:0:
192,192,68449,1,2,0:0:0:0:
320,192,68590,1,8,0:0:0:0:
448,192,68590,128,0,68872:0:0:0:0:
192,192,68872,1,2,0:0:0:0:
320,192,69013,1,2,0:0:0:0:
64,192,69154,1,8,0:0:0:0:
192,192,69154,1,0,0:0:0:0:
448,192,69294,1,2,0:0:0:0:
320,192,69435,128,2,69717:0:0:0:0:
192,192,69717,128,8,69999:0:0:0:0:
448,192,69717,1,0,0:0:0:0:
64,192,69999,128,2,70280:0:0:0:0:
192,192,70280,1,8,0:0:0:0:
448,192,70280,128,0,70562:0:0:0:0:
320,192,70562,1,2,0:0:0:0:
192,192,70703,1,2,0:0:0:0:
64,192,70844,1,8,0:0:0:0:
448,192,70844,1,0,0:0:0:0:
320,192,70985,1,2,0:0:0:0:
64,192,71125,1,2,0:0:0:0:
192,192,71125,128,0,71407:0:0:0:0:
320,192,71407,1,8,0:0:0:0:
448,192,71407,1,0,0:0:0:0:
192,192,71689,1,2,0:0:0:0:
320,192,71830,1,2,0:0:0:0:
64,192,71970,128,8,72252:0:0:0:0:
448,192,71970,1,0,0:0:0:0:
192,192,72252,1,2,0:0:0:0:
320,192,72393,1,2,0:0:0:0:
64,192,72534,1,8,0:0:0:0:
192,192,72534,1,0,0:0:0:0:
448,192,72675,1,2,0:0:0:0:
320,192,72816,128,2,73097:0:0:0:0:
192,192,73097,128,8,73379:0:0:0:0:
448,192,73097,1,0,0:0:0:0:
64,192,73379,1,2,0:0:0:0:
192,192,73520,1,2,0:0:0:0:
320,192,73661,1,8,0:0:0:0:
448,192,73661,128,0,73942:0:0:0:0:
192,192,73942,1,2,0:0:0:0:
320,192,74083,1,2,0:0:0:0:
64,192,74224,1,8,0:0:0:0:
448,192,74224,1,0,0:0:0:0:
192,192,74365,1,2,0:0:0:0:
320,192,74506,128,4,74787:0:0:0:0:
448,192,74506,1,2,0:0:0:0:
64,192,74787,128,8,75069:0:0:0:0:
192,192,75069,128,8,75351:0:0:0:0:
64,192,75351,1,2,0:0:0:0:
448,192,75351,128,4,75632:0:0:0:0:
192,192,75632,128,8,75914:0:0:0:0:
320,192,75914,128,8,76196:0:0:0:0:
64,192,76196,128,4,76478:0:0:0:0:
448,192,76196,1,2,0:0:0:0:
192,192,76478,128,8,76759:0:0:0:0:
320,192,76759,128,8,77041:0:0:0:0:
64,192,77041,1,2,0:0:0:0:
448,192,77041,128,4,77604:0:0:0:0:
192,192,77323,1,12,0:0:0:0:
64,192,77604,1,8,0:0:0:0:
320,192,77604,128,4,77886:0:0:0:0:
64,192,77886,128,2,78168:0:0:0:0:
192,192,77886,1,4,0:0:0:0:
320,192,78168,1,8,0:0:0:0:
448,192,78168,1,0,0:0:0:0:
192,192,78449,1,2,0:0:0:0:
320,192,78590,1,2,0:0:0:0:
64,192,78731,1,8,0:0:0:0:
448,192,78731,128,0,79013:0:0:0:0:
192,192,79013,1,2,0:0:0:0:
320,192,79154,1,2,0:0:0:0:
64,192,79294,1,8,0:0:0:0:
448,192,79294,1,0,0:0:0:0:
320,192,79435,1,2,0:0:0:0:
64,192,79576,1,2,0:0:0:0:
192,192,79576,128,4,79858:0:0:0:0:
448,192,79858,128,8,80139:0:0:0:0:
64,192,80139,1,2,0:0:0:0:
320,192,80139,128,4,80421:0:0:0:0:
192,192,80421,128,8,80703:0:0:0:0:
448,192,80421,1,4,0:0:0:0:
64,192,80703,1,12,0:0:0:0:
192,192,80844,1,2,0:0:0:0:
320,192,80985,1,2,0:0:0:0:
448,192,81125,1,2,0:0:0:0:
64,192,81266,128,2,84647:0:0:0:0:
192,192,81266,1,4,0:0:0:0:
192,192,82956,1,2,0:0:0:0:
320,192,83801,1,2,0:0:0:0:
448,192,84647,1,2,0:0:0:0:
320,192,85492,1,2,0:0:0:0:
192,192,86337,1,2,0:0:0:0:
320,192,87182,1,0,0:0:0:70:LR_Drum Click.wav
192,192,87463,1,0,0:0:0:70:LR_Drum Click.wav
320,192,87745,1,0,0:0:0:70:LR_Drum Click.wav
64,192,88027,1,2,0:0:0:0:
320,192,88309,1,2,0:0:0:0:
192,192,88449,1,2,0:0:0:0:
64,192,88590,1,8,0:0:0:0:
448,192,88590,1,0,0:0:0:0:
192,192,88872,1,2,0:0:0:0:
320,192,88872,1,4,0:0:0:0:
448,192,89154,1,8,0:0:0:0:
64,192,89294,1,2,0:0:0:0:
320,192,89294,1,4,0:0:0:0:
192,192,89435,1,0,0:0:0:70:tom02.wav
320,192,89576,1,0,0:0:0:70:tom03.wav
64,192,89717,1,2,0:0:0:0:
448,192,89717,1,4,0:0:0:0:
320,192,89999,1,2,0:0:0:0:
64,192,90139,1,8,0:0:0:0:
192,192,90139,1,0,0:0:0:0:
320,192,90421,1,2,0:0:0:0:
192,192,90562,1,2,0:0:0:0:
448,192,90703,1,2,0:0:0:0:
320,192,90844,1,2,0:0:0:0:
64,192,90985,1,8,0:0:0:0:
192,192,90985,1,0,0:0:0:0:
320,192,91266,1,2,0:0:0:0:
64,192,91407,1,2,0:0:0:0:
320,192,91689,1,2,0:0:0:0:
64,192,91830,1,8,0:0:0:0:
192,192,91830,1,0,0:0:0:0:
320,192,92111,1,2,0:0:0:0:
64,192,92252,1,2,0:0:0:0:
320,192,92534,1,2,0:0:0:0:
64,192,92675,1,8,0:0:0:0:
192,192,92675,1,0,0:0:0:0:
448,192,92956,1,2,0:0:0:0:
320,192,93097,1,2,0:0:0:0:
448,192,93379,1,2,0:0:0:0:
192,192,93520,1,8,0:0:0:0:
320,192,93520,1,0,0:0:0:0:
448,192,93801,1,2,0:0:0:0:
320,192,93942,1,2,0:0:0:0:
192,192,94083,1,2,0:0:0:0:
448,192,94224,1,2,0:0:0:0:
192,192,94365,1,8,0:0:0:0:
320,192,94365,1,0,0:0:0:0:
448,192,94647,1,2,0:0:0:0:
192,192,94787,1,2,0:0:0:0:
448,192,95069,1,2,0:0:0:0:
192,192,95210,1,8,0:0:0:0:
320,192,95210,1,0,0:0:0:0:
448,192,95492,1,2,0:0:0:0:
192,192,95632,1,2,0:0:0:0:
448,192,95914,1,2,0:0:0:0:
192,192,96055,1,8,0:0:0:0:
320,192,96055,1,0,0:0:0:0:
64,192,96337,1,2,0:0:0:0:
192,192,96478,1,4,0:0:0:0:
320,192,96478,1,2,0:0:0:0:
64,192,96759,1,2,0:0:0:0:
320,192,96900,1,8,0:0:0:0:
448,192,96900,1,0,0:0:0:0:
64,192,97182,1,2,0:0:0:0:
320,192,97323,1,2,0:0:0:0:
64,192,97604,1,2,0:0:0:0:
320,192,97745,1,8,0:0:0:0:
448,192,97745,1,0,0:0:0:0:
64,192,98027,1,2,0:0:0:0:
448,192,98168,1,2,0:0:0:0:
64,192,98449,1,2,0:0:0:0:
320,192,98590,1,8,0:0:0:0:
448,192,98590,1,0,0:0:0:0:
64,192,98872,1,2,0:0:0:0:
448,192,99013,1,2,0:0:0:0:
320,192,99154,1,2,0:0:0:0:
64,192,99294,1,2,0:0:0:0:
320,192,99435,1,8,0:0:0:0:
448,192,99435,1,0,0:0:0:0:
192,192,99717,1,2,0:0:0:0:
64,192,99858,1,2,0:0:0:0:
192,192,100139,1,2,0:0:0:0:
64,192,100280,1,8,0:0:0:0:
448,192,100280,1,0,0:0:0:0:
320,192,100421,1,2,0:0:0:0:
192,192,100562,1,2,0:0:0:0:
320,192,100703,1,2,0:0:0:0:
192,192,100985,1,2,0:0:0:0:
320,192,101125,1,8,0:0:0:0:
448,192,101125,1,0,0:0:0:0:
64,192,101407,1,2,0:0:0:0:
192,192,101548,1,2,0:0:0:0:
320,192,101689,1,2,0:0:0:0:
64,192,101830,1,2,0:0:0:0:
192,192,101970,1,8,0:0:0:0:
320,192,101970,1,0,0:0:0:0:
448,192,102111,1,2,0:0:0:0:
64,192,102252,1,2,0:0:0:0:
192,192,102393,1,2,0:0:0:0:
448,192,102393,1,4,0:0:0:0:
64,192,102675,1,2,0:0:0:0:
320,192,102675,1,4,0:0:0:0:
192,192,102956,1,0,0:0:0:70:tom02.wav
448,192,102956,1,0,0:0:0:0:
320,192,103238,1,12,0:0:0:0:
448,192,103238,1,2,0:0:0:0:
192,192,103520,1,2,0:0:0:0:
320,192,103661,1,10,0:0:0:0:
448,192,103801,1,2,0:0:0:0:
320,192,103942,1,2,0:0:0:0:
64,192,104083,1,6,0:0:0:0:
192,192,104083,1,8,0:0:0:0:
320,192,104365,1,2,0:0:0:0:
192,192,104506,1,10,0:0:0:0:
64,192,104647,1,2,0:0:0:0:
320,192,104787,1,2,0:0:0:0:
64,192,104928,1,12,0:0:0:0:
448,192,104928,1,2,0:0:0:0:
192,192,105210,1,2,0:0:0:0:
320,192,105351,1,10,0:0:0:0:
192,192,105492,1,2,0:0:0:0:
320,192,105632,1,2,0:0:0:0:
64,192,105773,1,12,0:0:0:0:
448,192,105773,1,2,0:0:0:0:
320,192,106055,1,2,0:0:0:0:
192,192,106196,1,10,0:0:0:0:
448,192,106337,1,2,0:0:0:0:
320,192,106478,1,2,0:0:0:0:
64,192,106618,1,12,0:0:0:0:
192,192,106618,1,2,0:0:0:0:
448,192,106900,1,2,0:0:0:0:
320,192,107041,1,10,0:0:0:0:
64,192,107182,1,2,0:0:0:0:
192,192,107323,1,2,0:0:0:0:
320,192,107463,1,6,0:0:0:0:
448,192,107463,1,8,0:0:0:0:
192,192,107745,1,2,0:0:0:0:
320,192,107886,1,10,0:0:0:0:
448,192,108027,1,2,0:0:0:0:
192,192,108168,1,2,0:0:0:0:
64,192,108309,1,12,0:0:0:0:
448,192,108309,1,2,0:0:0:0:
320,192,108590,1,2,0:0:0:0:
192,192,108731,1,10,0:0:0:0:
320,192,108872,1,2,0:0:0:0:
192,192,109013,1,2,0:0:0:0:
64,192,109154,1,12,0:0:0:0:
448,192,109154,1,2,0:0:0:0:
192,192,109435,1,2,0:0:0:0:
320,192,109576,1,10,0:0:0:0:
448,192,109717,1,2,0:0:0:0:
64,192,109858,1,2,0:0:0:0:
192,192,109999,1,2,0:0:0:0:
320,192,109999,1,4,0:0:0:0:
320,192,111689,1,2,0:0:0:0:
320,192,112111,1,2,0:0:0:0:
320,192,112534,1,2,0:0:0:0:
192,192,112816,1,8,0:0:0:0:
64,192,112956,1,8,0:0:0:0:
448,192,112956,1,0,0:0:0:0:
320,192,113097,1,0,0:0:0:70:tom03.wav
192,192,113238,1,0,0:0:0:70:tom04.wav
64,192,113379,1,6,0:0:0:0:
448,192,113379,1,8,0:0:0:0:
