osu file format v14

[General]
AudioFilename: audio.mp3
AudioLeadIn: 0
PreviewTime: 53661
Countdown: 0
SampleSet: Soft
StackLeniency: 0.7
Mode: 3
LetterboxInBreaks: 0
SpecialStyle: 0
WidescreenStoryboard: 0

[Editor]
Bookmarks: 17041
DistanceSpacing: 1.6
BeatDivisor: 4
GridSize: 32
TimelineZoom: 1.7

[Metadata]
Title:Cineraria
TitleUnicode:Cineraria
Artist:Umeboshi Chazuke
ArtistUnicode:梅干茶漬け
Creator:FAMoss
Version:Fapu's Hard
Source:osu!
Tags:faputa stingy featured artist fa mappers' guild mg ajitama kenbunroku 8bit 8-bit electronic instrumental chiptune あじたま見聞録
BeatmapID:2635488
BeatmapSetID:1258829

[Difficulty]
HPDrainRate:7.9
CircleSize:4
OverallDifficulty:7.9
ApproachRate:5
SliderMultiplier:1.4
SliderTickRate:1

[Events]
//Background and Video events
0,0,"Backgound.jpg",0,0
//Break Periods
//Storyboard Layer 0 (Background)
//Storyboard Layer 1 (Fail)
//Storyboard Layer 2 (Pass)
//Storyboard Layer 3 (Foreground)
//Storyboard Layer 4 (Overlay)
//Storyboard Sound Samples

[TimingPoints]
140,281.69014084507,3,2,1,60,1,0
54224,-100,3,2,1,60,0,1
60139,-100,3,2,1,60,0,0
60985,-100,3,2,1,60,0,1
66900,-100,3,2,1,60,0,0
67745,-100,3,2,1,60,0,1
73661,-100,3,2,1,60,0,0
103238,-100,3,2,1,60,0,1
109999,-100,3,2,1,60,0,0

[HitObjects]
448,192,140,128,0,280:0:0:0:0:
64,192,703,128,0,844:0:0:0:0:
448,192,985,128,0,1125:0:0:0:0:
64,192,1548,128,0,1689:0:0:0:0:
192,192,1830,128,0,1970:0:0:0:0:
320,192,2111,128,0,2252:0:0:0:0:
448,192,2393,128,0,2534:0:0:0:0:
320,192,2675,128,0,2816:0:0:0:0:
64,192,3238,128,0,3379:0:0:0:0:
448,192,3520,128,0,3661:0:0:0:0:
64,192,4083,128,0,4224:0:0:0:0:
448,192,4365,128,0,4506:0:0:0:0:
320,192,4928,128,0,5069:0:0:0:0:
192,192,5210,128,0,5351:0:0:0:0:
64,192,5492,128,0,5632:0:0:0:0:
192,192,5773,128,0,5914:0:0:0:0:
320,192,5914,128,0,6055:0:0:0:0:
64,192,6055,1,0,0:0:0:0:
192,192,6055,128,0,6196:0:0:0:0:
448,192,6196,1,0,0:0:0:0:
64,192,6337,1,0,0:0:0:0:
192,192,6478,1,2,0:0:0:0:
320,192,6478,1,0,0:0:0:0:
64,192,6618,1,8,0:0:0:0:
448,192,6618,128,0,6900:0:0:0:0:
64,192,6900,128,2,7182:0:0:0:0:
192,192,6900,1,4,0:0:0:0:
320,192,6900,1,0,0:0:0:0:
192,192,7182,1,8,0:0:0:0:
448,192,7182,1,0,0:0:0:0:
320,192,7276,1,0,0:0:0:70:TMKD_SNARE1_BB14x6_L1_02.wav
192,192,7370,1,0,0:0:0:70:TMKD_SNARE1_BB14x6_L1_02.wav
64,192,7463,1,8,0:0:0:0:
320,192,7463,128,0,7745:0:0:0:0:
64,192,7745,1,4,0:0:0:0:
192,192,7745,128,2,8027:0:0:0:0:
448,192,7745,1,0,0:0:0:0:
320,192,8027,1,8,0:0:0:0:
448,192,8027,1,0,0:0:0:0:
64,192,8121,1,0,0:0:0:70:TMKD_SNARE1_BB14x6_L1_02.wav
192,192,8215,1,0,0:0:0:70:TMKD_SNARE1_BB14x6_L1_02.wav
320,192,8309,1,8,0:0:0:0:
448,192,8309,128,0,8590:0:0:0:0:
64,192,8590,128,2,8872:0:0:0:0:
192,192,8590,1,4,0:0:0:0:
320,192,8590,1,0,0:0:0:0:
192,192,8872,1,8,0:0:0:0:
320,192,8872,1,0,0:0:0:0:
448,192,8966,1,0,0:0:0:70:TMKD_SNARE1_BB14x6_L1_02.wav
64,192,9060,1,0,0:0:0:70:TMKD_SNARE1_BB14x6_L1_02.wav
192,192,9154,1,8,0:0:0:0:
320,192,9154,128,0,9435:0:0:0:0:
64,192,9435,1,4,0:0:0:0:
192,192,9435,1,2,0:0:0:0:
448,192,9435,128,0,9999:0:0:0:0:
192,192,9717,1,8,0:0:0:0:
320,192,9717,1,0,0:0:0:0:
64,192,9858,1,2,0:0:0:0:
192,192,9999,128,8,10280:0:0:0:0:
320,192,9999,1,0,0:0:0:0:
64,192,10280,1,2,0:0:0:0:
320,192,10280,1,4,0:0:0:0:
448,192,10280,128,0,10844:0:0:0:0:
320,192,10562,1,0,0:0:0:0:
192,192,10703,1,0,0:0:0:0:
64,192,10844,128,0,11125:0:0:0:0:
320,192,10985,1,0,0:0:0:0:
448,192,11125,128,0,11689:0:0:0:0:
192,192,11407,1,0,0:0:0:0:
320,192,11548,1,0,0:0:0:0:
192,192,11689,128,0,11970:0:0:0:0:
64,192,11970,1,8,0:0:0:0:
320,192,11970,1,4,0:0:0:0:
448,192,11970,1,0,0:0:0:0:
192,192,12111,1,2,0:0:0:0:
320,192,12252,1,2,0:0:0:0:
64,192,12393,1,8,0:0:0:0:
192,192,12393,1,4,0:0:0:0:
448,192,12393,1,0,0:0:0:0:
320,192,12534,1,2,0:0:0:0:
192,192,12675,1,2,0:0:0:0:
64,192,12816,1,8,0:0:0:0:
320,192,12816,1,4,0:0:0:0:
448,192,12816,1,0,0:0:0:0:
192,192,12956,1,0,0:0:0:70:TMKD_SNARE1_BB14x6_L1_02.wav
320,192,13027,1,0,0:0:0:70:TMKD_SNARE1_BB14x6_L1_02.wav
64,192,13097,1,8,0:0:0:0:
192,192,13097,1,0,0:0:0:0:
448,192,13097,1,0,0:0:0:0:
320,192,13238,1,2,0:0:0:0:
64,192,13379,1,8,0:0:0:0:
192,192,13379,1,4,0:0:0:0:
448,192,13379,1,0,0:0:0:0:
64,192,13661,128,8,15351:0:0:0:0:
320,192,13661,1,4,0:0:0:0:
448,192,13661,1,0,0:0:0:0:
320,192,13942,1,0,0:0:0:0:
192,192,14083,1,0,0:0:0:0:
448,192,14224,1,0,0:0:0:0:
320,192,14365,1,0,0:0:0:0:
448,192,14506,1,0,0:0:0:0:
320,192,14647,1,0,0:0:0:0:
192,192,14787,1,0,0:0:0:0:
320,192,14928,1,0,0:0:0:0:
448,192,15069,1,0,0:0:0:0:
192,192,15351,1,2,0:0:0:0:
320,192,15351,128,4,16196:0:0:0:0:
448,192,15351,1,0,0:0:0:0:
64,192,15492,1,8,0:0:0:0:
192,192,15632,1,0,0:0:0:70:tom02.wav
448,192,15773,1,0,0:0:0:70:tom02.wav
192,192,15914,1,0,0:0:0:70:tom04.wav
64,192,16055,1,0,0:0:0:70:tom04.wav
64,192,16196,1,8,0:0:0:0:
192,192,16196,1,4,0:0:0:0:
448,192,16196,1,0,0:0:0:0:
64,192,16478,1,8,0:0:0:0:
192,192,16478,1,4,0:0:0:0:
448,192,16478,128,0,16759:0:0:0:0:
320,192,16759,128,0,17041:0:0:0:0:
64,192,17041,1,2,0:0:0:0:
192,192,17041,128,4,17604:0:0:0:0:
448,192,17041,1,0,0:0:0:0:
448,192,17463,1,2,0:0:0:0:
64,192,17604,128,0,17886:0:0:0:0:
320,192,17886,128,2,18449:0:0:0:0:
448,192,17886,1,0,0:0:0:0:
448,192,18168,1,2,0:0:0:0:
64,192,18449,1,8,0:0:0:0:
192,192,18449,128,2,18731:0:0:0:0:
448,192,18731,128,2,19154:0:0:0:0:
64,192,19154,1,2,0:0:0:0:
320,192,19154,1,0,0:0:0:0:
192,192,19224,1,0,0:0:0:0:
320,192,19294,128,0,19435:0:0:0:0:
64,192,19435,128,0,19576:0:0:0:0:
192,192,19576,1,2,0:0:0:0:
448,192,19576,128,0,20139:0:0:0:0:
320,192,19717,1,0,0:0:0:0:
192,192,19858,1,2,0:0:0:0:
64,192,20139,128,2,20421:0:0:0:0:
192,192,20139,1,8,0:0:0:0:
320,192,20421,128,2,20844:0:0:0:0:
448,192,20421,1,0,0:0:0:0:
448,192,20844,1,2,0:0:0:0:
320,192,20985,128,0,21125:0:0:0:0:
320,192,21266,128,2,21548:0:0:0:0:
448,192,21266,1,0,0:0:0:0:
64,192,21548,128,2,21830:0:0:0:0:
448,192,21548,1,0,0:0:0:0:
192,192,21830,1,8,0:0:0:0:
448,192,21830,1,2,0:0:0:0:
320,192,21970,128,0,22111:0:0:0:0:
64,192,22111,1,2,0:0:0:0:
192,192,22111,128,0,22956:0:0:0:0:
64,192,22534,1,2,0:0:0:0:
64,192,22956,1,2,0:0:0:0:
64,192,23238,1,2,0:0:0:0:
448,192,23238,128,0,23520:0:0:0:0:
64,192,23520,128,8,23801:0:0:0:0:
192,192,23520,1,2,0:0:0:0:
320,192,23801,128,2,24365:0:0:0:0:
448,192,23801,1,0,0:0:0:0:
448,192,24224,1,2,0:0:0:0:
64,192,24365,128,0,24647:0:0:0:0:
192,192,24647,128,2,25210:0:0:0:0:
448,192,24647,1,0,0:0:0:0:
448,192,24928,1,2,0:0:0:0:
320,192,25210,128,8,25492:0:0:0:0:
448,192,25210,1,2,0:0:0:0:
64,192,25492,128,2,25914:0:0:0:0:
192,192,25492,1,0,0:0:0:0:
192,192,25914,1,2,0:0:0:0:
448,192,25914,1,0,0:0:0:0:
320,192,25985,1,0,0:0:0:0:
448,192,26055,128,0,26196:0:0:0:0:
320,192,26196,128,0,26337:0:0:0:0:
64,192,26337,128,2,26900:0:0:0:0:
192,192,26337,1,0,0:0:0:0:
192,192,26618,1,2,0:0:0:0:
192,192,26900,1,2,0:0:0:0:
320,192,26900,128,8,27182:0:0:0:0:
64,192,27182,1,2,0:0:0:0:
448,192,27182,128,0,27604:0:0:0:0:
64,192,27604,1,2,0:0:0:0:
448,192,27745,128,0,28027:0:0:0:0:
64,192,28027,1,2,0:0:0:0:
192,192,28027,128,0,28309:0:0:0:0:
64,192,28309,1,2,0:0:0:0:
320,192,28309,128,0,28590:0:0:0:0:
64,192,28590,128,8,28872:0:0:0:0:
448,192,28590,1,2,0:0:0:0:
192,192,28872,1,2,0:0:0:0:
320,192,28872,1,4,0:0:0:0:
448,192,28872,128,0,29013:0:0:0:0:
320,192,29154,1,2,0:0:0:0:
64,192,29294,128,8,29435:0:0:0:0:
192,192,29294,1,2,0:0:0:0:
448,192,29294,1,4,0:0:0:0:
192,192,29576,1,0,0:0:0:70:tom01.wav
64,192,29717,1,2,0:0:0:0:
320,192,29717,128,8,29858:0:0:0:0:
448,192,29717,1,4,0:0:0:0:
448,192,29999,1,0,0:0:0:70:tom02.wav
64,192,30139,1,2,0:0:0:0:
192,192,30139,128,8,30280:0:0:0:0:
320,192,30139,1,4,0:0:0:0:
64,192,30421,1,0,0:0:0:70:tom03.wav
192,192,30562,1,2,0:0:0:0:
320,192,30562,1,4,0:0:0:0:
448,192,30562,128,0,31125:0:0:0:0:
192,192,30844,1,0,0:0:0:0:
192,192,31125,128,0,31407:0:0:0:0:
64,192,31407,128,8,31548:0:0:0:0:
320,192,31407,1,4,0:0:0:0:
448,192,31407,1,2,0:0:0:0:
64,192,31689,1,2,0:0:0:0:
192,192,31689,1,8,0:0:0:0:
448,192,31689,128,0,31970:0:0:0:0:
320,192,31970,128,0,32252:0:0:0:0:
64,192,32252,1,2,0:0:0:0:
192,192,32252,128,4,33097:0:0:0:0:
448,192,32252,1,0,0:0:0:0:
448,192,32534,1,0,0:0:0:0:
320,192,32816,1,0,0:0:0:0:
448,192,32816,1,0,0:0:0:0:
64,192,33097,1,2,0:0:0:0:
448,192,33097,1,0,0:0:0:0:
320,192,33238,1,0,0:0:0:0:
448,192,33379,1,0,0:0:0:0:
64,192,33520,1,2,0:0:0:0:
192,192,33520,1,0,0:0:0:0:
320,192,33661,1,2,0:0:0:0:
448,192,33661,1,0,0:0:0:0:
192,192,33801,1,0,0:0:0:0:
64,192,33942,128,2,34083:0:0:0:0:
448,192,33942,1,0,0:0:0:0:
192,192,34083,1,0,0:0:0:0:
320,192,34154,1,0,0:0:0:0:
64,192,34224,1,2,0:0:0:0:
448,192,34224,128,0,34365:0:0:0:0:
320,192,34365,1,0,0:0:0:0:
192,192,34435,1,0,0:0:0:0:
64,192,34506,128,2,34647:0:0:0:0:
448,192,34506,1,0,0:0:0:0:
192,192,34787,1,2,0:0:0:0:
320,192,34787,1,4,0:0:0:0:
448,192,34787,128,0,34928:0:0:0:0:
64,192,34928,1,8,0:0:0:0:
192,192,34928,1,0,0:0:0:0:
320,192,35069,1,8,0:0:0:0:
448,192,35069,1,0,0:0:0:0:
192,192,35210,1,0,0:0:0:70:tom01.wav
64,192,35351,128,8,35492:0:0:0:0:
448,192,35351,1,2,0:0:0:0:
192,192,35492,128,8,35632:0:0:0:0:
320,192,35492,1,2,0:0:0:0:
64,192,35632,1,2,0:0:0:0:
320,192,35632,128,4,35914:0:0:0:0:
448,192,35632,1,8,0:0:0:0:
192,192,35773,1,2,0:0:0:0:
64,192,35914,128,8,36055:0:0:0:0:
448,192,35914,1,0,0:0:0:0:
320,192,36055,128,2,36196:0:0:0:0:
192,192,36196,1,2,0:0:0:0:
448,192,36337,128,2,36478:0:0:0:0:
64,192,36478,128,8,36759:0:0:0:0:
192,192,36478,1,0,0:0:0:0:
320,192,36618,1,2,0:0:0:0:
192,192,36759,128,2,37041:0:0:0:0:
320,192,36900,1,2,0:0:0:0:
64,192,37041,1,8,0:0:0:0:
448,192,37041,128,0,37323:0:0:0:0:
192,192,37182,1,2,0:0:0:0:
320,192,37323,128,2,37886:0:0:0:0:
64,192,37463,1,2,0:0:0:0:
192,192,37604,1,8,0:0:0:0:
448,192,37604,1,0,0:0:0:0:
64,192,37745,1,2,0:0:0:0:
192,192,37886,128,2,38027:0:0:0:0:
448,192,38027,128,2,38168:0:0:0:0:
64,192,38168,1,8,0:0:0:0:
192,192,38168,128,0,38731:0:0:0:0:
320,192,38309,1,2,0:0:0:0:
448,192,38449,1,2,0:0:0:0:
64,192,38590,1,2,0:0:0:0:
320,192,38731,128,8,39013:0:0:0:0:
448,192,38731,1,0,0:0:0:0:
192,192,38872,1,2,0:0:0:0:
448,192,39013,128,2,39294:0:0:0:0:
64,192,39154,1,2,0:0:0:0:
192,192,39294,1,8,0:0:0:0:
320,192,39294,1,0,0:0:0:0:
192,192,39435,128,2,39576:0:0:0:0:
448,192,39576,1,2,0:0:0:0:
64,192,39717,128,2,39858:0:0:0:0:
192,192,39858,1,8,0:0:0:0:
320,192,39858,128,0,40139:0:0:0:0:
448,192,39999,1,2,0:0:0:0:
192,192,40139,128,2,40421:0:0:0:0:
320,192,40280,1,2,0:0:0:0:
64,192,40421,128,8,40703:0:0:0:0:
448,192,40421,1,0,0:0:0:0:
192,192,40562,1,2,0:0:0:0:
320,192,40703,128,2,41266:0:0:0:0:
192,192,40844,1,2,0:0:0:0:
64,192,40985,1,8,0:0:0:0:
448,192,40985,1,0,0:0:0:0:
192,192,41125,1,2,0:0:0:0:
64,192,41266,128,2,41407:0:0:0:0:
192,192,41407,128,2,41548:0:0:0:0:
64,192,41548,1,8,0:0:0:0:
448,192,41548,128,0,42111:0:0:0:0:
320,192,41689,1,2,0:0:0:0:
64,192,41830,1,2,0:0:0:0:
192,192,41970,1,2,0:0:0:0:
64,192,42111,1,8,0:0:0:0:
320,192,42111,128,0,42393:0:0:0:0:
192,192,42252,1,2,0:0:0:0:
64,192,42393,128,8,42675:0:0:0:0:
192,192,42393,1,4,0:0:0:0:
448,192,42393,1,2,0:0:0:0:
320,192,42675,128,2,42816:0:0:0:0:
64,192,42816,1,2,0:0:0:0:
192,192,42816,128,8,42956:0:0:0:0:
448,192,42816,1,4,0:0:0:0:
448,192,43097,128,2,43238:0:0:0:0:
192,192,43238,1,2,0:0:0:0:
320,192,43238,128,0,43379:0:0:0:0:
64,192,43379,1,0,0:0:0:70:tom02.wav
192,192,43449,1,0,0:0:0:70:tom01.wav
320,192,43520,1,2,0:0:0:0:
448,192,43520,128,0,43661:0:0:0:0:
64,192,43661,1,0,0:0:0:70:tom03.wav
192,192,43731,1,0,0:0:0:70:tom02.wav
320,192,43801,128,2,43942:0:0:0:0:
448,192,43801,1,0,0:0:0:0:
64,192,43942,1,0,0:0:0:70:tom04.wav
192,192,44013,1,0,0:0:0:70:tom03.wav
64,192,44083,1,8,0:0:0:0:
320,192,44083,1,4,0:0:0:0:
448,192,44083,128,2,44365:0:0:0:0:
64,192,44365,128,2,44506:0:0:0:0:
192,192,44506,128,2,44647:0:0:0:0:
320,192,44506,1,8,0:0:0:0:
448,192,44506,1,4,0:0:0:0:
448,192,44787,128,2,44928:0:0:0:0:
64,192,44928,128,2,45069:0:0:0:0:
192,192,44928,1,0,0:0:0:0:
320,192,45069,1,0,0:0:0:70:TMKD_SNARE1_BB14x6_L1_02.wav
448,192,45139,1,0,0:0:0:70:TMKD_SNARE1_BB14x6_L1_02.wav
64,192,45210,1,2,0:0:0:0:
192,192,45210,128,0,45351:0:0:0:70:TMKD_SNARE1_BB14x6_L1_02.wav
320,192,45351,1,0,0:0:0:70:TMKD_SNARE1_BB14x6_L1_02.wav
448,192,45421,1,0,0:0:0:70:TMKD_SNARE1_BB14x6_L1_02.wav
64,192,45492,1,2,0:0:0:0:
192,192,45492,1,4,0:0:0:0:
320,192,45492,128,0,45632:0:0:0:70:TMKD_SNARE1_BB14x6_L1_02.wav
64,192,45773,1,8,0:0:0:0:
192,192,45773,1,4,0:0:0:0:
448,192,45773,128,2,46337:0:0:0:0:
192,192,45914,1,2,0:0:0:0:
64,192,46055,1,8,0:0:0:0:
320,192,46055,1,0,0:0:0:0:
192,192,46196,1,2,0:0:0:0:
64,192,46337,1,8,0:0:0:0:
320,192,46337,128,0,46478:0:0:0:0:
192,192,46478,128,2,46618:0:0:0:0:
64,192,46618,128,8,46900:0:0:0:0:
448,192,46618,1,0,0:0:0:0:
320,192,46759,1,2,0:0:0:0:
192,192,46900,128,8,47182:0:0:0:0:
448,192,46900,1,0,0:0:0:0:
64,192,47182,1,8,0:0:0:0:
448,192,47182,128,0,47463:0:0:0:0:
64,192,47463,1,4,0:0:0:0:
192,192,47463,1,8,0:0:0:0:
320,192,47463,128,0,48309:0:0:0:0:
192,192,47604,1,2,0:0:0:0:
64,192,47745,1,8,0:0:0:0:
448,192,47745,1,0,0:0:0:0:
192,192,47886,1,2,0:0:0:0:
64,192,48027,1,8,0:0:0:0:
448,192,48027,1,0,0:0:0:0:
192,192,48168,1,2,0:0:0:0:
64,192,48309,1,8,0:0:0:0:
192,192,48309,128,4,48590:0:0:0:0:
448,192,48309,1,0,0:0:0:0:
64,192,48590,128,8,48872:0:0:0:0:
320,192,48590,1,4,0:0:0:0:
448,192,48590,1,0,0:0:0:0:
192,192,48872,1,8,0:0:0:0:
320,192,48872,128,4,49154:0:0:0:0:
448,192,48872,1,0,0:0:0:0:
64,192,49154,1,8,0:0:0:0:
192,192,49154,1,4,0:0:0:0:
448,192,49154,128,0,50280:0:0:0:0:
320,192,50280,128,0,50562:0:0:0:0:
192,192,50562,128,0,50844:0:0:0:0:
64,192,50844,128,4,50985:0:0:0:0:
320,192,50844,1,8,0:0:0:0:
448,192,50844,1,2,0:0:0:0:
192,192,50985,1,2,0:0:0:0:
320,192,51125,1,2,0:0:0:0:
64,192,51266,128,8,51407:0:0:0:0:
192,192,51266,1,4,0:0:0:0:
448,192,51266,1,2,0:0:0:0:
320,192,51407,1,2,0:0:0:0:
192,192,51548,1,2,0:0:0:0:
64,192,51689,128,4,51830:0:0:0:0:
320,192,51689,1,8,0:0:0:0:
448,192,51689,1,2,0:0:0:0:
192,192,51830,1,2,0:0:0:0:
64,192,51970,1,4,0:0:0:0:
320,192,51970,128,8,52111:0:0:0:0:
448,192,51970,1,2,0:0:0:0:
64,192,52252,128,4,52393:0:0:0:0:
192,192,52252,1,8,0:0:0:0:
448,192,52252,1,2,0:0:0:0:
320,192,52393,1,0,0:0:0:70:TMKD_SNARE1_BB14x6_L1_02.wav
64,192,52534,1,4,0:0:0:0:
192,192,52534,1,2,0:0:0:0:
448,192,52534,128,0,53097:0:0:0:0:
320,192,53097,1,0,0:0:0:0:
192,192,53238,1,0,0:0:0:0:
448,192,53379,1,0,0:0:0:0:
320,192,53520,1,0,0:0:0:0:
64,192,53661,1,0,0:0:0:0:
192,192,53661,128,0,53942:0:0:0:0:
320,192,53801,1,2,0:0:0:0:
64,192,53942,1,8,0:0:0:0:
320,192,53942,128,4,54224:0:0:0:0:
448,192,53942,1,0,0:0:0:0:
64,192,54224,128,4,54787:0:0:0:0:
192,192,54224,1,2,0:0:0:0:
448,192,54224,1,0,0:0:0:0:
320,192,54365,1,2,0:0:0:0:
192,192,54506,1,2,0:0:0:0:
320,192,54647,1,8,0:0:0:0:
448,192,54647,1,0,0:0:0:0:
192,192,54787,128,2,55069:0:0:0:0:
320,192,54928,1,8,0:0:0:0:
448,192,54928,1,0,0:0:0:0:
64,192,55069,128,2,55632:0:0:0:0:
448,192,55210,1,2,0:0:0:0:
320,192,55351,1,2,0:0:0:0:
192,192,55492,1,2,0:0:0:0:
320,192,55632,1,8,0:0:0:0:
448,192,55632,128,0,55914:0:0:0:0:
192,192,55773,1,2,0:0:0:0:
320,192,55914,128,2,56196:0:0:0:0:
64,192,56055,1,2,0:0:0:0:
192,192,56196,128,2,56478:0:0:0:0:
64,192,56337,1,8,0:0:0:0:
320,192,56337,1,0,0:0:0:0:
448,192,56478,1,2,0:0:0:0:
64,192,56548,1,0,0:0:0:0:
192,192,56618,1,8,0:0:0:0:
320,192,56689,1,0,0:0:0:0:
64,192,56759,128,2,57323:0:0:0:0:
448,192,56759,1,0,0:0:0:0:
320,192,56900,1,2,0:0:0:0:
448,192,57041,1,2,0:0:0:0:
192,192,57182,1,2,0:0:0:0:
320,192,57323,1,8,0:0:0:0:
448,192,57323,128,0,57604:0:0:0:0:
192,192,57463,1,2,0:0:0:0:
64,192,57604,128,2,58168:0:0:0:0:
320,192,57745,1,2,0:0:0:0:
448,192,57886,1,2,0:0:0:0:
192,192,58027,1,8,0:0:0:0:
320,192,58027,1,0,0:0:0:0:
448,192,58168,128,2,58449:0:0:0:0:
192,192,58309,1,8,0:0:0:0:
320,192,58309,1,0,0:0:0:0:
64,192,58449,128,2,59013:0:0:0:0:
192,192,58590,1,2,0:0:0:0:
448,192,58731,1,2,0:0:0:0:
320,192,58872,1,2,0:0:0:0:
192,192,59013,128,8,59294:0:0:0:0:
448,192,59013,1,0,0:0:0:0:
320,192,59154,1,2,0:0:0:0:
64,192,59294,1,4,0:0:0:0:
320,192,59294,1,2,0:0:0:0:
448,192,59294,1,0,0:0:0:0:
192,192,59435,1,8,0:0:0:0:
448,192,59435,1,0,0:0:0:0:
64,192,59576,1,8,0:0:0:0:
192,192,59576,1,0,0:0:0:0:
448,192,59717,1,0,0:0:0:70:tom01.wav
320,192,59858,1,0,0:0:0:70:tom02.wav
192,192,59999,1,0,0:0:0:70:tom03.wav
64,192,60139,1,4,0:0:0:0:
320,192,60139,1,2,0:0:0:0:
448,192,60139,1,0,0:0:0:0:
320,192,60280,1,8,0:0:0:0:
448,192,60280,1,0,0:0:0:0:
192,192,60421,1,2,0:0:0:0:
64,192,60562,1,8,0:0:0:0:
320,192,60562,1,0,0:0:0:0:
192,192,60703,128,0,60985:0:0:0:70:tom03.wav
320,192,60844,1,0,0:0:0:70:tom04.wav
64,192,60985,1,2,0:0:0:0:
320,192,60985,1,4,0:0:0:0:
448,192,60985,128,0,61548:0:0:0:0:
192,192,61125,1,2,0:0:0:0:
320,192,61266,1,2,0:0:0:0:
64,192,61407,1,8,0:0:0:0:
192,192,61407,1,0,0:0:0:0:
320,192,61548,128,2,61830:0:0:0:0:
64,192,61689,1,8,0:0:0:0:
192,192,61689,1,0,0:0:0:0:
448,192,61830,128,2,62252:0:0:0:0:
64,192,61970,1,2,0:0:0:0:
192,192,62111,1,2,0:0:0:0:
320,192,62252,1,2,0:0:0:0:
64,192,62393,128,8,62675:0:0:0:0:
192,192,62393,1,0,0:0:0:0:
320,192,62534,1,2,0:0:0:0:
448,192,62675,128,2,63238:0:0:0:0:
192,192,62816,1,2,0:0:0:0:
64,192,62956,1,2,0:0:0:0:
192,192,63097,1,8,0:0:0:0:
320,192,63097,1,0,0:0:0:0:
64,192,63238,128,2,63520:0:0:0:0:
192,192,63379,1,8,0:0:0:0:
320,192,63379,1,0,0:0:0:0:
448,192,63520,128,2,64083:0:0:0:0:
320,192,63661,1,2,0:0:0:0:
192,192,63801,1,2,0:0:0:0:
64,192,63942,1,2,0:0:0:0:
192,192,64083,128,8,64365:0:0:0:0:
320,192,64083,1,0,0:0:0:0:
448,192,64224,1,2,0:0:0:0:
320,192,64365,128,2,64928:0:0:0:0:
64,192,64506,1,2,0:0:0:0:
192,192,64647,1,2,0:0:0:0:
64,192,64787,1,8,0:0:0:0:
448,192,64787,1,0,0:0:0:0:
192,192,64928,128,2,65210:0:0:0:0:
64,192,65069,1,8,0:0:0:0:
448,192,65069,1,0,0:0:0:0:
320,192,65210,128,2,65773:0:0:0:0:
448,192,65351,1,2,0:0:0:0:
64,192,65492,1,2,0:0:0:0:
192,192,65632,1,2,0:0:0:0:
64,192,65773,128,8,66055:0:0:0:0:
448,192,65773,1,0,0:0:0:0:
320,192,65914,1,2,0:0:0:0:
192,192,66055,128,2,66337:0:0:0:0:
320,192,66196,1,2,0:0:0:0:
64,192,66337,1,8,0:0:0:0:
448,192,66337,1,4,0:0:0:0:
320,192,66407,1,0,0:0:0:0:
192,192,66478,1,2,0:0:0:0:
64,192,66548,1,0,0:0:0:0:
448,192,66618,128,2,66759:0:0:0:0:
320,192,66759,128,2,66900:0:0:0:0:
64,192,66900,1,4,0:0:0:0:
192,192,66900,1,8,0:0:0:0:
448,192,66900,128,0,67323:0:0:0:0:
320,192,67041,1,2,0:0:0:0:
64,192,67182,1,2,0:0:0:0:
320,192,67323,1,2,0:0:0:0:
64,192,67463,1,8,0:0:0:0:
192,192,67463,128,4,67604:0:0:0:0:
448,192,67463,1,0,0:0:0:0:
320,192,67604,128,2,67745:0:0:0:0:
64,192,67745,128,4,68309:0:0:0:0:
192,192,67745,1,2,0:0:0:0:
448,192,67745,1,0,0:0:0:0:
320,192,67886,1,2,0:0:0:0:
192,192,68027,1,8,0:0:0:0:
448,192,68027,1,0,0:0:0:0:
320,192,68168,1,2,0:0:0:0:
192,192,68309,128,2,68590:0:0:0:0:
320,192,68449,1,2,0:0:0:0:
64,192,68590,128,8,69154:0:0:0:0:
448,192,68590,1,0,0:0:0:0:
320,192,68731,1,2,0:0:0:0:
192,192,68872,1,2,0:0:0:0:
320,192,69013,1,2,0:0:0:0:
192,192,69154,1,8,0:0:0:0:
448,192,69154,128,0,69435:0:0:0:0:
64,192,69294,1,2,0:0:0:0:
320,192,69435,128,2,69717:0:0:0:0:
64,192,69576,1,2,0:0:0:0:
192,192,69717,128,8,69999:0:0:0:0:
448,192,69717,1,0,0:0:0:0:
64,192,69858,1,2,0:0:0:0:
320,192,69999,1,2,0:0:0:0:
448,192,70069,1,0,0:0:0:0:
192,192,70139,1,2,0:0:0:0:
320,192,70210,1,0,0:0:0:0:
64,192,70280,128,8,70844:0:0:0:0:
448,192,70280,1,0,0:0:0:0:
320,192,70421,1,2,0:0:0:0:
192,192,70562,1,2,0:0:0:0:
320,192,70703,1,2,0:0:0:0:
192,192,70844,128,8,71125:0:0:0:0:
448,192,70844,1,0,0:0:0:0:
320,192,70985,1,2,0:0:0:0:
448,192,71125,128,2,71689:0:0:0:0:
192,192,71266,1,2,0:0:0:0:
64,192,71407,1,8,0:0:0:0:
320,192,71407,1,0,0:0:0:0:
192,192,71548,1,2,0:0:0:0:
320,192,71689,128,2,71970:0:0:0:0:
192,192,71830,1,2,0:0:0:0:
64,192,71970,1,8,0:0:0:0:
448,192,71970,128,0,72393:0:0:0:0:
320,192,72111,1,2,0:0:0:0:
64,192,72252,1,2,0:0:0:0:
192,192,72393,1,2,0:0:0:0:
64,192,72534,128,8,72816:0:0:0:0:
320,192,72534,1,0,0:0:0:0:
192,192,72675,1,2,0:0:0:0:
320,192,72816,1,2,0:0:0:0:
448,192,72886,1,0,0:0:0:0:
192,192,72956,1,2,0:0:0:0:
320,192,73027,1,0,0:0:0:0:
192,192,73097,128,8,73379:0:0:0:0:
448,192,73097,1,0,0:0:0:0:
64,192,73238,1,2,0:0:0:0:
320,192,73379,128,2,73520:0:0:0:0:
448,192,73520,128,2,73661:0:0:0:0:
64,192,73661,1,8,0:0:0:0:
320,192,73661,128,0,74224:0:0:0:0:
192,192,73801,1,2,0:0:0:0:
448,192,73942,1,2,0:0:0:0:
192,192,74083,1,2,0:0:0:0:
64,192,74224,128,8,74506:0:0:0:0:
448,192,74224,1,0,0:0:0:0:
192,192,74506,128,4,74787:0:0:0:0:
320,192,74506,1,2,0:0:0:0:
448,192,74506,1,0,0:0:0:0:
64,192,74787,1,8,0:0:0:0:
448,192,74787,1,0,0:0:0:0:
320,192,74858,1,8,0:0:0:0:
192,192,74928,1,8,0:0:0:0:
64,192,74999,1,8,0:0:0:0:
320,192,75069,1,8,0:0:0:0:
448,192,75069,128,0,75351:0:0:0:0:
64,192,75351,128,2,75632:0:0:0:0:
192,192,75351,1,4,0:0:0:0:
320,192,75351,1,0,0:0:0:0:
192,192,75632,1,8,0:0:0:0:
320,192,75632,1,0,0:0:0:0:
448,192,75703,1,8,0:0:0:0:
192,192,75773,1,8,0:0:0:0:
64,192,75844,1,8,0:0:0:0:
320,192,75914,128,8,76196:0:0:0:0:
448,192,75914,1,0,0:0:0:0:
64,192,76196,1,4,0:0:0:0:
192,192,76196,1,2,0:0:0:0:
448,192,76196,128,0,76478:0:0:0:0:
192,192,76478,1,8,0:0:0:0:
320,192,76478,1,0,0:0:0:0:
64,192,76548,1,8,0:0:0:0:
320,192,76618,1,8,0:0:0:0:
448,192,76689,1,8,0:0:0:0:
64,192,76759,1,8,0:0:0:0:
192,192,76759,128,0,77041:0:0:0:0:
64,192,77041,128,2,77604:0:0:0:0:
320,192,77041,1,4,0:0:0:0:
448,192,77041,1,0,0:0:0:0:
320,192,77323,1,8,0:0:0:0:
448,192,77323,1,4,0:0:0:0:
192,192,77604,128,8,77886:0:0:0:0:
320,192,77604,1,4,0:0:0:0:
448,192,77604,1,0,0:0:0:0:
64,192,77886,1,2,0:0:0:0:
320,192,77886,1,4,0:0:0:0:
448,192,77886,128,0,78449:0:0:0:0:
192,192,78027,1,2,0:0:0:0:
64,192,78168,1,8,0:0:0:0:
320,192,78168,1,0,0:0:0:0:
192,192,78309,1,2,0:0:0:0:
320,192,78449,128,2,78731:0:0:0:0:
192,192,78590,1,2,0:0:0:0:
64,192,78731,1,8,0:0:0:0:
448,192,78731,128,0,79294:0:0:0:0:
192,192,78872,1,2,0:0:0:0:
320,192,79013,1,2,0:0:0:0:
192,192,79154,1,2,0:0:0:0:
64,192,79294,128,8,79576:0:0:0:0:
320,192,79294,1,0,0:0:0:0:
192,192,79576,1,2,0:0:0:0:
320,192,79576,1,4,0:0:0:0:
448,192,79576,1,0,0:0:0:0:
64,192,79717,1,2,0:0:0:0:
320,192,79858,1,8,0:0:0:0:
448,192,79858,1,0,0:0:0:0:
64,192,79999,1,2,0:0:0:0:
192,192,80139,1,2,0:0:0:0:
320,192,80139,1,4,0:0:0:0:
448,192,80139,1,0,0:0:0:0:
320,192,80280,1,2,0:0:0:0:
64,192,80421,1,8,0:0:0:0:
192,192,80421,1,4,0:0:0:0:
448,192,80421,1,0,0:0:0:0:
64,192,80703,1,4,0:0:0:0:
192,192,80703,1,8,0:0:0:0:
448,192,80703,1,0,0:0:0:0:
320,192,80844,1,2,0:0:0:0:
64,192,80985,1,2,0:0:0:0:
192,192,81125,1,2,0:0:0:0:
64,192,81266,128,2,81407:0:0:0:0:
320,192,81266,1,4,0:0:0:0:
448,192,81266,1,0,0:0:0:0:
192,192,81407,128,0,81548:0:0:0:0:
320,192,81548,128,0,81689:0:0:0:0:
448,192,81689,128,0,81830:0:0:0:0:
64,192,81830,128,0,82111:0:0:0:0:
320,192,82111,128,0,82393:0:0:0:0:
192,192,82534,128,0,82675:0:0:0:0:
320,192,82675,128,0,82816:0:0:0:0:
448,192,82816,128,0,82956:0:0:0:0:
64,192,82956,128,2,83238:0:0:0:0:
320,192,82956,1,0,0:0:0:0:
192,192,83238,128,0,83520:0:0:0:0:
320,192,83520,128,0,83801:0:0:0:0:
192,192,83801,1,2,0:0:0:0:
448,192,83801,128,0,84083:0:0:0:0:
320,192,84083,128,0,84365:0:0:0:0:
448,192,84365,128,0,84647:0:0:0:0:
64,192,84647,1,2,0:0:0:0:
192,192,84647,128,0,85069:0:0:0:0:
320,192,85069,128,0,85210:0:0:0:0:
192,192,85210,128,0,85351:0:0:0:0:
64,192,85351,128,0,85492:0:0:0:0:
320,192,85492,128,2,85632:0:0:0:0:
448,192,85492,1,0,0:0:0:0:
320,192,85773,128,0,86055:0:0:0:0:
448,192,86055,128,0,86337:0:0:0:0:
64,192,86337,128,2,86900:0:0:0:0:
192,192,86337,1,0,0:0:0:0:
320,192,86900,128,0,87182:0:0:0:0:
64,192,87182,1,0,0:0:0:70:LR_Drum Click.wav
192,192,87182,128,0,87463:0:0:0:0:
64,192,87463,1,0,0:0:0:70:LR_Drum Click.wav
320,192,87463,128,0,87745:0:0:0:0:
64,192,87745,1,0,0:0:0:70:LR_Drum Click.wav
448,192,87745,128,0,88027:0:0:0:0:
64,192,88027,1,2,0:0:0:0:
320,192,88027,128,0,88309:0:0:0:0:
192,192,88168,1,0,0:0:0:0:
448,192,88309,1,2,0:0:0:0:
320,192,88449,1,2,0:0:0:0:
64,192,88590,1,8,0:0:0:0:
192,192,88590,1,0,0:0:0:0:
192,192,88872,1,2,0:0:0:0:
320,192,88872,1,4,0:0:0:0:
448,192,88872,128,0,89154:0:0:0:0:
192,192,89154,1,8,0:0:0:0:
64,192,89294,1,2,0:0:0:0:
320,192,89294,1,4,0:0:0:0:
448,192,89294,1,0,0:0:0:0:
192,192,89435,1,0,0:0:0:70:tom02.wav
448,192,89576,1,0,0:0:0:70:tom03.wav
64,192,89717,1,2,0:0:0:0:
192,192,89717,1,4,0:0:0:0:
320,192,89717,1,0,0:0:0:0:
448,192,89858,1,2,0:0:0:0:
448,192,89999,1,2,0:0:0:0:
64,192,90139,1,8,0:0:0:0:
320,192,90139,1,0,0:0:0:0:
192,192,90280,1,2,0:0:0:0:
192,192,90421,1,2,0:0:0:0:
320,192,90562,1,2,0:0:0:0:
192,192,90703,1,2,0:0:0:0:
64,192,90773,1,0,0:0:0:0:
320,192,90844,1,2,0:0:0:0:
448,192,90914,1,0,0:0:0:0:
64,192,90985,1,8,0:0:0:0:
192,192,90985,1,0,0:0:0:0:
320,192,91125,1,2,0:0:0:0:
64,192,91266,1,2,0:0:0:0:
192,192,91407,1,2,0:0:0:0:
448,192,91548,1,2,0:0:0:0:
64,192,91689,1,2,0:0:0:0:
192,192,91736,1,0,0:0:0:0:
320,192,91783,1,0,0:0:0:0:
64,192,91830,1,8,0:0:0:0:
448,192,91830,1,0,0:0:0:0:
320,192,91970,1,2,0:0:0:0:
192,192,92111,1,2,0:0:0:0:
64,192,92252,1,2,0:0:0:0:
320,192,92393,1,2,0:0:0:0:
192,192,92534,1,2,0:0:0:0:
64,192,92675,1,8,0:0:0:0:
448,192,92675,1,0,0:0:0:0:
320,192,92816,1,2,0:0:0:0:
192,192,92956,1,2,0:0:0:0:
448,192,93097,1,2,0:0:0:0:
192,192,93238,1,2,0:0:0:0:
192,192,93379,1,2,0:0:0:0:
320,192,93520,1,8,0:0:0:0:
448,192,93520,1,0,0:0:0:0:
64,192,93661,1,2,0:0:0:0:
64,192,93801,1,2,0:0:0:0:
448,192,93942,1,2,0:0:0:0:
192,192,94083,1,2,0:0:0:0:
64,192,94154,1,0,0:0:0:0:
320,192,94224,1,2,0:0:0:0:
448,192,94294,1,0,0:0:0:0:
64,192,94365,1,8,0:0:0:0:
192,192,94365,1,0,0:0:0:0:
320,192,94506,1,2,0:0:0:0:
64,192,94647,1,2,0:0:0:0:
320,192,94787,1,2,0:0:0:0:
192,192,94928,1,2,0:0:0:0:
448,192,95069,1,2,0:0:0:0:
320,192,95116,1,0,0:0:0:0:
192,192,95163,1,0,0:0:0:0:
64,192,95210,1,8,0:0:0:0:
448,192,95210,1,0,0:0:0:0:
192,192,95351,1,2,0:0:0:0:
448,192,95492,1,2,0:0:0:0:
64,192,95632,1,2,0:0:0:0:
320,192,95773,1,2,0:0:0:0:
192,192,95914,1,2,0:0:0:0:
320,192,96055,1,8,0:0:0:0:
448,192,96055,1,0,0:0:0:0:
64,192,96196,1,2,0:0:0:0:
192,192,96337,1,2,0:0:0:0:
64,192,96478,1,4,0:0:0:0:
320,192,96478,1,2,0:0:0:0:
448,192,96478,1,0,0:0:0:0:
192,192,96618,1,2,0:0:0:0:
448,192,96759,1,2,0:0:0:0:
64,192,96900,1,8,0:0:0:0:
192,192,96900,1,0,0:0:0:0:
320,192,97041,1,2,0:0:0:0:
448,192,97182,1,2,0:0:0:0:
64,192,97323,1,2,0:0:0:0:
192,192,97393,1,0,0:0:0:0:
320,192,97463,1,2,0:0:0:0:
192,192,97604,1,2,0:0:0:0:
320,192,97745,1,8,0:0:0:0:
448,192,97745,1,0,0:0:0:0:
64,192,97886,1,2,0:0:0:0:
192,192,98027,1,2,0:0:0:0:
448,192,98168,1,2,0:0:0:0:
320,192,98309,1,2,0:0:0:0:
192,192,98449,1,2,0:0:0:0:
64,192,98590,1,8,0:0:0:0:
448,192,98590,1,0,0:0:0:0:
192,192,98661,1,0,0:0:0:0:
320,192,98731,1,2,0:0:0:0:
192,192,98872,1,2,0:0:0:0:
448,192,99013,1,2,0:0:0:0:
320,192,99083,1,0,0:0:0:0:
64,192,99154,1,2,0:0:0:0:
192,192,99224,1,0,0:0:0:0:
448,192,99294,1,2,0:0:0:0:
320,192,99365,1,0,0:0:0:0:
64,192,99435,1,8,0:0:0:0:
192,192,99435,1,0,0:0:0:0:
448,192,99576,1,2,0:0:0:0:
320,192,99717,1,2,0:0:0:0:
192,192,99787,1,0,0:0:0:0:
64,192,99858,1,2,0:0:0:0:
320,192,99999,1,2,0:0:0:0:
192,192,100139,1,2,0:0:0:0:
320,192,100280,1,8,0:0:0:0:
448,192,100280,1,0,0:0:0:0:
64,192,100421,1,2,0:0:0:0:
192,192,100492,1,0,0:0:0:0:
448,192,100562,1,2,0:0:0:0:
320,192,100632,1,0,0:0:0:0:
192,192,100703,1,2,0:0:0:0:
320,192,100844,1,2,0:0:0:0:
64,192,100985,1,2,0:0:0:0:
192,192,101125,1,8,0:0:0:0:
320,192,101125,1,0,0:0:0:0:
448,192,101266,1,2,0:0:0:0:
64,192,101407,1,2,0:0:0:0:
320,192,101548,1,2,0:0:0:0:
448,192,101618,1,0,0:0:0:0:
192,192,101689,1,2,0:0:0:0:
64,192,101759,1,0,0:0:0:0:
320,192,101830,1,2,0:0:0:0:
448,192,101900,1,0,0:0:0:0:
64,192,101970,1,8,0:0:0:0:
192,192,101970,1,0,0:0:0:0:
448,192,102111,1,2,0:0:0:0:
320,192,102252,1,2,0:0:0:0:
64,192,102393,1,2,0:0:0:0:
192,192,102393,1,4,0:0:0:0:
448,192,102393,1,0,0:0:0:0:
320,192,102534,1,2,0:0:0:0:
192,192,102604,1,0,0:0:0:0:
64,192,102675,1,6,0:0:0:0:
448,192,102745,1,0,0:0:0:0:
320,192,102816,1,2,0:0:0:0:
64,192,102886,1,0,0:0:0:0:
192,192,102956,1,0,0:0:0:70:tom02.wav
448,192,103027,1,0,0:0:0:0:
320,192,103097,1,0,0:0:0:70:tom03.wav
192,192,103168,1,0,0:0:0:0:
64,192,103238,1,8,0:0:0:0:
320,192,103238,1,4,0:0:0:0:
448,192,103238,1,2,0:0:0:0:
192,192,103379,1,2,0:0:0:0:
192,192,103520,1,2,0:0:0:0:
320,192,103661,1,8,0:0:0:0:
448,192,103661,1,2,0:0:0:0:
64,192,103801,1,2,0:0:0:0:
64,192,103942,1,2,0:0:0:0:
192,192,104083,1,4,0:0:0:0:
320,192,104083,1,2,0:0:0:0:
448,192,104083,1,8,0:0:0:0:
64,192,104224,1,0,0:0:0:0:
448,192,104365,1,2,0:0:0:0:
320,192,104506,1,2,0:0:0:0:
448,192,104506,1,8,0:0:0:0:
64,192,104647,1,2,0:0:0:0:
320,192,104787,1,2,0:0:0:0:
64,192,104928,1,8,0:0:0:0:
192,192,104928,1,4,0:0:0:0:
448,192,104928,1,2,0:0:0:0:
320,192,105069,1,2,0:0:0:0:
320,192,105210,1,2,0:0:0:0:
64,192,105351,1,8,0:0:0:0:
192,192,105351,1,2,0:0:0:0:
448,192,105492,1,2,0:0:0:0:
320,192,105632,1,2,0:0:0:0:
64,192,105773,1,4,0:0:0:0:
192,192,105773,1,8,0:0:0:0:
448,192,105773,1,2,0:0:0:0:
320,192,105914,1,0,0:0:0:0:
192,192,106055,1,2,0:0:0:0:
192,192,106196,1,8,0:0:0:0:
448,192,106196,1,2,0:0:0:0:
64,192,106337,1,2,0:0:0:0:
192,192,106478,1,2,0:0:0:0:
64,192,106618,1,8,0:0:0:0:
320,192,106618,1,4,0:0:0:0:
448,192,106618,1,2,0:0:0:0:
192,192,106759,1,2,0:0:0:0:
192,192,106900,1,2,0:0:0:0:
320,192,107041,1,8,0:0:0:0:
448,192,107041,1,2,0:0:0:0:
64,192,107182,1,2,0:0:0:0:
192,192,107323,1,2,0:0:0:0:
64,192,107463,1,4,0:0:0:0:
320,192,107463,1,2,0:0:0:0:
448,192,107463,1,8,0:0:0:0:
192,192,107604,1,0,0:0:0:0:
320,192,107745,1,2,0:0:0:0:
64,192,107886,1,2,0:0:0:0:
320,192,107886,1,8,0:0:0:0:
192,192,108027,1,2,0:0:0:0:
192,192,108168,1,2,0:0:0:0:
64,192,108309,1,8,0:0:0:0:
320,192,108309,1,4,0:0:0:0:
448,192,108309,1,2,0:0:0:0:
192,192,108449,1,2,0:0:0:0:
320,192,108590,1,2,0:0:0:0:
64,192,108731,1,8,0:0:0:0:
448,192,108731,1,2,0:0:0:0:
192,192,108872,1,2,0:0:0:0:
64,192,109013,1,2,0:0:0:0:
192,192,109154,1,4,0:0:0:0:
320,192,109154,1,8,0:0:0:0:
448,192,109154,1,2,0:0:0:0:
64,192,109435,1,2,0:0:0:0:
320,192,109576,1,8,0:0:0:0:
448,192,109576,1,2,0:0:0:0:
64,192,109717,1,2,0:0:0:0:
192,192,109858,1,2,0:0:0:0:
64,192,109999,1,2,0:0:0:0:
320,192,109999,1,4,0:0:0:0:
448,192,109999,1,0,0:0:0:0:
192,192,111689,1,2,0:0:0:0:
448,192,111689,128,0,111830:0:0:0:0:
320,192,111830,128,0,111970:0:0:0:0:
192,192,111970,128,0,112111:0:0:0:0:
64,192,112111,1,2,0:0:0:0:
320,192,112111,128,0,112252:0:0:0:0:
192,192,112252,128,0,112393:0:0:0:0:
64,192,112393,128,0,112534:0:0:0:0:
192,192,112534,128,2,112675:0:0:0:0:
448,192,112534,1,0,0:0:0:0:
320,192,112675,128,0,112816:0:0:0:0:
64,192,112816,128,8,112956:0:0:0:0:
192,192,112816,1,0,0:0:0:0:
320,192,112956,1,8,0:0:0:0:
448,192,112956,128,0,113097:0:0:0:0:
192,192,113097,128,0,113238:0:0:0:70:tom03.wav
320,192,113238,128,0,113379:0:0:0:70:tom04.wav
64,192,113379,1,2,0:0:0:0:
192,192,113379,1,4,0:0:0:0:
448,192,113379,1,8,0:0:0:0:
