osu file format v14

[General]
AudioFilename: audio.mp3
AudioLeadIn: 0
PreviewTime: 77807
Countdown: 0
SampleSet: Normal
StackLeniency: 0.7
Mode: 3
LetterboxInBreaks: 0
SpecialStyle: 0
WidescreenStoryboard: 1

[Editor]
DistanceSpacing: 0.8
BeatDivisor: 4
GridSize: 8
TimelineZoom: 2.899999

[Metadata]
Title:Bison Charge
TitleUnicode:Bison Charge
Artist:Umeboshi Chazuke
ArtistUnicode:梅干茶漬け
Creator:_Asha
Version:Normal
Source:
Tags:AYAYAA MEGAtive electronic instrumental 8bit chiptune
BeatmapID:1755412
BeatmapSetID:838465

[Difficulty]
HPDrainRate:7.2
CircleSize:4
OverallDifficulty:7.2
ApproachRate:5
SliderMultiplier:1.4
SliderTickRate:1

[Events]
//Background and Video events
0,0,"BG.jpg",0,0
//Break Periods
//Storyboard Layer 0 (Background)
//Storyboard Layer 1 (Fail)
//Storyboard Layer 2 (Pass)
//Storyboard Layer 3 (Foreground)
//Storyboard Sound Samples

[TimingPoints]
2993,246.913580246914,4,1,1,60,1,0
78054,-100,4,1,1,60,0,1
102005,-100,4,1,1,60,0,0

[HitObjects]
320,192,2746,128,0,2992:0:0:0:0:
64,192,2992,5,4,0:0:0:0:
448,192,2992,1,2,0:0:0:0:
192,192,3239,1,2,0:0:0:0:
448,192,3486,1,10,0:0:0:0:
64,192,3733,1,2,0:0:0:0:
320,192,3980,1,2,0:0:0:0:
192,192,4227,1,2,0:0:0:0:
448,192,4474,1,10,0:0:0:0:
64,192,4721,1,2,0:0:0:0:
192,192,4844,1,2,0:0:0:0:
320,192,4968,1,2,0:0:0:0:
192,192,5215,1,2,0:0:0:0:
448,192,5462,1,10,0:0:0:0:
64,192,5709,1,2,0:0:0:0:
192,192,5955,1,2,0:0:0:0:
320,192,6141,1,2,0:0:0:0:
64,192,6202,1,2,0:0:0:0:
64,192,6326,1,2,0:0:0:0:
448,192,6449,1,10,0:0:0:0:
192,192,6696,1,2,0:0:0:0:
320,192,6943,1,2,0:0:0:0:
192,192,7067,1,2,0:0:0:0:
64,192,7190,1,2,0:0:0:0:
448,192,7437,1,10,0:0:0:0:
192,192,7684,1,2,0:0:0:0:
320,192,7931,1,2,0:0:0:0:
64,192,8178,1,2,0:0:0:0:
448,192,8425,1,10,0:0:0:0:
320,192,8672,1,2,0:0:0:0:
320,192,8795,1,2,0:0:0:0:
64,192,8918,128,2,9165:0:0:0:0:
320,192,9165,1,2,0:0:0:0:
448,192,9412,1,10,0:0:0:0:
192,192,9659,1,2,0:0:0:0:
64,192,9906,1,2,0:0:0:0:
320,192,10153,1,2,0:0:0:0:
320,192,10276,1,2,0:0:0:0:
192,192,10400,1,2,0:0:0:0:
64,192,10400,128,12,10647:0:0:0:0:
320,192,10647,1,4,0:0:0:0:
448,192,10647,128,10,10894:0:0:0:0:
192,192,10894,1,2,0:0:0:0:
64,192,10894,1,4,0:0:0:0:
320,192,11141,1,10,0:0:0:0:
192,192,11388,1,2,0:0:0:0:
448,192,11634,1,10,0:0:0:0:
64,192,11881,1,2,0:0:0:0:
320,192,12128,1,10,0:0:0:0:
192,192,12375,1,2,0:0:0:0:
448,192,12622,1,10,0:0:0:0:
320,192,12746,1,2,0:0:0:0:
192,192,12869,1,2,0:0:0:0:
448,192,13116,1,10,0:0:0:0:
64,192,13363,1,2,0:0:0:0:
320,192,13610,1,10,0:0:0:0:
192,192,13857,1,2,0:0:0:0:
448,192,14042,1,2,0:0:0:0:
64,192,14104,1,10,0:0:0:0:
192,192,14227,1,2,0:0:0:0:
320,192,14351,1,2,0:0:0:0:
192,192,14597,1,10,0:0:0:0:
64,192,14844,1,2,0:0:0:0:
320,192,14844,1,4,0:0:0:0:
64,192,14968,1,2,0:0:0:0:
448,192,15091,1,10,0:0:0:0:
192,192,15338,1,2,0:0:0:0:
320,192,15585,1,10,0:0:0:0:
192,192,15832,1,2,0:0:0:0:
448,192,15832,1,4,0:0:0:0:
64,192,16079,1,10,0:0:0:0:
320,192,16326,1,2,0:0:0:0:
192,192,16573,1,10,0:0:0:0:
448,192,16820,1,6,0:0:0:0:
320,192,16820,1,0,0:0:0:0:
64,192,16943,1,2,0:0:0:0:
448,192,17067,1,10,0:0:0:0:
320,192,17190,1,2,0:0:0:0:
64,192,17313,1,2,0:0:0:0:
192,192,17313,128,4,17560:0:0:0:0:
320,192,17560,128,2,17807:0:0:0:0:
448,192,17807,1,2,0:0:0:0:
64,192,17807,128,12,18054:0:0:0:0:
192,192,18054,128,0,18301:0:0:0:0:
448,192,18301,128,0,18548:0:0:0:0:
320,192,18548,128,0,18795:0:0:0:0:
64,192,18795,1,4,0:0:0:0:
448,192,18795,1,2,0:0:0:0:
192,192,18980,1,2,0:0:0:0:
320,192,19165,1,2,0:0:0:0:
448,192,19289,1,4,0:0:0:0:
64,192,19289,1,2,0:0:0:0:
320,192,19474,1,2,0:0:0:0:
192,192,19659,1,2,0:0:0:0:
64,192,19783,1,4,0:0:0:0:
448,192,19783,1,2,0:0:0:0:
192,192,19968,1,2,0:0:0:0:
448,192,20153,128,2,20276:0:0:0:0:
192,192,20276,128,4,20523:0:0:0:0:
64,192,20276,128,2,20523:0:0:0:0:
448,192,20523,128,4,20770:0:0:0:0:
320,192,20523,1,2,0:0:0:0:
64,192,20770,1,2,0:0:0:0:
320,192,21017,1,2,0:0:0:0:
192,192,21264,1,2,0:0:0:0:
448,192,21511,1,2,0:0:0:0:
64,192,21758,1,2,0:0:0:0:
192,192,22005,1,2,0:0:0:0:
320,192,22252,128,2,22499:0:0:0:0:
64,192,22499,1,2,0:0:0:0:
448,192,22622,1,2,0:0:0:0:
192,192,22746,1,2,0:0:0:0:
64,192,22993,1,2,0:0:0:0:
448,192,23239,1,2,0:0:0:0:
192,192,23486,1,2,0:0:0:0:
320,192,23733,1,2,0:0:0:0:
64,192,23980,1,2,0:0:0:0:
448,192,24227,128,2,24474:0:0:0:0:
320,192,24474,128,0,24721:0:0:0:0:
192,192,24721,1,2,0:0:0:0:
448,192,24968,1,2,0:0:0:0:
64,192,25215,1,2,0:0:0:0:
320,192,25462,1,2,0:0:0:0:
192,192,25709,1,2,0:0:0:0:
448,192,25955,1,2,0:0:0:0:
64,192,26202,128,2,26449:0:0:0:0:
320,192,26449,1,2,0:0:0:0:
192,192,26573,1,2,0:0:0:0:
448,192,26696,1,2,0:0:0:0:
64,192,26943,1,2,0:0:0:0:
320,192,27190,1,2,0:0:0:0:
192,192,27437,1,2,0:0:0:0:
448,192,27684,128,2,28178:0:0:0:0:
64,192,28178,128,0,28672:0:0:0:0:
192,192,28672,1,2,0:0:0:0:
448,192,28672,1,4,0:0:0:0:
192,192,28918,1,2,0:0:0:0:
320,192,28918,1,8,0:0:0:0:
448,192,29165,1,2,0:0:0:0:
64,192,29412,1,2,0:0:0:0:
192,192,29412,1,8,0:0:0:0:
320,192,29659,1,2,0:0:0:0:
192,192,29906,1,2,0:0:0:0:
448,192,29906,1,8,0:0:0:0:
64,192,30153,1,2,0:0:0:0:
192,192,30400,1,2,0:0:0:0:
320,192,30400,1,8,0:0:0:0:
448,192,30647,1,2,0:0:0:0:
320,192,30894,1,2,0:0:0:0:
64,192,30894,1,8,0:0:0:0:
192,192,31141,1,2,0:0:0:0:
320,192,31388,1,2,0:0:0:0:
448,192,31388,1,8,0:0:0:0:
192,192,31634,1,2,0:0:0:0:
320,192,31881,1,2,0:0:0:0:
64,192,31881,1,8,0:0:0:0:
448,192,32128,1,10,0:0:0:0:
192,192,32313,1,10,0:0:0:0:
320,192,32499,1,10,0:0:0:0:
64,192,32622,1,2,0:0:0:0:
448,192,32622,1,12,0:0:0:0:
448,192,32869,1,2,0:0:0:0:
192,192,32869,1,8,0:0:0:0:
320,192,33116,1,2,0:0:0:0:
448,192,33363,1,10,0:0:0:0:
448,192,33486,1,2,0:0:0:0:
64,192,33610,1,2,0:0:0:0:
192,192,33610,1,4,0:0:0:0:
320,192,33857,1,2,0:0:0:0:
448,192,33857,1,8,0:0:0:0:
64,192,34104,1,2,0:0:0:0:
192,192,34351,1,10,0:0:0:0:
192,192,34474,1,2,0:0:0:0:
320,192,34597,1,4,0:0:0:0:
448,192,34597,1,2,0:0:0:0:
64,192,34844,128,10,35091:0:0:0:0:
192,192,35091,1,10,0:0:0:0:
320,192,35091,1,4,0:0:0:0:
64,192,35215,1,6,0:0:0:0:
448,192,35462,1,2,0:0:0:0:
64,192,35585,1,2,0:0:0:0:
192,192,35585,1,12,0:0:0:0:
320,192,35709,1,2,0:0:0:0:
192,192,35832,1,14,0:0:0:0:
448,192,35955,1,2,0:0:0:0:
64,192,36079,1,14,0:0:0:0:
192,192,36202,1,2,0:0:0:0:
320,192,36326,1,14,0:0:0:0:
448,192,36449,1,2,0:0:0:0:
64,192,36573,1,2,0:0:0:0:
192,192,36573,1,4,0:0:0:0:
320,192,36820,128,2,37067:0:0:0:0:
192,192,37067,1,2,0:0:0:0:
448,192,37067,1,8,0:0:0:0:
64,192,37190,1,2,0:0:0:0:
320,192,37437,1,2,0:0:0:0:
448,192,37684,1,2,0:0:0:0:
192,192,37807,128,2,38054:0:0:0:0:
448,192,38054,128,2,38301:0:0:0:0:
320,192,38054,1,8,0:0:0:0:
64,192,38301,1,2,0:0:0:0:
320,192,38548,1,2,0:0:0:0:
64,192,38795,128,2,39042:0:0:0:0:
448,192,39042,1,8,0:0:0:0:
192,192,39042,1,2,0:0:0:0:
320,192,39165,1,2,0:0:0:0:
64,192,39412,1,2,0:0:0:0:
192,192,39659,1,2,0:0:0:0:
320,192,39783,128,2,40030:0:0:0:0:
64,192,40030,1,2,0:0:0:0:
448,192,40030,128,8,40276:0:0:0:0:
192,192,40276,1,2,0:0:0:0:
64,192,40523,128,2,41017:0:0:0:0:
448,192,41017,1,8,0:0:0:0:
320,192,41017,1,2,0:0:0:0:
192,192,41141,1,2,0:0:0:0:
448,192,41388,1,2,0:0:0:0:
64,192,41634,1,2,0:0:0:0:
192,192,41758,128,2,42005:0:0:0:0:
320,192,42005,1,2,0:0:0:0:
448,192,42005,128,8,42252:0:0:0:0:
64,192,42252,1,2,0:0:0:0:
192,192,42499,1,2,0:0:0:0:
320,192,42746,128,2,42993:0:0:0:0:
448,192,42993,1,2,0:0:0:0:
64,192,42993,1,8,0:0:0:0:
192,192,43116,1,2,0:0:0:0:
320,192,43363,1,2,0:0:0:0:
64,192,43610,1,2,0:0:0:0:
448,192,43733,128,2,43980:0:0:0:0:
192,192,43980,1,2,0:0:0:0:
64,192,43980,128,8,44227:0:0:0:0:
320,192,44227,1,2,0:0:0:0:
448,192,44227,1,8,0:0:0:0:
192,192,44474,128,0,44721:0:0:0:0:
320,192,44474,128,0,44721:0:0:0:0:
64,192,44721,1,8,0:0:0:0:
448,192,44721,128,6,44968:0:0:0:0:
192,192,44968,1,2,0:0:0:0:
320,192,45091,1,2,0:0:0:0:
448,192,45215,1,8,0:0:0:0:
64,192,45215,1,2,0:0:0:0:
192,192,45338,1,2,0:0:0:0:
320,192,45585,1,2,0:0:0:0:
192,192,45709,1,2,0:0:0:0:
64,192,45709,128,8,46202:0:0:0:0:
320,192,46202,1,2,0:0:0:0:
448,192,46202,1,8,0:0:0:0:
192,192,46449,1,2,0:0:0:0:
64,192,46696,1,2,0:0:0:0:
320,192,46696,128,8,46943:0:0:0:0:
448,192,46943,1,2,0:0:0:0:
192,192,47067,1,2,0:0:0:0:
320,192,47190,1,2,0:0:0:0:
448,192,47190,1,8,0:0:0:0:
64,192,47313,1,2,0:0:0:0:
192,192,47560,1,2,0:0:0:0:
320,192,47684,1,2,0:0:0:0:
448,192,47684,128,8,48178:0:0:0:0:
192,192,48178,1,2,0:0:0:0:
64,192,48178,1,8,0:0:0:0:
320,192,48425,128,2,48672:0:0:0:0:
192,192,48672,1,2,0:0:0:0:
448,192,48672,128,8,48918:0:0:0:0:
64,192,48918,1,2,0:0:0:0:
192,192,49042,1,2,0:0:0:0:
320,192,49165,1,8,0:0:0:0:
448,192,49165,1,2,0:0:0:0:
64,192,49289,1,2,0:0:0:0:
192,192,49536,1,2,0:0:0:0:
320,192,49659,1,2,0:0:0:0:
64,192,49659,128,8,50153:0:0:0:0:
448,192,50153,1,8,0:0:0:0:
320,192,50153,1,2,0:0:0:0:
192,192,50400,1,2,0:0:0:0:
448,192,50647,128,8,50894:0:0:0:0:
64,192,50647,1,2,0:0:0:0:
192,192,50894,1,2,0:0:0:0:
320,192,51017,1,2,0:0:0:0:
448,192,51141,1,8,0:0:0:0:
64,192,51141,1,2,0:0:0:0:
192,192,51264,1,2,0:0:0:0:
448,192,51511,1,2,0:0:0:0:
64,192,51634,1,8,0:0:0:0:
192,192,51634,128,2,52128:0:0:0:0:
320,192,52128,1,8,0:0:0:0:
448,192,52128,1,2,0:0:0:0:
448,192,52375,1,2,0:0:0:0:
192,192,52375,1,4,0:0:0:0:
64,192,52375,1,0,0:0:0:50:snare_wave.wav
448,192,53363,1,0,0:0:0:0:
192,192,53857,1,0,0:0:0:0:
320,192,54351,1,0,0:0:0:0:
64,192,55338,1,0,0:0:0:0:
192,192,55832,1,0,0:0:0:0:
320,192,56326,1,0,0:0:0:0:
448,192,57067,1,0,0:0:0:0:
320,192,57190,1,0,0:0:0:0:
64,192,57313,1,0,0:0:0:0:
64,192,57684,1,0,0:0:0:0:
320,192,57807,1,0,0:0:0:0:
192,192,58054,1,0,0:0:0:0:
448,192,58301,1,0,0:0:0:0:
320,192,59042,1,0,0:0:0:0:
64,192,59289,1,0,0:0:0:0:
192,192,59536,1,0,0:0:0:0:
320,192,59783,1,0,0:0:0:0:
192,192,60030,1,0,0:0:0:0:
448,192,60276,1,0,0:0:0:0:
320,192,61264,1,0,0:0:0:0:
192,192,61758,1,0,0:0:0:0:
448,192,62252,1,0,0:0:0:0:
192,192,63239,1,0,0:0:0:0:
64,192,63733,1,0,0:0:0:0:
320,192,64227,1,0,0:0:0:0:
448,192,64968,1,0,0:0:0:0:
320,192,65091,1,0,0:0:0:0:
192,192,65215,1,0,0:0:0:0:
64,192,65585,1,0,0:0:0:0:
192,192,65955,1,0,0:0:0:0:
320,192,66202,1,0,0:0:0:0:
448,192,67190,1,0,0:0:0:0:
320,192,67437,1,0,0:0:0:0:
64,192,67684,1,0,0:0:0:0:
192,192,67931,128,0,68178:0:0:0:0:
320,192,68178,128,0,68425:0:0:0:0:
64,192,68425,1,0,0:0:0:0:
320,192,68672,128,0,68918:0:0:0:0:
192,192,68918,1,0,0:0:0:0:
448,192,69042,128,0,69289:0:0:0:0:
64,192,69289,1,0,0:0:0:0:
192,192,69412,1,0,0:0:0:0:
320,192,69536,1,0,0:0:0:0:
448,192,69659,128,0,69906:0:0:0:0:
64,192,69906,1,0,0:0:0:0:
320,192,70030,1,0,0:0:0:0:
192,192,70153,128,0,70400:0:0:0:0:
448,192,70400,1,0,0:0:0:0:
192,192,70647,128,0,70894:0:0:0:0:
320,192,70894,1,0,0:0:0:0:
64,192,71017,128,0,71264:0:0:0:0:
448,192,71264,1,0,0:0:0:0:
192,192,71388,1,0,0:0:0:0:
320,192,71511,1,0,0:0:0:0:
192,192,71634,128,0,71881:0:0:0:0:
448,192,71881,1,0,0:0:0:0:
64,192,72005,1,0,0:0:0:0:
192,192,72128,1,4,0:0:0:0:
320,192,72128,1,10,0:0:0:0:
448,192,72499,1,2,0:0:0:0:
192,192,72622,1,4,0:0:0:0:
320,192,72622,1,10,0:0:0:0:
64,192,72993,1,2,0:0:0:0:
448,192,73116,1,6,0:0:0:0:
320,192,73116,1,8,0:0:0:0:
192,192,73301,1,2,0:0:0:0:
320,192,73486,1,2,0:0:0:0:
64,192,73610,1,8,0:0:0:0:
192,192,73610,1,2,0:0:0:0:
64,192,73857,1,2,0:0:0:0:
448,192,73857,1,8,0:0:0:0:
320,192,74104,1,12,0:0:0:0:
192,192,74104,1,2,0:0:0:0:
64,192,74351,1,10,0:0:0:0:
448,192,74597,1,10,0:0:0:0:
64,192,74844,1,10,0:0:0:0:
192,192,75091,1,4,0:0:0:0:
448,192,75091,1,10,0:0:0:0:
320,192,75338,1,10,0:0:0:0:
64,192,75585,1,10,0:0:0:0:
448,192,75832,1,10,0:0:0:0:
64,192,76079,1,4,0:0:0:0:
192,192,76079,1,10,0:0:0:0:
320,192,76202,1,2,0:0:0:0:
448,192,76326,1,10,0:0:0:0:
64,192,76449,1,2,0:0:0:0:
448,192,76573,1,12,0:0:0:0:
320,192,76573,1,2,0:0:0:0:
192,192,76696,1,2,0:0:0:0:
64,192,76820,1,10,0:0:0:0:
448,192,76943,1,2,0:0:0:0:
192,192,77067,1,6,0:0:0:0:
64,192,77067,1,8,0:0:0:0:
448,192,77190,1,2,0:0:0:0:
192,192,77313,1,2,0:0:0:0:
320,192,77313,1,12,0:0:0:0:
64,192,77437,1,2,0:0:0:0:
448,192,77560,1,14,0:0:0:0:
320,192,77560,1,0,0:0:0:70:LR_Clap Loud Long.wav
192,192,77807,128,0,78054:0:0:0:0:
64,192,78054,1,4,0:0:0:0:
448,192,78054,1,2,0:0:0:0:
192,192,78301,1,2,0:0:0:0:
64,192,78301,1,8,0:0:0:0:
320,192,78548,1,2,0:0:0:0:
448,192,78795,1,2,0:0:0:0:
192,192,78795,1,8,0:0:0:0:
64,192,79042,1,2,0:0:0:0:
448,192,79289,1,2,0:0:0:0:
320,192,79289,1,8,0:0:0:0:
192,192,79536,1,2,0:0:0:0:
320,192,79659,1,0,0:0:0:0:
192,192,79783,1,2,0:0:0:0:
64,192,79783,1,8,0:0:0:0:
320,192,79906,1,0,0:0:0:0:
448,192,80030,1,2,0:0:0:0:
64,192,80276,1,2,0:0:0:0:
320,192,80276,1,8,0:0:0:0:
192,192,80523,1,2,0:0:0:0:
320,192,80770,1,2,0:0:0:0:
448,192,80770,1,8,0:0:0:0:
64,192,81017,1,2,0:0:0:0:
192,192,81264,1,2,0:0:0:0:
320,192,81264,1,8,0:0:0:0:
448,192,81511,1,2,0:0:0:0:
192,192,81634,1,0,0:0:0:0:
448,192,81758,1,2,0:0:0:0:
320,192,81758,1,8,0:0:0:0:
192,192,81881,1,0,0:0:0:0:
64,192,82005,1,2,0:0:0:0:
192,192,82252,1,2,0:0:0:0:
448,192,82252,1,8,0:0:0:0:
320,192,82499,1,2,0:0:0:0:
64,192,82746,1,2,0:0:0:0:
192,192,82746,1,8,0:0:0:0:
448,192,82993,1,2,0:0:0:0:
64,192,83116,1,0,0:0:0:0:
192,192,83239,1,2,0:0:0:0:
448,192,83239,1,8,0:0:0:0:
320,192,83363,1,0,0:0:0:0:
192,192,83486,1,2,0:0:0:0:
448,192,83610,128,0,83857:0:0:0:0:
64,192,83733,1,10,0:0:0:0:
192,192,83857,1,0,0:0:0:0:
320,192,83980,1,2,0:0:0:0:
192,192,84227,1,2,0:0:0:0:
448,192,84227,1,8,0:0:0:0:
64,192,84474,1,2,0:0:0:0:
320,192,84721,1,8,0:0:0:0:
192,192,84721,1,2,0:0:0:0:
448,192,84968,1,2,0:0:0:0:
192,192,85215,1,2,0:0:0:0:
64,192,85215,1,8,0:0:0:0:
448,192,85462,1,2,0:0:0:0:
320,192,85585,1,0,0:0:0:0:
64,192,85709,1,8,0:0:0:0:
192,192,85709,1,2,0:0:0:0:
320,192,85832,1,0,0:0:0:0:
448,192,85955,1,10,0:0:0:0:
64,192,85955,1,4,0:0:0:0:
192,192,86141,1,10,0:0:0:0:
320,192,86326,1,10,0:0:0:0:
64,192,86573,1,4,0:0:0:0:
448,192,86573,1,10,0:0:0:0:
192,192,86820,128,2,86943:0:0:0:0:
448,192,86943,1,2,0:0:0:0:
320,192,86943,1,12,0:0:0:0:
64,192,87128,1,10,0:0:0:0:
448,192,87313,1,10,0:0:0:0:
64,192,87560,1,4,0:0:0:0:
192,192,87560,1,10,0:0:0:0:
320,192,87807,128,2,87931:0:0:0:0:
192,192,87931,1,2,0:0:0:0:
448,192,87931,1,12,0:0:0:0:
64,192,88095,1,10,0:0:0:0:
192,192,88260,1,10,0:0:0:0:
320,192,88425,1,10,0:0:0:0:
448,192,88589,1,10,0:0:0:0:
192,192,88754,1,10,0:0:0:0:
320,192,88918,1,10,0:0:0:0:
64,192,89083,1,10,0:0:0:0:
192,192,89248,1,10,0:0:0:0:
448,192,89412,128,10,89659:0:0:0:0:
192,192,89659,128,10,89906:0:0:0:0:
64,192,89906,1,2,0:0:0:0:
448,192,89906,1,12,0:0:0:0:
192,192,90153,1,10,0:0:0:0:
320,192,90400,1,10,0:0:0:0:
64,192,90647,1,10,0:0:0:0:
192,192,90894,1,4,0:0:0:0:
448,192,90894,1,10,0:0:0:0:
320,192,91079,1,10,0:0:0:0:
192,192,91264,1,10,0:0:0:0:
64,192,91388,1,10,0:0:0:0:
448,192,91511,128,2,91634:0:0:0:0:
192,192,91634,1,10,0:0:0:0:
320,192,91758,128,2,91881:0:0:0:0:
192,192,91881,1,6,0:0:0:0:
64,192,91881,128,8,92375:0:0:0:0:
448,192,92128,1,10,0:0:0:0:
320,192,92375,1,4,0:0:0:0:
448,192,92375,128,10,92869:0:0:0:0:
192,192,92622,1,10,0:0:0:0:
64,192,92869,1,4,0:0:0:0:
192,192,92869,128,10,93116:0:0:0:0:
448,192,93116,1,4,0:0:0:0:
64,192,93116,128,10,93363:0:0:0:0:
448,192,93363,1,6,0:0:0:0:
320,192,93363,128,8,93610:0:0:0:0:
192,192,93610,128,0,93857:0:0:0:0:
448,192,93857,1,2,0:0:0:0:
320,192,93980,1,2,0:0:0:0:
192,192,94104,1,2,0:0:0:0:
448,192,94227,1,2,0:0:0:0:
64,192,94351,1,2,0:0:0:0:
192,192,94474,1,2,0:0:0:0:
320,192,94597,1,2,0:0:0:0:
64,192,94721,1,2,0:0:0:0:
448,192,94844,1,2,0:0:0:0:
192,192,94968,1,2,0:0:0:0:
320,192,95091,1,2,0:0:0:0:
64,192,95215,1,2,0:0:0:0:
448,192,95338,128,2,95585:0:0:0:0:
320,192,95585,1,4,0:0:0:0:
192,192,95585,1,8,0:0:0:0:
64,192,95832,1,2,0:0:0:0:
192,192,95955,1,2,0:0:0:0:
320,192,96079,1,2,0:0:0:0:
64,192,96202,1,2,0:0:0:0:
448,192,96326,1,2,0:0:0:0:
320,192,96449,1,2,0:0:0:0:
192,192,96573,1,2,0:0:0:0:
448,192,96696,1,2,0:0:0:0:
64,192,96820,1,2,0:0:0:0:
320,192,96943,1,2,0:0:0:0:
192,192,97067,1,2,0:0:0:0:
448,192,97190,1,2,0:0:0:0:
64,192,97313,128,2,97560:0:0:0:0:
320,192,97560,1,8,0:0:0:0:
192,192,97560,1,4,0:0:0:0:
64,192,97807,1,2,0:0:0:0:
192,192,97931,1,2,0:0:0:0:
320,192,98054,1,2,0:0:0:0:
448,192,98178,1,2,0:0:0:0:
64,192,98301,1,2,0:0:0:0:
192,192,98425,1,2,0:0:0:0:
448,192,98548,1,6,0:0:0:0:
320,192,98548,1,8,0:0:0:0:
64,192,98795,1,2,0:0:0:0:
448,192,98918,1,2,0:0:0:0:
320,192,99042,1,2,0:0:0:0:
192,192,99165,1,2,0:0:0:0:
448,192,99289,1,2,0:0:0:0:
320,192,99412,1,2,0:0:0:0:
64,192,99536,1,4,0:0:0:0:
192,192,99536,1,10,0:0:0:0:
448,192,99783,1,2,0:0:0:0:
192,192,99906,1,2,0:0:0:0:
448,192,100030,1,6,0:0:0:0:
320,192,100030,1,8,0:0:0:0:
64,192,100276,1,2,0:0:0:0:
320,192,100400,1,2,0:0:0:0:
64,192,100523,1,6,0:0:0:0:
192,192,100523,1,8,0:0:0:0:
448,192,100770,1,10,0:0:0:0:
192,192,100770,1,4,0:0:0:0:
64,192,101017,1,2,0:0:0:0:
320,192,101017,1,12,0:0:0:0:
448,192,101264,1,6,0:0:0:0:
192,192,101264,1,8,0:0:0:0:
192,192,101511,1,2,0:0:0:0:
64,192,101511,1,12,0:0:0:0:
64,192,102005,1,4,0:0:0:0:
448,192,102005,1,2,0:0:0:0:
320,192,102005,128,8,106696:0:0:0:0:
