osu file format v14

[General]
AudioFilename: audio.mp3
AudioLeadIn: 0
PreviewTime: 77748
Countdown: 1
SampleSet: Soft
StackLeniency: 0.7
Mode: 0
LetterboxInBreaks: 0
WidescreenStoryboard: 1

[Editor]
Bookmarks: 18859,20834,28180,28674,36575,44538,52439,68118,72130,78118,86019,93859,95587,95834,97562,97809,98550,98797,99538,99785,100032,100525,101266,106698
DistanceSpacing: 1.3
BeatDivisor: 4
GridSize: 8
TimelineZoom: 2.500006

[Metadata]
Title:Bison Charge
TitleUnicode:Bison Charge
Artist:Umeboshi Chazuke
ArtistUnicode:梅干茶漬け
Creator:Nao Tomori
Version:Cyndere's Extra
Source:
Tags:electronic chiptune instrumental 8bit flask -_matha_- matha petal cyndere naotoshi akitoshi -laura- corinn zinedinezidane
BeatmapID:1936561
BeatmapSetID:894701

[Difficulty]
HPDrainRate:5
CircleSize:4
OverallDifficulty:8.5
ApproachRate:9.2
SliderMultiplier:1.56
SliderTickRate:1

[Events]
//Background and Video events
0,0,"BG.jpg",0,0
//Break Periods
2,52578,67364
//Storyboard Layer 0 (Background)
//Storyboard Layer 1 (Fail)
//Storyboard Layer 2 (Pass)
//Storyboard Layer 3 (Foreground)
//Storyboard Layer 4 (Overlay)
//Storyboard Sound Samples

[TimingPoints]
1020,246.913580246914,4,2,1,50,1,0
2995,-125,4,2,1,60,0,0
10402,-125,4,2,1,70,0,0
10649,-125,4,2,2,70,0,0
10896,-111.111111111111,4,2,3,70,0,0
11143,-111.111111111111,4,2,1,70,0,0
14846,-100,4,2,1,70,0,0
15834,-90.9090909090909,4,2,4,70,0,0
16081,-90.9090909090909,4,2,1,70,0,0
17315,-100,4,2,4,70,0,0
17562,-100,4,2,1,70,0,0
17809,-111.111111111111,4,2,1,70,0,0
17933,-111.111111111111,4,2,1,70,0,0
18797,-83.3333333333333,4,2,1,70,0,0
19291,-83.3333333333333,4,2,1,70,0,0
19785,-83.3333333333333,4,2,1,70,0,0
20278,-76.9230769230769,4,2,2,70,0,0
20525,-76.9230769230769,4,2,2,70,0,0
20772,-100,4,2,1,65,0,0
24229,-166.666666666667,4,2,1,45,0,0
24723,-100,4,2,1,65,0,0
28674,-90.9090909090909,4,2,3,70,0,0
28797,-90.9090909090909,4,2,1,70,0,0
32130,-83.3333333333333,4,2,1,70,0,0
32624,-90.9090909090909,4,2,1,75,0,0
33612,-90.9090909090909,4,2,1,75,0,0
34599,-76.9230769230769,4,2,1,75,0,0
35217,-76.9230769230769,4,2,3,75,0,0
35587,-83.3333333333333,4,2,1,75,0,0
35834,-83.3333333333333,4,2,4,75,0,0
36081,-83.3333333333333,4,2,1,75,0,0
36328,-83.3333333333333,4,2,2,75,0,0
36575,-100,4,2,1,70,0,0
44723,-90.9090909090909,4,2,1,75,0,0
52377,-90.9090909090909,4,2,2,85,0,0
67439,-142.857142857143,4,2,0,30,0,0
68180,-142.857142857143,4,2,0,40,0,0
71513,-142.857142857143,4,2,0,45,0,0
71760,-142.857142857143,4,2,0,50,0,0
72007,-142.857142857143,4,2,0,55,0,0
72130,-83.3333333333333,4,2,3,65,0,0
73118,-83.3333333333333,4,2,1,65,0,0
74106,-100,4,2,2,70,0,0
74229,-100,4,2,1,70,0,0
75093,-90.9090909090909,4,2,4,70,0,0
75217,-90.9090909090909,4,2,1,70,0,0
76575,-90.9090909090909,4,2,2,70,0,0
76636,-90.9090909090909,4,2,1,70,0,0
77069,-90.9090909090909,4,2,3,70,0,0
77315,-90.9090909090909,4,2,4,70,0,0
77562,-71.4285714285714,4,2,1,75,0,0
78057,-83.3333333333333,4,2,2,80,0,1
78303,-83.3333333333333,4,2,1,80,0,1
82007,-76.9230769230769,4,2,1,80,0,1
82377,-83.3333333333333,4,2,1,80,0,1
85957,-90.9090909090909,4,2,1,80,0,1
86575,-76.9230769230769,4,2,2,80,0,1
86822,-83.3333333333333,4,2,1,80,0,1
86945,-83.3333333333333,4,2,3,80,0,1
87069,-83.3333333333333,4,2,1,80,0,1
87562,-76.9230769230769,4,2,4,80,0,1
87809,-71.4285714285714,4,2,1,80,0,1
87933,-71.4285714285714,4,2,1,80,0,1
90278,-90.9090909090909,4,2,1,80,0,1
90896,-76.9230769230769,4,2,2,80,0,1
91019,-76.9230769230769,4,2,1,80,0,1
92377,-76.9230769230769,4,2,3,80,0,1
92501,-76.9230769230769,4,2,1,80,0,1
93118,-76.9230769230769,4,2,4,80,0,1
93241,-76.9230769230769,4,2,1,80,0,1
93365,-76.9230769230769,4,2,2,80,0,1
93859,-90.9090909090909,4,2,1,80,0,1
95340,-333.333333333333,4,2,2,80,0,1
95834,-83.3333333333333,4,2,3,80,0,1
95896,-83.3333333333333,4,2,1,80,0,1
97315,-200,4,2,1,80,0,1
97562,-200,4,2,4,80,0,1
97809,-100,4,2,1,80,0,1
98550,-100,4,2,2,80,0,1
98797,-100,4,2,3,80,0,1
98859,-100,4,2,1,80,0,1
99476,-100,4,2,1,80,0,1
99538,-100,4,2,4,80,0,1
99785,-90.9090909090909,4,2,1,80,0,1
100278,-83.3333333333333,4,2,3,80,0,1
100340,-83.3333333333333,4,2,1,80,0,1
100772,-76.9230769230769,4,2,1,80,0,1
101637,-100,4,2,1,80,0,0
102007,-100,4,2,2,80,0,1
102069,-100,4,2,1,80,0,0

[Colours]
Combo1 : 237,171,196
Combo2 : 113,179,244
Combo3 : 239,136,124
Combo4 : 173,157,236

[HitObjects]
256,192,1021,12,0,2749,0:0:0:0:
19,49,2996,6,0,P|82:29|157:44,1,124.8,4|0,3:1|3:0,0:0:0:0:
194,88,3366,1,0,0:0:0:0:
255,179,3489,2,0,B|237:99|237:99|264:54,1,124.8,8|0,0:0|3:0,0:0:0:0:
409,94,3983,6,0,L|341:109,1,62.4,0|0,3:0|0:0,0:0:0:0:
287,199,4230,2,0,L|359:219,1,62.4,0|0,3:0|0:0,0:0:0:0:
444,323,4477,2,0,B|440:278|440:278|457:246|457:246|447:179,1,124.8,8|0,0:0|3:0,0:0:0:0:
404,120,4847,1,0,3:0:0:0:
297,107,4971,6,0,P|243:130|205:193,1,124.8,0|0,3:0|3:0,0:0:0:0:
233,260,5341,1,0,0:0:0:0:
155,344,5465,2,0,B|107:340|107:340|30:271,1,124.8,8|0,0:0|3:0,0:0:0:0:
81,137,5958,5,0,3:0:0:0:
147,239,6144,1,0,3:0:0:0:
147,239,6205,1,0,3:0:0:0:
46,259,6329,1,0,3:0:0:0:
0,118,6452,2,0,L|147:112,1,124.8,8|0,0:0|3:0,0:0:0:0:
272,125,6946,5,0,3:0:0:0:
124,105,7070,1,0,3:0:0:0:
254,29,7193,1,0,3:0:0:0:
299,230,7440,2,0,L|163:215,1,124.8,8|0,0:0|3:0,0:0:0:0:
64,136,7934,6,0,P|53:169|52:221,1,62.4,0|0,3:0|0:0,0:0:0:0:
162,304,8181,2,0,P|153:275|132:249,1,62.4,0|0,3:0|0:0,0:0:0:0:
10,343,8428,2,0,B|76:316|72:371|146:340,1,124.8,8|0,0:0|3:0,0:0:0:0:
270,272,8798,1,0,3:0:0:0:
338,359,8921,5,0,3:0:0:0:
315,357,8982,1,0,3:0:0:0:
292,356,9044,1,0,3:0:0:0:
268,355,9106,1,0,3:0:0:0:
245,354,9169,1,0,3:0:0:0:
70,254,9415,6,0,P|28:195|26:131,1,124.8,8|0,0:0|3:0,0:0:0:0:
144,45,9786,1,0,0:0:0:0:
146,200,9909,2,0,P|179:202|225:199,1,62.4,0|0,3:0|0:0,0:0:0:0:
125,52,10156,2,0,P|106:79|86:120,1,62.4,0|0,3:0|3:0,0:0:0:0:
250,76,10403,5,12,0:0:0:0:
273,74,10464,1,0,3:0:0:0:
296,73,10526,1,0,3:0:0:0:
320,72,10588,1,0,3:0:0:0:
345,70,10650,2,0,L|428:66,1,62.4,12|0,0:0|3:0,0:0:0:0:
512,133,10897,6,0,P|474:194|467:291,1,140.399995715332,6|8,3:2|0:0,0:0:0:0:
387,374,11267,2,0,P|348:313|342:216,1,140.399995715332,2|2,0:0|0:0,0:0:0:0:
246,154,11637,2,0,B|206:141|206:141|160:164|160:164|98:155,1,140.399995715332,10|2,0:0|3:2,0:0:0:0:
134,316,12008,2,0,P|147:278|150:236,1,70.1999978576661,2|8,0:0|0:0,0:0:0:0:
94,153,12255,1,2,0:0:0:0:
163,52,12378,2,0,L|235:39,1,70.1999978576661,2|0,3:2|0:0,0:0:0:0:
361,159,12625,2,0,L|291:131,1,70.1999978576661,10|0,0:0|3:0,0:0:0:0:
77,145,12872,6,0,P|53:204|60:299,1,140.399995715332,2|8,3:2|0:0,0:0:0:0:
212,378,13242,2,0,P|219:305|195:224,1,140.399995715332,2|2,0:0|0:0,0:0:0:0:
233,87,13613,2,0,P|299:71|382:89,1,140.399995715332,10|2,0:0|3:2,0:0:0:0:
485,207,13983,2,0,L|490:156,2,35.099998928833,2|0|8,3:0|3:0|0:0,0:0:0:0:
431,285,14230,1,2,3:2:0:0:
320,185,14354,2,0,P|364:186|401:197,1,70.1999978576661,2|0,3:2|0:0,0:0:0:0:
479,305,14600,2,0,P|444:309|408:323,1,70.1999978576661,10|0,0:0|0:0,0:0:0:0:
282,292,14847,6,0,L|177:297,1,78,6|0,3:2|3:2,0:0:0:0:
136,218,15094,2,0,L|36:248,1,78,8|2,0:0|0:0,0:0:0:0:
0,93,15341,2,0,L|88:149,1,78,0|0,3:0|0:0,0:0:0:0:
163,101,15588,2,0,L|234:176,1,78,10|0,0:0|0:0,0:0:0:0:
385,222,15835,6,0,L|399:113,1,85.8000026184083,4|0,3:2|0:0,0:0:0:0:
276,5,16082,2,0,L|299:94,1,85.8000026184083,8|2,0:0|0:0,0:0:0:0:
245,309,16329,2,0,L|280:215,1,85.8000026184083,2|0,3:2|0:0,0:0:0:0:
106,45,16576,2,0,L|190:95,1,85.8000026184083,10|0,0:0|0:0,0:0:0:0:
53,205,16823,5,12,0:0:0:0:
55,228,16884,1,0,3:0:0:0:
56,251,16946,1,0,3:0:0:0:
57,275,17008,1,0,3:0:0:0:
58,298,17069,1,8,0:0:0:0:
162,322,17193,1,0,3:0:0:0:
246,248,17316,6,0,L|275:253,6,19.5,12|8|8|8|8|0|0,0:0|0:0|0:0|0:0|0:0|0:0|0:0,0:0:0:0:
168,212,17563,2,0,L|139:217,6,19.5,8|0|8|0|8|0|8,0:0|0:0|0:0|0:0|0:0|0:0|0:0,0:0:0:0:
179,302,17810,6,0,L|169:383,1,70.1999978576661,4|0,0:3|0:0,0:0:0:0:
262,341,18057,2,0,L|333:331,1,70.1999978576661,0|0,0:0|0:0,0:0:0:0:
390,249,18304,2,0,L|488:267,2,70.1999978576661,0|0|0,0:0|0:0|0:0,0:0:0:0:
320,185,18675,1,0,0:0:0:0:
372,72,18798,6,0,L|538:61,2,140.399995715332,14|2|2,0:0|3:2|3:2,0:0:0:0:
249,37,19292,2,0,L|89:8,2,140.399995715332,14|2|2,0:0|3:2|3:2,0:0:0:0:
286,150,19786,2,0,P|300:213|275:311,2,140.399995715332,12|0|0,0:0|3:0|3:0,0:0:0:0:
179,39,20279,6,0,B|232:38|232:38|268:62|268:62|340:43,1,152.099993037415,14|0,0:0|0:0,0:0:0:0:
351,39,20526,2,0,P|310:119|310:180,1,152.099993037415,14|0,0:0|0:0,0:0:0:0:
323,194,20773,6,0,L|218:205,1,78,6|2,3:1|0:0,0:0:0:0:
172,300,21020,1,2,3:2:0:0:
105,172,21144,2,0,L|100:100,3,39,2|2|2|2,0:0|0:0|3:2|0:0,0:0:0:0:
19,56,21391,1,2,0:0:0:0:
19,56,21452,1,0,0:0:0:0:
19,56,21514,2,0,L|108:8,1,78,2|2,3:2|0:0,0:0:0:0:
203,124,21761,6,0,L|224:36,1,78,2|2,3:2|0:0,0:0:0:0:
107,190,22008,2,0,L|78:95,1,78,2|2,3:2|0:0,0:0:0:0:
213,241,22255,2,0,L|252:247,2,39,2|0|2,3:2|0:0|0:0,0:0:0:0:
130,305,22502,1,2,3:2:0:0:
175,384,22625,1,2,3:2:0:0:
269,364,22749,6,0,L|370:350,1,78,2|2,3:2|0:0,0:0:0:0:
401,274,22996,1,2,3:2:0:0:
493,373,23119,2,0,L|496:309,3,39,2|2|2|0,0:0|0:0|3:2|0:0,0:0:0:0:
481,246,23366,1,2,0:0:0:0:
481,246,23428,1,0,0:0:0:0:
481,246,23489,2,0,L|390:230,1,78,2|2,3:2|0:0,0:0:0:0:
302,181,23736,6,0,L|323:86,1,78,2|2,3:2|0:0,0:0:0:0:
208,270,23983,2,0,L|187:175,1,78,2|2,3:2|0:0,0:0:0:0:
301,315,24230,2,0,L|297:358,2,23.3999992858887,2|0|2,3:2|0:0|0:0,0:0:0:0:
322,231,24477,1,2,0:0:0:0:
410,224,24600,1,2,0:0:0:0:
490,95,24724,6,0,P|429:99|384:118,1,78,2|2,3:2|0:0,0:0:0:0:
312,144,24971,1,2,3:2:0:0:
199,52,25094,2,0,L|195:5,3,39,2|2|2|0,0:0|0:0|3:2|0:0,0:0:0:0:
297,0,25341,1,2,0:0:0:0:
297,0,25403,1,0,0:0:0:0:
297,0,25465,2,0,L|386:5,1,78,2|2,3:2|0:0,0:0:0:0:
475,112,25712,6,0,L|481:221,1,78,2|2,3:2|0:0,0:0:0:0:
377,16,25958,2,0,L|363:109,1,78,2|2,3:2|0:0,0:0:0:0:
288,234,26205,2,0,L|247:246,2,39,2|2|2,3:2|0:0|0:0,0:0:0:0:
297,332,26452,1,2,3:2:0:0:
207,308,26576,1,2,3:2:0:0:
23,358,26699,6,0,L|100:362,1,78,2|2,3:2|0:0,0:0:0:0:
194,307,26946,1,2,3:2:0:0:
47,216,27070,2,0,L|44:179,3,39,2|2|2|2,0:0|0:0|3:2|0:0,0:0:0:0:
114,115,27316,1,2,0:0:0:0:
114,115,27378,1,2,0:0:0:0:
114,115,27440,2,0,L|119:26,1,78,2|2,3:2|0:0,0:0:0:0:
206,123,27687,6,0,P|247:104|283:97,2,52,2|2|2,3:2|0:0|0:0,0:0:0:0:
104,204,27934,2,0,P|63:185|27:178,2,52,2|2|2,0:0|0:0|0:0,0:0:0:0:
228,254,28180,1,2,0:0:0:0:
256,231,28262,1,2,0:0:0:0:
276,200,28345,1,2,0:0:0:0:
286,165,28427,1,2,0:0:0:0:
286,128,28509,1,2,0:0:0:0:
271,91,28592,1,2,0:0:0:0:
246,58,28675,6,0,L|120:50,1,85.8000026184083,6|0,3:2|0:0,0:0:0:0:
59,5,28921,1,10,0:0:0:0:
42,141,29045,2,0,L|-10:144,3,42.9000013092041,2|2|2|0,0:0|0:0|3:2|0:0,0:0:0:0:
146,184,29292,1,2,0:0:0:0:
146,184,29354,1,0,0:0:0:0:
146,184,29415,2,0,L|148:273,1,85.8000026184083,10|2,0:0|0:0,0:0:0:0:
348,201,29662,6,0,L|236:183,1,85.8000026184083,2|2,3:2|0:0,0:0:0:0:
136,280,29909,2,0,L|220:266,1,85.8000026184083,10|2,0:0|0:0,0:0:0:0:
323,289,30156,1,2,3:2:0:0:
323,289,30218,1,2,0:0:0:0:
323,289,30279,2,0,L|318:381,1,85.8000026184083,2|10,0:0|0:0,0:0:0:0:
216,359,30526,1,2,0:0:0:0:
42,369,30650,6,0,P|29:312|35:244,1,85.8000026184083,2|2,3:2|0:0,0:0:0:0:
28,284,30835,1,0,3:2:0:0:
28,284,30896,1,10,0:0:0:0:
92,171,31020,2,0,L|138:181,3,42.9000013092041,2|2|2|2,0:0|0:0|3:2|0:0,0:0:0:0:
70,81,31267,1,2,0:0:0:0:
70,81,31329,1,2,0:0:0:0:
70,81,31390,2,0,L|187:63,1,85.8000026184083,10|2,0:0|0:0,0:0:0:0:
317,207,31637,6,0,L|334:82,1,85.8000026184083,2|2,3:2|0:0,0:0:0:0:
234,1,31884,2,0,L|251:126,1,85.8000026184083,10|2,0:0|0:0,0:0:0:0:
250,252,32131,6,0,P|297:256|380:224,1,93.5999971435548,10|0,0:0|0:0,0:0:0:0:
358,227,32316,2,0,P|331:265|317:353,1,93.5999971435548,10|0,0:0|0:0,0:0:0:0:
331,331,32502,1,10,0:0:0:0:
488,371,32625,6,0,L|481:282,1,85.8000026184083,6|0,3:2|3:2,0:0:0:0:
416,131,32872,2,0,L|423:42,1,85.8000026184083,10|2,0:0|3:2,0:0:0:0:
412,32,33057,1,0,3:0:0:0:
412,32,33119,2,0,L|522:29,1,85.8000026184083,0|2,0:0|0:0,0:0:0:0:
512,144,33366,1,10,0:0:0:0:
323,104,33489,1,2,3:2:0:0:
323,104,33551,1,0,3:0:0:0:
323,104,33613,6,0,L|208:97,1,85.8000026184083,6|2,3:2|3:2,0:0:0:0:
159,186,33860,2,0,L|128:73,1,85.8000026184083,10|2,0:0|3:2,0:0:0:0:
123,90,34045,1,0,3:0:0:0:
123,90,34107,2,0,P|74:108|26:154,1,85.8000026184083,2|2,3:2|3:2,0:0:0:0:
240,221,34354,2,0,P|243:178|235:136,1,85.8000026184083,10|2,0:0|3:2,0:0:0:0:
102,190,34600,6,0,P|73:236|74:323,1,101.399995358277,14|0,0:0|0:0,0:0:0:0:
197,364,34847,1,10,0:0:0:0:
220,352,34909,1,2,3:2:0:0:
253,359,34971,1,2,3:2:0:0:
283,343,35033,1,2,3:2:0:0:
310,354,35094,1,14,0:3:0:0:
434,355,35218,5,6,0:0:0:0:
480,237,35465,1,2,3:2:0:0:
480,237,35526,1,0,3:0:0:0:
480,237,35588,2,0,L|361:220,1,93.5999971435548,6|2,3:0|3:2,0:0:0:0:
263,109,35835,2,0,L|255:233,1,93.5999971435548,14|2,0:0|3:2,0:0:0:0:
145,290,36082,2,0,L|140:157,1,93.5999971435548,14|2,0:0|3:2,0:0:0:0:
37,52,36329,2,0,B|83:66|83:66|154:63,1,93.5999971435548,14|2,0:0|3:2,0:0:0:0:
234,0,36576,5,6,3:1:0:0:
321,87,36823,2,0,L|261:98,4,39,0|0|0|0|8,3:0|3:0|3:0|3:0|0:0,0:0:0:0:
420,133,37193,1,0,3:0:0:0:
502,44,37440,6,0,P|467:87|451:202,1,156,0|0,3:0|3:0,0:0:0:0:
502,291,37810,2,0,L|503:341,3,39,0|0|0|0,3:0|3:0|3:0|3:0,0:0:0:0:
375,248,38057,2,0,L|329:209,3,39,8|0|0|0,0:0|3:0|3:0|3:0,0:0:0:0:
333,381,38304,1,0,3:0:0:0:
270,266,38551,5,0,3:0:0:0:
199,353,38798,2,0,L|242:350,4,39,0|0|0|0|8,3:0|3:0|3:0|3:0|0:0,0:0:0:0:
108,325,39168,1,0,3:0:0:0:
19,218,39415,6,0,P|57:268|70:376,1,156,0|0,3:0|3:0,0:0:0:0:
180,240,39785,2,0,L|171:187,3,39,0|0|0|0,3:0|3:0|3:0|3:0,0:0:0:0:
83,135,40032,2,0,L|98:88,3,39,8|0|0|0,0:0|3:0|3:0|3:0,0:0:0:0:
19,236,40279,1,0,3:0:0:0:
196,244,40526,6,0,L|247:247,6,52,2|2|2|2|2|2|10,3:0|3:0|3:0|3:0|3:0|3:0|0:0,0:0:0:0:
91,165,41144,1,0,3:0:0:0:
0,364,41391,6,0,P|76:372|145:339,1,156,0|0,3:0|3:0,0:0:0:0:
158,232,41761,2,0,L|94:236,3,39,2|2|2|2,3:0|3:0|3:0|3:0,0:0:0:0:
223,146,42008,2,0,L|196:94,3,39,10|0|2|0,0:0|3:0|3:0|3:0,0:0:0:0:
322,205,42255,1,2,3:0:0:0:
424,149,42502,5,0,3:0:0:0:
507,244,42749,2,0,L|509:285,4,39,2|2|2|2|10,3:0|3:0|3:0|3:0|0:0,0:0:0:0:
389,272,43119,1,0,3:0:0:0:
326,119,43366,2,0,L|150:109,1,156,0|0,3:0|3:0,0:0:0:0:
66,59,43736,2,0,L|59:20,3,39,0|0|0|0,3:0|3:0|3:0|3:0,0:0:0:0:
10,171,43983,2,0,L|0:208,3,39,8|0|0|0,3:0|3:0|3:0|3:0,0:0:0:0:
123,256,44230,5,10,0:0:0:0:
149,243,44291,1,2,0:0:0:0:
170,223,44353,1,2,0:0:0:0:
185,198,44415,1,2,0:0:0:0:
193,170,44477,6,0,B|185:136|185:136|193:111|177:92|177:92|179:67|178:22,1,117
193,33,44724,2,0,L|237:32,3,42.9000013092041,4|0|0|0,3:0|3:0|3:0|3:0,3:0:0:0:
282,114,44971,2,0,L|371:119,1,85.8000026184083,0|0,3:0|3:0,0:0:0:0:
498,152,45218,1,8,0:0:0:0:
425,55,45341,6,0,P|416:74|411:95,3,42.9000013092041,2|2|2|0,3:2|0:0|0:0|0:0,0:0:0:0:
498,152,45588,2,0,P|507:171|512:192,1,42.9000013092041,2|2,3:2|0:0,0:0:0:0:
423,225,45712,1,10,3:0:0:0:
402,216,45773,1,0,3:0:0:0:
378,214,45835,1,2,3:0:0:0:
353,215,45897,1,2,3:0:0:0:
331,223,45958,2,0,L|252:219,3,42.9000013092041,2|2|2|2,3:2|3:2|3:2|3:2,3:2:0:0:
210,157,46205,1,10,0:0:0:0:
337,321,46329,5,2,0:0:0:0:
337,321,46391,1,2,0:0:0:0:
337,321,46452,2,0,P|264:342|222:331,1,85.8000026184083,2|0,3:2|0:0,0:0:0:0:
240,326,46637,2,0,P|167:305|125:316,1,85.8000026184083,2|0,0:0|0:0,0:0:0:0:
138,328,46823,2,0,L|129:191,2,128.700003927612,2|2|10,0:0|0:0|0:0,0:0:0:0:
235,309,47316,5,2,3:2:0:0:
217,217,47440,1,2,0:0:0:0:
239,206,47501,1,2,0:0:0:0:
264,202,47563,1,2,3:0:0:0:
291,207,47625,1,2,0:0:0:0:
313,220,47687,2,0,P|335:244|380:251,1,42.9000013092041,10|0,0:0|3:0,0:0:0:0:
434,230,47810,6,0,L|426:277,3,42.9000013092041,2|2|2|2,3:0|3:0|3:0|3:0,0:0:0:0:
418,131,48057,2,0,P|387:124|317:129,1,85.8000026184083,2|10,3:0|0:0,0:0:0:0:
242,182,48304,1,2,0:0:0:0:
140,120,48428,6,0,L|65:121,2,57.2000017456055,2|2|2,3:0|3:0|3:0,0:0:0:0:
131,216,48675,2,0,L|208:247,2,57.2000017456055,10|2|2,0:0|3:0|3:0,0:0:0:0:
34,202,48921,1,2,3:0:0:0:
42,305,49045,2,0,B|86:294|86:294|119:309|119:309|196:309,1,128.700003927612,2|0,3:0|0:0,0:0:0:0:
183,291,49292,2,0,P|254:274|270:262,1,85.8000026184083,2|0,3:0|0:0,0:0:0:0:
367,242,49539,1,2,3:0:0:0:
364,226,49600,1,2,0:0:0:0:
361,213,49662,6,0,L|368:162,3,42.9000013092041,10|0|2|2,0:0|0:0|3:0|3:0,0:0:0:0:
466,283,49909,2,0,L|472:331,3,42.9000013092041,2|2|2|0,3:0|3:0|3:0|0:0,0:0:0:0:
350,341,50156,2,0,P|297:339|256:318,1,85.8000026184083,10|2,0:0|0:0,0:0:0:0:
184,237,50403,6,0,L|177:135,1,85.8000026184083,2|0,3:0|0:0,0:0:0:0:
197,29,50650,1,8,0:0:0:0:
171,28,50711,1,2,0:0:0:0:
145,27,50773,1,2,0:0:0:0:
119,27,50835,1,2,0:0:0:0:
94,26,50897,2,0,L|72:114,1,85.8000026184083,2|2,3:0|0:0,0:0:0:0:
186,131,51144,1,10,0:0:0:0:
60,232,51267,6,0,B|121:215|121:215|186:214|186:214|233:247,1,171.600005236817,2|2,0:0|0:0,0:0:0:0:
323,323,51637,2,0,L|313:261,3,42.9000013092041,8|2|2|2,0:0|0:0|0:0|0:0,0:0:0:0:
410,248,51884,2,0,L|420:186,3,42.9000013092041,2|2|2|2,3:0|0:0|3:0|0:0,0:0:0:0:
296,81,52131,1,10,2:0:0:0:
263,88,52193,1,2,0:0:0:0:
235,121,52255,1,2,0:0:0:0:
197,141,52316,1,2,0:0:0:0:
160,129,52378,5,6,3:1:0:0:
295,333,67934,5,2,0:0:0:0:
324,337,67996,1,2,0:0:0:0:
347,317,68057,2,0,L|386:313,1,27.2999991668701,2|2,0:0|0:0,0:0:0:0:
404,338,68181,6,0,L|477:338,1,54.5999983337403,6|0,0:0|0:0,0:0:0:0:
512,260,68428,2,0,L|444:244,1,54.5999983337403,2|2,3:2|0:0,0:0:0:0:
370,178,68675,2,0,P|380:216|375:247,1,54.5999983337403,10|2,0:0|0:0,0:0:0:0:
285,243,68921,1,2,0:0:0:0:
285,243,69045,6,0,P|281:182|318:121,1,109.199996667481,10|2,0:0|0:0,0:0:0:0:
316,128,69354,1,0,0:0:0:0:
316,128,69415,2,0,L|308:65,1,54.5999983337403,2|2,3:2|0:0,0:0:0:0:
216,10,69662,2,0,L|208:73,1,54.5999983337403,10|2,0:0|0:0,0:0:0:0:
170,142,69909,2,0,P|141:136|108:140,1,54.5999983337403,2|10,0:0|0:0,0:0:0:0:
44,223,70156,6,0,L|113:219,1,54.5999983337403,2|2,3:2|0:0,0:0:0:0:
174,304,70403,2,0,L|183:240,1,54.5999983337403,2|2,3:2|0:0,0:0:0:0:
252,170,70650,2,0,L|318:179,1,54.5999983337403,10|2,0:0|0:0,0:0:0:0:
434,220,70897,1,2,0:0:0:0:
434,220,71020,6,0,P|467:167|463:100,1,109.199996667481,10|2,0:0|0:0,0:0:0:0:
455,104,71329,1,0,0:0:0:0:
455,104,71391,2,0,L|386:104,1,54.5999983337403,2|2,3:2|0:0,0:0:0:0:
302,28,71637,2,0,L|375:24,1,54.5999983337403,10|2,0:0|0:0,0:0:0:0:
469,11,71884,2,0,P|482:47|481:80,1,54.5999983337403,2|10,0:0|0:0,0:0:0:0:
464,227,72131,6,0,B|367:194|396:274|272:236,1,187.19999428711,6|0,3:2|0:0,0:0:0:0:
196,172,72502,1,0,3:0:0:0:
196,172,72563,1,0,3:0:0:0:
196,172,72625,2,0,P|292:161|380:209,1,187.19999428711,8|0,0:0|0:0,0:0:0:0:
290,326,72996,1,2,3:2:0:0:
154,247,73119,2,0,B|120:400,2,140.399995715332,6|2|2,3:2|3:2|3:2,0:0:0:0:
26,183,73613,2,0,L|7:60,1,93.5999971435548,10|0,0:0|0:0,0:0:0:0:
120,26,73860,2,0,L|118:161,1,93.5999971435548,8|0,0:0|0:0,0:0:0:0:
188,237,74107,6,0,L|231:248,2,39,14|2|2,0:0|0:0|3:0,0:0:0:0:
358,205,74354,2,0,L|320:222,2,39,10|2|2,0:0|0:0|3:0,0:0:0:0:
210,123,74600,2,0,L|227:170,2,39,10|2|2,0:0|0:0|3:0,0:0:0:0:
318,53,74847,2,0,L|310:103,2,39,10|2|2,0:0|0:0|3:0,0:0:0:0:
431,132,75094,2,0,L|489:137,2,42.9000013092041,14|0|2,0:0|0:0|3:0,0:0:0:0:
341,219,75341,5,8,0:0:0:0:
338,236,75403,1,2,0:0:0:0:
332,254,75465,1,2,3:0:0:0:
334,271,75526,1,2,0:0:0:0:
335,291,75588,6,0,L|286:302,3,42.9000013092041,10|2|2|0,0:0|0:0|3:0|0:0,0:0:0:0:
204,339,75835,2,0,L|146:328,1,42.9000013092041,10|0,0:0|0:0,0:0:0:0:
91,258,75958,2,0,L|133:253,1,42.9000013092041,2|2,3:0|0:0,0:0:0:0:
225,200,76082,6,0,P|228:174|223:147,7,42.9000013092041,14|2|2|2|10|2|2|2,0:0|3:0|3:0|3:0|0:0|3:0|3:0|3:0,0:0:0:0:
143,139,76576,2,0,P|138:107|129:85,3,42.9000013092041,14|2|2|2,0:0|3:0|3:0|3:0,0:0:0:0:
52,71,76823,1,10,0:0:0:0:
47,88,76884,1,0,3:0:0:0:
42,105,76946,1,2,3:0:0:0:
37,119,77008,1,0,3:0:0:0:
32,132,77070,6,0,L|34:179,3,42.9000013092041,12|0|0|0,0:0|3:0|3:0|3:0,0:0:0:0:
106,225,77316,2,0,L|84:276,3,42.9000013092041,14|0|0|0,0:0|0:0|0:0|3:0,0:0:0:0:
40,353,77563,1,4,0:1:0:0:
40,353,77810,6,2,L|126:345,1,54.5999983337403,2|0,0:0|0:0,0:0:0:0:
112,340,77934,2,0,L|168:354,1,54.5999983337403,2|0,0:0|0:0,0:0:0:0:
187,362,78057,2,0,L|181:245,1,93.5999971435548,6|0,3:1|0:0,0:0:0:0:
316,273,78304,1,8,0:0:0:0:
305,131,78428,1,2,0:0:0:0:
305,131,78489,1,2,0:0:0:0:
305,131,78551,2,0,L|300:242,1,93.5999971435548,2|2,3:0|0:0,0:0:0:0:
364,370,78798,1,8,0:0:0:0:
467,275,78921,1,2,0:0:0:0:
346,87,79045,6,0,P|305:120|284:166,1,93.5999971435548,2|2,3:0|0:0,0:0:0:0:
432,335,79292,2,0,P|447:280|432:220,1,93.5999971435548,10|2,0:0|0:0,0:0:0:0:
418,224,79477,1,0,0:0:0:0:
418,224,79539,2,0,P|472:238|539:217,1,93.5999971435548,2|2,3:0|0:0,0:0:0:0:
436,73,79786,2,0,L|331:72,1,93.5999971435548,10|2,0:0|0:0,0:0:0:0:
73,47,80033,6,0,P|109:16|166:-8,1,93.5999971435548,2|0,3:0|0:0,0:0:0:0:
374,123,80279,2,0,L|366:240,1,93.5999971435548,8|0,0:0|0:0,0:0:0:0:
189,316,80526,1,2,3:0:0:0:
189,316,80650,2,0,L|176:215,1,93.5999971435548,2|10,0:0|0:0,0:0:0:0:
381,84,80897,6,0,P|435:106|467:150,1,93.5999971435548,2|0,0:0|3:0,0:0:0:0:
479,338,81144,2,0,P|432:361|365:352,1,93.5999971435548,2|8,0:0|0:0,0:0:0:0:
244,262,81391,1,2,0:0:0:0:
229,247,81452,1,0,0:0:0:0:
211,239,81514,2,0,P|159:224|112:233,1,93.5999971435548,2|2,3:0|0:0,0:0:0:0:
0,124,81761,2,0,P|23:69|59:42,1,93.5999971435548,10|2,0:0|0:0,0:0:0:0:
229,196,82008,6,0,B|273:204|273:204|298:181|298:181|328:178|328:178|349:208|349:208|390:217|390:217|434:204,1,202.799990716553,2|10,3:0|0:0,0:0:0:0:
512,93,82378,2,0,L|501:-32,1,93.5999971435548,2|0,0:0|3:0,0:0:0:0:
339,112,82625,1,2,0:0:0:0:
339,112,82687,1,2,0:0:0:0:
339,112,82749,2,0,L|332:209,1,93.5999971435548,10|0,0:0|0:0,0:0:0:0:
485,252,82996,5,2,3:0:0:0:
374,303,83119,1,2,0:0:0:0:
274,222,83242,1,10,0:0:0:0:
163,345,83366,2,0,B|123:357|123:357|55:346,1,93.5999971435548,2|0,0:0|3:0,0:0:0:0:
45,192,83613,2,0,L|-8:205,3,46.7999985717774,2|2|10|0,0:0|0:0|0:0|0:0,0:0:0:0:
147,129,83860,1,2,0:0:0:0:
235,290,83983,6,0,P|268:325|342:340,1,93.5999971435548,2|0,3:0|0:0,0:0:0:0:
440,206,84230,1,10,0:0:0:0:
440,206,84354,2,0,P|385:234|366:261,1,93.5999971435548,2|0,0:0|3:0,0:0:0:0:
298,357,84600,2,0,L|187:365,1,93.5999971435548,2|8,0:0|0:0,0:0:0:0:
48,250,84847,2,0,L|165:261,1,93.5999971435548,2|0,0:0|3:0,0:0:0:0:
280,184,85094,2,0,P|336:176|407:204,1,93.5999971435548,2|8,0:0|0:0,0:0:0:0:
459,331,85341,5,2,0:0:0:0:
348,307,85465,1,2,3:0:0:0:
325,209,85588,1,2,0:0:0:0:
419,151,85712,2,0,L|510:190,1,93.5999971435548,10|2,0:0|0:0,0:0:0:0:
389,284,85958,6,0,P|328:280|280:296,1,85.8000026184083,14|0,0:0|0:0,0:0:0:0:
247,333,86144,2,0,P|196:299|146:288,1,85.8000026184083,10|0,0:0|0:0,0:0:0:0:
119,226,86329,1,10,0:0:0:0:
119,226,86576,6,0,B|197:213|214:301|158:400,1,202.799990716553,14|2,0:0|3:0,0:0:0:0:
151,381,86884,1,0,3:0:0:0:
132,381,86946,6,0,P|125:326|138:286,1,93.5999971435548,14|0,0:0|0:0,0:0:0:0:
257,220,87131,2,0,P|257:167|236:122,1,93.5999971435548,10|0,0:0|0:0,0:0:0:0:
140,41,87316,1,10,0:0:0:0:
140,41,87563,6,0,B|168:77|209:63|209:63|250:10|262:83|351:43,1,202.799990716553,14|2,0:0|3:0,0:0:0:0:
342,46,87872,1,0,3:0:0:0:
353,31,87933,6,0,B|376:73|394:85|455:98,1,109.199996667481,10|0,0:0|0:0,0:0:0:0:
502,208,88098,2,0,B|475:204|446:216|400:271,1,109.199996667481,10|0,0:0|0:0,0:0:0:0:
297,338,88262,2,0,L|286:258,1,72.7999977783204,10|0,0:0|0:0,0:0:0:0:
147,213,88428,6,0,L|25:227,1,109.199996667481,10|0,0:0|0:0,0:0:0:0:
72,65,88592,2,0,L|172:9,1,109.199996667481,10|0,0:0|0:0,0:0:0:0:
324,26,88756,2,0,L|316:119,1,72.7999977783204,10|0,0:0|0:0,0:0:0:0:
352,228,88921,6,0,B|317:237|317:237|243:292,1,109.199996667481,10|0,0:0|0:0,0:0:0:0:
136,373,89086,2,0,B|142:329|142:329|117:238,1,109.199996667481,10|0,0:0|0:0,0:0:0:0:
139,103,89251,2,0,L|198:144,1,72.7999977783204,10|0,0:0|0:0,0:0:0:0:
342,274,89415,6,0,B|391:225|391:225|394:155|394:155|460:70,1,218.399993334961,10|10,0:0|0:0,0:0:0:0:
512,320,89909,2,0,P|423:332|378:317,1,109.199996667481,6|2,3:0|0:0,0:0:0:0:
266,215,90156,1,10,0:0:0:0:
311,338,90279,2,0,L|310:388,2,42.9000013092041,2|0|2,0:0|0:0|3:0,0:0:0:0:
186,317,90526,2,0,P|135:322|76:304,1,85.8000026184083,2|8,0:0|0:0,0:0:0:0:
42,219,90773,1,2,0:0:0:0:
166,117,90897,6,0,P|231:97|332:111,2,152.099993037415,14|8|10,0:0|0:0|0:0,0:0:0:0:
148,271,91391,1,8,0:0:0:0:
41,179,91514,2,0,L|30:236,2,50.6999976791383,2|0|10,3:0|3:0|0:0,0:0:0:0:
121,93,91761,2,0,L|174:59,2,50.6999976791383,2|0|14,3:0|3:0|0:0,0:0:0:0:
151,194,92008,5,0,3:0:0:0:
264,212,92131,2,0,L|374:205,1,101.399995358277,8|2,0:0|3:0,0:0:0:0:
510,215,92378,1,14,0:0:0:0:
413,128,92502,1,0,3:0:0:0:
448,304,92625,2,0,L|344:292,1,101.399995358277,8|2,0:0|3:0,0:0:0:0:
199,362,92872,6,0,P|171:296|167:258,1,101.399995358277,14|2,0:0|3:0,0:0:0:0:
371,268,93119,2,0,P|399:202|403:164,1,101.399995358277,14|2,0:0|3:0,0:0:0:0:
265,53,93366,2,0,P|264:122|273:172,1,101.399995358277,14|0,0:0|0:0,0:0:0:0:
174,210,93613,1,2,0:0:0:0:
189,194,93675,1,2,0:0:0:0:
209,185,93736,1,2,0:0:0:0:
228,183,93798,1,2,0:0:0:0:
247,185,93860,6,0,L|300:206,3,42.9000013092041,4|0|0|0,3:2|3:0|3:0|3:0,0:0:0:0:
359,281,94107,2,0,L|407:274,3,42.9000013092041,0|0|0|0,3:0|3:0|3:0|3:0,0:0:0:0:
492,232,94354,2,0,L|480:176,3,42.9000013092041,2|2|0|2,3:0|3:0|3:0|3:0,0:0:0:0:
405,102,94600,2,0,L|417:46,3,42.9000013092041,2|2|0|2,3:0|3:0|3:0|3:0,0:0:0:0:
205,82,94847,5,2,3:0:0:0:
183,80,94908,1,2,3:0:0:0:
162,78,94970,1,2,3:0:0:0:
141,76,95032,1,2,3:0:0:0:
126,63,95094,1,2,3:0:0:0:
107,60,95156,1,2,3:0:0:0:
88,57,95218,1,2,3:0:0:0:
69,55,95279,1,2,3:0:0:0:
55,45,95341,6,0,P|47:16|51:-9,1,46.7999985717774,2|12,3:2|0:0,0:0:0:0:
120,153,95835,6,0,L|117:205,3,46.7999985717774,6|2|0|0,3:2|3:0|3:0|3:0,0:0:0:0:
39,309,96082,2,0,L|31:239,3,46.7999985717774,2|0|0|0,3:0|3:0|3:0|3:0,3:0:0:0:
172,288,96329,2,0,L|217:276,3,46.7999985717774,2|2|0|0,3:0|3:0|3:0|3:0,0:0:0:0:
309,345,96576,2,0,L|354:357,3,46.7999985717774,2|2|0|0,3:0|3:0|3:0|3:0,0:0:0:0:
284,181,96823,5,2,3:0:0:0:
282,159,96884,1,2,3:0:0:0:
280,138,96946,1,2,3:0:0:0:
278,117,97008,1,2,3:0:0:0:
265,105,97069,1,0,3:0:0:0:
262,81,97131,1,2,3:0:0:0:
261,60,97193,1,2,3:0:0:0:
258,38,97254,1,2,3:0:0:0:
247,18,97316,6,0,L|329:9,1,78,0|12,3:0|0:0,0:0:0:0:
477,213,97810,6,0,L|465:145,3,39,6|2|2|2,3:2|3:0|3:0|3:0,0:0:0:0:
402,97,98057,1,2,3:0:0:0:
410,75,98119,1,2,3:0:0:0:
423,58,98181,1,2,3:0:0:0:
441,43,98242,1,2,3:0:0:0:
461,35,98304,2,0,L|515:46,3,39,2|2|2|2,3:0|3:0|3:0|3:0,0:0:0:0:
340,19,98551,2,0,L|286:30,3,39,2|2|2|2,3:2|3:2|3:2|3:2,0:2:0:0:
257,105,98798,5,14,3:2:0:0:
272,124,98859,1,2,3:2:0:0:
282,144,98921,1,2,3:2:0:0:
287,171,98983,1,2,3:2:0:0:
279,194,99045,2,0,L|289:259,3,39,2|2|2|2,3:0|3:0|3:0|3:0,0:0:0:0:
374,311,99292,2,0,L|321:320,3,39,2|2|2|2,3:0|3:0|3:0|3:0,0:0:0:0:
236,359,99539,2,2,L|195:353,3,39,2|2|2|2,3:2|3:2|3:2|3:2,3:2:0:0:
62,353,99786,5,6,3:2:0:0:
56,332,99848,1,2,3:0:0:0:
53,311,99908,1,2,3:0:0:0:
54,290,99971,1,2,3:0:0:0:
58,270,100032,2,0,P|72:243|79:173,1,85.8000026184083,14|0,0:0|0:0,0:0:0:0:
25,13,100279,5,6,3:2:0:0:
39,30,100341,1,2,3:0:0:0:
55,43,100403,1,2,3:0:0:0:
74,53,100464,1,2,3:0:0:0:
96,59,100526,2,0,P|141:35|187:25,1,93.5999971435548,14|0,0:0|0:0,0:0:0:0:
265,166,100773,6,0,L|320:163,3,50.6999976791383,14|2|2|2,0:3|3:0|3:0|3:0,0:0:0:0:
425,12,101020,2,0,L|431:75,3,50.6999976791383,14|2|2|2,0:3|3:0|3:0|3:0,0:0:0:0:
512,246,101267,2,0,L|457:243,3,50.6999976791383,14|2|2|2,0:3|3:0|3:0|3:0,0:0:0:0:
316,295,101514,1,14,3:0:0:0:
307,328,101576,1,0,3:0:0:0:
317,355,101637,1,0,3:0:0:0:
316,384,101699,1,0,3:0:0:0:
240,77,102008,5,4,0:1:0:0:
256,192,102070,12,0,106699,0:0:0:0:
