osu file format v14

[General]
AudioFilename: audio.mp3
AudioLeadIn: 0
PreviewTime: 77765
Countdown: 0
SampleSet: Normal
StackLeniency: 0.7
Mode: 1
LetterboxInBreaks: 0
WidescreenStoryboard: 0

[Editor]
Bookmarks: 3012,18814,36592,44740,52395,67950,78074,93876
DistanceSpacing: 0.8
BeatDivisor: 4
GridSize: 8
TimelineZoom: 1.2

[Metadata]
Title:Bison Charge
TitleUnicode:Bison Charge
Artist:Umeboshi Chazuke
ArtistUnicode:梅干茶漬け
Creator:Midnaait
Version:Muzukashii
Source:
Tags:yassu- hikikochan hikiko-
BeatmapID:1570558
BeatmapSetID:739116

[Difficulty]
HPDrainRate:7
CircleSize:5
OverallDifficulty:4.7
ApproachRate:5
SliderMultiplier:1.4
SliderTickRate:1

[Events]
//Background and Video events
0,0,"BG.png",0,125
//Break Periods
//Storyboard Layer 0 (Background)
//Storyboard Layer 1 (Fail)
//Storyboard Layer 2 (Pass)
//Storyboard Layer 3 (Foreground)
//Storyboard Sound Samples

[TimingPoints]
1018,246.913580246914,4,1,0,35,1,0
2869,-100,4,1,0,100,0,8
2993,246.913580246914,4,1,0,100,1,0
36696,-100,4,1,0,50,0,0
40152,-100,4,1,0,100,0,0
41388,-100,4,1,0,50,0,0
44474,-100,4,1,0,100,0,0
52869,-100,4,1,0,55,0,0
72098,-100,4,1,0,100,0,0
78054,-100,4,1,0,100,0,1
102005,-100,4,1,0,100,0,0
102098,-100,4,1,0,35,0,0

[HitObjects]
256,192,1018,8,0,2746,0:0:0:0:
256,192,2993,5,4,0:0:0:0:
256,192,3487,1,8,0:0:0:0:
256,184,3734,1,0,0:0:0:0:
256,192,3981,1,0,0:0:0:0:
264,176,4104,1,0,0:0:0:0:
256,192,4227,1,0,0:0:0:0:
256,192,4474,1,8,0:0:0:0:
256,192,4721,1,8,0:0:0:0:
248,184,4845,1,8,0:0:0:0:
256,192,4968,1,0,0:0:0:0:
264,192,5215,1,0,0:0:0:0:
256,192,5462,1,8,0:0:0:0:
264,184,5709,1,0,0:0:0:0:
256,192,5956,1,0,0:0:0:0:
264,184,6203,1,0,0:0:0:0:
256,192,6326,1,0,0:0:0:0:
256,192,6450,1,8,0:0:0:0:
256,192,6944,1,0,0:0:0:0:
256,176,7067,1,0,0:0:0:0:
256,176,7190,1,0,0:0:0:0:
256,176,7437,1,8,0:0:0:0:
256,176,7684,1,8,0:0:0:0:
256,192,7931,1,0,0:0:0:0:
256,176,8178,1,0,0:0:0:0:
256,176,8302,1,0,0:0:0:0:
256,192,8425,1,8,0:0:0:0:
256,184,8672,1,8,0:0:0:0:
256,192,8919,1,0,0:0:0:0:
264,200,9042,1,0,0:0:0:0:
256,184,9166,1,0,0:0:0:0:
248,184,9413,1,8,0:0:0:0:
256,192,9907,1,0,0:0:0:0:
256,176,10153,1,0,0:0:0:0:
256,192,10277,1,0,0:0:0:0:
256,184,10400,1,8,0:0:0:0:
248,184,10647,1,8,0:0:0:0:
256,192,10894,1,4,0:0:0:0:
256,176,11388,1,0,0:0:0:0:
256,192,11635,1,8,0:0:0:0:
256,176,11758,1,8,0:0:0:0:
256,192,11882,1,0,0:0:0:0:
256,176,12129,1,0,0:0:0:0:
256,176,12252,1,0,0:0:0:0:
256,192,12376,1,8,0:0:0:0:
256,184,12623,1,8,0:0:0:0:
256,192,12869,1,0,0:0:0:0:
256,184,13116,1,8,0:0:0:0:
224,168,13240,1,0,0:0:0:0:
256,176,13487,1,0,0:0:0:0:
256,176,13610,1,8,0:0:0:0:
256,192,13857,1,0,0:0:0:0:
248,176,14104,1,0,0:0:0:0:
264,184,14227,1,0,0:0:0:0:
256,192,14351,1,8,0:0:0:0:
256,184,14598,1,0,0:0:0:0:
256,192,14845,1,8,0:0:0:0:
256,184,15339,1,0,0:0:0:0:
256,184,15586,1,8,0:0:0:0:
256,192,15832,1,0,0:0:0:0:
248,176,16079,1,0,0:0:0:0:
272,184,16203,1,0,0:0:0:0:
256,192,16326,1,8,0:0:0:0:
256,184,16573,1,8,0:0:0:0:
256,192,16820,1,0,0:0:0:0:
256,184,16944,1,0,0:0:0:0:
256,184,17067,1,0,0:0:0:0:
256,192,17314,1,8,0:0:0:0:
256,184,17437,1,8,0:0:0:0:
256,192,17561,1,8,0:0:0:0:
240,192,17684,1,8,0:0:0:0:
256,192,17808,1,0,0:0:0:0:
256,192,18795,5,12,0:0:0:0:
256,192,19166,1,0,0:0:0:0:
256,192,19289,1,12,0:0:0:0:
256,192,19660,1,0,0:0:0:0:
256,192,19783,1,12,0:0:0:0:
256,192,20030,1,0,0:0:0:0:
256,176,20277,1,12,0:0:0:0:
256,192,20771,1,4,0:0:0:0:
256,192,21265,1,8,0:0:0:0:
256,192,21388,1,0,0:0:0:0:
256,192,21511,1,8,0:0:0:0:
256,192,21758,1,0,0:0:0:0:
256,192,22005,1,8,0:0:0:0:
256,184,22252,1,0,0:0:0:0:
256,192,22376,1,8,0:0:0:0:
256,192,22499,1,0,0:0:0:0:
256,192,22746,1,8,0:0:0:0:
258,187,22993,1,0,0:0:0:0:
256,192,23240,1,8,0:0:0:0:
272,192,23363,1,0,0:0:0:0:
264,184,23487,1,8,0:0:0:0:
256,192,23734,1,8,0:0:0:0:
256,184,23981,1,0,0:0:0:0:
256,184,24227,1,8,0:0:0:0:
256,192,24721,1,0,0:0:0:0:
272,176,24968,1,0,0:0:0:0:
256,184,25215,1,8,0:0:0:0:
256,184,25339,1,0,0:0:0:0:
256,184,25462,1,8,0:0:0:0:
256,192,25709,1,0,0:0:0:0:
256,192,25956,1,8,0:0:0:0:
248,192,26203,1,0,0:0:0:0:
240,192,26326,1,8,0:0:0:0:
240,192,26450,1,0,0:0:0:0:
256,192,26697,1,8,0:0:0:0:
256,184,26944,1,0,0:0:0:0:
256,192,27190,1,8,0:0:0:0:
256,192,27314,1,8,0:0:0:0:
264,192,27437,1,0,0:0:0:0:
256,192,27684,1,8,0:0:0:0:
256,192,28672,1,4,0:0:0:0:
256,184,28919,1,8,0:0:0:0:
256,192,29166,1,0,0:0:0:0:
256,192,29289,1,0,0:0:0:0:
256,192,29413,1,8,0:0:0:0:
256,192,29660,1,0,0:0:0:0:
256,192,29907,1,8,0:0:0:0:
248,176,30153,1,0,0:0:0:0:
248,176,30277,1,8,0:0:0:0:
256,192,30400,1,0,0:0:0:0:
256,192,30647,1,8,0:0:0:0:
264,184,30894,1,0,0:0:0:0:
256,192,31141,1,0,0:0:0:0:
256,192,31264,1,8,0:0:0:0:
256,192,31388,1,0,0:0:0:0:
256,192,31635,1,8,0:0:0:0:
256,184,31882,1,0,0:0:0:0:
256,192,32129,1,12,0:0:0:0:
256,192,32623,1,4,0:0:0:0:
256,184,32869,1,8,0:0:0:0:
256,184,32993,1,0,0:0:0:0:
256,184,33240,1,0,0:0:0:0:
256,192,33363,1,8,0:0:0:0:
256,192,33610,1,0,0:0:0:0:
256,184,33857,1,0,0:0:0:0:
256,184,33981,1,0,0:0:0:0:
256,192,34104,1,8,0:0:0:0:
256,176,34351,1,8,0:0:0:0:
256,192,34598,1,0,0:0:0:0:
256,192,34845,1,8,0:0:0:0:
256,176,34968,1,8,0:0:0:0:
272,160,35092,1,8,0:0:0:0:
264,176,35215,1,8,0:0:0:0:
256,192,35586,1,0,0:0:0:0:
256,176,35709,1,8,0:0:0:0:
248,176,35832,1,0,0:0:0:0:
248,168,36079,1,8,0:0:0:0:
256,176,36203,1,8,0:0:0:0:
248,176,36326,1,0,0:0:0:0:
256,192,36573,5,12,0:0:0:0:
256,192,36820,12,0,40030,0:0:0:0:
256,192,40276,5,0,0:0:0:0:
256,192,40524,5,8,0:0:0:0:
256,192,40894,1,8,0:0:0:0:
256,192,41265,1,0,0:0:0:0:
256,192,41511,12,0,44227,0:0:0:0:
256,192,44721,5,8,0:0:0:0:
256,192,45215,1,0,0:0:0:0:
264,192,45339,1,0,0:0:0:0:
256,192,45462,1,8,0:0:0:0:
272,192,45709,1,0,0:0:0:0:
256,192,45956,1,8,0:0:0:0:
264,200,46203,1,8,0:0:0:0:
256,192,46450,1,0,0:0:0:0:
272,192,46697,1,8,0:0:0:0:
256,192,46820,1,0,0:0:0:0:
248,192,47067,1,0,0:0:0:0:
256,192,47190,1,8,0:0:0:0:
256,192,47437,1,0,0:0:0:0:
256,192,47684,1,0,0:0:0:0:
256,192,47808,1,8,0:0:0:0:
256,192,48055,1,8,0:0:0:0:
256,192,48178,1,0,0:0:0:0:
256,192,48425,1,8,0:0:0:0:
256,192,49042,1,8,0:0:0:0:
256,192,49289,1,0,0:0:0:0:
256,192,49536,1,8,0:0:0:0:
264,208,49660,1,0,0:0:0:0:
256,192,49783,1,8,0:0:0:0:
248,192,50030,1,8,0:0:0:0:
256,192,50153,1,8,0:0:0:0:
256,192,50400,1,0,0:0:0:0:
264,184,50647,1,8,0:0:0:0:
256,184,50771,1,0,0:0:0:0:
256,192,50894,1,8,0:0:0:0:
256,192,51141,1,8,0:0:0:0:
256,192,51388,1,0,0:0:0:0:
256,192,51635,1,8,0:0:0:0:
256,192,51758,1,8,0:0:0:0:
256,192,51882,1,8,0:0:0:0:
248,176,52005,1,8,0:0:0:0:
256,192,52129,1,0,0:0:0:0:
256,192,52376,1,12,0:0:0:0:
256,192,53363,5,8,0:0:0:0:
256,192,53857,1,8,0:0:0:0:
256,192,54351,1,8,0:0:0:0:
248,192,55339,1,8,0:0:0:0:
248,192,55832,1,8,0:0:0:0:
256,192,56326,1,8,0:0:0:0:
256,192,57067,1,8,0:0:0:0:
256,192,57314,1,8,0:0:0:0:
256,192,57684,1,8,0:0:0:0:
256,192,58302,1,8,0:0:0:0:
256,184,59289,1,8,0:0:0:0:
256,192,59783,1,8,0:0:0:0:
256,192,60277,1,8,0:0:0:0:
248,192,61265,1,8,0:0:0:0:
248,184,61758,1,8,0:0:0:0:
256,192,62252,1,8,0:0:0:0:
248,192,63240,1,8,0:0:0:0:
248,192,63734,1,8,0:0:0:0:
256,192,64227,1,8,0:0:0:0:
240,184,64968,1,8,0:0:0:0:
256,192,65215,1,8,0:0:0:0:
240,184,65586,1,8,0:0:0:0:
256,192,66203,1,8,0:0:0:0:
256,192,67190,1,8,0:0:0:0:
256,192,68178,5,0,0:0:0:0:
248,192,68672,1,0,0:0:0:0:
256,192,69042,1,0,0:0:0:0:
248,192,69413,1,0,0:0:0:0:
248,192,69660,1,0,0:0:0:0:
256,192,70153,1,0,0:0:0:0:
248,192,70647,1,0,0:0:0:0:
256,192,71018,1,0,0:0:0:0:
248,192,71388,1,0,0:0:0:0:
248,192,71635,1,0,0:0:0:0:
256,192,72129,1,12,0:0:0:0:
256,192,72623,1,12,0:0:0:0:
256,192,73116,1,12,0:0:0:0:
256,184,73486,1,8,0:0:0:0:
248,184,73610,1,4,0:0:0:0:
240,192,73857,1,12,0:0:0:0:
256,192,74104,1,8,0:0:0:0:
240,192,74227,1,0,0:0:0:0:
256,192,74351,1,8,0:0:0:0:
256,192,74598,1,8,0:0:0:0:
256,192,74721,1,0,0:0:0:0:
256,192,74845,1,8,0:0:0:0:
256,192,75092,1,8,0:0:0:0:
256,184,75339,1,0,0:0:0:0:
256,192,75586,1,8,0:0:0:0:
256,192,76079,1,0,0:0:0:0:
248,176,76203,1,8,0:0:0:0:
256,192,76326,1,0,0:0:0:0:
256,184,76573,1,0,0:0:0:0:
256,176,76697,1,8,0:0:0:0:
256,184,76820,1,0,0:0:0:0:
256,184,77067,1,0,0:0:0:0:
224,176,77314,1,8,0:0:0:0:
256,168,77561,1,4,0:0:0:0:
256,192,78055,5,4,0:0:0:0:
248,168,78548,1,8,0:0:0:0:
256,176,78672,1,8,0:0:0:0:
256,176,78919,1,0,0:0:0:0:
256,192,79042,1,0,0:0:0:0:
248,168,79289,1,8,0:0:0:0:
256,192,79536,1,0,0:0:0:0:
256,176,79659,1,0,0:0:0:0:
248,176,79783,1,0,0:0:0:0:
256,192,80030,1,8,0:0:0:0:
256,176,80277,1,0,0:0:0:0:
256,192,80524,1,0,0:0:0:0:
256,176,80647,1,8,0:0:0:0:
256,192,80894,1,8,0:0:0:0:
256,192,81018,1,0,0:0:0:0:
256,176,81265,1,0,0:0:0:0:
256,176,81388,1,0,0:0:0:0:
240,168,81511,1,8,0:0:0:0:
256,192,82005,1,8,0:0:0:0:
256,176,82252,1,8,0:0:0:0:
256,176,82376,1,8,0:0:0:0:
256,176,82623,1,0,0:0:0:0:
256,176,82746,1,0,0:0:0:0:
256,192,82993,1,8,0:0:0:0:
256,176,83116,1,8,0:0:0:0:
248,176,83240,1,0,0:0:0:0:
248,176,83363,1,0,0:0:0:0:
248,176,83610,1,8,0:0:0:0:
256,192,83981,1,0,0:0:0:0:
256,184,84227,1,8,0:0:0:0:
248,184,84351,1,8,0:0:0:0:
256,192,84598,1,0,0:0:0:0:
256,192,84721,1,0,0:0:0:0:
256,192,84845,1,8,0:0:0:0:
232,184,85092,1,0,0:0:0:0:
232,176,85339,1,0,0:0:0:0:
240,192,85462,1,8,0:0:0:0:
232,176,85586,1,8,0:0:0:0:
256,184,85709,1,0,0:0:0:0:
256,192,85956,1,0,0:0:0:0:
216,184,86326,1,8,0:0:0:0:
256,192,86573,1,4,0:0:0:0:
256,192,86944,1,8,0:0:0:0:
256,184,87314,1,0,0:0:0:0:
256,192,87561,1,12,0:0:0:0:
256,192,87931,1,4,0:0:0:0:
256,192,88425,1,4,0:0:0:0:
256,192,88919,1,12,0:0:0:0:
240,192,89413,1,12,0:0:0:0:
272,192,89660,1,4,0:0:0:0:
256,192,89907,1,12,0:0:0:0:
248,192,90277,1,0,0:0:0:0:
272,192,90400,1,0,0:0:0:0:
256,192,90524,1,0,0:0:0:0:
248,176,90771,1,8,0:0:0:0:
256,192,91018,1,8,0:0:0:0:
264,192,91141,1,8,0:0:0:0:
256,192,91265,1,8,0:0:0:0:
248,192,91511,1,0,0:0:0:0:
256,176,91634,1,0,0:0:0:0:
256,192,91758,1,0,0:0:0:0:
256,192,91882,1,8,0:0:0:0:
216,168,92129,1,0,0:0:0:0:
208,176,92252,1,0,0:0:0:0:
256,192,92376,1,8,0:0:0:0:
256,176,92746,1,0,0:0:0:0:
256,192,92869,1,8,0:0:0:0:
240,176,92993,1,8,0:0:0:0:
240,176,93116,1,0,0:0:0:0:
256,192,93363,1,8,0:0:0:0:
256,192,93857,5,0,0:0:0:0:
256,192,93981,1,0,0:0:0:0:
256,192,94104,1,0,0:0:0:0:
256,192,94351,1,8,0:0:0:0:
256,184,94474,1,8,0:0:0:0:
256,192,94598,1,8,0:0:0:0:
256,192,94845,1,0,0:0:0:0:
264,192,94968,1,0,0:0:0:0:
256,192,95092,1,8,0:0:0:0:
256,184,95215,1,8,0:0:0:0:
256,192,95339,1,0,0:0:0:0:
256,192,95832,1,8,0:0:0:0:
256,184,95956,1,0,0:0:0:0:
256,192,96079,1,8,0:0:0:0:
256,192,96326,1,0,0:0:0:0:
256,184,96450,1,8,0:0:0:0:
256,192,96573,1,0,0:0:0:0:
256,192,96820,1,8,0:0:0:0:
264,192,96944,1,8,0:0:0:0:
256,192,97067,1,0,0:0:0:0:
256,184,97190,1,0,0:0:0:0:
256,192,97314,1,8,0:0:0:0:
256,192,97808,1,8,0:0:0:0:
264,192,97931,1,0,0:0:0:0:
256,192,98055,1,8,0:0:0:0:
256,184,98178,1,8,0:0:0:0:
256,192,98302,1,0,0:0:0:0:
256,184,98425,1,0,0:0:0:0:
240,176,98548,1,8,0:0:0:0:
264,192,98795,1,0,0:0:0:0:
264,192,98919,1,8,0:0:0:0:
256,192,99042,1,0,0:0:0:0:
256,184,99165,1,0,0:0:0:0:
256,192,99289,1,8,0:0:0:0:
256,184,99412,1,8,0:0:0:0:
240,176,99536,1,0,0:0:0:0:
256,192,99783,1,0,0:0:0:0:
240,176,99907,1,0,0:0:0:0:
264,192,100030,1,8,0:0:0:0:
256,192,100277,1,0,0:0:0:0:
272,168,100400,1,0,0:0:0:0:
264,192,100524,1,8,0:0:0:0:
256,192,100771,1,8,0:0:0:0:
256,192,100894,1,0,0:0:0:0:
256,192,101018,1,8,0:0:0:0:
256,192,101141,1,0,0:0:0:0:
256,192,101265,1,8,0:0:0:0:
256,192,101511,1,8,0:0:0:0:
256,192,101635,1,0,0:0:0:0:
256,192,102005,1,12,0:0:0:0:
256,192,102252,8,0,106697,0:0:0:0:
