osu file format v14

[General]
AudioFilename: audio.mp3
AudioLeadIn: 0
PreviewTime: 77765
Countdown: 0
SampleSet: Normal
StackLeniency: 0.7
Mode: 1
LetterboxInBreaks: 0
WidescreenStoryboard: 0

[Editor]
Bookmarks: 3012,18814,36592,44740,52395,67950,78074,93876
DistanceSpacing: 0.8
BeatDivisor: 4
GridSize: 8
TimelineZoom: 2.640002

[Metadata]
Title:Bison Charge
TitleUnicode:Bison Charge
Artist:Umeboshi Chazuke
ArtistUnicode:梅干茶漬け
Creator:Midnaait
Version:Bit Crusher
Source:
Tags:yassu- hikikochan hikiko-
BeatmapID:1559744
BeatmapSetID:739116

[Difficulty]
HPDrainRate:5.5
CircleSize:5
OverallDifficulty:7.7
ApproachRate:5
SliderMultiplier:1.4
SliderTickRate:1

[Events]
//Background and Video events
0,0,"BG.png",0,125
//Break Periods
//Storyboard Layer 0 (Background)
//Storyboard Layer 1 (Fail)
//Storyboard Layer 2 (Pass)
//Storyboard Layer 3 (Foreground)
//Storyboard Sound Samples

[TimingPoints]
1018,246.913580246914,4,1,0,35,1,0
2869,-100,4,1,0,100,0,8
2993,246.913580246914,4,1,0,100,1,0
52869,-125,4,1,0,55,0,0
67931,-111.111111111111,4,1,0,55,0,0
71594,-108.695652173913,4,1,0,60,0,0
71727,-106.382978723404,4,1,0,65,0,0
71851,-104.166666666667,4,1,0,70,0,0
71974,-102.040816326531,4,1,0,75,0,0
72098,-100,4,1,0,100,0,0
78054,-100,4,1,0,100,0,1
102005,-100,4,1,0,100,0,0
102098,-100,4,1,0,35,0,0

[HitObjects]
256,192,1018,12,0,2746,0:0:0:0:
256,192,2993,5,4,0:0:0:0:
256,192,3240,1,0,0:0:0:0:
256,192,3363,1,8,0:0:0:0:
256,192,3487,1,0,0:0:0:0:
256,192,3734,1,8,0:0:0:0:
256,192,3981,1,0,0:0:0:0:
256,192,4104,1,8,0:0:0:0:
256,192,4227,1,0,0:0:0:0:
256,192,4351,1,0,0:0:0:0:
256,192,4474,1,8,0:0:0:0:
256,192,4721,1,8,0:0:0:0:
256,192,4845,1,8,0:0:0:0:
256,192,4968,1,0,0:0:0:0:
256,192,5215,1,0,0:0:0:0:
256,192,5339,1,8,0:0:0:0:
256,192,5462,1,0,0:0:0:0:
256,192,5709,1,8,0:0:0:0:
256,192,5956,1,0,0:0:0:0:
256,192,6141,1,0,0:0:0:0:
256,192,6203,1,8,0:0:0:0:
256,192,6326,1,0,0:0:0:0:
256,192,6450,1,8,0:0:0:0:
256,192,6697,1,0,0:0:0:0:
256,192,6944,1,0,0:0:0:0:
256,192,7067,1,0,0:0:0:0:
256,192,7190,1,0,0:0:0:0:
256,192,7437,1,8,0:0:0:0:
256,192,7684,1,0,0:0:0:0:
256,192,7808,1,8,0:0:0:0:
256,192,7931,1,0,0:0:0:0:
256,192,8055,1,8,0:0:0:0:
256,192,8178,1,8,0:0:0:0:
256,192,8302,1,0,0:0:0:0:
256,192,8425,1,8,0:0:0:0:
256,192,8672,1,8,0:0:0:0:
256,192,8795,1,8,0:0:0:0:
256,192,8919,1,0,0:0:0:0:
256,192,8981,1,0,0:0:0:0:
256,192,9042,1,0,0:0:0:0:
256,192,9104,1,0,0:0:0:0:
256,192,9166,1,0,0:0:0:0:
256,192,9413,1,8,0:0:0:0:
256,192,9660,1,8,0:0:0:0:
256,192,9783,1,8,0:0:0:0:
256,192,9907,1,0,0:0:0:0:
256,192,10030,1,0,0:0:0:0:
256,192,10153,1,8,0:0:0:0:
256,192,10277,1,0,0:0:0:0:
256,192,10400,1,8,0:0:0:0:
248,200,10462,1,0,0:0:0:0:
256,192,10524,1,0,0:0:0:0:
256,192,10586,1,0,0:0:0:0:
256,192,10647,1,8,0:0:0:0:
256,192,10771,1,0,0:0:0:0:
256,192,10894,1,4,0:0:0:0:
256,192,11141,1,8,0:0:0:0:
256,192,11265,1,0,0:0:0:0:
256,192,11388,1,0,0:0:0:0:
256,192,11511,1,0,0:0:0:0:
256,192,11635,1,8,0:0:0:0:
256,192,11882,1,0,0:0:0:0:
256,192,12005,1,0,0:0:0:0:
256,192,12067,1,0,0:0:0:0:
256,192,12129,1,8,0:0:0:0:
256,192,12252,1,0,0:0:0:0:
256,192,12376,1,8,0:0:0:0:
256,192,12437,1,8,0:0:0:0:
256,192,12499,1,0,0:0:0:0:
256,192,12623,1,8,0:0:0:0:
256,192,12746,1,8,0:0:0:0:
256,192,12869,1,0,0:0:0:0:
256,192,13116,1,8,0:0:0:0:
256,192,13240,1,0,0:0:0:0:
224,192,13302,1,0,0:0:0:0:
256,192,13363,1,0,0:0:0:0:
256,192,13487,1,0,0:0:0:0:
224,160,13610,1,8,0:0:0:0:
256,192,13672,1,8,0:0:0:0:
256,192,13734,1,0,0:0:0:0:
256,192,13857,1,0,0:0:0:0:
256,192,13919,1,8,0:0:0:0:
256,192,13981,1,0,0:0:0:0:
256,192,14042,1,0,0:0:0:0:
256,192,14104,1,8,0:0:0:0:
256,192,14227,1,0,0:0:0:0:
256,192,14351,1,8,0:0:0:0:
256,192,14413,1,0,0:0:0:0:
256,192,14474,1,8,0:0:0:0:
256,192,14536,1,8,0:0:0:0:
256,192,14598,1,0,0:0:0:0:
256,192,14721,1,8,0:0:0:0:
256,192,14845,1,0,0:0:0:0:
256,192,14907,1,8,0:0:0:0:
256,192,14968,1,0,0:0:0:0:
256,192,15030,1,0,0:0:0:0:
256,192,15092,1,8,0:0:0:0:
256,192,15153,1,0,0:0:0:0:
256,192,15215,1,8,0:0:0:0:
256,192,15277,1,8,0:0:0:0:
256,192,15339,1,0,0:0:0:0:
256,192,15400,1,8,0:0:0:0:
256,192,15462,1,0,0:0:0:0:
256,192,15524,1,0,0:0:0:0:
256,192,15586,1,8,0:0:0:0:
256,192,15647,1,0,0:0:0:0:
256,192,15709,1,8,0:0:0:0:
256,192,15771,1,8,0:0:0:0:
256,192,15832,1,0,0:0:0:0:
256,192,15894,1,0,0:0:0:0:
256,192,15956,1,8,0:0:0:0:
256,192,16018,1,0,0:0:0:0:
256,192,16079,1,8,0:0:0:0:
256,192,16141,1,8,0:0:0:0:
256,192,16203,1,0,0:0:0:0:
256,192,16265,1,8,0:0:0:0:
256,192,16326,1,0,0:0:0:0:
256,192,16388,1,8,0:0:0:0:
256,192,16450,1,0,0:0:0:0:
256,192,16511,1,0,0:0:0:0:
256,192,16573,1,8,0:0:0:0:
256,192,16635,1,8,0:0:0:0:
256,192,16697,1,8,0:0:0:0:
256,192,16758,1,0,0:0:0:0:
256,192,16820,1,8,0:0:0:0:
256,192,16882,1,0,0:0:0:0:
256,192,16944,1,0,0:0:0:0:
256,192,17005,1,0,0:0:0:0:
256,192,17067,1,8,0:0:0:0:
256,192,17129,1,0,0:0:0:0:
256,192,17190,1,8,0:0:0:0:
256,192,17252,1,0,0:0:0:0:
256,192,17314,1,8,0:0:0:0:
256,192,17376,1,8,0:0:0:0:
256,192,17437,1,0,0:0:0:0:
256,184,17499,1,0,0:0:0:0:
256,192,17561,1,8,0:0:0:0:
256,192,17623,1,0,0:0:0:0:
256,192,17684,1,8,0:0:0:0:
248,184,17746,1,8,0:0:0:0:
256,192,17808,1,0,0:0:0:0:
256,192,18795,1,12,0:0:0:0:
256,192,18981,1,0,0:0:0:0:
256,192,19166,1,0,0:0:0:0:
256,192,19289,1,12,0:0:0:0:
256,192,19474,1,0,0:0:0:0:
256,192,19660,1,0,0:0:0:0:
256,192,19783,1,12,0:0:0:0:
256,192,19968,1,0,0:0:0:0:
256,192,20153,1,0,0:0:0:0:
256,192,20277,1,12,0:0:0:0:
256,192,20524,1,8,0:0:0:0:
256,192,20586,1,8,0:0:0:0:
256,192,20647,1,0,0:0:0:0:
256,192,20709,1,0,0:0:0:0:
256,192,20771,1,8,0:0:0:0:
256,192,20894,1,0,0:0:0:0:
256,192,21018,1,0,0:0:0:0:
256,192,21141,1,8,0:0:0:0:
256,192,21203,1,8,0:0:0:0:
256,192,21265,1,8,0:0:0:0:
256,192,21326,1,8,0:0:0:0:
256,192,21388,1,0,0:0:0:0:
256,192,21450,1,0,0:0:0:0:
256,192,21511,1,8,0:0:0:0:
256,192,21635,1,0,0:0:0:0:
256,192,21758,1,8,0:0:0:0:
256,192,21882,1,0,0:0:0:0:
256,192,22005,1,8,0:0:0:0:
256,192,22129,1,8,0:0:0:0:
256,192,22252,1,0,0:0:0:0:
256,192,22314,1,8,0:0:0:0:
256,192,22376,1,0,0:0:0:0:
256,192,22499,1,8,0:0:0:0:
256,192,22623,1,0,0:0:0:0:
256,192,22746,1,8,0:0:0:0:
256,192,22869,1,0,0:0:0:0:
256,192,22993,1,0,0:0:0:0:
256,192,23116,1,8,0:0:0:0:
256,192,23178,1,8,0:0:0:0:
256,192,23240,1,8,0:0:0:0:
256,192,23302,1,8,0:0:0:0:
256,192,23363,1,0,0:0:0:0:
256,192,23425,1,0,0:0:0:0:
256,192,23487,1,8,0:0:0:0:
256,192,23610,1,0,0:0:0:0:
256,192,23734,1,8,0:0:0:0:
256,192,23857,1,0,0:0:0:0:
256,192,23919,1,0,0:0:0:0:
256,192,23981,1,8,0:0:0:0:
256,192,24104,1,0,0:0:0:0:
256,192,24227,1,8,0:0:0:0:
256,192,24289,1,8,0:0:0:0:
256,192,24351,1,0,0:0:0:0:
256,192,24474,1,8,0:0:0:0:
128,64,24598,1,0,0:0:0:0:
256,192,24721,1,8,0:0:0:0:
256,192,24845,1,0,0:0:0:0:
256,192,24968,1,0,0:0:0:0:
256,192,25092,1,8,0:0:0:0:
256,192,25153,1,8,0:0:0:0:
256,192,25215,1,8,0:0:0:0:
256,192,25277,1,0,0:0:0:0:
256,192,25339,1,8,0:0:0:0:
256,192,25400,1,8,0:0:0:0:
256,192,25462,1,0,0:0:0:0:
256,192,25586,1,0,0:0:0:0:
256,192,25709,1,8,0:0:0:0:
256,192,25832,1,0,0:0:0:0:
256,192,25956,1,8,0:0:0:0:
256,192,26079,1,8,0:0:0:0:
256,192,26203,1,0,0:0:0:0:
256,192,26265,1,8,0:0:0:0:
256,192,26326,1,0,0:0:0:0:
256,192,26450,1,8,0:0:0:0:
256,192,26573,1,0,0:0:0:0:
256,192,26697,1,8,0:0:0:0:
256,192,26820,1,0,0:0:0:0:
256,192,26944,1,0,0:0:0:0:
256,192,27067,1,8,0:0:0:0:
256,192,27129,1,8,0:0:0:0:
256,192,27190,1,8,0:0:0:0:
256,192,27252,1,0,0:0:0:0:
256,192,27314,1,8,0:0:0:0:
256,192,27376,1,8,0:0:0:0:
256,192,27437,1,0,0:0:0:0:
256,192,27561,1,0,0:0:0:0:
256,192,27684,1,8,0:0:0:0:
256,192,27767,1,8,0:0:0:0:
256,192,27849,1,8,0:0:0:0:
256,192,27931,1,0,0:0:0:0:
256,192,28013,1,0,0:0:0:0:
256,192,28096,1,0,0:0:0:0:
256,192,28178,1,8,0:0:0:0:
256,192,28260,1,8,0:0:0:0:
256,192,28343,1,0,0:0:0:0:
256,192,28425,1,8,0:0:0:0:
256,192,28507,1,0,0:0:0:0:
256,192,28590,1,0,0:0:0:0:
256,192,28672,1,8,0:0:0:0:
256,192,28795,1,0,0:0:0:0:
256,192,28919,1,0,0:0:0:0:
256,192,29042,1,8,0:0:0:0:
256,192,29104,1,0,0:0:0:0:
256,192,29166,1,8,0:0:0:0:
256,192,29227,1,8,0:0:0:0:
256,192,29289,1,0,0:0:0:0:
256,192,29351,1,0,0:0:0:0:
256,192,29413,1,8,0:0:0:0:
256,192,29536,1,0,0:0:0:0:
256,192,29598,1,0,0:0:0:0:
256,192,29660,1,8,0:0:0:0:
256,192,29783,1,0,0:0:0:0:
256,192,29907,1,8,0:0:0:0:
64,128,29968,1,0,0:0:0:0:
256,192,30030,1,8,0:0:0:0:
256,192,30153,1,0,0:0:0:0:
256,192,30215,1,8,0:0:0:0:
256,192,30277,1,0,0:0:0:0:
224,192,30339,1,0,0:0:0:0:
256,192,30400,1,8,0:0:0:0:
256,192,30524,1,0,0:0:0:0:
256,192,30647,1,8,0:0:0:0:
256,192,30771,1,0,0:0:0:0:
256,192,30832,1,8,0:0:0:0:
256,192,30894,1,0,0:0:0:0:
256,192,31018,1,8,0:0:0:0:
256,192,31079,1,0,0:0:0:0:
256,192,31141,1,8,0:0:0:0:
256,192,31203,1,8,0:0:0:0:
256,192,31265,1,0,0:0:0:0:
256,192,31326,1,0,0:0:0:0:
256,192,31388,1,8,0:0:0:0:
256,192,31511,1,0,0:0:0:0:
256,192,31635,1,8,0:0:0:0:
256,192,31697,1,8,0:0:0:0:
256,192,31758,1,0,0:0:0:0:
256,192,31820,1,0,0:0:0:0:
256,192,31882,1,8,0:0:0:0:
256,192,32005,1,8,0:0:0:0:
256,192,32129,1,4,0:0:0:0:
256,192,32314,1,12,0:0:0:0:
256,192,32499,1,4,0:0:0:0:
256,192,32623,1,12,0:0:0:0:
256,160,32746,1,0,0:0:0:0:
256,192,32869,1,8,0:0:0:0:
272,168,32931,1,8,0:0:0:0:
272,176,32993,1,0,0:0:0:0:
256,192,33055,1,8,0:0:0:0:
256,192,33116,1,0,0:0:0:0:
256,192,33240,1,0,0:0:0:0:
248,184,33302,1,0,0:0:0:0:
256,192,33363,1,8,0:0:0:0:
256,192,33487,1,0,0:0:0:0:
256,192,33548,1,8,0:0:0:0:
256,192,33610,1,8,0:0:0:0:
256,192,33734,1,0,0:0:0:0:
256,192,33857,1,8,0:0:0:0:
256,192,33981,1,0,0:0:0:0:
256,192,34042,1,0,0:0:0:0:
256,192,34104,1,8,0:0:0:0:
256,192,34227,1,0,0:0:0:0:
256,192,34351,1,8,0:0:0:0:
256,192,34413,1,0,0:0:0:0:
256,192,34474,1,8,0:0:0:0:
256,192,34536,1,8,0:0:0:0:
256,192,34598,1,0,0:0:0:0:
256,192,34845,1,8,0:0:0:0:
256,192,34907,1,8,0:0:0:0:
256,192,34968,1,8,0:0:0:0:
256,192,35030,1,8,0:0:0:0:
256,192,35092,1,8,0:0:0:0:
256,192,35215,1,0,0:0:0:0:
256,192,35462,1,0,0:0:0:0:
256,192,35524,1,0,0:0:0:0:
256,192,35586,1,8,0:0:0:0:
256,192,35647,1,0,0:0:0:0:
256,192,35709,1,8,0:0:0:0:
256,192,35771,1,8,0:0:0:0:
256,192,35832,1,0,0:0:0:0:
256,192,35894,1,0,0:0:0:0:
256,192,35956,1,8,0:0:0:0:
256,192,36018,1,0,0:0:0:0:
256,192,36079,1,8,0:0:0:0:
256,192,36203,1,8,0:0:0:0:
256,192,36326,1,0,0:0:0:0:
256,192,36388,1,8,0:0:0:0:
256,192,36450,1,0,0:0:0:0:
256,192,36573,1,8,0:0:0:0:
256,192,36820,1,0,0:0:0:0:
256,192,36882,1,0,0:0:0:0:
256,192,36944,1,0,0:0:0:0:
256,192,37005,1,0,0:0:0:0:
256,192,37067,1,8,0:0:0:0:
256,192,37190,1,0,0:0:0:0:
256,192,37437,1,0,0:0:0:0:
256,192,37684,1,0,0:0:0:0:
256,192,37808,1,0,0:0:0:0:
256,192,37869,1,0,0:0:0:0:
256,192,37931,1,0,0:0:0:0:
256,192,37993,1,0,0:0:0:0:
256,192,38055,1,8,0:0:0:0:
256,192,38116,1,0,0:0:0:0:
256,192,38178,1,8,0:0:0:0:
256,192,38240,1,8,0:0:0:0:
256,192,38302,1,0,0:0:0:0:
256,192,38548,1,0,0:0:0:0:
256,192,38795,1,0,0:0:0:0:
256,192,38857,1,0,0:0:0:0:
256,192,38919,1,0,0:0:0:0:
256,192,38981,1,0,0:0:0:0:
256,192,39042,1,8,0:0:0:0:
256,192,39166,1,0,0:0:0:0:
256,192,39413,1,0,0:0:0:0:
256,192,39660,1,0,0:0:0:0:
256,192,39783,1,0,0:0:0:0:
256,192,39845,1,0,0:0:0:0:
256,192,39907,1,0,0:0:0:0:
256,192,39968,1,0,0:0:0:0:
256,192,40030,1,8,0:0:0:0:
256,192,40092,1,8,0:0:0:0:
256,192,40153,1,0,0:0:0:0:
256,192,40215,1,8,0:0:0:0:
256,192,40277,1,0,0:0:0:0:
240,176,40339,1,0,0:0:0:0:
240,176,40400,1,8,0:0:0:0:
256,192,40524,1,8,0:0:0:0:
256,192,40606,1,8,0:0:0:0:
256,192,40688,1,0,0:0:0:0:
256,192,40771,1,8,0:0:0:0:
256,192,40853,1,0,0:0:0:0:
256,192,40935,1,0,0:0:0:0:
256,192,41018,1,8,0:0:0:0:
256,192,41141,1,0,0:0:0:0:
256,192,41388,1,0,0:0:0:0:
256,192,41635,1,0,0:0:0:0:
256,192,41758,1,8,0:0:0:0:
256,192,41820,1,8,0:0:0:0:
256,192,41882,1,0,0:0:0:0:
256,192,41944,1,0,0:0:0:0:
256,192,42005,1,8,0:0:0:0:
256,192,42067,1,8,0:0:0:0:
256,192,42129,1,0,0:0:0:0:
256,192,42190,1,0,0:0:0:0:
256,192,42252,1,0,0:0:0:0:
256,192,42499,1,0,0:0:0:0:
256,192,42746,1,8,0:0:0:0:
256,192,42808,1,8,0:0:0:0:
256,192,42869,1,0,0:0:0:0:
256,192,42931,1,0,0:0:0:0:
256,192,42993,1,8,0:0:0:0:
256,192,43116,1,0,0:0:0:0:
256,192,43363,1,0,0:0:0:0:
256,192,43610,1,0,0:0:0:0:
256,192,43734,1,8,0:0:0:0:
256,192,43795,1,8,0:0:0:0:
256,192,43857,1,0,0:0:0:0:
256,192,43919,1,0,0:0:0:0:
256,192,43981,1,8,0:0:0:0:
256,192,44042,1,8,0:0:0:0:
256,192,44104,1,0,0:0:0:0:
256,192,44166,1,0,0:0:0:0:
256,192,44227,1,8,0:0:0:0:
256,192,44289,1,8,0:0:0:0:
256,192,44351,1,8,0:0:0:0:
256,192,44413,1,8,0:0:0:0:
160,152,44474,1,0,0:0:0:0:
152,160,44536,1,0,0:0:0:0:
152,160,44598,1,0,0:0:0:0:
152,160,44660,1,0,0:0:0:0:
256,192,44721,1,8,0:0:0:0:
192,192,44845,1,0,0:0:0:0:
160,192,44907,1,0,0:0:0:0:
256,192,44968,1,8,0:0:0:0:
240,176,45030,1,8,0:0:0:0:
256,192,45092,1,0,0:0:0:0:
256,192,45215,1,8,0:0:0:0:
256,192,45339,1,0,0:0:0:0:
256,192,45400,1,0,0:0:0:0:
256,192,45462,1,8,0:0:0:0:
256,192,45524,1,0,0:0:0:0:
256,192,45586,1,8,0:0:0:0:
256,192,45647,1,8,0:0:0:0:
256,192,45709,1,8,0:0:0:0:
256,192,45771,1,0,0:0:0:0:
256,192,45832,1,8,0:0:0:0:
256,192,45894,1,8,0:0:0:0:
256,192,45956,1,0,0:0:0:0:
256,192,46018,1,8,0:0:0:0:
256,192,46079,1,0,0:0:0:0:
256,192,46141,1,0,0:0:0:0:
256,192,46203,1,8,0:0:0:0:
256,192,46265,1,8,0:0:0:0:
256,192,46326,1,0,0:0:0:0:
256,192,46388,1,0,0:0:0:0:
256,192,46450,1,8,0:0:0:0:
256,192,46573,1,0,0:0:0:0:
256,192,46635,1,8,0:0:0:0:
256,192,46758,1,0,0:0:0:0:
256,192,46820,1,8,0:0:0:0:
256,192,46882,1,0,0:0:0:0:
256,192,46944,1,0,0:0:0:0:
256,192,47005,1,8,0:0:0:0:
256,192,47067,1,8,0:0:0:0:
256,192,47129,1,0,0:0:0:0:
256,192,47190,1,8,0:0:0:0:
256,192,47314,1,0,0:0:0:0:
256,192,47437,1,0,0:0:0:0:
256,192,47499,1,0,0:0:0:0:
256,192,47561,1,8,0:0:0:0:
256,192,47623,1,0,0:0:0:0:
256,192,47684,1,8,0:0:0:0:
256,192,47746,1,0,0:0:0:0:
256,192,47808,1,8,0:0:0:0:
256,192,47869,1,8,0:0:0:0:
256,192,47931,1,8,0:0:0:0:
256,192,47993,1,8,0:0:0:0:
256,192,48055,1,0,0:0:0:0:
256,192,48116,1,0,0:0:0:0:
256,192,48178,1,8,0:0:0:0:
256,192,48240,1,0,0:0:0:0:
256,192,48302,1,8,0:0:0:0:
256,192,48363,1,0,0:0:0:0:
256,192,48425,1,8,0:0:0:0:
256,192,48507,1,8,0:0:0:0:
256,192,48590,1,0,0:0:0:0:
256,192,48672,1,8,0:0:0:0:
256,192,48754,1,0,0:0:0:0:
256,192,48837,1,0,0:0:0:0:
256,192,48919,1,0,0:0:0:0:
256,192,49042,1,8,0:0:0:0:
240,192,49104,1,8,0:0:0:0:
256,192,49166,1,0,0:0:0:0:
256,192,49289,1,8,0:0:0:0:
256,192,49536,1,0,0:0:0:0:
256,192,49598,1,0,0:0:0:0:
256,192,49660,1,8,0:0:0:0:
256,192,49721,1,0,0:0:0:0:
256,192,49783,1,8,0:0:0:0:
256,192,49845,1,8,0:0:0:0:
256,192,49907,1,8,0:0:0:0:
256,192,49968,1,0,0:0:0:0:
256,192,50030,1,8,0:0:0:0:
256,192,50092,1,8,0:0:0:0:
256,192,50153,1,0,0:0:0:0:
256,192,50215,1,0,0:0:0:0:
256,192,50277,1,8,0:0:0:0:
256,192,50400,1,8,0:0:0:0:
256,192,50462,1,8,0:0:0:0:
256,192,50524,1,8,0:0:0:0:
256,192,50586,1,0,0:0:0:0:
256,192,50647,1,8,0:0:0:0:
256,192,50709,1,8,0:0:0:0:
256,192,50771,1,0,0:0:0:0:
256,192,50832,1,0,0:0:0:0:
256,192,50894,1,8,0:0:0:0:
256,192,50956,1,8,0:0:0:0:
256,192,51018,1,0,0:0:0:0:
256,192,51079,1,0,0:0:0:0:
256,192,51141,1,8,0:0:0:0:
256,192,51203,1,0,0:0:0:0:
256,192,51265,1,8,0:0:0:0:
256,192,51326,1,8,0:0:0:0:
256,192,51388,1,0,0:0:0:0:
256,192,51450,1,0,0:0:0:0:
256,192,51511,1,8,0:0:0:0:
256,192,51573,1,8,0:0:0:0:
256,192,51635,1,0,0:0:0:0:
256,192,51697,1,8,0:0:0:0:
256,192,51758,1,8,0:0:0:0:
256,192,51820,1,8,0:0:0:0:
256,192,51882,1,0,0:0:0:0:
256,192,51944,1,0,0:0:0:0:
256,192,52005,1,8,0:0:0:0:
256,192,52067,1,0,0:0:0:0:
256,192,52129,1,8,0:0:0:0:
256,192,52190,1,8,0:0:0:0:
256,192,52252,1,0,0:0:0:0:
256,192,52314,1,0,0:0:0:0:
256,192,52376,1,8,0:0:0:0:
256,192,53363,1,8,0:0:0:0:
256,192,53857,1,0,0:0:0:0:
256,192,54351,1,8,0:0:0:0:
256,192,55339,1,8,0:0:0:0:
256,192,55832,1,8,0:0:0:0:
256,192,56326,1,8,0:0:0:0:
256,192,57067,1,8,0:0:0:0:
256,192,57190,1,8,0:0:0:0:
256,192,57314,1,8,0:0:0:0:
256,192,57684,1,8,0:0:0:0:
256,192,57808,1,8,0:0:0:0:
256,192,58055,1,0,0:0:0:0:
256,192,58302,1,8,0:0:0:0:
256,192,59042,1,0,0:0:0:0:
256,192,59289,1,8,0:0:0:0:
256,192,59536,1,8,0:0:0:0:
256,192,59783,1,0,0:0:0:0:
256,192,60030,1,0,0:0:0:0:
256,192,60277,1,8,0:0:0:0:
256,192,61265,1,8,0:0:0:0:
256,192,61758,1,0,0:0:0:0:
256,192,62252,1,8,0:0:0:0:
256,192,63240,1,0,0:0:0:0:
256,192,63734,1,8,0:0:0:0:
256,192,64227,1,0,0:0:0:0:
256,192,64968,1,0,0:0:0:0:
256,192,65092,1,8,0:0:0:0:
256,192,65215,1,8,0:0:0:0:
256,192,65586,1,8,0:0:0:0:
256,192,65956,1,8,0:0:0:0:
256,192,66203,1,0,0:0:0:0:
256,192,67190,1,8,0:0:0:0:
256,192,67931,1,0,0:0:0:0:
256,192,67993,1,0,0:0:0:0:
256,192,68055,1,8,0:0:0:0:
256,192,68116,1,8,0:0:0:0:
256,192,68178,1,8,0:0:0:0:
256,192,68302,1,0,0:0:0:0:
256,192,68425,1,8,0:0:0:0:
256,192,68548,1,0,0:0:0:0:
256,192,68672,1,8,0:0:0:0:
256,192,68795,1,8,0:0:0:0:
256,192,68919,1,0,0:0:0:0:
256,192,69042,1,8,0:0:0:0:
256,192,69289,1,8,0:0:0:0:
256,192,69351,1,8,0:0:0:0:
256,192,69413,1,8,0:0:0:0:
256,192,69536,1,0,0:0:0:0:
256,192,69660,1,8,0:0:0:0:
256,192,69783,1,0,0:0:0:0:
256,192,69907,1,8,0:0:0:0:
256,192,70030,1,8,0:0:0:0:
256,192,70153,1,0,0:0:0:0:
256,192,70277,1,0,0:0:0:0:
256,192,70400,1,8,0:0:0:0:
256,192,70524,1,0,0:0:0:0:
256,192,70647,1,8,0:0:0:0:
256,192,70771,1,8,0:0:0:0:
256,192,70894,1,0,0:0:0:0:
256,192,71018,1,8,0:0:0:0:
256,192,71265,1,8,0:0:0:0:
256,192,71326,1,8,0:0:0:0:
256,192,71388,1,8,0:0:0:0:
256,192,71511,1,0,0:0:0:0:
256,192,71635,1,8,0:0:0:0:
256,192,71758,1,0,0:0:0:0:
256,192,71882,1,0,0:0:0:0:
256,192,72005,1,0,0:0:0:0:
256,192,72129,1,12,0:0:0:0:
256,192,72499,1,0,0:0:0:0:
256,192,72561,1,0,0:0:0:0:
256,192,72623,1,8,0:0:0:0:
256,192,72993,1,8,0:0:0:0:
256,192,73116,1,4,0:0:0:0:
256,192,73302,1,8,0:0:0:0:
256,192,73487,1,8,0:0:0:0:
256,192,73610,1,4,0:0:0:0:
256,192,73857,1,12,0:0:0:0:
256,192,74104,1,8,0:0:0:0:
256,192,74166,1,8,0:0:0:0:
256,192,74227,1,0,0:0:0:0:
256,192,74289,1,0,0:0:0:0:
256,192,74351,1,8,0:0:0:0:
256,192,74413,1,8,0:0:0:0:
256,192,74474,1,0,0:0:0:0:
256,192,74536,1,0,0:0:0:0:
256,192,74598,1,8,0:0:0:0:
256,192,74660,1,8,0:0:0:0:
256,192,74721,1,0,0:0:0:0:
256,192,74783,1,0,0:0:0:0:
256,192,74845,1,8,0:0:0:0:
256,192,74907,1,8,0:0:0:0:
256,192,74968,1,0,0:0:0:0:
256,192,75030,1,0,0:0:0:0:
256,192,75092,1,8,0:0:0:0:
256,192,75153,1,8,0:0:0:0:
256,192,75215,1,0,0:0:0:0:
256,192,75277,1,8,0:0:0:0:
256,192,75339,1,0,0:0:0:0:
256,192,75400,1,0,0:0:0:0:
256,192,75462,1,8,0:0:0:0:
256,192,75524,1,0,0:0:0:0:
256,192,75586,1,8,0:0:0:0:
256,192,75647,1,8,0:0:0:0:
256,192,75709,1,0,0:0:0:0:
256,192,75771,1,0,0:0:0:0:
256,192,75832,1,8,0:0:0:0:
256,192,75894,1,0,0:0:0:0:
256,192,75956,1,8,0:0:0:0:
256,192,76018,1,8,0:0:0:0:
256,192,76079,1,0,0:0:0:0:
256,192,76141,1,8,0:0:0:0:
256,192,76203,1,0,0:0:0:0:
256,192,76265,1,8,0:0:0:0:
256,192,76326,1,0,0:0:0:0:
256,192,76388,1,8,0:0:0:0:
256,192,76450,1,0,0:0:0:0:
256,192,76511,1,8,0:0:0:0:
256,192,76573,1,0,0:0:0:0:
256,192,76635,1,8,0:0:0:0:
256,192,76697,1,0,0:0:0:0:
256,192,76758,1,8,0:0:0:0:
256,192,76820,1,0,0:0:0:0:
256,192,76882,1,0,0:0:0:0:
256,192,76944,1,8,0:0:0:0:
256,192,77005,1,8,0:0:0:0:
256,192,77067,1,0,0:0:0:0:
256,192,77129,1,8,0:0:0:0:
256,192,77190,1,8,0:0:0:0:
256,192,77252,1,0,0:0:0:0:
256,192,77314,1,8,0:0:0:0:
256,192,77376,1,8,0:0:0:0:
256,192,77437,1,0,0:0:0:0:
256,192,77499,1,8,0:0:0:0:
256,192,77561,1,0,0:0:0:0:
256,192,77808,1,8,0:0:0:0:
256,192,77869,1,8,0:0:0:0:
256,192,77931,1,0,0:0:0:0:
256,192,77993,1,0,0:0:0:0:
256,192,78055,1,8,0:0:0:0:
256,192,78240,1,8,0:0:0:0:
256,192,78302,1,0,0:0:0:0:
256,192,78425,1,0,0:0:0:0:
256,192,78487,1,8,0:0:0:0:
256,192,78548,1,8,0:0:0:0:
256,192,78672,1,0,0:0:0:0:
256,192,78795,1,8,0:0:0:0:
256,192,78857,1,8,0:0:0:0:
256,192,78919,1,0,0:0:0:0:
256,192,79042,1,8,0:0:0:0:
256,192,79104,1,8,0:0:0:0:
256,192,79166,1,0,0:0:0:0:
256,192,79227,1,0,0:0:0:0:
256,192,79289,1,8,0:0:0:0:
256,192,79413,1,8,0:0:0:0:
256,192,79474,1,8,0:0:0:0:
256,192,79536,1,0,0:0:0:0:
256,192,79598,1,8,0:0:0:0:
256,192,79660,1,0,0:0:0:0:
256,192,79721,1,0,0:0:0:0:
256,192,79783,1,8,0:0:0:0:
256,192,79907,1,0,0:0:0:0:
256,192,80030,1,8,0:0:0:0:
256,192,80153,1,0,0:0:0:0:
256,192,80215,1,0,0:0:0:0:
256,192,80277,1,8,0:0:0:0:
256,192,80400,1,0,0:0:0:0:
256,192,80524,1,8,0:0:0:0:
256,192,80586,1,0,0:0:0:0:
256,192,80647,1,8,0:0:0:0:
256,192,80709,1,8,0:0:0:0:
256,192,80771,1,0,0:0:0:0:
256,192,80894,1,8,0:0:0:0:
256,192,80956,1,0,0:0:0:0:
256,192,81018,1,0,0:0:0:0:
256,192,81141,1,8,0:0:0:0:
256,192,81203,1,8,0:0:0:0:
256,192,81265,1,0,0:0:0:0:
256,192,81388,1,8,0:0:0:0:
256,192,81450,1,0,0:0:0:0:
256,192,81511,1,8,0:0:0:0:
256,192,81573,1,8,0:0:0:0:
256,192,81635,1,0,0:0:0:0:
256,192,81697,1,0,0:0:0:0:
256,192,81758,1,8,0:0:0:0:
256,192,81882,1,0,0:0:0:0:
256,192,82005,1,8,0:0:0:0:
256,192,82190,1,0,0:0:0:0:
256,192,82252,1,8,0:0:0:0:
224,192,82314,1,0,0:0:0:0:
256,192,82376,1,8,0:0:0:0:
256,192,82437,1,8,0:0:0:0:
256,192,82499,1,0,0:0:0:0:
256,192,82623,1,0,0:0:0:0:
256,192,82684,1,0,0:0:0:0:
256,192,82746,1,8,0:0:0:0:
256,192,82808,1,8,0:0:0:0:
256,192,82869,1,0,0:0:0:0:
256,192,82993,1,8,0:0:0:0:
256,192,83055,1,0,0:0:0:0:
256,192,83116,1,8,0:0:0:0:
256,192,83240,1,0,0:0:0:0:
256,192,83302,1,0,0:0:0:0:
256,192,83363,1,8,0:0:0:0:
224,192,83425,1,8,0:0:0:0:
256,192,83487,1,0,0:0:0:0:
256,192,83610,1,8,0:0:0:0:
256,192,83672,1,8,0:0:0:0:
256,192,83734,1,8,0:0:0:0:
256,192,83795,1,8,0:0:0:0:
256,192,83857,1,0,0:0:0:0:
256,192,83981,1,8,0:0:0:0:
256,192,84042,1,8,0:0:0:0:
256,192,84104,1,0,0:0:0:0:
256,192,84166,1,0,0:0:0:0:
256,192,84227,1,8,0:0:0:0:
256,192,84289,1,0,0:0:0:0:
256,192,84351,1,8,0:0:0:0:
256,192,84413,1,8,0:0:0:0:
256,192,84474,1,0,0:0:0:0:
256,192,84598,1,8,0:0:0:0:
256,192,84721,1,0,0:0:0:0:
256,192,84783,1,0,0:0:0:0:
256,192,84845,1,8,0:0:0:0:
256,192,84968,1,0,0:0:0:0:
256,192,85092,1,8,0:0:0:0:
256,192,85153,1,0,0:0:0:0:
256,192,85215,1,8,0:0:0:0:
256,192,85277,1,8,0:0:0:0:
256,192,85339,1,0,0:0:0:0:
256,192,85400,1,0,0:0:0:0:
256,192,85462,1,8,0:0:0:0:
256,192,85586,1,8,0:0:0:0:
256,192,85709,1,0,0:0:0:0:
256,192,85771,1,8,0:0:0:0:
256,192,85832,1,0,0:0:0:0:
256,192,85956,1,8,0:0:0:0:
256,192,86141,1,8,0:0:0:0:
256,192,86326,1,0,0:0:0:0:
248,184,86388,1,8,0:0:0:0:
224,192,86450,1,0,0:0:0:0:
256,192,86573,1,12,0:0:0:0:
256,192,86820,1,0,0:0:0:0:
256,192,86882,1,8,0:0:0:0:
256,192,86944,1,8,0:0:0:0:
256,192,87129,1,0,0:0:0:0:
256,192,87314,1,8,0:0:0:0:
256,184,87376,1,8,0:0:0:0:
224,160,87437,1,0,0:0:0:0:
256,192,87561,1,12,0:0:0:0:
256,192,87808,1,8,0:0:0:0:
256,192,87869,1,0,0:0:0:0:
256,192,87931,1,8,0:0:0:0:
256,192,88096,1,4,0:0:0:0:
256,192,88260,1,4,0:0:0:0:
256,192,88425,1,12,0:0:0:0:
256,192,88590,1,12,0:0:0:0:
256,192,88754,1,4,0:0:0:0:
256,192,88919,1,12,0:0:0:0:
256,192,89083,1,4,0:0:0:0:
256,192,89248,1,12,0:0:0:0:
256,192,89413,1,12,0:0:0:0:
256,192,89660,1,4,0:0:0:0:
256,192,89907,1,8,0:0:0:0:
256,192,89968,1,8,0:0:0:0:
256,192,90030,1,8,0:0:0:0:
256,192,90092,1,0,0:0:0:0:
256,192,90153,1,8,0:0:0:0:
248,192,90215,1,8,0:0:0:0:
256,192,90277,1,0,0:0:0:0:
256,192,90339,1,0,0:0:0:0:
256,192,90400,1,8,0:0:0:0:
256,192,90524,1,0,0:0:0:0:
256,192,90647,1,8,0:0:0:0:
256,192,90709,1,8,0:0:0:0:
256,192,90771,1,0,0:0:0:0:
256,192,90832,1,0,0:0:0:0:
256,192,90894,1,8,0:0:0:0:
256,192,91018,1,0,0:0:0:0:
256,192,91079,1,8,0:0:0:0:
256,192,91141,1,8,0:0:0:0:
256,192,91265,1,0,0:0:0:0:
256,192,91388,1,8,0:0:0:0:
256,192,91450,1,0,0:0:0:0:
256,192,91511,1,8,0:0:0:0:
256,192,91573,1,8,0:0:0:0:
256,192,91635,1,0,0:0:0:0:
256,192,91758,1,8,0:0:0:0:
256,192,91820,1,8,0:0:0:0:
256,192,91882,1,0,0:0:0:0:
256,192,92005,1,8,0:0:0:0:
256,192,92129,1,0,0:0:0:0:
256,192,92252,1,0,0:0:0:0:
256,192,92314,1,0,0:0:0:0:
256,192,92376,1,8,0:0:0:0:
256,192,92499,1,8,0:0:0:0:
256,192,92623,1,0,0:0:0:0:
256,192,92746,1,8,0:0:0:0:
256,192,92808,1,8,0:0:0:0:
256,192,92869,1,8,0:0:0:0:
256,192,92993,1,0,0:0:0:0:
256,192,93116,1,8,0:0:0:0:
256,192,93178,1,8,0:0:0:0:
256,192,93240,1,0,0:0:0:0:
256,192,93302,1,0,0:0:0:0:
256,192,93363,1,8,0:0:0:0:
184,152,93487,1,8,0:0:0:0:
192,160,93610,1,0,0:0:0:0:
184,152,93672,1,8,0:0:0:0:
184,144,93734,1,0,0:0:0:0:
256,192,93857,1,0,0:0:0:0:
256,192,93919,1,0,0:0:0:0:
256,192,93981,1,0,0:0:0:0:
256,192,94042,1,0,0:0:0:0:
256,192,94104,1,8,0:0:0:0:
256,192,94166,1,0,0:0:0:0:
256,192,94227,1,0,0:0:0:0:
256,192,94289,1,0,0:0:0:0:
256,192,94351,1,8,0:0:0:0:
256,192,94413,1,8,0:0:0:0:
256,192,94474,1,0,0:0:0:0:
256,192,94536,1,0,0:0:0:0:
256,192,94598,1,8,0:0:0:0:
256,192,94660,1,0,0:0:0:0:
256,192,94721,1,8,0:0:0:0:
256,192,94783,1,8,0:0:0:0:
256,192,94845,1,0,0:0:0:0:
256,192,94907,1,0,0:0:0:0:
256,192,94968,1,8,0:0:0:0:
256,192,95030,1,0,0:0:0:0:
256,192,95092,1,8,0:0:0:0:
256,192,95153,1,8,0:0:0:0:
256,192,95215,1,0,0:0:0:0:
256,192,95277,1,0,0:0:0:0:
256,192,95339,1,8,0:0:0:0:
256,192,95586,1,4,0:0:0:0:
256,192,95832,1,8,0:0:0:0:
256,192,95894,1,8,0:0:0:0:
256,192,95956,1,0,0:0:0:0:
256,192,96018,1,0,0:0:0:0:
256,192,96079,1,8,0:0:0:0:
256,192,96141,1,0,0:0:0:0:
256,192,96203,1,8,0:0:0:0:
256,192,96265,1,0,0:0:0:0:
256,192,96326,1,8,0:0:0:0:
256,192,96388,1,8,0:0:0:0:
256,192,96450,1,0,0:0:0:0:
256,192,96511,1,0,0:0:0:0:
256,192,96573,1,8,0:0:0:0:
256,192,96635,1,0,0:0:0:0:
256,192,96697,1,8,0:0:0:0:
256,192,96758,1,8,0:0:0:0:
256,192,96820,1,0,0:0:0:0:
256,192,96882,1,0,0:0:0:0:
256,192,96944,1,8,0:0:0:0:
256,192,97005,1,0,0:0:0:0:
256,192,97067,1,8,0:0:0:0:
256,192,97129,1,8,0:0:0:0:
256,192,97190,1,0,0:0:0:0:
256,192,97252,1,0,0:0:0:0:
256,192,97314,1,8,0:0:0:0:
256,192,97561,1,4,0:0:0:0:
256,192,97808,1,8,0:0:0:0:
256,192,97869,1,8,0:0:0:0:
256,192,97931,1,8,0:0:0:0:
256,192,97993,1,0,0:0:0:0:
256,192,98055,1,8,0:0:0:0:
256,192,98116,1,8,0:0:0:0:
256,192,98178,1,0,0:0:0:0:
256,192,98240,1,0,0:0:0:0:
256,192,98302,1,8,0:0:0:0:
256,192,98363,1,0,0:0:0:0:
256,192,98425,1,0,0:0:0:0:
256,192,98487,1,0,0:0:0:0:
256,192,98548,1,8,0:0:0:0:
256,192,98610,1,0,0:0:0:0:
256,192,98672,1,8,0:0:0:0:
256,192,98734,1,8,0:0:0:0:
256,192,98795,1,0,0:0:0:0:
256,192,98857,1,8,0:0:0:0:
256,192,98919,1,0,0:0:0:0:
256,192,98981,1,0,0:0:0:0:
256,192,99042,1,8,0:0:0:0:
256,192,99104,1,8,0:0:0:0:
256,192,99166,1,0,0:0:0:0:
256,192,99227,1,8,0:0:0:0:
256,192,99289,1,0,0:0:0:0:
256,192,99351,1,0,0:0:0:0:
256,192,99413,1,8,0:0:0:0:
256,192,99474,1,0,0:0:0:0:
256,192,99536,1,8,0:0:0:0:
256,192,99598,1,8,0:0:0:0:
256,192,99660,1,8,0:0:0:0:
256,192,99721,1,8,0:0:0:0:
256,192,99783,1,0,0:0:0:0:
256,192,99845,1,0,0:0:0:0:
256,192,99907,1,0,0:0:0:0:
256,192,99968,1,0,0:0:0:0:
256,192,100030,1,8,0:0:0:0:
256,192,100092,1,0,0:0:0:0:
256,192,100153,1,8,0:0:0:0:
256,192,100215,1,8,0:0:0:0:
256,192,100277,1,0,0:0:0:0:
256,192,100339,1,8,0:0:0:0:
256,192,100400,1,0,0:0:0:0:
256,192,100462,1,0,0:0:0:0:
256,192,100524,1,8,0:0:0:0:
256,192,100586,1,0,0:0:0:0:
256,192,100647,1,8,0:0:0:0:
256,192,100709,1,8,0:0:0:0:
256,192,100771,1,0,0:0:0:0:
256,192,100832,1,8,0:0:0:0:
256,192,100894,1,0,0:0:0:0:
256,192,100956,1,8,0:0:0:0:
256,192,101018,1,0,0:0:0:0:
256,192,101079,1,8,0:0:0:0:
256,192,101141,1,0,0:0:0:0:
256,192,101203,1,8,0:0:0:0:
256,192,101265,1,0,0:0:0:0:
256,192,101326,1,8,0:0:0:0:
256,192,101388,1,0,0:0:0:0:
256,192,101450,1,0,0:0:0:0:
256,192,101511,1,8,0:0:0:0:
256,192,101573,1,8,0:0:0:0:
256,192,101635,1,8,0:0:0:0:
256,192,101697,1,0,0:0:0:0:
256,192,102005,1,12,0:0:0:0:
256,192,102129,12,0,106697,0:0:0:0:
