osu file format v14

[General]
AudioFilename: audio.mp3
AudioLeadIn: 0
PreviewTime: 77765
Countdown: 0
SampleSet: Normal
StackLeniency: 0.7
Mode: 1
LetterboxInBreaks: 0
WidescreenStoryboard: 0

[Editor]
Bookmarks: 3012,18814,36592,44740,52395,67950,78074,93876
DistanceSpacing: 0.8
BeatDivisor: 2
GridSize: 8
TimelineZoom: 0.940002

[Metadata]
Title:Bison Charge
TitleUnicode:Bison Charge
Artist:Umeboshi Chazuke
ArtistUnicode:梅干茶漬け
Creator:Midnaait
Version:Kantan
Source:
Tags:yassu- hikikochan hikiko-
BeatmapID:1565330
BeatmapSetID:739116

[Difficulty]
HPDrainRate:8
CircleSize:5
OverallDifficulty:3.3
ApproachRate:5
SliderMultiplier:1.4
SliderTickRate:1

[Events]
//Background and Video events
0,0,"BG.png",0,125
//Break Periods
//Storyboard Layer 0 (Background)
//Storyboard Layer 1 (Fail)
//Storyboard Layer 2 (Pass)
//Storyboard Layer 3 (Foreground)
//Storyboard Sound Samples

[TimingPoints]
1018,246.913580246914,4,1,0,35,1,0
1018,-133.333333333333,4,1,0,35,0,0
2869,-133.333333333333,4,1,0,100,0,8
2993,246.913580246914,4,1,0,100,1,0
2993,-133.333333333333,4,1,0,100,0,0
36450,-133.333333333333,4,1,0,70,0,0
44474,-133.333333333333,4,1,0,100,0,0
52869,-133.333333333333,4,1,0,55,0,0
72098,-133.333333333333,4,1,0,100,0,0
78054,-133.333333333333,4,1,0,100,0,1
102005,-133.333333333333,4,1,0,100,0,0
102098,-133.333333333333,4,1,0,35,0,0

[HitObjects]
256,192,2993,5,4,0:0:0:0:
256,192,3981,1,0,0:0:0:0:
256,192,4474,1,8,0:0:0:0:
256,192,4968,1,0,0:0:0:0:
256,192,5956,1,8,0:0:0:0:
256,192,6450,1,8,0:0:0:0:
256,192,6944,1,0,0:0:0:0:
256,192,7931,1,0,0:0:0:0:
256,192,8425,1,8,0:0:0:0:
256,192,8919,1,0,0:0:0:0:
256,192,9907,1,8,0:0:0:0:
256,184,10400,1,8,0:0:0:0:
256,192,10894,1,4,0:0:0:0:
256,192,11635,1,8,0:0:0:0:
256,192,11882,1,0,0:0:0:0:
256,192,12376,1,8,0:0:0:0:
256,192,12869,1,0,0:0:0:0:
224,160,13610,1,0,0:0:0:0:
256,192,13857,1,8,0:0:0:0:
256,192,14351,1,0,0:0:0:0:
256,192,14845,1,8,0:0:0:0:
256,192,15586,1,8,0:0:0:0:
256,192,15832,1,0,0:0:0:0:
256,192,16326,1,8,0:0:0:0:
256,192,16820,1,0,0:0:0:0:
256,192,17314,1,8,0:0:0:0:
256,192,17561,1,8,0:0:0:0:
256,192,17808,1,0,0:0:0:0:
256,192,18795,1,12,0:0:0:0:
256,192,19289,1,12,0:0:0:0:
256,192,19783,1,12,0:0:0:0:
256,192,20771,1,0,0:0:0:0:
256,192,21265,1,8,0:0:0:0:
256,192,21758,1,0,0:0:0:0:
256,192,22746,1,8,0:0:0:0:
256,192,23240,1,0,0:0:0:0:
256,192,23734,1,8,0:0:0:0:
256,192,24721,1,8,0:0:0:0:
256,192,25215,1,8,0:0:0:0:
256,192,25709,1,0,0:0:0:0:
256,192,26697,1,0,0:0:0:0:
256,192,27190,1,0,0:0:0:0:
256,192,27684,1,8,0:0:0:0:
256,192,28672,1,12,0:0:0:0:
256,192,29166,1,0,0:0:0:0:
256,192,29413,1,8,0:0:0:0:
256,192,29660,1,0,0:0:0:0:
256,192,30647,1,8,0:0:0:0:
256,192,31141,1,0,0:0:0:0:
256,192,31388,1,0,0:0:0:0:
256,192,31635,1,8,0:0:0:0:
256,192,32129,1,12,0:0:0:0:
256,192,32623,1,4,0:0:0:0:
256,192,33610,1,0,0:0:0:0:
256,192,34104,1,8,0:0:0:0:
256,192,34598,1,0,0:0:0:0:
256,192,34845,1,8,0:0:0:0:
272,160,35092,1,8,0:0:0:0:
256,192,35586,1,0,0:0:0:0:
256,192,36573,12,0,39536,0:0:0:0:
256,192,40524,12,0,43981,0:0:0:0:
256,192,44721,5,12,0:0:0:0:
256,192,45462,1,0,0:0:0:0:
256,192,45956,1,8,0:0:0:0:
256,192,46450,1,0,0:0:0:0:
256,192,47437,1,0,0:0:0:0:
256,192,47931,1,8,0:0:0:0:
256,192,48178,1,0,0:0:0:0:
256,192,48425,1,8,0:0:0:0:
256,192,49413,1,8,0:0:0:0:
256,192,49660,1,8,0:0:0:0:
256,192,49907,1,8,0:0:0:0:
256,192,50400,1,8,0:0:0:0:
256,192,50894,1,0,0:0:0:0:
256,192,51388,1,8,0:0:0:0:
256,192,51635,1,8,0:0:0:0:
256,192,51882,1,0,0:0:0:0:
256,192,52376,1,12,0:0:0:0:
256,192,54351,1,8,0:0:0:0:
256,192,56326,1,8,0:0:0:0:
256,192,57314,1,8,0:0:0:0:
256,192,58302,1,8,0:0:0:0:
256,192,60277,1,8,0:0:0:0:
256,192,62252,1,8,0:0:0:0:
256,192,64227,1,8,0:0:0:0:
256,192,65215,1,8,0:0:0:0:
256,192,66203,1,8,0:0:0:0:
256,192,67190,1,8,0:0:0:0:
256,192,68178,1,0,0:0:0:0:
256,192,70153,1,0,0:0:0:0:
256,192,72129,1,12,0:0:0:0:
256,192,72623,1,12,0:0:0:0:
256,192,73116,1,12,0:0:0:0:
256,192,74104,1,8,0:0:0:0:
256,192,74351,1,8,0:0:0:0:
256,192,74598,1,8,0:0:0:0:
256,192,75092,1,8,0:0:0:0:
256,192,76079,1,0,0:0:0:0:
256,192,76326,1,0,0:0:0:0:
256,184,76573,1,0,0:0:0:0:
256,184,77067,1,0,0:0:0:0:
256,192,78055,1,4,0:0:0:0:
256,192,78795,1,0,0:0:0:0:
256,192,79042,1,8,0:0:0:0:
256,192,79536,1,0,0:0:0:0:
256,192,80030,1,8,0:0:0:0:
256,192,80524,1,8,0:0:0:0:
256,192,80771,1,8,0:0:0:0:
256,192,81018,1,0,0:0:0:0:
256,192,82005,1,8,0:0:0:0:
256,192,82746,1,8,0:0:0:0:
256,192,82993,1,0,0:0:0:0:
256,192,83487,1,8,0:0:0:0:
256,192,83981,1,8,0:0:0:0:
256,192,84474,1,0,0:0:0:0:
256,192,84721,1,0,0:0:0:0:
256,192,84968,1,8,0:0:0:0:
256,192,85956,1,4,0:0:0:0:
256,192,86944,1,12,0:0:0:0:
256,192,87931,1,4,0:0:0:0:
256,192,88425,1,4,0:0:0:0:
256,192,88919,1,12,0:0:0:0:
256,192,89907,1,12,0:0:0:0:
272,192,90400,1,0,0:0:0:0:
256,192,90647,1,0,0:0:0:0:
256,192,90894,1,8,0:0:0:0:
256,192,91388,1,8,0:0:0:0:
256,192,91635,1,8,0:0:0:0:
256,192,91882,1,0,0:0:0:0:
256,192,92376,1,0,0:0:0:0:
256,192,92869,1,8,0:0:0:0:
256,192,93857,1,0,0:0:0:0:
256,192,94351,1,8,0:0:0:0:
256,192,94598,1,8,0:0:0:0:
256,192,94845,1,0,0:0:0:0:
256,192,95092,1,0,0:0:0:0:
256,192,95339,1,8,0:0:0:0:
256,192,95832,1,8,0:0:0:0:
256,192,96326,1,0,0:0:0:0:
256,192,96573,1,0,0:0:0:0:
256,192,96820,1,8,0:0:0:0:
256,192,97067,1,8,0:0:0:0:
256,192,97314,1,0,0:0:0:0:
256,192,97808,1,8,0:0:0:0:
256,192,98795,1,8,0:0:0:0:
256,192,99783,1,0,0:0:0:0:
256,192,100277,1,0,0:0:0:0:
256,192,100771,1,8,0:0:0:0:
256,192,101018,1,8,0:0:0:0:
256,192,101265,1,8,0:0:0:0:
256,192,101511,1,8,0:0:0:0:
256,192,102005,1,12,0:0:0:0:
256,192,102252,12,0,106697,0:0:0:0:
